osu file format v14

[General]
AudioFilename: audio.mp3
AudioLeadIn: 0
PreviewTime: 44396
Countdown: 0
SampleSet: Soft
StackLeniency: 0.5
Mode: 0
LetterboxInBreaks: 0
WidescreenStoryboard: 1

[Editor]
DistanceSpacing: 1.4
BeatDivisor: 4
GridSize: 32
TimelineZoom: 1.9

[Metadata]
Title:Big City Life
TitleUnicode:Big City Life
Artist:Luude & Mattafix
ArtistUnicode:Luude & Mattafix
Creator:Dayno
Version:Hard
Source:
Tags:dnb d&b drum and bass d'n'b electronic dance music edm english remix Sweat It Out Signs of a Struggle jamaican patois
BeatmapID:3952581
BeatmapSetID:1904442

[Difficulty]
HPDrainRate:4.5
CircleSize:3.9
OverallDifficulty:6
ApproachRate:8
SliderMultiplier:1.6
SliderTickRate:1

[Events]
//Background and Video events
0,0,"gg.jpg",0,0
//Break Periods
2,99310,103448
//Storyboard Layer 0 (Background)
//Storyboard Layer 1 (Fail)
//Storyboard Layer 2 (Pass)
//Storyboard Layer 3 (Foreground)
//Storyboard Layer 4 (Overlay)
//Storyboard Sound Samples

[TimingPoints]
0,344.827586206897,4,2,1,100,1,0
22068,-166.666666666667,4,2,1,45,0,0
41379,-142.857142857143,4,2,1,60,0,0
44137,-100,4,2,1,70,0,0
66206,-100,4,2,1,60,0,0
77241,-142.857142857143,4,2,1,45,0,0
88275,-142.857142857143,4,2,1,30,0,0
89310,-333.333333333333,4,2,1,30,0,0
94827,-500,4,2,1,30,0,0
96551,-500,4,2,1,50,0,0
104827,-125,4,2,1,50,0,0
108965,-125,4,2,1,60,0,0
110344,-125,4,2,1,50,0,0
113103,-100,4,2,1,70,0,0
132413,-100,4,2,1,60,0,0
141206,-142.857142857143,4,2,1,60,0,0
141379,-142.857142857143,4,2,1,55,0,0
142068,-142.857142857143,4,2,1,50,0,0
143448,-142.857142857143,4,2,1,30,0,0

[Colours]
Combo1 : 196,9,176
Combo2 : 20,41,186
Combo3 : 193,22,250
Combo4 : 0,115,230

[HitObjects]
86,123,22068,6,0,L|62:10,2,95.9999970703126,2|8|0,3:2|0:0|0:0,0:0:0:0:
166,155,22931,1,0,0:0:0:0:
166,155,23103,2,0,P|105:203|105:278,1,143.999995605469,10|0,0:0|0:0,0:0:0:0:
155,325,23793,2,0,L|219:309,1,47.9999985351563,10|0,0:0|0:0,0:0:0:0:
276,345,24137,2,0,L|322:333,1,47.9999985351563,2|0,0:0|3:2,0:0:0:0:
352,259,24482,1,10,0:0:0:0:
352,259,24655,1,2,0:0:0:0:
389,187,24827,6,0,P|418:165|484:170,2,95.9999970703126,2|8|0,3:2|0:0|0:0,0:0:0:0:
352,259,25689,1,0,3:2:0:0:
352,259,25862,2,0,L|393:103,1,143.999995605469,10|0,0:0|0:0,0:0:0:0:
406,40,26551,1,10,0:0:0:0:
258,106,26896,5,2,0:0:0:0:
258,106,27068,2,0,P|271:133|270:169,1,47.9999985351563,2|8,3:2|0:0,0:0:0:0:
195,176,27413,2,0,P|183:154|180:131,1,47.9999985351563,2|0,0:0|3:2,0:0:0:0:
192,50,27758,2,0,L|94:26,2,95.9999970703126,2|2|0,0:0|0:0|3:2,0:0:0:0:
180,131,28620,6,0,P|138:138|85:227,1,143.999995605469,10|0,0:0|0:0,0:0:0:0:
133,282,29310,2,0,P|175:275|228:186,1,143.999995605469,10|0,0:0|3:2,0:0:0:0:
258,119,30000,2,0,P|278:106|301:101,1,47.9999985351563,8|0,0:0|0:0,0:0:0:0:
377,128,30344,5,2,3:2:0:0:
502,305,30862,2,0,L|442:322,1,47.9999985351563,2|0,0:0|0:0,0:0:0:0:
433,239,31206,2,0,L|386:225,1,47.9999985351563,2|8,3:2|0:0,0:0:0:0:
340,293,31551,5,2,0:0:0:0:
340,293,31724,2,0,L|355:354,1,47.9999985351563,2|0,3:2|0:0,0:0:0:0:
272,359,32068,2,0,L|257:298,1,47.9999985351563,10|0,0:0|0:0,0:0:0:0:
286,234,32413,2,0,L|299:168,2,47.9999985351563,2|2|10,0:0|3:2|0:0,0:0:0:0:
134,295,33103,6,0,P|89:290|42:240,2,95.9999970703126,2|8|0,3:2|0:0|0:0,0:0:0:0:
195,240,33965,1,0,3:2:0:0:
139,179,34137,2,0,L|107:20,1,143.999995605469,10|0,0:0|0:0,0:0:0:0:
188,12,34827,6,0,L|274:36,2,71.9999978027344,10|2|2,0:0|0:0|3:2,0:0:0:0:
197,97,35517,1,10,0:0:0:0:
197,97,35689,2,0,L|258:113,1,47.9999985351563,2|0,0:0|3:2,0:0:0:0:
273,185,36034,2,0,P|318:186|375:104,1,143.999995605469,2|0,0:0|0:0,0:0:0:0:
390,36,36724,5,0,3:2:0:0:
390,36,36896,2,0,L|414:194,1,143.999995605469,10|0,0:0|0:0,0:0:0:0:
493,177,37586,2,0,L|502:230,1,47.9999985351563,10|2,0:0|0:0,0:0:0:0:
442,281,37931,2,0,P|399:244|310:250,1,143.999995605469,2|0,0:0|0:0,0:0:0:0:
245,286,38620,1,2,3:2:0:0:
245,286,38793,2,0,P|175:293|118:252,1,143.999995605469,2|0,0:0|0:0,0:0:0:0:
67,194,39482,5,0,3:2:0:0:
67,194,39655,2,0,B|108:178|108:178|124:184|124:184|220:149,1,143.999995605469,10|0,0:0|0:0,0:0:0:0:
276,124,40344,2,0,B|198:95|198:95|182:101|182:101|141:85,1,143.999995605469,10|0,0:0|0:0,0:0:0:0:
98,15,41034,1,8,0:0:0:0:
268,38,41379,6,0,L|316:23,3,27.9999991455078,2|0|0|0,3:2|3:2|3:2|3:2,0:0:0:0:
325,66,41724,2,0,L|400:88,1,55.9999982910157,8|0,0:0|0:0,0:0:0:0:
384,176,42068,2,0,L|336:161,3,27.9999991455078,2|0|0|0,3:2|3:2|3:2|3:2,0:0:0:0:
338,211,42413,2,0,L|263:233,1,55.9999982910157,8|0,0:0|0:0,0:0:0:0:
363,279,42758,6,0,L|381:339,1,55.9999982910157,2|0,3:2|3:2,0:0:0:0:
286,356,43103,2,0,L|226:338,1,55.9999982910157,2|0,3:2|3:2,0:0:0:0:
210,246,43448,1,2,3:2:0:0:
196,250,43534,1,0,3:2:0:0:
183,254,43620,1,0,3:2:0:0:
169,258,43706,1,0,3:2:0:0:
156,262,43793,1,10,0:0:0:0:
0,254,44137,6,0,P|43:262|75:298,1,80,6|0,3:2|0:0,0:0:0:0:
127,351,44482,2,0,L|148:274,1,80,10|0,0:0|0:0,0:0:0:0:
214,216,44827,1,2,0:0:0:0:
269,284,45000,1,2,3:2:0:0:
317,211,45172,6,0,P|346:185|385:179,1,80,10|0,0:0|0:0,0:0:0:0:
419,260,45517,2,0,P|389:285|350:291,1,80,2|2,3:2|0:0,0:0:0:0:
269,284,45862,2,0,L|240:198,1,80,10|2,0:0|0:0,0:0:0:0:
241,193,46120,1,2,0:0:0:0:
241,193,46206,1,2,0:0:0:0:
241,104,46379,1,0,3:2:0:0:
164,146,46551,6,0,P|125:154|88:142,1,80,10|0,0:0|0:0,0:0:0:0:
93,53,46896,2,0,P|130:42|168:55,1,80,2|0,3:2|0:0,0:0:0:0:
241,104,47241,1,10,0:0:0:0:
274,22,47413,1,2,0:0:0:0:
330,91,47586,2,0,L|398:12,1,80,2|0,0:0|3:2,0:0:0:0:
470,38,47931,2,0,L|504:136,1,80,10|0,0:0|0:0,0:0:0:0:
443,184,48275,6,0,L|365:160,2,80,2|2|10,3:2|0:0|0:0,0:0:0:0:
503,262,48793,1,2,0:0:0:0:
503,262,48879,1,2,0:0:0:0:
503,262,48965,1,2,0:0:0:0:
436,318,49137,1,2,3:2:0:0:
360,272,49310,2,0,P|325:278|290:313,1,80,10|2,0:0|0:0,0:0:0:0:
256,384,49655,5,6,3:2:0:0:
256,384,50000,2,0,L|167:364,1,80,10|0,0:0|0:0,0:0:0:0:
216,287,50344,1,2,0:0:0:0:
166,214,50517,1,2,3:2:0:0:
113,284,50689,2,0,P|83:307|37:303,1,80,10|0,0:0|0:0,0:0:0:0:
21,219,51034,2,0,P|51:196|97:200,1,80,2|2,3:2|0:0,0:0:0:0:
166,214,51379,5,10,0:0:0:0:
220,147,51551,1,2,0:0:0:0:
220,147,51637,1,2,0:0:0:0:
220,147,51724,1,2,0:0:0:0:
288,182,51896,1,0,3:2:0:0:
349,119,52068,1,10,0:0:0:0:
349,119,52413,6,0,L|270:96,1,80,2|0,3:2|0:0,0:0:0:0:
192,59,52758,2,0,P|142:100|147:201,1,160,14|2,0:0|0:0,0:0:0:0:
220,147,53275,2,0,L|49:92,1,160,8|0,0:0|0:0,0:0:0:0:
26,200,53793,2,0,P|76:241|71:342,1,160,10|2,0:0|0:0,0:0:0:0:
0,288,54310,2,0,L|171:233,1,160,8|2,0:0|0:0,0:0:0:0:
235,269,54827,1,8,0:0:0:0:
256,102,55172,6,0,P|277:46|310:30,1,80,6|0,3:2|0:0,0:0:0:0:
346,105,55517,2,0,L|431:72,1,80,10|0,0:0|0:0,0:0:0:0:
435,81,55775,1,2,0:0:0:0:
435,81,55862,1,2,0:0:0:0:
459,161,56034,1,2,3:2:0:0:
403,228,56206,6,0,P|433:273|481:276,1,80,10|0,0:0|0:0,0:0:0:0:
511,212,56551,2,0,P|494:176|458:160,1,80,2|0,3:2|0:0,0:0:0:0:
370,151,56896,1,10,0:0:0:0:
303,206,57068,1,2,0:0:0:0:
303,206,57155,1,2,0:0:0:0:
303,206,57241,2,0,L|324:294,1,80,2|0,0:0|3:2,0:0:0:0:
389,340,57586,6,0,P|434:310|437:262,1,80,10|0,0:0|0:0,0:0:0:0:
373,232,57931,2,0,P|337:248|321:284,1,80,2|0,3:2|0:0,0:0:0:0:
305,369,58275,1,10,0:0:0:0:
249,300,58448,1,2,0:0:0:0:
176,349,58620,2,0,L|70:319,1,80,2|0,0:0|3:2,0:0:0:0:
43,258,58965,2,0,L|13:152,1,80,10|0,0:0|0:0,0:0:0:0:
59,101,59310,5,2,3:2:0:0:
132,149,59482,1,2,0:0:0:0:
160,65,59655,2,0,L|251:40,1,80,10|2,0:0|0:0,0:0:0:0:
259,133,60000,1,2,0:0:0:0:
259,133,60172,2,0,P|317:152|389:62,1,160,2|2,3:2|0:0,0:0:0:0:
366,12,60689,5,6,3:2:0:0:
366,12,61034,2,0,L|469:38,1,80,10|0,0:0|0:0,0:0:0:0:
500,98,61379,1,2,0:0:0:0:
436,147,61551,1,2,3:2:0:0:
464,230,61724,6,0,P|454:167|430:143,1,80,10|0,0:0|0:0,0:0:0:0:
358,172,62068,2,0,P|358:211|378:246,1,80,2|2,3:2|0:0,0:0:0:0:
442,305,62413,2,0,L|415:406,1,80,10|0,0:0|0:0,0:0:0:0:
343,341,62758,2,0,L|335:291,2,40,2|2|2,0:0|0:0|3:2,0:0:0:0:
258,355,63103,1,10,0:0:0:0:
258,355,63448,6,0,B|222:338|222:338|214:341|214:341|161:318,1,80,2|0,3:2|0:0,0:0:0:0:
108,373,63793,2,0,L|53:202,1,160,14|2,0:0|0:0,0:0:0:0:
121,157,64310,2,0,L|271:213,1,160,8|0,0:0|0:0,0:0:0:0:
305,134,64827,5,2,3:2:0:0:
305,134,65000,1,2,3:2:0:0:
339,53,65172,2,0,B|347:12|347:12|385:27,1,80,10|0,0:0|0:0,0:0:0:0:
390,113,65517,1,2,3:2:0:0:
305,134,65689,1,10,0:0:0:0:
254,68,65862,1,2,0:0:0:0:
254,68,66206,6,0,L|163:35,1,80,6|0,3:2|0:0,0:0:0:0:
146,122,66551,2,0,P|184:144|181:207,1,80,10|0,0:0|0:0,0:0:0:0:
134,242,66896,2,0,L|58:214,1,80,2|0,0:0|3:2,0:0:0:0:
15,291,67241,2,0,P|27:328|62:345,1,80,10|0,0:0|0:0,0:0:0:0:
148,317,67586,5,0,3:2:0:0:
333,367,67931,2,0,B|438:314|438:314|396:305,1,160,10|2,0:0|0:0,0:0:0:0:
303,282,68448,1,0,3:2:0:0:
211,255,68620,2,0,B|169:246|169:246|274:193,1,160,10|2,0:0|0:0,0:0:0:0:
446,106,69310,6,0,L|414:10,1,80,10|2,0:0|0:0,0:0:0:0:
329,61,69655,2,0,L|361:157,1,80,2|2,0:0|3:2,0:0:0:0:
262,165,70000,2,0,L|230:69,1,80,10|2,0:0|0:0,0:0:0:0:
153,52,70344,1,0,3:2:0:0:
153,52,70689,6,0,L|114:223,1,160,8|0,0:0|0:0,0:0:0:0:
192,267,71206,1,0,3:2:0:0:
113,322,71379,1,8,0:0:0:0:
198,384,71551,1,2,0:0:0:0:
198,384,71637,1,2,0:0:0:0:
198,384,71724,1,2,3:2:0:0:
340,256,72068,6,0,L|431:289,1,80,10|0,0:0|0:0,0:0:0:0:
394,189,72413,2,0,P|406:151|441:134,1,80,2|0,0:0|3:2,0:0:0:0:
509,66,72758,2,0,L|433:38,1,80,10|0,0:0|0:0,0:0:0:0:
321,25,73103,5,0,3:2:0:0:
128,23,73448,2,0,B|22:75|22:75|64:84,1,160,10|2,0:0|0:0,0:0:0:0:
158,108,73965,1,0,3:2:0:0:
250,135,74137,2,0,B|291:143|291:143|186:196,1,160,10|2,0:0|0:0,0:0:0:0:
50,333,74827,6,0,L|140:363,1,80,10|2,0:0|0:0,0:0:0:0:
182,291,75172,2,0,L|92:261,1,80,2|2,0:0|3:2,0:0:0:0:
163,199,75517,2,0,L|253:229,1,80,10|2,0:0|0:0,0:0:0:0:
305,294,75862,6,0,P|309:255|332:209,1,80,0|0,3:2|0:0,0:0:0:0:
387,145,76206,1,8,0:0:0:0:
452,74,76379,2,0,L|489:59,2,40,2|10|2,0:0|0:0|0:0,0:0:0:0:
365,31,76724,1,0,3:2:0:0:
273,1,76896,1,8,0:0:0:0:
295,102,77068,5,2,0:0:0:0:
295,102,77155,1,2,0:0:0:0:
295,102,77241,2,0,L|220:79,1,55.9999982910157,6|0,3:2|3:2,0:0:0:0:
165,68,77586,2,0,P|198:114|184:179,1,111.999996582031,8|0,0:0|0:0,0:0:0:0:
115,186,78103,1,0,3:2:0:0:
115,186,78275,2,0,L|40:163,1,55.9999982910157,8|0,0:0|0:0,0:0:0:0:
0,218,78620,5,0,3:2:0:0:
0,218,78965,2,0,L|16:283,1,55.9999982910157,10|0,0:0|0:0,0:0:0:0:
89,250,79310,2,0,L|105:315,1,55.9999982910157,2|0,0:0|3:2,0:0:0:0:
177,271,79655,1,10,0:0:0:0:
177,271,79827,1,2,0:0:0:0:
177,271,80000,2,0,L|202:149,2,111.999996582031,2|8|0,3:2|0:0|0:0,0:0:0:0:
231,327,80862,1,0,3:2:0:0:
287,272,81034,6,0,P|303:226|418:238,1,167.999994873047,10|0,0:0|0:0,0:0:0:0:
399,303,81724,2,0,L|343:324,1,55.9999982910157,10|0,0:0|0:0,0:0:0:0:
287,272,82068,1,2,0:0:0:0:
287,272,82241,2,0,L|307:206,1,55.9999982910157,2|8,3:2|0:0,0:0:0:0:
340,148,82586,2,0,L|212:185,2,111.999996582031,2|2|2,0:0|0:0|0:0,0:0:0:0:
209,60,83620,5,0,3:2:0:0:
209,60,83793,2,0,B|185:119|185:119|198:139|198:139|164:224,1,167.999994873047,10|0,0:0|0:0,0:0:0:0:
111,267,84482,2,0,B|87:208|87:208|100:188|100:188|66:103,1,167.999994873047,10|0,0:0|3:2,0:0:0:0:
70,113,85172,1,8,0:0:0:0:
221,153,85517,5,2,3:2:0:0:
221,153,86034,2,0,L|279:136,1,55.9999982910157,2|0,0:0|0:0,0:0:0:0:
309,207,86379,2,0,L|251:224,1,55.9999982910157,2|0,0:0|0:0,0:0:0:0:
209,287,86724,5,2,0:0:0:0:
209,287,86896,2,0,L|185:354,1,55.9999982910157,2|0,0:0|0:0,0:0:0:0:
268,344,87241,2,0,L|292:277,1,55.9999982910157,2|0,0:0|0:0,0:0:0:0:
355,329,87586,2,0,L|407:310,2,55.9999982910157,2|2|2,0:0|0:0|0:0,0:0:0:0:
415,184,88275,5,2,0:0:0:0:
415,184,89310,6,0,L|317:162,1,95.9999970703126,2|2,0:0|0:0,0:0:0:0:
321,162,91034,1,2,0:0:0:0:
321,162,92068,6,0,L|223:184,1,95.9999970703126,2|2,0:0|0:0,0:0:0:0:
227,183,93792,1,2,0:0:0:0:
227,183,94827,6,0,L|179:231,1,64,2|2,0:0|0:0,0:0:0:0:
181,228,96551,1,2,0:0:0:0:
181,228,104827,6,0,P|206:216|260:227,1,64,2|0,3:2|0:0,0:0:0:0:
290,285,105172,2,0,L|271:353,1,64,2|0,0:0|0:0,0:0:0:0:
189,350,105517,1,2,0:0:0:0:
123,299,105689,1,2,0:0:0:0:
181,228,105862,6,0,P|149:230|120:217,1,64,2|0,0:0|0:0,0:0:0:0:
131,135,106206,2,0,P|159:122|191:124,1,64,2|2,3:2|0:0,0:0:0:0:
251,182,106551,2,0,L|333:157,1,64,2|0,0:0|0:0,0:0:0:0:
384,121,106896,2,0,L|409:39,1,64,2|0,0:0|0:0,0:0:0:0:
326,25,107241,6,0,P|297:12|265:14,1,64,2|0,0:0|0:0,0:0:0:0:
205,89,107586,2,0,L|189:135,3,32,2|0|2|0,3:2|3:2|3:2|3:2,0:0:0:0:
195,70,107931,2,0,L|113:92,1,64,8|2,0:0|0:0,0:0:0:0:
83,168,108275,2,0,L|99:214,3,32,2|0|0|0,3:2|3:2|3:2|3:2,0:0:0:0:
76,152,108620,2,0,L|158:174,1,64,10|0,0:0|0:0,0:0:0:0:
188,250,108965,6,0,L|164:298,7,32,10|8|10|8|10|8|8|8,0:0|0:0|0:0|0:0|0:0|0:0|0:0|0:0,0:0:0:0:
221,274,109655,2,0,L|304:241,1,64,10|10,0:0|0:0,0:0:0:0:
359,276,110000,1,10,0:0:0:0:
445,134,110344,5,2,3:2:0:0:
445,134,111379,5,2,0:0:0:0:
406,296,111724,1,2,0:0:0:0:
445,134,112758,5,2,0:0:0:0:
406,296,113103,2,0,L|318:325,1,80,6|0,3:2|0:0,0:0:0:0:
253,262,113448,1,8,0:0:0:0:
178,320,113620,1,2,0:0:0:0:
178,320,113793,2,0,P|150:249|166:219,1,80,2|0,0:0|3:2,0:0:0:0:
212,177,114137,2,0,P|209:137|183:107,1,80,10|0,0:0|0:0,0:0:0:0:
117,49,114482,6,0,L|292:104,1,160,2|8,3:2|0:0,0:0:0:0:
346,37,115000,2,0,L|193:84,1,160,2|0,0:0|3:2,0:0:0:0:
113,135,115517,1,10,0:0:0:0:
113,135,115689,1,0,0:0:0:0:
140,222,115862,5,6,3:2:0:0:
140,222,116206,2,0,L|111:308,1,80,8|0,0:0|0:0,0:0:0:0:
114,318,116465,1,2,0:0:0:0:
114,318,116551,1,2,0:0:0:0:
186,381,116724,1,0,3:2:0:0:
265,327,116896,6,0,P|293:356|331:367,1,80,10|0,0:0|0:0,0:0:0:0:
378,283,117241,2,0,P|350:254|312:243,1,80,2|0,3:2|0:0,0:0:0:0:
206,213,117586,1,8,0:0:0:0:
283,157,117758,1,2,0:0:0:0:
296,142,117844,1,2,0:0:0:0:
303,123,117930,1,2,0:0:0:0:
304,103,118016,1,2,0:0:0:0:
298,84,118103,1,0,3:2:0:0:
207,114,118275,1,8,0:0:0:0:
219,20,118620,6,0,L|132:32,1,80,2|0,3:2|0:0,0:0:0:0:
207,114,118965,2,0,P|262:128|349:63,1,160,14|0,0:0|0:0,0:0:0:0:
428,27,119482,2,0,P|372:81|376:159,1,160,10|2,0:0|0:0,0:0:0:0:
458,218,120000,5,10,0:0:0:0:
458,218,120172,1,0,3:2:0:0:
373,263,120344,2,0,L|281:241,1,80,2|8,3:2|0:0,0:0:0:0:
212,247,120689,1,2,3:2:0:0:
274,320,120862,1,0,3:2:0:0:
188,362,121034,1,10,0:0:0:0:
188,362,121379,6,0,P|116:333|102:310,1,80,6|0,3:2|0:0,0:0:0:0:
38,277,121724,2,0,L|21:190,1,80,10|0,0:0|0:0,0:0:0:0:
90,131,122068,1,2,0:0:0:0:
161,195,122241,1,2,3:2:0:0:
237,137,122413,6,0,P|291:118|322:127,1,80,10|0,0:0|0:0,0:0:0:0:
330,216,122758,2,0,P|276:235|245:226,1,80,2|2,3:2|0:0,0:0:0:0:
161,195,123103,2,0,L|133:294,1,80,10|2,0:0|0:0,0:0:0:0:
134,368,123448,2,0,L|233:340,1,80,2|0,0:0|3:2,0:0:0:0:
307,341,123793,6,0,P|359:364|390:358,1,80,10|0,0:0|0:0,0:0:0:0:
402,267,124138,2,0,P|349:243|318:249,1,80,2|0,3:2|0:0,0:0:0:0:
239,278,124482,1,10,0:0:0:0:
184,198,124655,1,2,0:0:0:0:
240,120,124827,2,0,L|291:199,1,80,2|0,0:0|3:2,0:0:0:0:
239,278,125172,2,0,L|141:312,1,80,10|0,0:0|0:0,0:0:0:0:
90,241,125517,6,0,L|103:157,2,80,2|2|10,3:2|0:0|0:0,0:0:0:0:
163,304,126034,2,0,L|239:278,1,80,2|2,0:0|0:0,0:0:0:0:
293,357,126379,1,2,3:2:0:0:
388,348,126551,2,0,P|423:313|426:272,1,80,10|0,0:0|0:0,0:0:0:0:
365,218,126896,1,6,3:2:0:0:
365,218,127241,6,0,L|451:190,1,80,10|0,0:0|0:0,0:0:0:0:
404,103,127586,1,2,0:0:0:0:
317,144,127758,1,2,3:2:0:0:
254,70,127931,6,0,P|226:49|161:63,1,80,10|0,0:0|0:0,0:0:0:0:
163,143,128275,2,0,P|191:164|256:150,1,80,2|2,3:2|0:0,0:0:0:0:
317,144,128620,2,0,L|292:248,1,80,10|0,0:0|0:0,0:0:0:0:
301,236,128879,1,2,0:0:0:0:
301,236,128965,1,2,0:0:0:0:
220,288,129137,1,0,3:2:0:0:
279,369,129310,1,10,0:0:0:0:
279,369,129655,6,0,B|316:353|316:353|326:358|326:358|381:339,1,80,2|0,3:2|0:0,0:0:0:0:
449,351,130000,2,0,L|518:181,1,160,14|2,0:0|0:0,0:0:0:0:
438,137,130517,2,0,L|289:197,1,160,8|0,0:0|0:0,0:0:0:0:
199,181,131034,5,10,0:0:0:0:
199,181,131207,1,2,0:0:0:0:
134,251,131379,2,0,B|98:265|98:265|90:224,1,80,2|8,0:0|0:0,0:0:0:0:
101,132,131724,1,2,0:0:0:0:
101,132,131896,2,0,B|109:91|109:91|147:106,1,80,2|8,0:0|0:0,0:0:0:0:
199,181,132241,1,2,0:0:0:0:
277,124,132413,1,6,3:2:0:0:
277,124,132758,6,0,L|369:98,1,80,10|0,0:0|0:0,0:0:0:0:
409,180,133103,2,0,L|317:206,1,80,0|2,0:0|3:2,0:0:0:0:
266,272,133448,1,10,0:0:0:0:
343,344,133620,1,2,0:0:0:0:
343,344,133706,1,2,0:0:0:0:
343,344,133793,1,2,3:2:0:0:
157,345,134137,6,0,L|80:323,1,80,10|2,0:0|0:0,0:0:0:0:
76,226,134482,2,0,L|152:247,1,80,2|0,0:0|3:2,0:0:0:0:
205,166,134827,2,0,L|128:144,1,80,10|0,0:0|0:0,0:0:0:0:
119,145,135086,1,2,0:0:0:0:
119,145,135172,1,2,3:2:0:0:
229,83,135517,5,10,0:0:0:0:
296,15,135689,1,2,0:0:0:0:
351,93,135862,2,0,P|390:157|482:126,2,160,2|10|2,0:0|0:0|3:2,0:0:0:0:
296,15,136724,1,2,0:0:0:0:
229,83,136896,2,0,P|181:71|157:23,1,80,10|2,0:0|0:0,0:0:0:0:
98,120,137241,1,2,0:0:0:0:
98,120,137413,2,0,P|126:147|132:186,1,80,2|8,3:2|0:0,0:0:0:0:
74,263,137758,1,2,0:0:0:0:
4,195,137931,1,6,3:2:0:0:
48,381,138275,6,0,L|134:357,1,80,10|0,0:0|0:0,0:0:0:0:
174,276,138620,1,2,0:0:0:0:
260,318,138793,1,2,3:2:0:0:
292,227,138965,2,0,L|369:205,1,80,10|0,0:0|0:0,0:0:0:0:
457,253,139310,5,0,3:2:0:0:
457,253,139482,1,2,0:0:0:0:
482,160,139655,2,0,P|466:110|428:92,1,80,10|0,0:0|0:0,0:0:0:0:
348,93,140000,2,0,P|309:101|285:132,1,80,2|0,0:0|3:2,0:0:0:0:
292,227,140344,2,0,P|331:260|373:254,1,80,8|2,0:0|0:0,0:0:0:0:
457,253,140689,1,2,3:2:0:0:
252,364,141206,5,2,0:0:0:0:
252,364,141379,2,0,L|179:348,1,55.9999982910157,2|0,0:0|3:2,0:0:0:0:
144,294,141724,2,0,L|156:239,1,55.9999982910157,10|0,0:0|0:0,0:0:0:0:
227,202,142068,1,2,3:2:0:0:
227,202,142241,1,2,3:2:0:0:
227,202,142413,2,0,L|300:218,1,55.9999982910157,2|0,0:0|0:0,0:0:0:0:
337,277,142758,1,2,0:0:0:0:
337,277,142931,2,0,L|325:331,1,55.9999982910157,2|0,3:2|0:0,0:0:0:0:
252,364,143275,1,2,0:0:0:0:
252,364,143448,2,0,L|179:348,1,55.9999982910157,2|0,0:0|0:0,0:0:0:0:
