osu file format v14

[General]
AudioFilename: audio.mp3
AudioLeadIn: 0
PreviewTime: 50694
Countdown: 0
SampleSet: None
StackLeniency: 0.7
Mode: 0
LetterboxInBreaks: 0
WidescreenStoryboard: 0

[Editor]
Bookmarks: 208265
DistanceSpacing: 0.1
BeatDivisor: 4
GridSize: 4
TimelineZoom: 1

[Metadata]
Title:the reason for BIRTH
TitleUnicode:the reason for BIRTH
Artist:Luschka
ArtistUnicode:ルシュカ
Creator:Mirash
Version:no reason
Source:
Tags:ナノウ nanou birth and foster rushuka
BeatmapID:1364300
BeatmapSetID:643640

[Difficulty]
HPDrainRate:7
CircleSize:4
OverallDifficulty:8
ApproachRate:9
SliderMultiplier:1.9
SliderTickRate:1

[Events]
//Background and Video events
0,0,"bgbgbgbgbg.jpg",0,0
//Break Periods
//Storyboard Layer 0 (Background)
//Storyboard Layer 1 (Fail)
//Storyboard Layer 2 (Pass)
//Storyboard Layer 3 (Foreground)
//Storyboard Sound Samples

[TimingPoints]
-148,315.789473684211,4,1,1,60,1,0
42957,-166.666666666667,4,1,1,20,0,0
43273,-125,4,1,1,30,0,0
43588,-100,4,1,1,40,0,0
43746,-100,4,1,1,50,0,0
43904,-100,4,1,1,60,0,0
49115,-100,4,1,1,40,0,0
49430,-100,4,1,1,30,0,0
49746,-100,4,1,1,20,0,0
50062,-200,4,1,1,10,0,0
51641,-100,4,1,1,70,0,0
56378,-200,4,1,1,70,0,0
56694,-100,4,1,1,70,0,0
61746,-200,4,1,1,70,0,0
66799,-100,4,1,1,70,0,0
76588,-200,4,1,1,70,0,0
76904,-100,4,1,1,70,0,0
89220,-200,4,1,1,70,0,0
89536,-100,4,1,1,70,0,0
92062,-142.857142857143,4,1,1,70,0,0
97115,-200,4,1,1,30,0,0
97430,-142.857142857143,4,1,1,40,0,0
97746,-111.111111111111,4,1,1,50,0,0
98062,-90.9090909090909,4,1,1,60,0,0
98378,-200,4,1,1,30,0,0
98694,-142.857142857143,4,1,1,40,0,0
99009,-111.111111111111,4,1,1,50,0,0
99325,-90.9090909090909,4,1,1,60,0,0
99641,-90.9090909090909,4,1,1,30,0,0
99957,-90.9090909090909,4,1,1,50,0,0
100904,-90.9090909090909,4,1,1,60,0,0
101852,-90.9090909090909,4,1,1,80,0,0
102483,-90.9090909090909,4,1,1,80,0,1
112273,-90.9090909090909,4,1,1,80,0,0
112588,-90.9090909090909,4,1,1,80,0,1
122378,-100,4,1,1,60,0,0
129957,-100,4,1,1,20,0,0
132483,-200,4,2,1,20,0,0
137220,-100,4,1,1,60,0,0
147325,-500,4,1,1,60,0,0
147799,-100,4,1,1,60,0,0
152694,-142.857142857143,4,1,1,60,0,0
167852,-200,4,1,1,30,0,0
168167,-142.857142857143,4,1,1,40,0,0
168483,-111.111111111111,4,1,1,50,0,0
168799,-90.9090909090909,4,1,1,60,0,0
169115,-200,4,1,1,30,0,0
169430,-142.857142857143,4,1,1,40,0,0
169746,-111.111111111111,4,1,1,50,0,0
170062,-90.9090909090909,4,1,1,60,0,0
170378,-90.9090909090909,4,1,1,30,0,0
170682,285.714285714286,4,1,1,50,1,0
170682,-90.9090909090909,4,1,1,50,0,0
170968,320.855614973262,4,1,1,50,1,0
172572,-90.9090909090909,4,1,1,80,0,0
173213,315.789473684211,4,1,1,80,1,1
173213,-90.9090909090909,4,1,1,80,0,1
182686,-200,4,1,1,80,0,0
183318,-90.9090909090909,4,1,1,80,0,1
193107,-90.9090909090909,4,1,1,80,0,0
214581,-125,4,2,1,30,0,0
221844,-200,4,2,1,30,0,0
225002,-125,4,2,1,30,0,0
235107,-90.9090909090909,4,1,1,80,0,1
244897,-200,4,1,1,80,0,0
245213,-90.9090909090909,4,1,1,80,0,1
255002,-90.9090909090909,4,1,1,80,0,0
276791,-90.9090909090909,4,1,1,60,0,0
279318,-90.9090909090909,4,1,1,40,0,0
280581,-90.9090909090909,4,1,1,30,0,0
281213,-90.9090909090909,4,1,1,25,0,0
281844,-90.9090909090909,4,1,1,20,0,0
282476,-90.9090909090909,4,1,1,15,0,0
283107,-90.9090909090909,4,1,1,10,0,0
283739,-90.9090909090909,4,1,1,5,0,0

[Colours]
Combo1 : 215,203,62
Combo2 : 74,164,202
Combo3 : 221,68,68
Combo4 : 54,190,91

[HitObjects]
308,369,31430,6,0,L|295:218,1,142.5,0|0,0:0|2:0,0:0:0:0:
383,356,31746,2,0,L|499:347,1,95,0|0,0:0|2:0,0:0:0:0:
436,173,32062,5,0,0:0:0:0:
363,149,32220,1,0,0:0:0:0:
296,186,32378,1,0,0:0:0:0:
296,186,32536,1,0,0:0:0:0:
296,186,32852,5,0,0:0:0:0:
71,173,33009,1,0,0:0:0:0:
71,173,33325,5,0,0:0:0:0:
144,149,33483,1,0,0:0:0:0:
211,186,33641,1,0,0:0:0:0:
211,186,33957,6,0,L|238:-9,1,190
237,0,34588,5,0,0:0:0:0:
310,19,34746,1,0,0:0:0:0:
352,91,34904,1,0,0:0:0:0:
352,91,35062,1,0,0:0:0:0:
352,91,35378,5,0,0:0:0:0:
255,255,35536,1,0,0:0:0:0:
255,255,35852,5,0,0:0:0:0:
210,315,36010,1,0,0:0:0:0:
135,310,36168,1,0,0:0:0:0:
135,310,36483,6,0,L|117:143,1,142.5,0|0,0:0|2:0,0:0:0:0:
208,295,36799,2,0,L|331:301,1,95,0|0,0:0|2:0,0:0:0:0:
246,157,37115,5,0,0:0:0:0:
208,90,37273,1,0,0:0:0:0:
132,81,37430,1,0,0:0:0:0:
132,81,37588,1,0,0:0:0:0:
132,81,37904,5,0,0:0:0:0:
306,38,38062,1,0,0:0:0:0:
306,38,38378,5,0,0:0:0:0:
324,112,38536,1,0,0:0:0:0:
395,140,38693,1,0,0:0:0:0:
395,140,39009,6,0,L|375:343,1,190
376,329,39641,5,0,0:0:0:0:
300,336,39799,1,0,0:0:0:0:
224,344,39957,1,0,0:0:0:0:
224,344,40115,1,0,0:0:0:0:
224,344,40430,5,0,0:0:0:0:
26,371,40588,1,0,0:0:0:0:
26,371,40904,6,0,L|31:264,1,95
173,181,41220,2,0,L|169:275,1,95
68,173,41536,6,0,L|77:0,1,142.5,0|0,0:0|2:0,0:0:0:0:
148,140,41852,2,0,L|257:145,1,95,0|0,0:0|2:0,0:0:0:0:
447,217,42167,5,0,0:0:0:0:
380,179,42325,1,0,0:0:0:0:
308,204,42483,1,0,0:0:0:0:
308,204,42641,1,0,0:0:0:0:
308,204,42957,6,0,L|325:271,1,56.9999982604981
227,301,43273,6,0,L|301:341,1,76
136,333,43588,5,0,0:0:0:0:
146,257,43746,5,0,0:0:0:0:
156,181,43904,5,0,0:0:0:0:
405,162,44062,6,0,L|217:135,1,190
216,135,44694,5,0,0:0:0:0:
146,103,44852,1,0,0:0:0:0:
76,131,45009,1,0,0:0:0:0:
76,131,45167,1,0,0:0:0:0:
76,131,45483,5,0,0:0:0:0:
268,67,45641,1,0,0:0:0:0:
268,67,45957,5,0,0:0:0:0:
338,35,46115,1,0,0:0:0:0:
408,63,46272,1,0,0:0:0:0:
408,63,46588,6,0,L|433:228,1,142.5,0|0,0:0|2:0,0:0:0:0:
342,130,46904,2,0,L|244:150,1,95
381,298,47220,6,0,L|479:278,1,95
276,243,47536,2,0,L|296:341,1,95
294,336,48009,6,0,L|198:360,1,95
201,359,48483,6,0,L|178:267,2,95
367,204,49115,5,0,2:0:0:0:
380,190,49430,1,0,2:0:0:0:
394,187,49746,1,0,2:0:0:0:
403,188,50062,1,0,2:0:0:0:
6,187,51325,6,0,L|6:269,1,71.25
6,259,51641,6,0,L|222:262,1,190
195,261,52273,2,0,L|411:264,1,190
384,263,52904,2,0,L|387:47,1,190
386,73,53536,2,0,L|196:70,1,190
196,71,54167,1,0,0:0:0:0:
196,71,54483,1,0,0:0:0:0:
5,196,54799,5,0,0:0:0:0:
5,196,54957,1,0,0:0:0:0:
5,196,55115,1,0,0:0:0:0:
131,173,55273,1,0,0:0:0:0:
131,173,55588,5,0,0:0:0:0:
297,234,55746,1,0,0:0:0:0:
297,234,56062,5,0,0:0:0:0:
360,192,56220,1,0,0:0:0:0:
431,218,56378,2,0,L|435:305,1,71.25
434,289,56694,6,0,P|338:284|238:299,1,190
245,297,57325,2,0,P|139:320|49:307,1,190
59,309,57957,2,0,B|79:198|28:235|49:113,1,190
47,122,58588,2,0,L|256:126,1,190
236,125,59220,1,0,0:0:0:0:
236,125,59536,1,0,0:0:0:0:
425,209,59852,5,0,0:0:0:0:
425,209,60009,1,0,0:0:0:0:
425,209,60167,1,0,0:0:0:0:
256,268,60325,1,0,0:0:0:0:
256,268,60641,5,0,0:0:0:0:
84,222,60799,1,0,0:0:0:0:
84,222,61115,6,0,L|95:121,1,95
169,290,61430,2,0,L|160:387,1,95
203,181,61746,6,0,L|359:194,1,142.5
471,125,62378,2,0,L|311:114,1,142.5
250,61,63009,2,0,P|164:89|112:132,1,142.5
12,200,63641,2,0,B|97:189|63:230|157:219,1,142.5
223,170,64273,2,0,B|198:247|198:247|225:323,1,142.5
357,353,64904,2,0,B|382:276|382:276|356:199,1,142.5
307,175,65536,2,0,L|410:154,1,95
400,156,66167,5,0,0:0:0:0:
255,68,66325,1,0,0:0:0:0:
94,126,66483,1,0,0:0:0:0:
94,126,66799,6,0,B|111:189|111:189|90:252|90:252|103:324,1,190
100,309,67430,2,0,P|194:332|296:312,1,190
284,316,68062,2,0,L|289:117,1,190
288,126,68694,2,0,P|373:109|483:142,1,190
471,135,69325,1,0,0:0:0:0:
471,135,69641,1,0,0:0:0:0:
438,284,69957,5,0,0:0:0:0:
438,284,70115,1,0,0:0:0:0:
438,284,70273,1,0,0:0:0:0:
263,220,70430,1,0,0:0:0:0:
263,220,70746,5,0,0:0:0:0:
109,311,70904,1,0,0:0:0:0:
109,311,71220,6,0,L|8:311,1,95
184,352,71536,2,0,L|291:352,1,95
176,256,71852,6,0,L|172:57,1,190
172,66,72483,5,0,0:0:0:0:
253,137,72641,1,0,0:0:0:0:
61,120,72799,2,0,L|66:235,1,95
276,44,73115,2,0,L|472:59,1,190
465,58,73746,5,0,0:0:0:0:
451,138,73904,1,0,0:0:0:0:
351,167,74062,1,0,0:0:0:0:
371,270,74220,1,0,0:0:0:0:
490,289,74378,5,0,0:0:0:0:
264,237,74694,1,0,0:0:0:0:
215,302,74852,1,0,0:0:0:0:
218,315,74930,1,0,0:0:0:0:
221,328,75009,1,0,0:0:0:0:
162,238,75167,1,0,0:0:0:0:
151,162,75325,1,0,0:0:0:0:
226,152,75483,1,0,0:0:0:0:
226,152,75799,5,0,0:0:0:0:
380,201,75957,1,0,0:0:0:0:
380,201,76273,5,0,0:0:0:0:
226,152,76430,1,0,0:0:0:0:
88,212,76588,2,0,L|93:301,1,71.25
64,322,76904,6,0,P|136:305|258:334,1,190
249,328,77536,5,0,0:0:0:0:
361,351,77694,1,0,0:0:0:0:
438,266,77852,1,0,0:0:0:0:
327,245,78009,1,0,0:0:0:0:
327,245,78325,5,0,0:0:0:0:
382,110,78483,1,0,0:0:0:0:
382,110,78799,5,0,0:0:0:0:
241,62,78957,1,0,0:0:0:0:
132,148,79115,1,0,0:0:0:0:
132,148,79430,6,0,L|139:261,2,95
216,189,79904,2,0,L|320:200,1,95
238,270,80220,2,0,L|346:280,1,95
248,344,80536,1,0,0:0:0:0:
248,344,80852,5,0,0:0:0:0:
391,223,81009,1,0,0:0:0:0:
391,223,81325,6,0,L|495:234,1,95
348,120,81641,2,0,L|253:110,1,95
388,28,81957,6,0,L|360:238,1,190
362,216,82588,5,0,0:0:0:0:
225,230,82746,1,0,0:0:0:0:
181,370,82904,1,0,0:0:0:0:
261,373,83062,2,0,B|255:319|255:319|286:290|286:290|271:181,1,190
40,190,83536,2,0,L|257:181,1,190
342,102,84009,1,0,0:0:0:0:
417,150,84167,1,0,0:0:0:0:
229,182,84325,5,0,0:0:0:0:
171,123,84483,2,0,B|193:187|193:187|176:240|176:240|193:304,1,190
325,222,84957,5,0,0:0:0:0:
162,121,85115,2,0,B|184:185|184:185|167:238|167:238|184:302,1,190
421,262,85588,5,0,0:0:0:0:
153,119,85746,2,0,B|175:183|175:183|158:236|158:236|175:300,1,190
372,377,86220,5,0,0:0:0:0:
275,335,86378,2,0,L|248:232,2,95
250,243,87009,6,0,B|321:233|321:233|364:262|364:262|438:249,1,190
429,250,87483,2,0,P|422:192|415:152,1,95
415,156,87957,5,0,0:0:0:0:
356,96,88115,1,0,0:0:0:0:
356,96,88194,1,0,0:0:0:0:
356,96,88273,1,0,0:0:0:0:
270,122,88430,1,0,0:0:0:0:
335,179,88588,1,0,0:0:0:0:
196,201,88746,1,0,0:0:0:0:
131,144,88904,1,0,0:0:0:0:
131,144,89220,6,0,L|136:64,1,71.25
112,41,89536,6,0,B|322:58,1,190
423,60,90009,1,0,0:0:0:0:
295,157,90167,2,0,L|282:354,1,190
408,165,90641,1,0,0:0:0:0:
219,125,90799,2,0,L|206:322,1,190
294,278,91273,2,0,L|394:286,1,95
135,183,91588,2,0,L|29:175,1,95
40,175,92062,6,0,L|54:330,1,132.999995941162
113,354,92694,1,0,0:0:0:0:
176,308,93009,2,0,P|248:308|318:326,2,132.999995941162
357,264,93957,1,0,0:0:0:0:
357,264,94588,6,0,L|352:126,1,132.999995941162
486,198,95220,2,0,L|490:330,1,132.999995941162
403,346,95852,6,0,L|220:354,1,166.249994926453,0|0,0:0|2:0,0:0:0:0:
220,374,96325,2,0,L|215:285,1,66.4999979705811
61,115,97115,6,0,L|75:202,1,71.25
161,72,97430,6,0,L|167:187,1,99.7499969558717
273,49,97746,6,0,L|265:187,1,128.249996086121
386,57,98062,6,0,L|359:219,1,156.750004783631
465,268,98378,6,0,L|451:181,1,71.25
365,311,98694,6,0,L|359:196,1,99.7499969558717
253,334,99009,6,0,L|261:196,1,128.249996086121
140,326,99325,6,0,L|167:164,1,156.750004783631
504,195,99641,5,0,0:0:0:0:
504,195,99957,1,0,0:0:0:0:
382,149,100115,1,0,0:0:0:0:
295,259,100273,1,0,0:0:0:0:
427,297,100430,1,0,0:0:0:0:
263,150,100588,5,0,0:0:0:0:
129,118,100746,1,0,0:0:0:0:
108,286,100904,1,0,0:0:0:0:
239,326,101062,1,0,0:0:0:0:
486,155,101220,5,0,0:0:0:0:
353,176,101378,1,0,0:0:0:0:
140,149,101536,1,0,0:0:0:0:
293,116,101694,1,0,0:0:0:0:
221,87,101852,5,0,0:0:0:0:
221,87,102483,5,0,0:0:0:0:
111,55,102641,1,0,0:0:0:0:
64,166,102799,2,0,P|84:225|128:271,1,104.500003189087
233,94,103115,5,0,0:0:0:0:
107,44,103273,1,0,0:0:0:0:
54,174,103431,2,0,P|74:233|118:279,1,104.500003189087
188,262,103746,5,0,0:0:0:0:
311,308,103904,1,0,0:0:0:0:
207,257,104062,1,0,0:0:0:0:
300,289,104220,1,0,0:0:0:0:
242,248,104378,5,0,0:0:0:0:
273,258,104457,1,0,0:0:0:0:
254,243,104536,1,0,0:0:0:0:
272,240,104615,1,0,0:0:0:0:
283,236,104694,1,0,0:0:0:0:
283,236,105009,5,0,0:0:0:0:
380,163,105167,1,0,0:0:0:0:
487,253,105325,2,0,L|466:362,1,104.500003189087
496,239,105641,5,0,0:0:0:0:
383,148,105799,1,0,0:0:0:0:
270,219,105957,2,0,L|273:329,1,104.500003189087
199,202,106273,5,0,0:0:0:0:
115,214,106430,1,0,0:0:0:0:
152,121,106588,1,0,0:0:0:0:
246,120,106746,1,0,0:0:0:0:
162,310,106904,1,0,0:0:0:0:
54,302,107062,1,0,0:0:0:0:
36,346,107220,6,0,B|164:318|116:391|253:354,1,209.000006378174
392,293,107694,1,0,0:0:0:0:
291,280,107852,2,0,P|216:277|167:287,1,104.500003189087
288,203,108167,5,0,0:0:0:0:
394,185,108325,1,0,0:0:0:0:
484,251,108483,2,0,P|487:326|477:375,1,104.500003189087
345,104,108799,2,0,P|420:101|469:111,1,104.500003189087
250,110,109115,5,0,0:0:0:0:
257,28,109272,1,0,0:0:0:0:
127,206,109430,1,0,0:0:0:0:
132,289,109588,1,0,0:0:0:0:
41,108,109746,6,0,L|262:110,1,209.000006378174
340,290,110378,2,0,L|119:288,1,209.000006378174
131,287,111009,5,0,0:0:0:0:
133,375,111167,1,0,0:0:0:0:
249,109,111325,5,0,0:0:0:0:
247,21,111483,1,0,0:0:0:0:
22,182,111641,5,0,0:0:0:0:
178,212,111799,1,0,0:0:0:0:
258,192,111957,1,0,0:0:0:0:
425,245,112115,1,0,0:0:0:0:
425,245,112588,6,0,L|432:378,1,104.500003189087
467,178,112904,2,0,L|460:45,1,104.500003189087
342,207,113220,5,0,0:0:0:0:
242,247,113378,1,0,0:0:0:0:
165,175,113536,2,0,L|172:42,1,104.500003189087
65,215,113852,5,0,0:0:0:0:
165,175,114010,1,0,0:0:0:0:
242,247,114168,2,0,L|235:380,1,104.500003189087
158,270,114483,1,0,0:0:0:0:
145,263,114641,1,0,0:0:0:0:
139,276,114799,1,0,0:0:0:0:
358,152,115115,5,0,0:0:0:0:
380,77,115273,1,0,0:0:0:0:
446,123,115430,2,0,L|437:241,1,104.500003189087
342,293,115746,5,0,0:0:0:0:
320,218,115904,1,0,0:0:0:0:
254,264,116062,2,0,L|263:382,1,104.500003189087
82,224,116378,5,0,0:0:0:0:
172,242,116536,1,0,0:0:0:0:
271,129,116694,1,0,0:0:0:0:
181,125,116852,1,0,0:0:0:0:
293,250,117009,1,0,0:0:0:0:
380,227,117167,1,0,0:0:0:0:
265,238,117325,6,0,B|241:118|319:155|294:31,1,209.000006378174
410,101,117799,1,0,0:0:0:0:
387,184,117957,1,0,0:0:0:0:
472,353,118115,5,0,0:0:0:0:
459,268,118273,1,0,0:0:0:0:
380,328,118430,5,0,0:0:0:0:
216,353,118588,1,0,0:0:0:0:
373,309,118746,1,0,0:0:0:0:
373,309,118904,5,0,0:0:0:0:
261,208,119062,1,0,0:0:0:0:
102,247,119220,1,0,0:0:0:0:
41,197,119536,6,0,P|73:105|206:131,1,209.000006378174
159,187,120167,2,0,B|292:173|233:222|384:199,1,209.000006378174
445,203,120799,5,0,0:0:0:0:
430,280,120957,1,0,0:0:0:0:
372,126,121115,5,0,0:0:0:0:
358,44,121273,1,0,0:0:0:0:
343,279,121430,5,0,0:0:0:0:
318,374,121588,1,0,0:0:0:0:
264,122,121746,5,0,0:0:0:0:
236,14,121904,1,0,0:0:0:0:
233,242,122062,5,0,0:0:0:0:
212,378,122220,1,0,0:0:0:0:
273,337,122378,5,0,0:0:0:0:
273,337,122694,1,0,0:0:0:0:
337,296,123009,5,0,0:0:0:0:
337,296,123167,1,0,0:0:0:0:
337,296,123325,1,0,0:0:0:0:
267,170,123483,1,0,0:0:0:0:
267,170,123799,5,0,0:0:0:0:
362,61,123957,1,0,0:0:0:0:
362,61,124273,5,0,0:0:0:0:
203,88,124430,1,0,0:0:0:0:
66,10,124588,1,0,0:0:0:0:
66,10,124904,6,0,L|86:211,1,190
166,235,125536,5,0,0:0:0:0:
166,235,125694,1,0,0:0:0:0:
166,235,125852,1,0,0:0:0:0:
75,359,126009,1,0,0:0:0:0:
75,359,126325,5,0,0:0:0:0:
231,317,126483,1,0,0:0:0:0:
231,317,126799,5,0,0:0:0:0:
350,237,126957,1,0,0:0:0:0:
483,304,127115,1,0,0:0:0:0:
419,351,127430,5,0,0:0:0:0:
419,351,127746,1,0,0:0:0:0:
351,326,128062,5,0,0:0:0:0:
351,326,128220,1,0,0:0:0:0:
351,326,128378,1,0,0:0:0:0:
457,172,128536,1,0,0:0:0:0:
457,172,128852,5,0,0:0:0:0:
329,107,129009,1,0,0:0:0:0:
329,107,129325,5,0,0:0:0:0:
227,62,129483,1,0,0:0:0:0:
61,124,129641,1,0,0:0:0:0:
255,299,129957,5,0,2:0:0:0:
255,299,132167,5,0,2:0:0:0:
255,299,132483,2,0,L|155:303,1,95
261,218,133115,2,0,L|361:222,1,95
176,212,133746,1,0,0:0:0:0:
171,206,134062,1,0,0:0:0:0:
166,200,134378,1,0,0:0:0:0:
161,194,134694,1,0,0:0:0:0:
156,188,135009,1,0,0:0:0:0:
156,188,137220,5,0,0:0:0:0:
156,188,137536,1,0,0:0:0:0:
37,114,137773,1,0,0:0:0:0:
37,114,137852,2,0,L|243:101,1,190
76,195,138325,2,0,L|88:299,1,95
252,279,138641,2,0,L|242:162,1,95
172,288,138957,1,0,0:0:0:0:
185,363,139115,1,0,0:0:0:0:
185,363,139430,5,0,0:0:0:0:
310,335,139588,1,0,0:0:0:0:
448,374,139746,1,0,0:0:0:0:
448,374,139983,1,0,0:0:0:0:
448,374,140062,2,0,L|455:168,1,190
468,95,140694,2,0,L|353:104,1,95
373,102,141009,1,0,0:0:0:0:
285,60,141167,2,0,L|300:168,1,95
358,207,141483,1,0,0:0:0:0:
216,156,141641,2,0,L|19:185,1,190
116,65,142115,5,0,0:0:0:0:
153,59,142194,1,0,0:0:0:0:
190,54,142273,2,0,L|323:62,1,95
296,258,142588,2,0,L|163:266,1,95
396,133,142904,2,0,P|422:201|383:308,1,190
314,349,143378,2,0,B|184:326|256:380|111:355,1,190
64,298,144009,6,0,L|41:180,1,95
110,163,144325,1,0,0:0:0:0:
110,163,144483,1,0,0:0:0:0:
235,103,144641,1,0,0:0:0:0:
354,177,144799,1,0,0:0:0:0:
348,190,145115,5,0,0:0:0:0:
266,174,145273,1,0,0:0:0:0:
272,187,145352,1,0,0:0:0:0:
277,199,145430,1,0,0:0:0:0:
256,271,145588,1,0,0:0:0:0:
323,317,145746,1,0,0:0:0:0:
380,264,145904,2,0,B|375:125|413:214|406:68,1,190
406,78,146536,5,0,0:0:0:0:
232,116,146694,1,0,0:0:0:0:
232,116,147009,5,0,0:0:0:0:
319,96,147167,1,0,0:0:0:0:
406,78,147325,2,0,L|401:119,1,38
439,182,147799,1,0,0:0:0:0:
337,204,147957,6,0,L|240:229,1,95
242,323,148273,2,0,L|354:293,1,95
396,345,148588,5,0,0:0:0:0:
170,270,148746,2,0,L|121:79,1,190
61,199,149220,2,0,L|62:357,1,142.5
75,336,149536,1,0,0:0:0:0:
160,357,149694,1,0,0:0:0:0:
426,345,149852,5,0,0:0:0:0:
378,268,150009,1,0,0:0:0:0:
432,196,150167,2,0,L|428:87,1,95
499,271,150483,2,0,L|509:374,1,95
508,365,150799,2,0,L|407:380,1,95
348,344,151115,5,0,0:0:0:0:
161,185,151273,2,0,L|216:191,1,47.5
253,251,151588,5,0,0:0:0:0:
440,92,151746,2,0,L|385:98,1,47.5
356,164,152062,5,0,0:0:0:0:
196,202,152220,1,0,0:0:0:0:
0,252,152378,1,0,0:0:0:0:
0,252,152694,6,0,B|89:240|59:275|138:260,1,132.999995941162
198,304,153325,1,0,0:0:0:0:
268,266,153641,2,0,P|349:270|416:301,1,132.999995941162
467,252,154273,2,0,P|457:216|442:120,2,132.999995941162
346,145,155220,6,0,L|189:157,1,132.999995941162
263,69,155852,2,0,L|117:83,1,132.999995941162
51,131,156483,2,0,L|67:338,1,199.499993911743
141,295,157115,2,0,L|129:145,1,132.999995941162
245,325,157746,6,0,P|300:309|377:315,1,132.999995941162
469,238,158378,2,0,L|457:375,1,132.999995941162
377,225,159009,2,0,P|366:175|367:87,2,132.999995941162
464,138,159957,1,0,0:0:0:0:
298,124,160273,6,0,B|203:128|203:128|171:102,2,132.999995941162
305,131,161220,1,0,0:0:0:0:
305,131,161536,2,0,L|316:345,1,199.499993911743
261,379,162167,1,0,0:0:0:0:
261,379,162799,6,0,L|113:390,1,132.999995941162
38,311,163430,2,0,L|178:301,1,132.999995941162
269,298,164062,1,0,0:0:0:0:
278,300,164378,1,0,0:0:0:0:
287,302,164694,1,0,0:0:0:0:
296,304,165009,1,0,0:0:0:0:
305,306,165325,6,0,P|318:229|302:154,2,132.999995941162
381,299,166273,1,0,0:0:0:0:
459,284,166588,1,0,0:0:0:0:
459,284,166904,5,0,0:0:0:0:
381,299,167062,1,0,0:0:0:0:
305,317,167220,2,0,P|318:240|302:165,1,132.999995941162
62,87,167852,6,0,P|70:122|94:160,1,71.25
227,117,168167,6,0,P|215:69|183:32,1,99.7499969558717
46,82,168483,6,0,P|58:135|101:196,1,128.249996086121
243,153,168799,6,0,P|237:76|190:15,1,156.750004783631
164,267,169115,6,0,B|177:250|177:250|240:249,1,71.25
314,306,169430,6,0,B|301:323|301:323|216:326,1,99.7499969558717
28,319,169746,6,0,B|51:343|51:343|157:343,1,128.249996086121
448,252,170062,6,0,B|425:228|425:228|290:229,1,156.750004783631
11,190,170378,5,0,0:0:0:0:
11,190,170682,5,0,0:0:0:0:
130,142,170824,1,0,0:0:0:0:
277,284,170968,1,0,0:0:0:0:
227,370,171128,1,0,0:0:0:0:
262,358,171288,1,0,0:0:0:0:
343,380,171449,1,0,0:0:0:0:
488,232,171609,5,0,0:0:0:0:
406,288,171770,1,0,0:0:0:0:
168,153,171930,5,0,0:0:0:0:
322,186,172090,1,0,0:0:0:0:
379,85,172251,1,0,0:0:0:0:
482,68,172411,1,0,0:0:0:0:
460,135,172572,5,0,0:0:0:0:
496,192,173213,5,0,0:0:0:0:
388,264,173370,1,0,0:0:0:0:
267,204,173528,2,0,P|215:207|166:231,1,104.500003189087
496,192,173844,5,0,0:0:0:0:
388,264,174001,1,0,0:0:0:0:
267,204,174160,2,0,P|215:207|166:231,1,104.500003189087
283,277,174476,5,0,0:0:0:0:
354,165,174634,1,0,0:0:0:0:
265,72,174791,1,0,0:0:0:0:
379,97,174949,5,0,0:0:0:0:
204,115,175107,1,0,0:0:0:0:
191,105,175186,1,0,0:0:0:0:
178,114,175265,1,0,0:0:0:0:
162,109,175344,1,0,0:0:0:0:
162,109,175423,2,0,P|81:100|30:76,1,104.500003189087
164,192,175739,5,0,0:0:0:0:
301,149,175897,1,0,0:0:0:0:
410,256,176055,2,0,P|408:333|396:377,1,104.500003189087
462,188,176370,6,0,P|458:122|472:64,1,104.500003189087
291,253,176686,2,0,P|287:323|298:379,1,104.500003189087
223,382,177002,5,0,0:0:0:0:
35,311,177160,1,0,0:0:0:0:
151,379,177318,1,0,0:0:0:0:
109,316,177476,1,0,0:0:0:0:
172,355,177634,1,0,0:0:0:0:
187,352,177713,1,0,0:0:0:0:
192,337,177791,1,0,0:0:0:0:
212,339,177870,1,0,0:0:0:0:
212,339,177949,2,0,P|202:240|216:116,1,209.000006378174
291,292,178423,6,0,P|359:290|436:313,1,104.500003189087
293,205,178739,1,0,0:0:0:0:
115,216,178897,2,0,P|47:214|-30:237,1,104.500003189087
295,120,179213,6,0,B|416:154|381:98|504:127,2,209.000006378174
100,106,180002,1,0,0:0:0:0:
328,50,180160,1,0,0:0:0:0:
328,50,180476,5,0,0:0:0:0:
298,120,180634,1,0,0:0:0:0:
204,295,180791,1,0,0:0:0:0:
164,227,180949,1,0,0:0:0:0:
379,232,181107,1,0,0:0:0:0:
427,298,181265,1,0,0:0:0:0:
285,369,181423,6,0,L|301:251,1,104.500003189087
227,15,181739,2,0,L|211:133,1,104.500003189087
401,158,182055,5,0,0:0:0:0:
97,253,182213,1,0,0:0:0:0:
250,201,182370,1,0,0:0:0:0:
237,214,182449,1,0,0:0:0:0:
261,215,182528,1,0,0:0:0:0:
250,195,182607,1,0,0:0:0:0:
252,222,182686,2,0,L|258:339,1,95
256,316,183318,6,0,L|389:327,1,104.500003189087
188,148,183634,2,0,L|81:141,1,104.500003189087
84,303,183949,1,0,0:0:0:0:
241,229,184107,1,0,0:0:0:0:
403,146,184265,1,0,0:0:0:0:
403,146,184581,5,0,0:0:0:0:
313,117,184739,1,0,0:0:0:0:
403,146,184897,1,0,0:0:0:0:
298,215,185055,1,0,0:0:0:0:
403,146,185213,1,0,0:0:0:0:
386,282,185370,1,0,0:0:0:0:
403,146,185528,1,0,0:0:0:0:
76,132,185844,5,0,0:0:0:0:
98,224,186002,1,0,0:0:0:0:
188,200,186160,1,0,0:0:0:0:
167,115,186318,1,0,0:0:0:0:
131,167,186476,5,0,0:0:0:0:
131,167,186634,1,0,0:0:0:0:
131,167,186791,1,0,0:0:0:0:
24,196,187107,5,0,0:0:0:0:
248,144,187265,1,0,0:0:0:0:
108,61,187423,1,0,0:0:0:0:
166,275,187581,1,0,0:0:0:0:
61,127,187739,5,0,0:0:0:0:
140,167,187897,1,0,0:0:0:0:
214,214,188055,1,0,0:0:0:0:
214,214,188370,6,0,L|332:214,1,104.500003189087
184,336,188686,2,0,L|72:336,1,104.500003189087
332,297,189002,5,0,0:0:0:0:
324,373,189160,1,0,0:0:0:0:
95,253,189318,1,0,0:0:0:0:
87,177,189476,1,0,0:0:0:0:
247,160,189634,5,0,0:0:0:0:
220,259,189791,1,0,0:0:0:0:
187,367,189949,1,0,0:0:0:0:
187,367,190265,5,0,0:0:0:0:
220,259,190423,1,0,0:0:0:0:
247,160,190580,1,0,0:0:0:0:
501,193,190897,5,0,0:0:0:0:
11,193,191213,1,0,0:0:0:0:
501,193,191528,1,0,0:0:0:0:
11,193,191844,1,0,0:0:0:0:
501,193,192160,1,0,0:0:0:0:
230,193,192476,5,0,0:0:0:0:
282,193,192555,1,0,0:0:0:0:
255,166,192634,1,0,0:0:0:0:
255,166,192713,1,0,0:0:0:0:
255,191,192791,1,0,0:0:0:0:
248,205,192870,1,0,0:0:0:0:
260,214,192949,1,0,0:0:0:0:
252,227,193028,1,0,0:0:0:0:
259,240,193107,1,0,0:0:0:0:
270,261,193423,5,0,0:0:0:0:
270,261,193739,5,0,0:0:0:0:
270,261,194055,6,0,L|263:371,1,104.500003189087
362,321,194370,2,0,P|355:243|373:153,1,156.750004783631
368,167,194686,2,0,B|439:132|439:132|534:164,1,156.750004783631
505,170,195002,1,0,0:0:0:0:
505,185,195081,1,0,0:0:0:0:
495,197,195160,1,0,0:0:0:0:
496,212,195239,1,0,0:0:0:0:
480,213,195318,1,0,0:0:0:0:
487,226,195397,1,0,0:0:0:0:
477,238,195476,1,0,0:0:0:0:
482,252,195555,1,0,0:0:0:0:
473,263,195634,1,0,0:0:0:0:
473,263,195949,5,0,0:0:0:0:
445,278,196028,1,0,0:0:0:0:
413,274,196107,1,0,0:0:0:0:
384,260,196186,1,0,0:0:0:0:
358,241,196265,1,0,0:0:0:0:
327,233,196344,1,0,0:0:0:0:
295,231,196423,1,0,0:0:0:0:
264,238,196502,1,0,0:0:0:0:
236,253,196581,1,0,0:0:0:0:
205,260,196660,1,0,0:0:0:0:
174,252,196739,1,0,0:0:0:0:
154,227,196818,1,0,0:0:0:0:
201,198,196897,5,0,0:0:0:0:
207,260,196976,1,0,0:0:0:0:
213,322,197055,1,0,0:0:0:0:
221,383,197134,1,0,0:0:0:0:
249,370,197213,5,0,0:0:0:0:
277,357,197291,1,0,0:0:0:0:
305,344,197370,1,0,0:0:0:0:
333,331,197449,1,0,0:0:0:0:
386,364,197528,5,0,0:0:0:0:
379,301,197607,1,0,0:0:0:0:
372,238,197686,1,0,0:0:0:0:
365,175,197765,1,0,0:0:0:0:
358,112,197844,1,0,0:0:0:0:
25,196,198160,5,0,0:0:0:0:
25,196,198476,5,0,0:0:0:0:
25,196,198791,5,0,0:0:0:0:
487,196,199028,5,0,0:0:0:0:
487,196,199107,1,0,0:0:0:0:
25,196,199423,6,0,L|91:182,1,52.2500015945435
79,222,199581,2,0,L|140:226,2,52.2500015945435
197,160,199818,5,0,0:0:0:0:
190,222,199897,1,0,0:0:0:0:
184,284,199976,1,0,0:0:0:0:
214,338,200055,5,0,0:0:0:0:
245,334,200134,1,0,0:0:0:0:
275,339,200213,1,0,0:0:0:0:
324,375,200291,5,0,0:0:0:0:
330,313,200370,1,0,0:0:0:0:
337,251,200449,1,0,0:0:0:0:
375,201,200528,5,0,0:0:0:0:
406,197,200607,1,0,0:0:0:0:
436,202,200686,1,0,0:0:0:0:
486,165,200765,5,0,0:0:0:0:
491,39,200923,5,0,0:0:0:0:
491,39,201002,2,0,L|365:60,1,104.500003189087
334,125,201318,2,0,L|192:122,1,104.500003189087
205,95,201555,5,0,0:0:0:0:
202,126,201634,1,0,0:0:0:0:
200,157,201713,1,0,0:0:0:0:
198,187,201791,1,0,0:0:0:0:
196,218,201870,1,0,0:0:0:0:
173,239,201949,5,0,0:0:0:0:
199,255,202028,1,0,0:0:0:0:
228,243,202107,1,0,0:0:0:0:
233,212,202186,1,0,0:0:0:0:
284,247,202265,5,0,0:0:0:0:
262,305,202344,1,0,0:0:0:0:
202,325,202423,1,0,0:0:0:0:
142,304,202502,1,0,0:0:0:0:
103,254,202581,1,0,0:0:0:0:
99,191,202660,1,0,0:0:0:0:
123,110,202739,5,0,0:0:0:0:
206,108,202818,1,0,0:0:0:0:
289,106,202897,1,0,0:0:0:0:
372,104,202976,1,0,0:0:0:0:
461,112,203055,1,0,0:0:0:0:
461,112,203213,5,0,0:0:0:0:
461,112,203528,5,0,0:0:0:0:
461,112,203844,5,0,0:0:0:0:
51,112,204081,5,0,0:0:0:0:
51,112,204160,1,0,0:0:0:0:
257,126,204476,1,0,0:0:0:0:
254,209,204555,1,0,0:0:0:0:
251,292,204634,1,0,0:0:0:0:
257,126,204791,5,0,0:0:0:0:
257,126,205028,5,0,0:0:0:0:
257,126,205107,1,0,0:0:0:0:
346,119,205344,5,0,0:0:0:0:
346,119,205423,1,0,0:0:0:0:
431,109,205581,5,0,0:0:0:0:
431,109,205660,1,0,0:0:0:0:
431,109,205739,2,0,L|429:215,1,104.500003189087
370,279,206055,1,0,0:0:0:0:
370,279,206370,5,0,0:0:0:0:
248,344,206528,1,0,0:0:0:0:
124,268,206686,1,0,0:0:0:0:
144,122,206844,1,0,0:0:0:0:
254,202,207002,5,0,0:0:0:0:
254,202,207081,1,0,0:0:0:0:
268,182,207239,5,0,0:0:0:0:
268,182,207318,1,0,0:0:0:0:
238,222,207476,5,0,0:0:0:0:
238,222,207555,1,0,0:0:0:0:
238,222,207634,1,0,0:0:0:0:
238,222,207713,1,0,0:0:0:0:
238,222,207791,1,0,0:0:0:0:
238,222,207870,1,0,0:0:0:0:
238,222,207949,1,0,0:0:0:0:
243,117,208107,5,0,0:0:0:0:
224,325,208265,1,0,0:0:0:0:
189,179,208423,5,0,0:0:0:0:
262,249,208581,1,0,0:0:0:0:
327,171,208739,5,0,0:0:0:0:
143,269,208897,1,0,0:0:0:0:
350,298,209055,5,0,0:0:0:0:
110,124,209213,1,0,0:0:0:0:
58,208,209370,5,0,0:0:0:0:
408,224,209528,1,0,0:0:0:0:
171,199,209686,5,0,0:0:0:0:
300,230,209844,1,0,0:0:0:0:
257,143,210002,5,0,0:0:0:0:
222,287,210160,1,0,0:0:0:0:
239,217,210318,5,0,0:0:0:0:
239,217,210476,1,0,0:0:0:0:
179,123,210634,5,0,0:0:0:0:
303,312,210791,1,0,0:0:0:0:
372,266,210949,5,0,0:0:0:0:
253,83,211107,1,0,0:0:0:0:
322,43,211265,5,0,0:0:0:0:
441,226,211423,1,0,0:0:0:0:
456,86,211581,5,0,0:0:0:0:
324,179,211739,1,0,0:0:0:0:
192,272,211897,1,0,0:0:0:0:
66,258,212055,5,0,0:0:0:0:
198,165,212213,1,0,0:0:0:0:
330,72,212371,1,0,0:0:0:0:
436,186,212528,5,0,0:0:0:0:
304,279,212686,1,0,0:0:0:0:
172,372,212844,1,0,0:0:0:0:
0,195,213002,5,0,0:0:0:0:
0,195,213160,1,0,0:0:0:0:
0,195,214581,5,0,0:0:0:0:
70,166,214739,1,0,0:0:0:0:
145,176,214897,2,0,L|139:280,1,76
193,307,215213,2,0,B|286:296|249:327|358:306,1,152
393,250,215686,5,0,0:0:0:0:
469,248,215844,2,0,P|481:200|457:90,1,152
316,66,216476,2,0,P|304:114|328:224,1,152
322,213,217107,1,0,0:0:0:0:
247,345,217423,5,0,0:0:0:0:
172,329,217581,1,0,0:0:0:0:
98,349,217739,2,0,P|89:302|91:243,1,76
158,243,218055,2,0,P|201:239|243:243,1,76
88,189,218370,6,0,L|90:66,1,114
89,75,218686,2,0,P|144:73|183:76,2,76
225,144,219318,1,0,0:0:0:0:
225,144,219634,5,0,0:0:0:0:
225,144,219949,5,0,0:0:0:0:
295,115,220107,1,0,0:0:0:0:
368,134,220265,2,0,L|362:211,1,76
457,254,220581,2,0,L|451:178,1,76
379,286,220897,2,0,L|215:296,2,152
379,286,221844,6,0,L|391:380,1,95
216,200,222476,2,0,L|227:299,1,95
53,114,223107,2,0,L|64:213,1,95
63,208,223739,5,0,0:0:0:0:
226,294,223897,1,0,0:0:0:0:
391,380,224055,1,0,0:0:0:0:
391,380,224213,1,0,0:0:0:0:
391,380,224370,1,0,0:0:0:0:
391,380,224686,5,0,0:0:0:0:
391,380,225002,6,0,P|384:332|384:226,1,152
481,111,225634,1,0,0:0:0:0:
459,184,225791,1,0,0:0:0:0:
477,258,225949,1,0,0:0:0:0:
404,124,226265,5,0,0:0:0:0:
331,146,226422,1,0,0:0:0:0:
257,128,226580,1,0,0:0:0:0:
257,128,226739,1,0,0:0:0:0:
257,128,226897,1,0,0:0:0:0:
257,128,227213,5,0,0:0:0:0:
257,128,227528,6,0,L|161:135,1,76
292,46,227844,2,0,L|370:41,1,76
207,47,228160,1,0,0:0:0:0:
354,132,228318,1,0,0:0:0:0:
209,223,228476,2,0,L|68:237,1,114
95,234,228791,6,0,L|103:313,1,76
7,190,229107,2,0,L|1:101,1,76
211,299,229423,2,0,P|284:302|380:279,1,152
360,286,230055,6,0,P|351:239|335:204,1,76
438,325,230370,2,0,P|485:316|520:300,1,76
432,228,230686,2,0,P|416:158|406:68,1,152
406,78,231318,5,0,0:0:0:0:
330,89,231476,1,0,0:0:0:0:
254,99,231634,1,0,0:0:0:0:
254,99,231949,1,0,0:0:0:0:
15,195,232265,5,0,0:0:0:0:
15,195,233528,5,0,0:0:0:0:
497,195,234160,5,0,0:0:0:0:
497,195,235107,5,0,0:0:0:0:
389,162,235265,1,0,0:0:0:0:
301,238,235423,2,0,P|248:244|176:227,1,104.500003189087
93,63,235739,2,0,P|114:142|91:283,2,209.000006378174
239,151,236528,1,0,0:0:0:0:
186,276,236686,2,0,P|176:365|180:385,1,104.500003189087
324,382,237002,2,0,P|332:322|324:279,1,104.500003189087
257,235,237318,1,0,0:0:0:0:
257,235,237634,5,0,0:0:0:0:
369,183,237791,1,0,0:0:0:0:
388,61,237949,2,0,P|317:67|271:94,1,104.500003189087
80,239,238265,2,0,P|92:188|122:147,1,104.500003189087
258,194,238581,2,0,P|239:269|211:299,1,104.500003189087
130,304,238897,5,0,0:0:0:0:
132,384,239055,1,0,0:0:0:0:
315,362,239213,1,0,0:0:0:0:
316,278,239370,1,0,0:0:0:0:
429,179,239528,1,0,0:0:0:0:
433,262,239686,1,0,0:0:0:0:
304,187,239844,1,0,0:0:0:0:
304,187,240160,5,0,0:0:0:0:
190,132,240318,1,0,0:0:0:0:
333,166,240476,2,0,L|329:327,1,156.750004783631
223,220,240791,2,0,L|219:381,1,156.750004783631
137,245,241107,2,0,L|24:239,1,104.500003189087
270,94,241423,2,0,L|383:88,1,104.500003189087
201,25,241739,2,0,B|173:93|173:93|227:232,1,209.000006378174
222,219,242370,5,0,0:0:0:0:
358,202,242528,1,0,0:0:0:0:
310,325,242686,1,0,0:0:0:0:
222,219,242844,5,0,0:0:0:0:
104,107,243002,1,0,0:0:0:0:
51,264,243160,1,0,0:0:0:0:
222,219,243318,5,0,0:0:0:0:
335,98,243476,1,0,0:0:0:0:
217,2,243634,1,0,0:0:0:0:
104,107,243791,1,0,0:0:0:0:
224,107,243949,5,0,0:0:0:0:
224,107,244265,1,0,0:0:0:0:
224,107,244344,1,0,0:0:0:0:
223,154,244423,1,0,0:0:0:0:
222,201,244502,1,0,0:0:0:0:
220,248,244581,1,0,0:0:0:0:
223,244,244660,1,0,0:0:0:0:
226,240,244739,1,0,0:0:0:0:
229,236,244818,1,0,0:0:0:0:
230,234,244897,1,0,0:0:0:0:
431,356,245213,5,0,0:0:0:0:
305,318,245370,1,0,0:0:0:0:
183,357,245528,2,0,P|131:359|70:353,1,104.500003189087
230,234,245844,2,0,P|292:229|354:234,1,104.500003189087
111,257,246160,2,0,P|102:177|139:44,1,209.000006378174
258,146,246634,1,0,0:0:0:0:
378,53,246791,2,0,P|408:153|401:257,1,209.000006378174
257,40,247265,1,0,0:0:0:0:
258,146,247423,1,0,0:0:0:0:
258,146,247739,5,0,0:0:0:0:
382,99,247897,1,0,0:0:0:0:
308,225,248055,2,0,L|315:347,1,104.500003189087
258,146,248370,5,0,0:0:0:0:
129,91,248528,1,0,0:0:0:0:
208,225,248686,2,0,L|201:347,1,104.500003189087
257,375,249002,5,0,0:0:0:0:
134,281,249160,1,0,0:0:0:0:
379,286,249318,1,0,0:0:0:0:
208,225,249476,1,0,0:0:0:0:
308,225,249634,1,0,0:0:0:0:
256,155,249791,1,0,0:0:0:0:
256,132,249949,1,0,0:0:0:0:
256,132,250265,5,0,0:0:0:0:
339,172,250423,1,0,0:0:0:0:
168,170,250581,1,0,0:0:0:0:
179,62,250739,1,0,0:0:0:0:
332,88,250897,5,0,0:0:0:0:
267,221,251055,1,0,0:0:0:0:
342,254,251213,1,0,0:0:0:0:
259,45,251370,1,0,0:0:0:0:
424,224,251528,5,0,0:0:0:0:
334,9,251686,1,0,0:0:0:0:
275,303,251844,1,0,0:0:0:0:
68,300,252160,6,0,B|167:329|275:302,1,209.000006378174
444,84,252791,2,0,B|345:55|237:82,1,209.000006378174
63,196,253423,5,0,0:0:0:0:
449,196,253739,1,0,0:0:0:0:
255,163,254055,5,0,0:0:0:0:
255,359,254370,5,0,0:0:0:0:
221,321,254449,5,0,0:0:0:0:
266,302,254528,5,0,0:0:0:0:
237,286,254607,5,0,0:0:0:0:
257,278,254686,5,0,0:0:0:0:
249,270,254765,5,0,0:0:0:0:
258,262,254844,5,0,0:0:0:0:
252,257,254923,5,0,0:0:0:0:
256,253,255002,5,0,0:0:0:0:
353,313,255160,1,0,0:0:0:0:
207,162,255318,5,0,0:0:0:0:
91,187,255476,1,0,0:0:0:0:
349,210,255634,5,0,0:0:0:0:
450,184,255791,1,0,0:0:0:0:
145,71,255949,5,0,0:0:0:0:
38,62,256107,1,0,0:0:0:0:
399,291,256265,5,0,0:0:0:0:
496,324,256423,1,0,0:0:0:0:
379,128,256581,5,0,0:0:0:0:
278,147,256739,1,0,0:0:0:0:
171,248,256897,5,0,0:0:0:0:
209,344,257055,1,0,0:0:0:0:
74,306,257213,5,0,0:0:0:0:
48,212,257370,1,0,0:0:0:0:
202,147,257528,5,0,0:0:0:0:
243,43,257686,1,0,0:0:0:0:
202,147,257844,5,0,0:0:0:0:
243,43,258002,1,0,0:0:0:0:
202,147,258160,5,0,0:0:0:0:
243,43,258318,1,0,0:0:0:0:
202,147,258476,5,0,0:0:0:0:
243,43,258634,1,0,0:0:0:0:
427,277,258791,5,0,0:0:0:0:
335,218,258949,1,0,0:0:0:0:
276,310,259107,1,0,0:0:0:0:
368,369,259265,1,0,0:0:0:0:
427,277,259423,5,0,0:0:0:0:
335,218,259581,1,0,0:0:0:0:
276,310,259739,1,0,0:0:0:0:
368,369,259897,1,0,0:0:0:0:
97,160,260055,5,0,0:0:0:0:
199,172,260213,1,0,0:0:0:0:
401,105,260370,5,0,0:0:0:0:
299,117,260528,1,0,0:0:0:0:
93,187,260686,5,0,0:0:0:0:
195,199,260844,1,0,0:0:0:0:
395,83,261002,5,0,0:0:0:0:
293,95,261160,1,0,0:0:0:0:
183,82,261318,5,0,0:0:0:0:
305,210,261476,1,0,0:0:0:0:
183,82,261634,5,0,0:0:0:0:
305,210,261792,1,0,0:0:0:0:
183,82,261949,5,0,0:0:0:0:
305,210,262107,1,0,0:0:0:0:
183,82,262265,5,0,0:0:0:0:
305,210,262423,1,0,0:0:0:0:
165,217,262581,5,0,0:0:0:0:
183,82,262739,1,0,0:0:0:0:
236,142,262897,1,0,0:0:0:0:
117,158,263055,1,0,0:0:0:0:
241,221,263213,1,0,0:0:0:0:
103,80,263370,1,0,0:0:0:0:
263,69,263528,1,0,0:0:0:0:
87,232,263686,1,0,0:0:0:0:
245,342,263844,5,0,0:0:0:0:
245,342,264002,5,0,0:0:0:0:
245,342,264160,5,0,0:0:0:0:
245,342,264318,5,0,0:0:0:0:
245,42,264476,5,0,0:0:0:0:
245,42,264634,5,0,0:0:0:0:
245,42,264792,5,0,0:0:0:0:
245,42,264950,5,0,0:0:0:0:
86,240,265107,6,0,L|100:361,1,104.500003189087
426,144,265423,2,0,L|412:23,1,104.500003189087
198,127,265739,6,0,P|181:196|189:244,1,104.500003189087
314,257,266055,2,0,P|331:188|323:140,1,104.500003189087
105,57,266370,6,0,B|90:111|90:111|46:155,1,104.500003189087
407,327,266686,2,0,B|422:273|422:273|466:229,1,104.500003189087
263,11,267002,2,0,L|263:125,1,104.500003189087
244,374,267318,2,0,L|244:260,1,104.500003189087
164,227,267634,5,0,0:0:0:0:
346,171,267791,1,0,0:0:0:0:
335,246,267949,1,0,0:0:0:0:
161,155,268107,1,0,0:0:0:0:
164,227,268265,5,0,0:0:0:0:
346,171,268422,1,0,0:0:0:0:
335,246,268580,1,0,0:0:0:0:
161,155,268738,1,0,0:0:0:0:
496,13,268897,5,0,0:0:0:0:
418,56,269055,5,0,0:0:0:0:
292,106,269213,5,0,0:0:0:0:
230,190,269370,5,0,0:0:0:0:
91,270,269528,5,0,0:0:0:0:
91,270,269607,1,0,0:0:0:0:
91,270,269686,1,0,0:0:0:0:
4,335,269844,5,0,0:0:0:0:
4,335,270160,5,0,0:0:0:0:
171,295,270318,1,0,0:0:0:0:
316,372,270476,1,0,0:0:0:0:
186,272,270634,1,0,0:0:0:0:
381,256,270791,5,0,0:0:0:0:
402,274,270870,1,0,0:0:0:0:
414,294,270949,1,0,0:0:0:0:
415,318,271028,1,0,0:0:0:0:
411,339,271107,1,0,0:0:0:0:
256,199,271265,1,0,0:0:0:0:
131,128,271423,5,0,0:0:0:0:
110,110,271502,1,0,0:0:0:0:
98,90,271581,1,0,0:0:0:0:
97,66,271660,1,0,0:0:0:0:
101,45,271739,1,0,0:0:0:0:
256,199,271897,1,0,0:0:0:0:
258,34,272055,5,0,0:0:0:0:
258,34,272213,1,0,0:0:0:0:
254,350,272370,5,0,0:0:0:0:
254,350,272528,1,0,0:0:0:0:
128,262,272686,1,0,0:0:0:0:
128,262,272765,1,0,0:0:0:0:
128,262,272844,1,0,0:0:0:0:
377,253,273002,2,0,P|429:271|470:317,1,104.500003189087
297,98,273318,2,0,P|263:137|215:155,1,104.500003189087
413,152,273634,5,0,0:0:0:0:
231,270,273791,1,0,0:0:0:0:
213,69,273949,1,0,0:0:0:0:
381,336,274107,1,0,0:0:0:0:
0,0,274265,5,0,0:0:0:0:
0,0,274423,5,0,0:0:0:0:
0,0,274581,5,0,0:0:0:0:
0,0,274739,5,0,0:0:0:0:
0,0,274897,5,0,0:0:0:0:
0,0,275055,5,0,0:0:0:0:
256,192,275213,12,0,284370,2:0:0:0:
