osu file format v14

[General]
AudioFilename: audio.mp3
AudioLeadIn: 0
PreviewTime: 206877
Countdown: 0
SampleSet: Normal
StackLeniency: 0.5
Mode: 0
LetterboxInBreaks: 0
WidescreenStoryboard: 1

[Editor]
Bookmarks: 34077,47277,60077,72877,85677,98477,111277,124077,136877,149677,162477,175277,188077,200877,213677,226477,239277,252077,264877
DistanceSpacing: 1.8
BeatDivisor: 4
GridSize: 4
TimelineZoom: 1.8

[Metadata]
Title:sheltered and abandoned
TitleUnicode:sheltered and abandoned
Artist:Luschka
ArtistUnicode:ルシュカ
Creator:Myahkey
Version:collab insane
Source:
Tags:yuyoyuppe ゆよゆっぺ tsumugi-chan mugi pandahero tears of today totp-0012 rock japanese
BeatmapID:2571835
BeatmapSetID:1236025

[Difficulty]
HPDrainRate:5
CircleSize:4
OverallDifficulty:7
ApproachRate:8.2
SliderMultiplier:1.4
SliderTickRate:1

[Events]
//Background and Video events
0,0,"Shuuichi.(Pixiv519963).full.675219.jpg",0,0
//Break Periods
//Storyboard Layer 0 (Background)
//Storyboard Layer 1 (Fail)
//Storyboard Layer 2 (Pass)
//Storyboard Layer 3 (Foreground)
//Storyboard Layer 4 (Overlay)
//Storyboard Sound Samples

[TimingPoints]
798,469.483568075117,4,2,1,15,1,0
1268,469.483568075117,4,2,1,15,1,0
1268,-333.333333333333,4,2,1,15,0,0
6901,-333.333333333333,4,2,1,25,0,0
7840,-333.333333333333,4,2,1,20,0,0
8721,-333.333333333333,4,2,1,15,0,0
16232,-333.333333333333,4,2,1,20,0,0
19577,-333.333333333333,4,2,1,30,0,0
19988,-333.333333333333,4,2,1,20,0,0
21925,-333.333333333333,4,2,1,30,0,0
22864,-333.333333333333,4,2,1,20,0,0
23803,465.116279069767,4,2,1,15,1,0
23803,-333.333333333333,4,2,1,15,0,0
25663,483.870967741935,4,2,1,15,1,0
25663,-100,4,2,1,15,0,0
26630,465.116279069767,4,2,1,15,1,0
26630,-333.333333333333,4,2,1,15,0,0
27500,-333.333333333333,4,2,1,25,0,0
27517,-100,4,2,1,25,0,0
27560,461.538461538462,4,2,1,45,1,0
29329,-100,4,2,1,45,0,0
29406,472.44094488189,4,2,1,30,1,0
30336,-100,4,2,1,35,0,0
30350,-100,4,2,1,35,0,0
30823,-100,4,2,1,35,0,0
30877,400,4,1,1,30,1,0
32077,-100,4,1,1,40,0,0
32877,-100,4,1,1,50,0,0
33877,-100,4,1,1,65,0,0
34077,-76.9230769230769,4,1,1,65,0,0
34410,-100,4,1,1,65,0,0
34477,400,4,1,1,65,1,0
34477,-100,4,1,1,65,0,0
36077,-83.3333333333333,4,1,1,65,0,0
37677,-76.9230769230769,4,1,1,65,0,0
38077,-83.3333333333333,4,1,1,65,0,0
40477,-83.3333333333333,4,1,1,55,0,0
40877,-76.9230769230769,4,1,1,65,0,0
41277,-100,4,1,1,65,0,0
42477,-83.3333333333333,4,1,1,65,0,0
44077,-71.4285714285714,4,1,1,65,0,0
44477,-90.9090909090909,4,1,1,65,0,0
47277,-71.4285714285714,4,1,1,70,0,0
49677,-100,4,1,1,70,0,0
52077,-71.4285714285714,4,1,1,70,0,0
53677,-100,4,1,1,70,0,0
55877,-66.6666666666667,4,1,1,70,0,0
59677,-66.6666666666667,4,1,1,60,0,0
60077,-66.6666666666667,4,2,1,65,0,0
60477,-125,4,2,1,65,0,0
68477,-100,4,2,1,65,0,0
71277,-90.9090909090909,4,1,1,65,0,0
71677,-125,4,1,1,65,0,0
72877,-100,4,1,1,60,0,0
85677,-166.666666666667,4,1,1,55,0,0
86477,-200,4,1,1,55,0,0
92077,-200,4,1,1,45,0,0
93677,-200,4,1,1,50,0,0
98477,-68.9655172413793,4,2,1,60,0,1
111277,-80,4,1,1,70,0,1
114477,-74.0740740740741,4,1,1,70,0,1
115677,-80,4,1,1,70,0,1
117277,-125,4,1,1,70,0,1
117677,-83.3333333333333,4,1,1,70,0,1
122077,-100,4,1,1,70,0,1
122477,-83.3333333333333,4,1,1,70,0,1
124077,-83.3333333333333,4,1,1,60,0,0
127277,-83.3333333333333,4,1,1,70,0,0
130077,-83.3333333333333,4,1,1,60,0,0
130477,-71.4285714285714,4,1,1,70,0,1
136077,-83.3333333333333,4,1,1,70,0,1
136477,-83.3333333333333,4,1,1,60,0,1
136877,-83.3333333333333,4,1,1,65,0,0
137277,-90.9090909090909,4,1,1,65,0,0
143277,-90.9090909090909,4,3,1,60,0,0
148877,-200,4,3,1,60,0,0
149277,-142.857142857143,4,3,1,60,0,0
154477,-142.857142857143,4,1,1,60,0,0
156077,-100,4,1,1,65,0,0
168477,-83.3333333333333,4,1,1,65,0,0
168877,-100,4,1,1,65,0,0
172077,-76.9230769230769,4,1,1,65,0,0
181677,-76.9230769230769,4,1,1,70,0,1
191677,-125,4,1,1,70,0,1
192077,-83.3333333333333,4,1,1,70,0,1
192477,-125,4,1,1,70,0,1
194077,-52.6315789473684,4,1,1,70,0,1
194477,-52.6315789473684,4,1,1,65,0,0
194877,-52.6315789473684,4,3,1,55,0,0
197277,-166.666666666667,4,3,1,55,0,0
197677,-200,4,3,1,55,0,0
200877,-200,4,1,1,65,0,0
213477,-200,4,1,1,55,0,0
219677,-200,4,3,1,50,0,0
220077,-83.3333333333333,4,1,1,75,0,1
221677,-90.9090909090909,4,1,1,75,0,1
232877,-125,4,1,1,65,0,0
245677,-125,4,1,1,75,0,1
250477,-125,4,1,1,55,0,0
251677,-83.3333333333333,4,1,1,55,0,0
252077,-83.3333333333333,4,1,1,65,0,1
258077,-83.3333333333333,4,1,1,55,0,1
258477,-83.3333333333333,4,1,1,65,0,0
264477,-83.3333333333333,4,1,1,60,0,0
264877,-83.3333333333333,4,1,1,70,0,0
266477,-125,4,1,1,70,0,0
266877,-117.647058823529,4,1,1,70,0,0
267277,-111.111111111111,4,1,1,70,0,0
267677,-105.263157894737,4,1,1,70,0,0
268077,-62.5,4,1,1,70,0,0
269677,-125,4,1,1,70,0,0
270077,-100,4,1,1,70,0,0

[Colours]
Combo1 : 130,62,64
Combo2 : 128,128,128
Combo3 : 128,128,64
Combo4 : 199,173,146

[HitObjects]
0,67,1268,6,0,P|69:25|134:70,1,167.999994873047,2|0,0:0|0:0,0:0:0:0:
512,317,5023,6,0,P|438:357|370:309,1,167.999994873047,0|2,0:0|0:0,0:0:0:0:
256,194,7840,1,2,0:0:0:0:
151,322,8779,2,0,L|236:334,1,83.9999974365235,0|2,0:0|0:0,0:0:0:0:
361,62,10657,2,0,L|276:50,1,83.9999974365235
256,192,12535,1,0,0:0:0:0:
256,192,13474,1,2,0:0:0:0:
214,255,14413,1,2,0:0:0:0:
299,128,15352,1,2,1:2:0:0:
512,67,16291,6,0,P|447:30|373:80,1,167.999994873047
0,317,20047,6,0,P|65:354|139:304,1,167.999994873047,0|2,0:0|0:0,0:0:0:0:
67,279,23333,5,0,0:0:0:0:
137,219,23803,2,0,L|120:136,2,83.9999974365235,0|2|2,0:0|0:0|0:0,0:0:0:0:
374,298,26630,2,0,L|396:210,1,83.9999974365235,2|0,0:0|0:0,0:0:0:0:
343,155,28483,1,0,0:0:0:0:
282,212,29406,1,2,0:0:0:0:
132,59,30350,1,0,0:0:0:0:
256,192,30877,12,0,33677,2:0:0:0:
258,317,33877,5,0,0:0:0:0:
257,40,34077,2,0,B|246:122|280:95|257:203,1,136.499993751526,8|0,0:0|2:0,0:0:0:0:
262,175,34477,6,0,L|162:167,1,70,4|0,0:0|0:0,0:0:0:0:
97,90,34877,1,8,0:2:0:0:
3,163,35077,1,4,0:3:0:0:
80,184,35277,1,8,0:0:0:0:
17,134,35477,1,0,0:0:0:0:
187,45,35677,6,0,L|287:36,1,70,8|4,0:0|0:3,0:0:0:0:
360,152,36077,6,0,P|427:154|459:266,1,167.999994873047,0|8,0:0|0:2,0:0:0:0:
392,236,36677,1,4,0:3:0:0:
256,300,36877,2,0,P|253:256|259:207,1,83.9999974365235,8|0,0:0|0:0,0:0:0:0:
24,132,37277,1,8,0:0:0:0:
95,121,37477,1,4,0:3:0:0:
30,235,37677,6,0,B|19:317|53:290|30:398,1,136.499993751526,4|0,0:2|2:0,0:0:0:0:
35,370,38077,2,0,L|128:378,1,83.9999974365235,8|4,0:2|0:3,0:0:0:0:
292,312,38477,2,0,L|199:320,1,83.9999974365235,8|0,0:0|0:0,0:0:0:0:
343,224,38877,1,8,0:0:0:0:
414,235,39077,1,0,0:0:0:0:
495,306,39277,5,8,0:0:0:0:
399,328,39477,1,0,0:0:0:0:
392,142,39677,1,8,0:0:0:0:
488,164,39877,1,0,0:0:0:0:
414,235,40077,5,4,0:3:0:0:
256,204,40277,5,4,0:3:0:0:
98,235,40477,5,8,0:0:0:0:
33,17,40877,6,0,P|19:79|31:188,1,136.499993751526,4|0,0:0|2:0,0:0:0:0:
21,151,41277,2,0,L|109:159,1,70,8|0,0:2|0:0,0:0:0:0:
256,44,41677,5,10,0:0:0:0:
232,186,41877,1,0,0:0:0:0:
178,136,42077,1,10,0:0:0:0:
314,91,42277,1,0,0:0:0:0:
391,220,42477,6,0,P|477:236|499:325,1,167.999994873047,0|8,0:0|0:2,0:0:0:0:
426,311,43077,1,0,0:0:0:0:
318,384,43277,2,0,P|310:349|316:289,1,83.9999974365235,10|0,0:0|0:0,0:0:0:0:
184,200,43677,1,10,0:0:0:0:
189,276,43877,1,0,0:0:0:0:
16,356,44077,6,0,P|10:292|36:186,1,146.999995513916,4|0,0:2|2:0,0:0:0:0:
25,211,44477,2,0,L|115:224,1,77.0000023498536,8|0,0:2|0:0,0:0:0:0:
256,96,44877,1,10,0:0:0:0:
256,96,45277,2,0,P|251:57|249:-5,1,77.0000023498536,10|0,0:0|0:0,0:0:0:0:
98,4,45677,5,4,0:0:0:0:
114,155,45877,1,8,0:0:0:0:
177,110,46077,1,8,0:0:0:0:
166,37,46277,1,4,0:3:0:0:
38,124,46477,5,8,0:3:0:0:
256,96,46677,5,4,0:3:0:0:
469,122,46877,5,8,0:0:0:0:
99,328,47277,6,0,P|53:256|141:279,1,195.999994018555,4|8,0:0|0:0,0:0:0:0:
243,343,47877,1,4,0:3:0:0:
258,333,48077,2,0,P|274:279|265:237,1,97.9999970092774,12|0,0:2|0:0,0:0:0:0:
176,147,48477,5,12,0:2:0:0:
265,239,48677,1,4,0:3:0:0:
104,180,48877,1,4,0:0:0:0:
443,340,49277,6,0,B|479:304|479:304|461:196,1,146.999995513916,8|0,0:0|2:0,0:0:0:0:
458,182,49677,2,0,P|419:189|368:179,1,70,12|0,0:2|0:0,0:0:0:0:
280,40,50077,5,12,0:2:0:0:
297,169,50277,1,4,0:3:0:0:
315,298,50477,1,4,0:0:0:0:
51,22,50877,5,8,0:0:0:0:
32,101,51077,1,4,0:3:0:0:
136,76,51277,5,12,0:2:0:0:
134,164,51477,1,0,0:0:0:0:
220,135,51677,5,12,0:2:0:0:
237,221,51877,1,0,0:0:0:0:
325,40,52077,6,0,B|357:79|357:79|343:139,1,97.9999970092774,8|4,0:0|0:3,0:0:0:0:
459,222,52477,2,0,B|427:183|427:183|446:105,1,97.9999970092774,8|4,0:3|0:3,0:0:0:0:
354,267,52877,5,4,0:3:0:0:
414,339,53077,1,4,0:3:0:0:
243,300,53277,1,8,0:0:0:0:
157,341,53477,1,8,0:3:0:0:
157,341,53677,6,0,B|87:320|87:320|13:370,1,140,4|6,0:0|0:0,0:0:0:0:
49,218,54277,1,8,0:0:0:0:
83,301,54477,1,4,0:2:0:0:
182,134,54677,1,8,0:0:0:0:
171,248,54877,1,12,0:0:0:0:
334,351,55077,1,4,0:3:0:0:
334,351,55277,6,0,B|296:290|296:290|307:218,1,140,4|10,0:0|0:0,0:0:0:0:
399,150,55877,2,0,P|453:157|508:173,1,105.000004005432,4|4,0:3|0:2,0:0:0:0:
323,81,56277,1,8,0:2:0:0:
241,19,56477,2,0,P|183:24|122:39,1,105.000004005432,4|4,0:2|0:3,0:0:0:0:
34,166,56877,1,12,0:0:0:0:
347,346,57277,5,6,0:0:0:0:
176,259,57477,1,8,0:0:0:0:
393,267,57677,1,4,0:2:0:0:
454,195,57877,1,4,0:3:0:0:
367,34,58077,1,8,0:0:0:0:
285,244,58377,5,8,0:0:0:0:
285,244,58477,1,4,0:0:0:0:
221,325,58677,1,8,0:0:0:0:
122,290,58877,1,8,0:0:0:0:
117,188,59077,1,8,0:3:0:0:
307,126,59277,5,8,0:0:0:0:
307,126,59477,1,4,0:3:0:0:
89,51,59677,1,12,0:0:0:0:
89,51,60077,5,0,1:0:0:0:
166,26,60277,1,0,0:0:0:0:
166,26,60477,2,0,P|172:60|165:102,1,56,8|0,0:0|0:0,0:0:0:0:
219,165,60877,2,0,P|163:161|100:171,1,112,4|8,1:3|0:0,0:0:0:0:
37,143,61477,1,0,0:0:0:0:
0,211,61677,2,0,P|-2:245|3:287,1,56,4|0,1:3|0:0,0:0:0:0:
55,320,62077,1,8,0:0:0:0:
212,292,62377,5,8,0:3:0:0:
212,292,62477,2,0,L|145:301,1,56,4|2,1:3|0:3,0:0:0:0:
279,257,62877,2,0,P|311:263|355:266,1,56,8|0,0:0|0:0,0:0:0:0:
343,341,63277,1,4,1:3:0:0:
406,306,63477,1,0,0:0:0:0:
498,356,63677,5,8,0:0:0:0:
498,356,64077,2,0,P|501:298|496:236,1,112,4|8,1:3|0:0,0:0:0:0:
512,168,64677,1,0,0:0:0:0:
438,170,64877,2,0,L|380:178,1,56,4|4,1:3|1:3,0:0:0:0:
248,144,65277,2,0,L|306:152,1,56,8|8,0:0|1:3,0:0:0:0:
327,137,65577,1,8,1:3:0:0:
348,148,65677,1,4,1:3:0:0:
185,186,65877,5,4,0:3:0:0:
158,190,65977,1,4,0:3:0:0:
132,196,66077,1,8,0:0:0:0:
15,129,66277,5,8,1:3:0:0:
42,133,66377,1,8,1:3:0:0:
68,139,66477,1,4,0:0:0:0:
136,78,66677,1,0,0:0:0:0:
63,88,66877,1,8,0:0:0:0:
64,222,67077,1,2,0:3:0:0:
137,232,67277,1,4,1:3:0:0:
137,232,67677,5,8,0:0:0:0:
256,196,67877,1,0,0:0:0:0:
199,149,68077,1,4,1:3:0:0:
200,276,68277,1,0,0:0:0:0:
340,228,68477,6,0,L|328:156,1,70,8|0,0:0|0:0,0:0:0:0:
379,105,68777,1,0,0:0:0:0:
379,105,68877,1,4,1:3:0:0:
411,252,69077,1,2,0:3:0:0:
256,196,69277,1,8,0:0:0:0:
116,308,69677,6,0,L|128:236,1,70,4|0,1:2|0:0,0:0:0:0:
77,185,70077,1,8,0:0:0:0:
45,332,70277,1,2,0:3:0:0:
200,276,70477,1,4,1:3:0:0:
188,352,70677,1,0,0:0:0:0:
17,249,70877,1,8,0:0:0:0:
256,196,71277,6,0,L|276:66,1,115.50000352478,4|0,0:0|2:0,0:0:0:0:
198,95,71677,2,0,L|188:33,1,56,12|0,0:2|0:0,0:0:0:0:
344,132,72077,5,4,0:3:0:0:
160,168,72277,1,8,0:0:0:0:
288,304,72477,1,8,0:0:0:0:
507,99,72877,6,0,B|470:73|470:73|358:95,1,140,4|8,0:0|0:0,0:0:0:0:
353,169,73477,1,6,0:3:0:0:
424,296,73677,2,0,P|435:226|438:156,1,140,4|8,0:3|0:0,0:0:0:0:
512,218,74277,1,2,0:3:0:0:
336,249,74477,6,0,P|265:264|189:288,1,140,0|8,0:0|0:0,0:0:0:0:
283,337,75077,1,2,0:3:0:0:
303,176,75277,1,4,0:3:0:0:
303,176,75477,1,0,0:0:0:0:
437,258,75677,1,12,0:0:0:0:
101,320,76077,5,4,0:0:0:0:
227,90,76477,2,0,L|144:111,1,70,8|2,0:0|0:3,0:0:0:0:
35,59,76877,1,4,0:3:0:0:
36,138,77077,1,0,0:0:0:0:
108,32,77277,1,8,0:0:0:0:
107,170,77477,1,2,0:3:0:0:
304,73,77677,6,0,B|341:66|341:66|438:113,2,140,4|8|8,0:3|0:0|0:0,0:0:0:0:
336,165,78677,1,4,0:3:0:0:
161,200,78877,1,8,0:0:0:0:
149,299,79077,1,8,0:3:0:0:
359,182,79277,5,4,0:0:0:0:
111,27,79677,1,8,0:0:0:0:
123,112,79877,1,2,0:3:0:0:
215,101,80077,1,4,0:3:0:0:
203,16,80277,1,0,0:0:0:0:
68,182,80477,1,8,0:0:0:0:
137,248,80677,1,2,0:3:0:0:
137,248,80877,6,0,B|159:277|159:277|133:379,1,140,4|8,0:2|0:0,0:0:0:0:
314,287,81677,1,4,0:3:0:0:
220,207,81877,1,0,0:0:0:0:
60,291,82077,1,8,0:0:0:0:
77,109,82277,1,8,0:0:0:0:
107,182,82477,1,4,0:0:0:0:
84,101,82877,5,8,0:0:0:0:
114,174,83077,1,0,0:0:0:0:
179,8,83277,5,8,0:0:0:0:
170,103,83477,1,0,0:0:0:0:
298,40,83677,5,8,0:0:0:0:
252,139,83877,1,4,0:3:0:0:
289,208,84077,5,4,0:3:0:0:
357,170,84277,1,4,0:3:0:0:
425,210,84477,1,8,0:3:0:0:
487,89,84677,5,8,0:3:0:0:
495,10,84877,1,4,0:3:0:0:
331,68,85077,1,8,0:0:0:0:
502,109,85277,5,8,0:0:0:0:
424,132,85477,1,4,0:3:0:0:
464,222,85677,6,0,P|467:252|467:264,1,41.9999987182618,4|0,0:0|0:0,0:0:0:0:
490,334,86077,1,2,0:3:0:0:
429,377,86277,1,0,0:0:0:0:
429,377,86477,2,0,P|392:373|351:379,1,70,2|2,0:3|0:3,0:0:0:0:
220,364,87077,5,8,0:2:0:0:
248,296,87277,2,0,L|245:258,1,35,4|0,0:3|0:0,0:0:0:0:
202,201,87677,1,2,0:3:0:0:
202,201,88077,1,4,0:3:0:0:
133,179,88277,1,8,0:0:0:0:
63,203,88477,1,8,0:0:0:0:
32,272,88677,1,4,0:3:0:0:
100,306,88877,2,0,P|134:302|176:305,1,70,4|2,0:2|0:3,0:0:0:0:
281,225,89477,5,8,0:2:0:0:
281,225,89877,1,8,0:2:0:0:
342,268,90077,1,8,0:2:0:0:
414,255,90277,1,4,0:3:0:0:
456,191,90477,2,0,L|453:153,1,35,2|0,0:3|0:0,0:0:0:0:
410,91,90877,2,0,P|413:71|414:48,1,35,8|0,0:2|0:0,0:0:0:0:
336,36,91277,5,4,0:3:0:0:
267,62,91477,1,8,0:2:0:0:
194,39,91677,1,8,0:2:0:0:
72,84,91877,5,8,0:0:0:0:
93,76,91977,1,8,0:0:0:0:
114,69,92077,1,4,0:0:0:0:
68,2,92277,1,8,0:0:0:0:
0,113,92477,1,8,0:0:0:0:
134,145,92677,1,8,0:0:0:0:
288,98,92877,5,4,0:3:0:0:
216,83,93077,1,4,0:3:0:0:
290,224,93277,1,4,0:3:0:0:
217,242,93477,1,4,0:3:0:0:
238,159,93677,5,4,0:2:0:0:
390,216,93877,1,8,0:0:0:0:
343,363,94077,1,8,0:0:0:0:
181,309,94277,1,8,0:0:0:0:
363,146,94477,5,4,0:3:0:0:
497,178,94677,1,4,0:3:0:0:
429,289,94877,1,4,0:3:0:0:
359,222,95077,1,8,0:2:0:0:
390,216,95177,1,8,0:2:0:0:
420,215,95277,1,4,0:2:0:0:
285,269,95477,5,8,0:0:0:0:
241,274,95577,1,8,0:0:0:0:
199,274,95677,1,8,0:0:0:0:
156,277,95777,1,8,0:0:0:0:
114,286,95877,1,8,0:0:0:0:
72,286,95977,1,8,0:0:0:0:
36,264,96077,1,8,0:3:0:0:
17,226,96177,1,8,0:3:0:0:
26,184,96277,1,8,0:3:0:0:
56,156,96377,1,8,0:3:0:0:
92,136,96477,1,4,0:3:0:0:
108,96,96577,1,4,0:3:0:0:
94,56,96677,1,4,0:3:0:0:
53,37,96777,1,4,0:3:0:0:
13,51,96877,5,4,0:0:0:0:
256,100,97277,5,4,0:3:0:0:
512,68,97677,5,4,0:3:0:0:
0,266,98477,6,0,P|117:275|228:315,1,203.000006195069,4|8,1:0|0:1,0:0:0:0:
187,217,99077,1,0,2:0:0:0:
84,350,99277,1,8,0:1:0:0:
84,350,99477,1,8,0:1:0:0:
2,265,99677,1,4,1:3:0:0:
2,265,99877,6,0,B|46:230|46:230|26:116,1,152.250004646301,8|0,0:1|2:0,0:0:0:0:
29,135,100277,2,0,P|82:119|148:124,1,101.500003097534,8|8,0:1|0:1,0:0:0:0:
192,174,100677,5,4,0:3:0:0:
156,260,100877,1,4,1:3:0:0:
202,344,101077,1,4,0:3:0:0:
273,141,101277,1,8,0:1:0:0:
335,251,101477,1,0,1:0:0:0:
477,149,101677,6,0,B|493:187|493:187|462:264,1,101.500003097534,4|0,1:0|0:0,0:0:0:0:
402,89,102077,2,0,L|285:120,1,101.500003097534,8|0,0:1|1:0,0:0:0:0:
132,30,102477,2,0,L|270:52,1,101.500003097534,8|0,0:1|1:0,0:0:0:0:
303,114,102877,1,4,1:3:0:0:
250,309,103077,1,8,0:1:0:0:
191,236,103277,5,4,1:0:0:0:
383,287,103477,1,8,0:1:0:0:
480,161,103677,5,8,0:1:0:0:
509,265,103877,1,0,2:0:0:0:
454,169,104077,1,8,0:1:0:0:
437,349,104277,1,4,1:3:0:0:
437,349,104477,1,8,0:1:0:0:
480,27,104877,6,0,P|367:33|257:61,1,203.000006195069,4|8,1:0|0:1,0:0:0:0:
82,87,105477,2,0,B|112:80|112:80|180:138,1,101.500003097534,0|8,2:0|0:1,0:0:0:0:
165,125,106077,5,0,1:0:0:0:
104,216,106277,1,8,1:1:0:0:
204,326,106477,2,0,P|302:321|382:350,1,152.250004646301,4|0,1:3|0:0,0:0:0:0:
376,346,106877,2,0,L|356:234,1,101.500003097534,0|0,1:0|2:0,0:0:0:0:
492,159,107277,2,0,L|482:274,1,101.500003097534,8|4,0:1|0:3,0:0:0:0:
342,173,107677,5,8,0:1:0:0:
492,159,107877,1,0,1:0:0:0:
401,95,108077,1,4,1:0:0:0:
284,246,108277,5,8,0:1:0:0:
483,260,108477,1,8,0:1:0:0:
431,334,108677,1,4,1:3:0:0:
227,292,108877,5,8,0:1:0:0:
69,321,109077,1,8,0:1:0:0:
130,375,109277,2,0,P|123:324|139:271,1,101.500003097534,0|8,1:0|0:1,0:0:0:0:
26,241,109677,6,0,P|144:228|253:174,1,203.000006195069,4|8,1:0|0:1,0:0:0:0:
161,120,110277,1,8,0:3:0:0:
161,120,110377,1,8,0:3:0:0:
161,120,110477,1,4,0:3:0:0:
228,37,110677,1,4,0:3:0:0:
337,229,110877,1,8,1:0:0:0:
348,201,110977,1,8,1:0:0:0:
348,171,111077,1,8,1:0:0:0:
340,142,111177,1,8,1:0:0:0:
322,118,111277,1,4,0:0:0:0:
72,244,111677,5,8,0:0:0:0:
52,320,111877,1,0,0:0:0:0:
108,272,112077,1,8,0:3:0:0:
28,288,112277,1,2,0:3:0:0:
152,144,112477,5,8,0:0:0:0:
172,220,112677,1,4,0:3:0:0:
112,172,112877,2,0,L|126:70,1,87.5,0|2,0:0|0:0,0:0:0:0:
32,8,113277,2,0,L|46:110,1,87.5,10|2,0:0|0:3,0:0:0:0:
368,136,113677,6,0,L|354:238,1,87.5,2|0,0:0|0:0,0:0:0:0:
456,292,114077,1,8,0:0:0:0:
444,220,114277,1,2,0:0:0:0:
207,86,114477,6,0,P|216:164|228:281,1,189.000000720978,4|8,0:0|0:0,0:0:0:0:
295,316,115077,1,2,0:3:0:0:
356,222,115277,1,8,0:3:0:0:
252,178,115477,1,4,0:3:0:0:
128,316,115677,6,0,L|142:214,1,87.5,8|6,0:0|0:3,0:0:0:0:
40,160,116077,1,4,0:2:0:0:
52,232,116277,1,2,0:0:0:0:
200,116,116477,5,10,0:0:0:0:
72,16,116677,1,0,0:0:0:0:
64,88,116877,1,10,0:0:0:0:
204,36,117077,1,0,0:0:0:0:
325,154,117277,6,0,P|317:185|314:227,1,56,8|2,0:0|0:0,0:0:0:0:
228,204,117677,2,0,L|251:370,1,167.999994873047,4|8,0:0|0:0,0:0:0:0:
328,352,118277,1,2,0:3:0:0:
167,285,118477,1,8,0:3:0:0:
144,354,118677,1,2,0:3:0:0:
352,276,118877,6,0,L|333:175,1,83.9999974365235,8|4,0:0|0:3,0:0:0:0:
427,136,119277,1,2,0:0:0:0:
414,208,119477,1,0,0:0:0:0:
327,99,119677,1,10,0:0:0:0:
460,63,119877,1,2,0:0:0:0:
504,180,120077,6,0,P|491:255|487:353,1,167.999994873047,4|8,0:2|0:0,0:0:0:0:
392,296,120677,1,2,0:0:0:0:
397,375,120877,1,4,0:0:0:0:
353,314,121077,1,0,0:0:0:0:
100,340,121277,5,8,0:0:0:0:
119,268,121477,1,2,0:3:0:0:
189,293,121677,1,8,0:3:0:0:
175,366,121877,1,4,0:3:0:0:
160,120,122077,6,0,P|192:127|230:132,1,70,10|6,0:0|0:3,0:0:0:0:
251,116,122377,1,8,0:0:0:0:
267,140,122477,2,0,P|258:182|249:249,1,83.9999974365235,8|0,0:0|0:0,0:0:0:0:
36,216,122877,5,8,0:0:0:0:
56,144,123077,1,0,0:0:0:0:
456,144,123277,5,8,0:0:0:0:
476,216,123477,1,0,0:0:0:0:
368,124,123677,5,8,0:0:0:0:
368,124,123877,1,0,0:0:0:0:
422,299,124077,1,4,0:0:0:0:
141,346,124677,5,0,0:0:0:0:
141,346,124777,1,0,0:0:0:0:
141,346,124877,2,0,P|146:280|159:212,2,125.999996154785,8|8|8,0:2|0:2|0:2,0:0:0:0:
24,149,125877,1,0,0:0:0:0:
24,149,126077,2,0,P|96:129|202:122,1,167.999994873047,0|8,0:0|0:2,0:0:0:0:
157,222,126677,1,0,0:0:0:0:
322,276,126877,1,8,0:2:0:0:
303,196,127077,1,0,0:0:0:0:
303,196,127177,1,0,0:0:0:0:
303,196,127277,5,4,0:0:0:0:
322,276,127477,1,8,0:0:0:0:
385,120,127677,5,8,0:3:0:0:
377,220,127877,1,8,0:3:0:0:
475,66,128077,5,4,0:3:0:0:
450,192,128277,1,4,0:3:0:0:
320,35,128477,5,8,0:3:0:0:
377,211,128677,1,4,0:3:0:0:
204,164,128877,5,4,0:0:0:0:
477,345,129277,5,8,0:0:0:0:
110,248,129677,5,8,0:0:0:0:
89,364,129877,1,0,0:0:0:0:
89,364,129977,1,0,0:0:0:0:
89,364,130077,1,12,0:0:0:0:
271,289,130477,6,0,P|272:204|216:100,1,195.999994018555,4|8,0:0|0:0,0:0:0:0:
170,188,131077,1,4,0:3:0:0:
105,46,131277,2,0,P|89:91|99:149,1,97.9999970092774,12|0,0:2|0:0,0:0:0:0:
319,112,131677,1,12,0:2:0:0:
279,20,131877,1,4,0:3:0:0:
279,20,132077,1,4,0:0:0:0:
498,81,132477,6,0,P|486:131|485:183,1,97.9999970092774,8|4,0:0|0:3,0:0:0:0:
417,325,132877,2,0,P|411:227|393:131,1,195.999994018555,12|12,0:2|0:2,0:0:0:0:
336,254,133477,1,4,0:3:0:0:
336,254,133677,1,4,0:0:0:0:
17,339,134077,6,0,P|67:336|121:358,1,97.9999970092774,8|4,0:0|0:3,0:0:0:0:
56,197,134477,1,12,0:2:0:0:
70,291,134677,1,0,0:0:0:0:
255,329,134877,1,12,0:2:0:0:
281,239,135077,1,0,0:0:0:0:
166,88,135277,5,8,0:0:0:0:
142,160,135477,1,4,0:3:0:0:
216,179,135677,1,8,0:3:0:0:
239,105,135877,1,4,0:3:0:0:
376,204,136077,6,0,L|354:105,1,83.9999974365235,2|2,0:0|0:3,0:0:0:0:
460,56,136477,1,10,0:0:0:0:
439,132,136677,1,0,0:0:0:0:
417,56,136877,1,4,0:0:0:0:
108,200,137277,6,0,L|24:239,1,77.0000023498536,0|4,0:0|0:3,0:0:0:0:
183,326,137677,1,8,0:2:0:0:
186,251,137877,1,8,0:3:0:0:
37,335,138077,2,0,L|114:373,1,77.0000023498536,8|6,0:2|0:3,0:0:0:0:
279,268,138477,6,0,B|291:180|256:204|268:108,1,154.000004699707,4|8,0:2|0:0,0:0:0:0:
269,42,139077,1,4,0:3:0:0:
380,64,139277,6,0,P|378:112|382:160,1,77.0000023498536,8|0,0:2|0:0,0:0:0:0:
391,214,139677,1,8,0:2:0:0:
177,233,139877,1,10,0:3:0:0:
177,233,140077,6,0,P|179:185|175:137,1,77.0000023498536,4|0,0:0|0:0,0:0:0:0:
165,82,140477,1,8,0:0:0:0:
75,189,140677,5,4,0:3:0:0:
84,111,140877,1,8,0:2:0:0:
274,154,141077,1,4,0:3:0:0:
265,229,141277,1,8,0:2:0:0:
265,229,141477,1,10,0:3:0:0:
165,82,141677,5,4,0:0:0:0:
343,14,141877,1,8,0:0:0:0:
337,88,142077,1,8,0:0:0:0:
158,9,142277,1,8,0:3:0:0:
251,45,142477,5,10,0:0:0:0:
263,191,142677,1,4,0:3:0:0:
250,263,142877,1,10,0:0:0:0:
262,364,143077,1,2,0:3:0:0:
493,309,143277,5,2,0:0:0:0:
493,309,143677,1,2,0:0:0:0:
493,309,144077,1,2,0:0:0:0:
493,309,144477,1,8,0:2:0:0:
493,309,144877,1,4,0:0:0:0:
493,309,145277,5,2,0:0:0:0:
257,268,145477,5,8,0:2:0:0:
30,306,145677,5,0,0:0:0:0:
30,306,146077,5,8,0:2:0:0:
257,268,146477,5,2,0:0:0:0:
257,268,146877,1,2,0:0:0:0:
257,268,147277,1,2,0:0:0:0:
257,268,147677,1,8,0:2:0:0:
257,268,148077,5,4,0:0:0:0:
203,219,148277,1,8,0:0:0:0:
131,227,148477,1,0,0:0:0:0:
91,295,148677,1,8,0:0:0:0:
32,208,148877,6,0,P|35:188|33:158,1,35,4|0,0:0|0:0,0:0:0:0:
88,123,149277,2,0,P|84:100|83:59,1,48.9999985046387,8|8,0:2|0:0,0:0:0:0:
97,60,149577,1,8,0:0:0:0:
111,51,149677,5,2,0:0:0:0:
111,51,150077,1,2,0:0:0:0:
111,51,150477,1,2,0:0:0:0:
111,51,150877,5,8,0:2:0:0:
138,121,151077,1,2,0:0:0:0:
207,144,151277,1,4,0:0:0:0:
275,117,151477,1,0,0:0:0:0:
367,169,151677,6,0,L|360:232,1,48.9999985046387,8|8,0:0|0:2,0:0:0:0:
272,243,152077,2,0,L|286:339,1,97.9999970092774,4|8,0:0|0:2,0:0:0:0:
494,247,152877,5,2,0:0:0:0:
479,165,153077,1,0,0:0:0:0:
467,269,153277,1,2,0:0:0:0:
442,184,153477,1,0,0:0:0:0:
329,188,153677,5,2,0:0:0:0:
343,106,153877,1,0,0:0:0:0:
359,210,154077,1,8,0:2:0:0:
380,125,154277,1,2,0:0:0:0:
412,283,154477,5,2,0:0:0:0:
252,320,154677,1,4,0:2:0:0:
109,283,154877,1,12,0:0:0:0:
86,312,155077,5,4,0:3:0:0:
253,278,155277,1,10,0:0:0:0:
432,316,155477,1,4,0:0:0:0:
412,339,155677,5,4,0:3:0:0:
255,304,155877,1,4,0:2:0:0:
293,157,156077,2,0,P|271:88|260:12,1,140,4|8,0:0|0:0,0:0:0:0:
352,72,156677,5,6,0:3:0:0:
199,149,156877,2,0,P|136:166|59:171,1,140,4|8,0:3|0:0,0:0:0:0:
100,280,157477,5,2,0:3:0:0:
243,232,157677,2,0,P|314:230|407:258,1,140,0|8,0:0|0:0,0:0:0:0:
455,340,158277,1,2,0:3:0:0:
507,154,158477,5,4,0:3:0:0:
415,171,158677,1,0,0:0:0:0:
323,189,158877,1,12,0:0:0:0:
203,27,159277,5,4,0:0:0:0:
290,348,159677,1,8,0:0:0:0:
290,348,159877,1,2,0:3:0:0:
290,348,160077,2,0,L|277:274,2,70,4|0|8,0:3|0:0|0:0,0:0:0:0:
10,144,160877,6,0,P|79:149|158:168,1,140,4|8,0:3|0:0,0:0:0:0:
393,288,161677,2,0,P|404:323|407:364,1,70,8|4,0:0|0:3,0:0:0:0:
490,320,162077,2,0,P|492:269|511:173,1,140,8|4,0:0|0:0,0:0:0:0:
220,120,162877,5,8,0:0:0:0:
292,143,163077,1,2,0:3:0:0:
193,45,163277,2,0,L|100:66,1,70,4|0,0:3|0:0,0:0:0:0:
54,182,163677,2,0,P|40:135|60:23,1,140,8|4,0:0|0:2,0:0:0:0:
476,92,164477,6,0,P|490:139|470:251,1,140,8|4,0:0|0:3,0:0:0:0:
408,204,165077,1,0,0:0:0:0:
284,272,165277,2,0,L|377:251,1,70,8|8,0:0|0:0,0:0:0:0:
216,328,165677,1,4,0:0:0:0:
216,328,166077,2,0,L|122:317,1,70,8|0,0:0|0:0,0:0:0:0:
36,236,166477,5,8,0:0:0:0:
105,206,166677,1,0,0:0:0:0:
31,202,166877,5,8,0:0:0:0:
256,244,167077,5,4,0:3:0:0:
484,204,167277,5,4,0:3:0:0:
31,202,167677,5,8,0:3:0:0:
484,204,168077,5,4,0:3:0:0:
392,4,168477,6,0,P|407:57|396:146,1,125.999996154785,8|0,0:0|0:0,0:0:0:0:
402,128,168877,2,0,L|323:134,1,70,4|0,0:0|0:0,0:0:0:0:
180,48,169277,1,4,0:2:0:0:
252,56,169477,1,0,2:0:0:0:
152,184,169677,1,4,0:0:0:0:
152,184,170177,5,0,0:0:0:0:
152,184,170277,1,8,0:0:0:0:
30,114,170477,1,4,0:0:0:0:
103,99,170677,1,0,0:0:0:0:
94,266,170877,1,4,0:2:0:0:
22,242,171077,1,8,0:0:0:0:
29,221,171177,1,8,0:0:0:0:
36,201,171277,1,0,0:0:0:0:
256,244,171477,5,8,0:0:0:0:
472,200,171677,5,4,0:2:0:0:
384,24,172077,6,0,P|392:91|384:164,1,136.499993751526,4|0,0:0|0:0,0:0:0:0:
398,188,172477,1,4,0:2:0:0:
436,95,172677,1,8,0:0:0:0:
404,4,172877,1,4,0:2:0:0:
104,88,173277,5,8,0:0:0:0:
104,88,173677,2,0,L|179:101,1,45.4999979171754,4|0,0:0|0:0,0:0:0:0:
41,127,173977,1,8,0:0:0:0:
41,127,174077,1,4,0:2:0:0:
137,19,174277,1,8,0:0:0:0:
245,115,174477,5,4,0:0:0:0:
242,148,174577,1,4,0:3:0:0:
243,183,174677,1,4,0:3:0:0:
240,215,174777,1,4,0:3:0:0:
238,249,174877,1,8,0:3:0:0:
235,282,174977,1,8,0:3:0:0:
236,317,175077,1,8,0:3:0:0:
233,349,175177,1,8,0:3:0:0:
304,376,175277,5,4,0:0:0:0:
304,376,175677,1,4,0:2:0:0:
304,376,176077,1,4,0:0:0:0:
304,376,176477,1,4,0:2:0:0:
236,317,176677,1,8,0:0:0:0:
236,317,176877,6,0,P|191:321|138:335,2,90.9999958343508,4|0|4,0:0|0:0|0:2,0:0:0:0:
268,220,177477,1,8,0:0:0:0:
272,229,177577,1,8,0:0:0:0:
276,239,177677,2,0,P|364:249|468:279,1,181.999991668702,0|4,0:0|0:2,0:0:0:0:
453,273,178477,5,4,0:0:0:0:
375,131,178877,2,0,L|359:220,1,90.9999958343508,4|8,0:2|0:0,0:0:0:0:
473,182,179277,1,4,0:0:0:0:
255,261,179677,1,8,0:0:0:0:
39,182,180077,5,8,0:0:0:0:
474,184,180477,5,8,0:3:0:0:
308,28,180877,5,8,0:0:0:0:
192,124,181077,1,8,0:3:0:0:
320,377,181277,2,0,P|310:309|275:227,1,136.499993751526,8|4,0:0|0:3,0:0:0:0:
271,238,181677,1,4,0:0:0:0:
185,308,181977,5,8,0:0:0:0:
185,308,182077,1,0,0:0:0:0:
101,270,182277,1,8,0:0:0:0:
139,188,182477,1,0,1:0:0:0:
139,188,182577,1,8,0:2:0:0:
405,245,182877,5,8,0:0:0:0:
395,205,182977,1,8,0:0:0:0:
384,165,183077,1,8,0:0:0:0:
301,121,183277,5,4,0:2:0:0:
137,188,183477,1,8,0:2:0:0:
134,23,183677,1,12,0:2:0:0:
187,93,183977,5,4,0:3:0:0:
187,93,184077,1,4,0:3:0:0:
263,20,184277,2,0,L|256:58,2,30.3333319447836,8|8|8,0:3|0:3|0:3,0:0:0:0:
288,12,184477,2,2,P|378:18|476:44,1,181.999991668702,4|4,0:2|0:0,0:0:0:0:
467,41,185277,5,12,0:0:0:0:
243,328,185677,5,8,0:0:0:0:
255,190,185977,5,8,0:0:0:0:
270,48,186277,5,8,0:0:0:0:
104,110,186477,6,0,L|121:218,1,90.9999958343508,4|4,0:0|0:2,0:0:0:0:
0,278,186877,2,0,L|16:170,1,90.9999958343508,4|4,0:0|0:2,0:0:0:0:
99,313,187277,5,8,0:3:0:0:
99,313,187343,5,8,0:3:0:0:
99,313,187410,6,0,L|89:273,3,30.3333319447836,8|8|8|8,0:3|0:3|0:3|0:3,0:0:0:0:
115,328,187677,6,0,B|157:307|157:307|293:352,1,181.999991668702,8|4,0:0|0:0,0:0:0:0:
439,93,188377,5,8,0:0:0:0:
439,93,188477,2,0,L|394:100,1,45.4999979171754,0|0,0:0|2:0,0:0:0:0:
508,120,188677,1,12,0:0:0:0:
405,24,188877,1,0,1:0:0:0:
405,24,188977,1,8,0:2:0:0:
316,156,189277,5,8,0:0:0:0:
313,189,189377,1,8,0:0:0:0:
314,224,189477,1,8,0:0:0:0:
311,256,189577,1,8,0:0:0:0:
309,290,189677,1,4,0:0:0:0:
391,281,189877,1,8,0:0:0:0:
400,356,190077,1,12,0:0:0:0:
36,328,190377,5,8,0:2:0:0:
36,328,190477,1,8,0:2:0:0:
175,221,190677,1,8,0:3:0:0:
102,193,190877,1,8,0:0:0:0:
103,231,190977,1,8,0:0:0:0:
111,266,191077,1,8,0:0:0:0:
111,303,191177,1,8,0:0:0:0:
115,339,191277,5,4,0:0:0:0:
368,192,191677,6,0,L|304:196,1,56,4|0,0:2|0:0,0:0:0:0:
495,44,192077,2,0,P|508:104|488:196,1,125.999996154785,4|0,0:0|2:0,0:0:0:0:
499,167,192477,2,2,L|423:159,1,56,4|0,0:2|0:0,0:0:0:0:
255,248,192877,5,8,0:0:0:0:
210,255,192977,1,8,0:0:0:0:
165,230,193077,1,8,0:0:0:0:
148,189,193177,1,8,0:0:0:0:
161,147,193277,1,8,0:3:0:0:
187,105,193377,1,8,0:3:0:0:
185,54,193477,1,8,0:3:0:0:
150,20,193577,1,8,0:3:0:0:
102,25,193677,1,4,0:3:0:0:
79,72,193777,5,0,0:0:0:0:
79,72,193877,2,0,P|75:86|76:96,2,18.6666666666667,4|4|4,0:3|0:3|0:3,0:0:0:0:
0,141,194077,6,0,P|17:168|19:235,1,66.4999982242585,8|8,0:0|0:0,0:0:0:0:
91,241,194277,2,0,B|76:270|76:270|91:334,1,66.4999982242585,8|8,0:0|0:0,0:0:0:0:
38,362,194477,5,4,1:0:0:0:
38,362,194877,1,4,0:3:0:0:
38,362,195277,1,4,0:0:0:0:
38,362,195677,1,4,0:0:0:0:
256,324,195877,5,8,0:2:0:0:
464,360,196077,5,4,0:2:0:0:
464,360,196477,1,4,0:0:0:0:
464,360,196877,1,4,0:0:0:0:
390,375,197077,1,8,1:0:0:0:
328,336,197277,2,0,P|329:315|329:287,1,41.9999987182618,8|2,1:0|0:0,0:0:0:0:
375,238,197677,6,0,P|372:199|372:156,1,70,4|4,1:0|0:0,0:0:0:0:
318,114,198277,1,8,1:0:0:0:
318,114,198677,1,8,0:1:0:0:
375,64,198877,2,0,P|392:65|422:65,1,35,8|2,0:1|0:0,0:0:0:0:
484,46,199277,2,0,P|482:83|485:130,1,70,4|4,0:2|0:0,0:0:0:0:
483,115,200077,5,4,0:0:0:0:
409,107,200277,1,8,0:1:0:0:
339,128,200477,1,8,1:0:0:0:
269,116,200677,1,8,0:3:0:0:
269,116,200777,1,8,0:3:0:0:
269,116,200877,5,4,0:0:0:0:
244,195,201077,1,8,0:0:0:0:
73,218,201277,1,8,0:0:0:0:
41,144,201477,1,8,0:0:0:0:
140,25,201677,5,4,0:3:0:0:
119,124,201877,1,4,0:3:0:0:
175,275,202077,1,4,0:3:0:0:
148,371,202277,1,4,0:3:0:0:
364,296,202477,5,4,0:2:0:0:
252,332,202677,1,8,0:0:0:0:
278,106,202877,1,8,0:0:0:0:
373,172,203077,1,8,0:0:0:0:
199,182,203277,5,4,0:3:0:0:
278,106,203477,1,4,0:3:0:0:
186,36,203677,1,4,0:3:0:0:
118,113,203877,1,8,0:0:0:0:
118,113,203977,1,8,0:0:0:0:
118,113,204077,1,4,0:0:0:0:
19,268,204277,5,8,0:0:0:0:
59,251,204377,1,8,0:0:0:0:
103,247,204477,1,8,0:0:0:0:
145,259,204577,1,8,0:0:0:0:
181,284,204677,1,8,0:0:0:0:
218,307,204777,1,8,0:0:0:0:
262,309,204877,1,8,0:3:0:0:
298,284,204977,1,8,0:3:0:0:
309,241,205077,1,8,0:3:0:0:
284,204,205177,1,8,0:3:0:0:
245,181,205277,1,4,0:3:0:0:
224,141,205377,1,4,0:3:0:0:
228,96,205477,1,4,0:3:0:0:
253,59,205577,1,4,0:3:0:0:
297,55,205677,5,4,0:0:0:0:
297,55,206077,1,4,0:2:0:0:
297,55,206477,1,4,0:0:0:0:
504,264,207277,6,0,B|347:219|259:349,1,280,4|4,2:0|2:0,2:0:0:0:
7,119,210477,6,0,B|164:164|252:34,1,280,4|4,2:0|2:0,2:0:0:0:
252,35,212677,5,0,0:0:0:0:
237,111,212877,1,0,0:0:0:0:
264,220,213177,5,0,0:0:0:0:
248,336,213477,5,8,0:3:0:0:
248,336,213577,1,8,0:3:0:0:
248,336,213677,2,0,L|203:330,1,35,4|0,0:0|0:0,0:0:0:0:
143,351,214077,2,0,L|103:356,1,35,2|0,0:3|0:0,0:0:0:0:
37,372,214477,2,0,P|31:342|36:297,1,70,2|2,0:3|0:3,0:0:0:0:
28,226,215077,5,8,0:0:0:0:
101,241,215277,1,0,0:0:0:0:
174,226,215477,1,8,0:0:0:0:
252,241,215677,2,0,L|246:196,1,35,8|0,0:0|0:0,0:0:0:0:
260,133,216077,2,0,L|265:93,1,35,2|0,0:3|0:0,0:0:0:0:
257,18,216477,1,8,0:0:0:0:
187,83,216777,5,8,0:3:0:0:
187,83,216877,1,4,0:0:0:0:
361,134,217077,1,8,0:0:0:0:
344,62,217277,5,8,0:0:0:0:
171,159,217477,1,8,0:0:0:0:
225,300,217677,5,8,0:2:0:0:
299,319,217877,1,8,0:2:0:0:
250,384,218077,5,8,0:2:0:0:
250,384,218277,1,8,0:2:0:0:
191,231,218477,5,8,0:0:0:0:
156,233,218577,1,8,0:0:0:0:
121,234,218677,1,8,0:0:0:0:
86,232,218777,1,8,0:0:0:0:
51,229,218877,1,8,0:3:0:0:
17,242,218977,1,8,0:3:0:0:
0,276,219077,1,8,0:3:0:0:
6,313,219177,1,8,0:3:0:0:
37,333,219277,1,4,0:3:0:0:
72,332,219377,1,4,0:3:0:0:
110,331,219477,1,4,0:3:0:0:
144,334,219577,1,4,0:3:0:0:
179,337,219677,5,2,0:0:0:0:
350,96,220077,6,0,P|296:109|201:130,1,125.999996154785,4|0,0:0|2:0,0:0:0:0:
256,150,220477,1,8,0:0:0:0:
412,180,220677,1,0,0:0:0:0:
446,30,220877,1,8,0:3:0:0:
297,0,221077,1,0,0:0:0:0:
355,131,221277,5,8,0:0:0:0:
375,59,221477,1,4,0:3:0:0:
436,110,221677,2,0,P|476:119|544:131,1,77.0000023498536,0|2,0:0|0:0,0:0:0:0:
294,195,222077,5,10,0:0:0:0:
268,124,222277,1,2,0:3:0:0:
213,182,222477,2,0,P|175:191|106:204,1,77.0000023498536,2|0,0:0|0:0,0:0:0:0:
124,126,222877,5,8,0:0:0:0:
171,266,223077,1,2,0:0:0:0:
96,262,223277,2,0,P|58:269|20:278,1,77.0000023498536,4|0,0:0|0:0,0:0:0:0:
286,363,223677,5,8,0:0:0:0:
333,223,223877,1,2,0:3:0:0:
262,248,224077,1,8,0:3:0:0:
362,351,224277,1,4,0:3:0:0:
453,248,224477,5,8,0:0:0:0:
364,136,224677,1,6,0:3:0:0:
431,170,224877,2,0,L|524:179,1,77.0000023498536,4|2,0:2|0:0,0:0:0:0:
442,83,225277,5,10,0:0:0:0:
361,215,225477,1,0,0:0:0:0:
213,138,225677,1,10,0:0:0:0:
293,0,225877,1,0,0:0:0:0:
334,71,226077,5,8,0:0:0:0:
290,137,226277,1,2,0:0:0:0:
213,138,226477,6,0,L|81:120,1,115.50000352478,4|0,0:0|2:0,0:0:0:0:
72,148,226877,1,8,0:0:0:0:
107,242,227077,2,0,L|194:228,1,77.0000023498536,2|8,0:3|0:3,0:0:0:0:
272,210,227477,1,2,0:3:0:0:
242,372,227677,1,8,0:0:0:0:
333,301,227877,1,4,0:3:0:0:
333,301,228077,6,0,P|410:307|492:327,1,154.000004699707,2|10,0:0|0:0,0:0:0:0:
454,222,228677,1,2,0:0:0:0:
371,182,228877,2,0,L|284:192,2,77.0000023498536,4|2|8,0:2|0:0|0:0,0:0:0:0:
268,238,229477,1,2,0:0:0:0:
253,43,229677,1,4,0:0:0:0:
16,150,230077,5,8,0:0:0:0:
141,173,230277,1,2,0:3:0:0:
76,92,230477,1,8,0:3:0:0:
82,233,230677,1,4,0:3:0:0:
199,107,230877,1,10,0:0:0:0:
211,254,231077,1,8,0:3:0:0:
211,254,231177,1,8,0:3:0:0:
211,254,231277,5,8,0:0:0:0:
301,82,231477,1,0,0:0:0:0:
468,169,231677,1,8,0:0:0:0:
380,342,231877,1,0,0:0:0:0:
283,266,232077,6,0,P|280:226|267:157,1,77.0000023498536,8|0,0:0|0:0,0:0:0:0:
468,169,232477,2,0,P|459:208|453:257,1,77.0000023498536,8|0,0:0|0:0,0:0:0:0:
128,137,232877,1,4,0:0:0:0:
129,140,233477,1,4,0:3:0:0:
129,140,233577,1,0,0:0:0:0:
129,140,233677,2,0,L|114:46,1,84,8|8,0:2|0:2,0:0:0:0:
78,238,234277,5,8,0:2:0:0:
78,238,234677,5,4,0:3:0:0:
147,305,234877,1,4,0:3:0:0:
68,254,235277,5,8,0:2:0:0:
165,290,235477,1,0,0:0:0:0:
179,111,235677,1,8,0:2:0:0:
75,136,235877,1,8,0:0:0:0:
75,136,235977,1,8,0:0:0:0:
75,136,236077,1,4,0:0:0:0:
468,182,236677,5,0,0:0:0:0:
468,182,236777,1,0,0:0:0:0:
468,182,236877,2,0,L|368:204,2,84,8|8|8,0:2|0:2|0:2,0:0:0:0:
468,182,237877,5,4,0:3:0:0:
491,105,238077,1,4,0:3:0:0:
424,65,238477,5,8,0:0:0:0:
505,250,238677,1,4,0:3:0:0:
304,322,238877,1,8,0:0:0:0:
332,252,239077,1,8,0:0:0:0:
356,261,239177,1,8,0:0:0:0:
384,270,239277,1,4,0:0:0:0:
231,299,239877,5,4,0:3:0:0:
174,348,240077,2,0,P|113:356|42:372,1,112,8|0,0:2|0:0,0:0:0:0:
4,322,240877,1,4,0:2:0:0:
4,322,241477,5,4,0:3:0:0:
67,280,241677,2,0,P|120:295|177:300,1,112,8|2,0:0|0:0,0:0:0:0:
340,352,242477,6,0,P|392:337|451:326,1,112,4|0,0:0|0:0,0:0:0:0:
432,253,243077,1,0,0:0:0:0:
406,258,243177,1,0,0:0:0:0:
382,265,243277,1,8,0:0:0:0:
311,284,243677,1,4,0:3:0:0:
255,72,244077,5,4,0:0:0:0:
255,72,244477,5,8,0:0:0:0:
239,0,244677,1,4,0:3:0:0:
313,18,244877,5,8,0:0:0:0:
179,52,245077,1,4,0:3:0:0:
222,143,245277,5,8,0:0:0:0:
293,163,245477,1,4,0:3:0:0:
254,304,245677,5,4,0:0:0:0:
315,355,246077,5,8,0:0:0:0:
248,381,246277,1,0,0:0:0:0:
263,229,246477,5,8,0:0:0:0:
324,269,246677,1,0,0:0:0:0:
181,340,246877,5,8,0:0:0:0:
182,268,247077,1,0,0:0:0:0:
254,304,247277,5,4,0:2:0:0:
107,333,247477,1,0,0:0:0:0:
109,107,247677,5,8,0:0:0:0:
256,136,247877,1,0,0:0:0:0:
193,192,248077,5,8,0:0:0:0:
169,46,248277,1,0,0:0:0:0:
332,140,248477,5,8,0:0:0:0:
368,130,248577,1,8,0:0:0:0:
405,126,248677,1,8,0:0:0:0:
442,119,248777,1,8,0:0:0:0:
442,119,248877,5,4,0:0:0:0:
506,156,249077,1,8,0:3:0:0:
499,232,249277,5,8,0:3:0:0:
433,265,249477,1,8,0:3:0:0:
373,219,249677,5,8,0:2:0:0:
506,156,249877,1,8,0:2:0:0:
433,265,250077,5,4,0:3:0:0:
442,119,250277,1,4,0:3:0:0:
464,348,250477,5,4,0:0:0:0:
256,328,250877,5,4,0:2:0:0:
48,344,251277,5,4,0:0:0:0:
32,20,251677,6,0,P|18:81|20:144,1,125.999996154785,8|0,0:0|2:0,0:0:0:0:
20,144,252077,2,0,L|108:152,1,83.9999974365235,4|0,0:0|0:0,0:0:0:0:
259,229,252477,2,0,L|166:236,1,83.9999974365235,8|4,0:0|0:3,0:0:0:0:
127,46,252877,1,12,0:2:0:0:
105,151,253077,1,0,0:0:0:0:
154,338,253277,1,12,0:2:0:0:
175,234,253477,1,4,0:3:0:0:
0,245,253677,1,4,0:0:0:0:
331,318,254077,6,0,L|427:339,1,83.9999974365235,8|4,0:0|0:3,0:0:0:0:
377,147,254477,2,0,P|394:227|486:232,1,167.999994873047,12|12,0:2|0:2,0:0:0:0:
353,233,255077,1,4,0:3:0:0:
489,148,255277,1,4,0:0:0:0:
106,152,255677,5,8,0:0:0:0:
132,55,255877,1,4,0:3:0:0:
291,123,256077,5,12,0:2:0:0:
229,43,256277,1,0,0:0:0:0:
161,237,256477,5,12,0:2:0:0:
258,225,256677,1,0,0:0:0:0:
55,58,256877,6,0,L|41:143,1,83.9999974365235,8|4,0:0|0:3,0:0:0:0:
258,225,257277,2,0,L|236:126,1,83.9999974365235,8|4,0:3|0:3,0:0:0:0:
20,244,257677,5,2,0:0:0:0:
156,248,257877,1,2,0:3:0:0:
241,143,258077,1,10,0:0:0:0:
165,276,258277,5,0,0:0:0:0:
91,147,258477,1,4,0:0:0:0:
401,228,258877,5,0,0:0:0:0:
330,94,259077,1,8,0:0:0:0:
431,137,259277,1,0,0:0:0:0:
290,204,259477,1,8,0:0:0:0:
443,130,259677,1,8,0:2:0:0:
370,338,259877,1,6,0:3:0:0:
370,338,260077,1,4,0:2:0:0:
8,217,260477,5,8,0:0:0:0:
152,270,260677,1,4,0:3:0:0:
92,101,260877,2,0,L|96:200,2,83.9999974365235,8|0|8,0:2|0:0|0:2,0:0:0:0:
177,58,261477,1,10,0:3:0:0:
177,58,261577,1,0,0:0:0:0:
177,58,261677,1,4,0:0:0:0:
177,58,262077,5,8,0:0:0:0:
290,167,262277,1,4,0:3:0:0:
369,34,262477,1,8,0:2:0:0:
260,1,262677,1,4,0:3:0:0:
290,167,262877,1,8,0:2:0:0:
391,126,263077,1,10,0:3:0:0:
391,126,263177,1,4,0:3:0:0:
391,126,263277,6,0,L|377:225,1,83.9999974365235,4|8,0:0|0:0,0:0:0:0:
484,337,263677,2,0,L|467:250,1,83.9999974365235,8|8,0:0|0:3,0:0:0:0:
333,307,264077,1,10,0:0:0:0:
295,174,264277,1,4,0:3:0:0:
295,174,264377,1,0,0:0:0:0:
295,174,264477,1,10,0:0:0:0:
262,357,264877,5,4,0:0:0:0:
14,187,265277,5,2,0:0:0:0:
260,30,265677,5,2,0:0:0:0:
495,194,266077,5,4,0:2:0:0:
495,194,266477,2,0,L|419:210,1,56,4|0,0:0|0:0,0:0:0:0:
373,170,266877,6,0,P|343:175|289:181,1,59.5000011348725,2|0,0:0|0:0,0:0:0:0:
241,167,267277,6,0,P|203:175|149:182,1,62.9999980773926,2|0,0:0|0:0,0:0:0:0:
106,164,267677,6,0,L|13:185,1,66.4999982242585,4|0,0:2|2:0,0:0:0:0:
196,87,268077,6,0,P|251:80|306:70,1,112,4|0,0:0|0:0,0:0:0:0:
324,256,268477,6,0,P|258:265|168:284,1,112,2|0,0:0|0:0,0:0:0:0:
196,87,268877,6,0,P|251:80|306:70,1,112,2|0,0:0|0:0,0:0:0:0:
324,256,269277,6,0,P|258:265|168:284,1,112,4|0,0:2|2:0,0:0:0:0:
359,190,269677,6,0,P|390:197|419:204,1,56,4|0,0:0|2:0,0:0:0:0:
480,168,270077,2,0,P|507:203|503:256,1,70,4|0,0:2|2:0,0:0:0:0:
477,354,270477,5,8,0:2:0:0:
403,342,270677,1,4,0:3:0:0:
86,346,270877,5,8,0:0:0:0:
64,325,270977,1,8,0:0:0:0:
49,352,271077,1,8,0:0:0:0:
28,336,271177,1,8,0:0:0:0:
17,360,271277,1,0,0:0:0:0:
