osu file format v14

[General]
AudioFilename: audio.mp3
AudioLeadIn: 0
PreviewTime: 2029
Countdown: 0
SampleSet: Soft
StackLeniency: 0.2
Mode: 0
LetterboxInBreaks: 0
WidescreenStoryboard: 1

[Editor]
Bookmarks: 32086,50752,69419,88085,106755,125422,141421,157420,166752,176093,194759,213425,231424,247424,263424,298415
DistanceSpacing: 0.6
BeatDivisor: 4
GridSize: 16
TimelineZoom: 2.2

[Metadata]
Title:Watashi no Kakera
TitleUnicode:私の欠片
Artist:Luschka
ArtistUnicode:ルシュカ
Creator:zekk
Version:Eternity
Source:
Tags:japanese pop treow ELECTROCUTICA Sheltered and Abandoned
BeatmapID:4550001
BeatmapSetID:2158286

[Difficulty]
HPDrainRate:6
CircleSize:4
OverallDifficulty:8
ApproachRate:8
SliderMultiplier:1.6
SliderTickRate:1

[Events]
//Background and Video events
0,0,"uwuuruuu.png",0,0
//Break Periods
2,157620,166010
//Storyboard Layer 0 (Background)
//Storyboard Layer 1 (Fail)
//Storyboard Layer 2 (Pass)
//Storyboard Layer 3 (Foreground)
//Storyboard Layer 4 (Overlay)
//Storyboard Sound Samples

[TimingPoints]
32094,333.333333333333,7,2,1,40,1,0
48427,332.723340542339,7,2,1,40,1,0
50756,333.333333333333,7,2,1,40,1,0
50756,-285.714285714284,7,2,1,40,0,0
69422,-138.888888888889,7,2,1,45,0,0
76422,-121.951219512195,7,2,1,45,0,0
76922,-138.888888888889,7,2,1,45,0,0
78755,-117.647058823529,7,2,1,45,0,0
79255,-138.888888888889,7,2,1,45,0,0
83589,-117.647058823529,7,2,1,45,0,0
84089,-138.888888888889,7,2,1,45,0,0
88422,-399.999999999997,7,2,1,45,0,0
92755,-153.846153846153,7,2,1,40,0,0
93755,-399.999999999997,7,2,1,40,0,0
97089,-125,7,2,1,40,0,0
97922,-399.999999999997,7,2,1,40,0,0
102089,-166.666666666667,7,2,1,40,0,0
103422,-333.333333333333,7,2,1,40,0,0
106755,-129.87012987013,7,2,1,50,0,0
116089,-117.647058823529,7,2,1,50,0,0
125422,333.333333333333,6,2,1,40,1,0
125422,-285.714285714284,6,2,1,40,0,0
132422,-153.846153846153,6,2,1,40,0,0
133422,-285.714285714284,6,2,1,40,0,0
141421,333.333333333333,3,2,1,50,1,0
141421,-100,3,2,1,65,0,1
157420,-100,3,2,1,50,0,0
166760,333.333333333333,7,2,1,50,1,0
166760,-222.222222222221,7,2,1,50,0,0
175760,-117.647058823529,7,2,1,60,0,0
176093,-142.857142857143,7,2,1,60,0,0
185426,-125,7,2,1,60,0,0
185926,-142.857142857143,7,2,1,60,0,0
194759,-138.888888888889,7,2,1,55,0,0
207426,-117.647058823529,7,2,1,55,0,0
208759,-138.888888888889,7,2,1,55,0,0
213425,333.333333333333,3,2,1,50,1,0
213425,-500,3,2,1,50,0,0
221425,-400,3,2,1,50,0,0
222425,-800,3,2,1,50,0,0
222758,-400,3,2,1,50,0,0
226758,-400,3,2,1,70,0,0
231424,-666.666666666667,3,2,1,50,0,0
233758,-333.333333333333,3,2,1,50,0,0
234424,-200,3,2,1,50,0,0
241424,-153.846153846154,3,2,1,50,0,0
247424,-100,3,2,1,75,0,1
262924,-133.333333333333,3,2,1,75,0,1
263424,333.333333333333,7,2,1,35,1,0
263424,-222.222222222221,3,2,1,35,0,0
268590,-666.666666666658,3,2,1,35,0,0

[Colours]
Combo1 : 216,65,91
Combo2 : 189,239,97
Combo3 : 137,194,86
Combo4 : 181,181,181
Combo5 : 116,122,124
Combo6 : 197,183,165
Combo7 : 232,122,85
Combo8 : 240,85,85

[HitObjects]
256,192,41427,12,0,50672,0:0:0:0:
73,64,50756,37,4,3:1:0:0:
24,124,51089,1,0,0:0:0:0:
73,64,51422,1,2,0:0:0:0:
152,185,51756,6,0,L|167:220,1,27.9999991455078,0|0,1:3|0:3,0:0:0:0:
163,210,52089,1,2,0:0:0:0:
163,210,52422,1,0,1:0:0:0:
292,59,52756,1,2,0:3:0:0:
354,100,53089,2,0,L|388:110,1,27.9999991455078,2|0,0:0|0:0,0:0:0:0:
482,183,53422,101,2,0:3:0:0:
482,183,53756,1,2,0:0:0:0:
340,345,54089,5,2,3:0:0:0:
414,320,54422,1,0,0:0:0:0:
224,256,54755,102,0,P|231:276|238:289,1,27.9999991455078,0|0,3:0|0:0,0:0:0:0:
172,327,55089,2,0,L|151:361,1,27.9999991455078,0|0,1:0|0:0,0:0:0:0:
0,173,55422,5,2,3:0:0:0:
136,226,55589,1,0,0:0:0:0:
66,261,55755,2,0,L|57:224,1,27.9999991455078,2|2,0:0|3:0,0:0:0:0:
114,77,56089,1,2,0:0:0:0:
114,77,56422,2,0,L|145:71,1,27.9999991455078,0|0,1:0|0:0,0:0:0:0:
248,4,56755,101,2,0:0:0:0:
399,65,57089,1,2,0:3:0:0:
169,118,57422,6,0,L|120:109,1,27.9999991455078,0|0,1:0|0:0,0:0:0:0:
256,225,57755,1,2,0:3:0:0:
195,268,57922,2,0,L|182:302,1,27.9999991455078,2|0,0:0|0:0,0:0:0:0:
331,181,58255,2,0,L|398:167,1,55.9999982910157,2|0,3:0|0:0,0:0:0:0:
385,169,58755,1,2,1:0:0:0:
312,111,58922,1,0,0:0:0:0:
346,258,59089,101,2,0:0:0:0:
352,263,59422,1,8,1:3:0:0:
121,142,59755,5,4,1:3:0:0:
54,179,59922,2,0,L|36:185,2,13.9999995727539,0|2|2,0:0|0:0|3:0,0:0:0:0:
221,37,60422,1,2,0:0:0:0:
221,37,60589,2,0,L|280:51,1,55.9999982910157,2|0,0:3|0:0,0:0:0:0:
343,88,61089,1,0,1:0:0:0:
499,312,61422,101,0,0:0:0:0:
365,359,61589,1,8,0:3:0:0:
365,359,61755,2,0,L|377:325,1,27.9999991455078
330,269,62089,1,4,0:3:0:0:
215,245,62255,2,0,L|193:253,2,13.9999995727539,0|0|2,0:0|0:0|3:0,0:0:0:0:
14,19,63755,5,2,0:0:0:0:
89,42,64089,1,2,3:0:0:0:
193,72,64422,1,0,1:0:0:0:
257,31,64589,2,0,L|278:25,2,13.9999995727539,0|0|2,0:0|0:0|3:0,0:0:0:0:
209,153,64922,101,0,0:0:0:0:
274,200,65089,2,0,P|306:207|384:233,1,111.999996582031,2|2,0:0|0:3,0:0:0:0:
381,231,66089,1,2,0:0:0:0:
110,334,66422,5,2,0:1:0:0:
34,354,66755,1,2,3:0:0:0:
34,354,67089,1,2,3:0:0:0:
34,354,68422,54,0,L|38:340,1,13.9999995727539,12|0,0:0|0:0,0:0:0:0:
36,153,69422,37,4,3:1:0:0:
84,93,69589,2,0,L|148:71,1,57.60000140625,2|0,1:2|0:0,0:0:0:0:
171,173,69922,2,0,P|215:198|233:266,1,115.2000028125,8|0,0:0|0:0,0:0:0:0:
121,350,70422,5,8,0:0:0:0:
121,350,70922,1,2,0:0:0:0:
216,333,71089,2,0,L|275:359,1,57.60000140625,8|0,0:0|1:0,0:0:0:0:
316,227,71422,101,8,0:0:0:0:
225,192,71589,1,8,0:0:0:0:
225,192,71672,1,8,0:0:0:0:
225,192,71755,1,8,0:0:0:0:
118,242,71922,1,2,3:0:0:0:
47,209,72089,2,0,P|61:153|72:85,1,115.2000028125,2|2,0:0|0:1,0:0:0:0:
38,23,72589,1,0,3:0:0:0:
151,62,72755,2,0,L|204:93,2,57.60000140625,8|2|0,0:0|0:0|0:0,0:0:0:0:
147,153,73255,53,0,3:0:0:0:
293,64,73422,1,12,0:0:0:0:
252,163,73589,101,2,3:0:0:0:
360,213,73755,1,8,0:0:0:0:
473,269,73922,1,8,0:0:0:0:
473,269,74005,1,8,0:0:0:0:
473,269,74089,1,8,0:0:0:0:
414,320,74255,70,0,P|356:332|288:353,1,115.2000028125,2|8,3:0|0:0,0:0:0:0:
239,312,74755,1,0,0:0:0:0:
155,287,74922,1,2,3:0:0:0:
56,201,75089,6,0,L|34:329,1,115.2000028125,8|0,0:0|0:0,0:0:0:0:
130,215,75589,1,2,3:0:0:0:
100,141,75755,2,0,L|82:85,1,57.60000140625,8|0,0:0|0:0,0:0:0:0:
242,14,76089,101,2,0:0:0:0:
246,37,76172,1,2,0:0:0:0:
236,55,76255,1,2,0:0:0:0:
243,75,76339,1,2,0:0:0:0:
243,75,76422,2,0,B|321:51|303:98|394:65,1,131.200002001953,2|0,3:0|0:0,0:0:0:0:
512,109,76922,1,8,0:0:0:0:
459,40,77089,2,0,L|434:116,1,57.60000140625,2|0,0:0|1:0,0:0:0:0:
387,173,77422,2,0,L|407:238,1,57.60000140625,8|0,0:0|0:0,0:0:0:0:
254,340,77755,5,2,3:0:0:0:
183,365,77922,1,0,3:0:0:0:
156,267,78089,53,8,0:0:0:0:
109,261,78172,1,8,0:0:0:0:
67,253,78255,1,8,0:0:0:0:
45,253,78339,1,8,0:0:0:0:
24,245,78422,1,4,3:0:0:0:
348,40,78672,37,2,0:0:0:0:
348,40,78755,2,0,P|381:53|433:145,1,136.000002593994,6|0,3:2|0:0,0:0:0:0:
495,178,79255,2,0,P|479:246|467:313,1,115.2000028125,8|0,0:0|0:0,0:0:0:0:
366,315,79755,2,0,P|375:337|388:379,1,57.60000140625,10|0,0:0|0:0,0:0:0:0:
366,315,80255,5,2,3:0:0:0:
279,238,80422,2,0,L|219:217,1,57.60000140625,8|0,0:0|0:0,0:0:0:0:
177,283,80755,101,8,0:0:0:0:
93,322,80922,1,8,0:0:0:0:
93,322,81005,1,8,0:0:0:0:
93,322,81089,1,8,0:0:0:0:
20,229,81255,2,0,P|32:166|41:99,1,115.2000028125,2|8,3:2|0:0,0:0:0:0:
11,41,81755,2,0,P|46:35|83:24,1,57.60000140625,2|0,0:1|3:1,0:1:0:0:
178,126,82089,1,8,0:0:0:0:
178,126,82422,1,0,0:0:0:0:
259,81,82589,1,0,3:0:0:0:
259,186,82755,53,12,0:0:0:0:
381,244,82922,1,0,0:0:0:0:
289,279,83089,101,8,0:0:0:0:
347,343,83255,1,8,0:0:0:0:
351,353,83339,1,8,0:0:0:0:
342,356,83422,69,8,0:0:0:0:
197,321,83589,2,0,B|124:301|136:336|57:313,1,136.000002593994,0|8,3:0|0:0,0:0:0:0:
62,314,84255,1,0,3:0:0:0:
144,234,84422,2,0,L|219:209,1,57.60000140625,8|0,0:0|0:0,0:0:0:0:
144,234,84922,5,0,3:0:0:0:
14,160,85089,1,8,0:0:0:0:
83,126,85255,1,0,3:0:0:0:
55,233,85422,2,0,P|20:241|-18:256,2,57.60000140625,8|2|0,0:0|0:3|0:0,0:0:0:0:
178,89,85922,102,0,P|246:109|304:123,1,115.2000028125,2|8,3:1|0:0,0:0:0:0:
399,36,86422,2,0,P|391:62|381:116,1,57.60000140625,2|0,0:3|1:0,0:0:0:0:
173,265,86755,53,12,0:0:0:0:
173,265,87089,1,2,3:0:0:0:
241,224,87255,1,0,3:0:0:0:
307,234,87422,1,0,1:0:0:0:
344,283,87589,1,0,1:0:0:0:
414,306,87755,1,2,3:2:0:0:
472,266,87922,1,2,0:3:0:0:
459,164,88089,53,4,0:1:0:0:
459,164,88422,2,0,L|434:157,1,20,2|0,3:0|0:0,0:0:0:0:
305,112,88922,2,0,L|278:122,1,20,0|0,3:0|1:0,0:0:0:0:
165,68,89422,1,0,3:0:0:0:
114,13,89589,2,0,L|89:5,1,20,0|0,1:0|0:0,0:0:0:0:
364,364,90255,5,2,0:3:0:0:
428,303,90422,2,0,L|417:265,1,40,2|0,0:0|3:0,0:0:0:0:
477,190,90922,2,0,L|468:208,1,20,0|0,1:0|0:0,0:0:0:0:
343,50,91755,101,2,0:0:0:0:
343,50,92089,1,0,0:0:0:0:
283,105,92255,2,0,L|292:129,1,20,2|2,3:0|0:0,0:0:0:0:
355,167,92589,1,0,3:0:0:0:
344,312,92755,6,0,P|400:328|459:353,1,103.999995239258,2|0,0:1|3:0,0:0:0:0:
201,277,93255,2,0,P|145:293|86:318,1,103.999995239258,0|0,0:1|3:0,0:0:0:0:
62,248,93755,2,0,L|70:222,1,20,0|2,0:0|0:3,0:0:0:0:
19,132,94089,1,0,1:0:0:0:
19,132,94422,102,0,L|42:123,1,20,0|0,0:0|1:0,0:0:0:0:
109,156,94755,2,0,L|127:163,1,20,0|2,0:0|3:0,0:0:0:0:
217,84,95089,6,0,P|242:72|254:61,1,40,2|0,0:0|3:0,0:0:0:0:
292,0,95589,1,2,0:3:0:0:
481,146,95922,101,0,0:0:0:0:
337,194,96089,1,0,0:0:0:0:
413,232,96255,2,0,L|406:207,1,20,2|0,0:0|0:0,0:0:0:0:
340,112,96589,1,4,0:0:0:0:
240,272,96755,1,2,3:0:0:0:
240,272,97089,2,2,B|160:258|195:300|88:272,1,128,2|4,0:0|3:2,0:1:0:0:
0,86,97755,5,2,0:3:0:0:
81,39,97922,2,0,L|70:65,1,20,2|0,0:0|0:0,0:0:0:0:
167,179,98255,1,0,1:0:0:0:
217,122,98422,2,0,L|209:103,1,20,2|0,0:0|0:0,0:0:0:0:
305,13,98755,102,0,L|350:28,1,40,0|0,1:0|0:0,0:0:0:0:
342,25,99255,1,0,3:0:0:0:
428,123,99422,2,0,L|422:99,1,20,0|2,0:0|0:3,3:0:0:0:
217,122,99755,6,0,B|158:112,1,60,2|0,0:0|3:0,0:0:0:0:
298,257,100922,101,0,0:0:0:0:
228,295,101089,2,0,L|218:270,1,20,2|0,0:3|0:0,0:0:0:0:
412,173,101422,2,0,L|452:162,2,40,8|0|2,3:0|1:0|3:2,0:0:0:0:
220,276,102422,5,0,3:3:0:0:
284,327,102589,2,0,B|210:298|191:380|96:343,1,191.999994140625
42,299,103422,1,2,0:3:0:0:
168,96,103755,102,0,L|200:90,1,23.9999992675781,0|0,3:0|0:0,0:0:0:0:
257,134,104089,2,0,L|289:140,1,23.9999992675781,2|0,0:0|1:0,0:0:0:0:
423,76,104422,1,0,3:0:0:0:
256,192,104505,12,0,105755,0:0:0:0:
420,129,106755,21,4,1:0:0:0:
328,31,106922,2,0,P|369:48|408:59,1,61.5999987780762,2|0,3:0|0:0,0:0:0:0:
286,122,107255,2,0,P|253:148|254:248,1,123.199997556152,8|0,0:0|3:0,0:0:0:0:
130,379,107755,86,0,B|115:349|115:349|117:322|117:322|105:297|102:245,1,123.199997556152,8|0,0:0|0:0,0:0:0:0:
39,218,108255,1,2,3:0:0:0:
133,95,108422,2,0,P|99:107|59:117,1,61.5999987780762,8|0,0:0|1:0,0:0:0:0:
237,258,108755,1,8,0:0:0:0:
150,187,108922,21,8,0:0:0:0:
150,187,109005,1,8,0:0:0:0:
150,187,109089,2,0,P|213:211|238:282,1,123.199997556152,2|0,3:0|0:0,0:0:0:0:
286,74,109589,2,0,P|320:67|371:51,1,61.5999987780762,8|0,0:0|0:0,0:0:0:0:
319,207,109922,1,2,3:0:0:0:
386,249,110089,2,0,P|444:258|518:285,1,123.199997556152,8|2,0:0|0:0,0:0:0:0:
109,43,110755,85,8,0:0:0:0:
232,123,110922,1,0,3:0:0:0:
152,153,111089,21,8,0:0:0:0:
53,202,111255,1,8,0:0:0:0:
53,202,111339,1,8,0:0:0:0:
53,202,111422,2,0,L|32:337,1,123.199997556152,2|0,1:0|0:0,0:0:0:0:
158,355,111922,2,0,B|231:346|222:385|286:385,1,123.199997556152,8|0,0:0|0:0,0:0:0:0:
438,313,112422,2,0,P|408:319|369:331,1,61.5999987780762,8|0,0:0|0:0,0:0:0:0:
438,313,112922,85,0,3:0:0:0:
335,199,113089,2,0,P|304:192|275:184,1,61.5999987780762,8|0,0:0|0:0,0:0:0:0:
316,384,113422,1,8,0:0:0:0:
198,326,113589,1,0,3:0:0:0:
401,241,113755,21,4,3:2:0:0:
405,242,116089,86,0,B|333:215|326:268|256:247,1,136.000002593994,2|0,3:0|0:0,0:0:0:0:
115,69,116589,2,0,L|263:107,1,136.000002593994,8|0,0:0|0:0,0:0:0:0:
60,220,117089,2,0,P|73:185|83:142,1,68.0000012969971,8|0,0:0|0:0,0:0:0:0:
60,220,117589,21,0,3:0:0:0:
126,340,117755,1,8,0:0:0:0:
148,240,117922,1,0,0:0:0:0:
37,302,118089,1,14,0:0:0:0:
224,350,118255,85,8,0:0:0:0:
224,350,118339,1,8,0:0:0:0:
224,350,118422,2,0,P|288:346|360:308,1,136.000002593994,0|0,3:0|1:0,0:0:0:0:
495,205,118922,2,0,P|468:157|392:182,1,136.000002593994,8|0,0:0|0:0,0:0:0:0:
345,85,119422,2,0,L|250:54,1,68.0000012969971,8|0,0:0|0:0,0:0:0:0:
149,194,119755,22,2,B|98:203|98:203|79:220|79:220|-3:235,1,136.000002593994,2|8,0:1|0:0,3:1:0:0:
111,298,120255,1,0,0:0:0:0:
31,127,120422,2,0,B|22:92|22:92|37:43,1,68.0000012969971,8|0,0:0|0:0,0:0:0:0:
31,61,120672,1,8,0:0:0:0:
38,69,120755,86,0,P|83:90|198:94,1,136.000002593994,2|0,3:0|0:0,0:0:0:0:
368,5,121255,2,0,P|321:46|248:46,1,136.000002593994,8|0,0:0|0:0,0:0:0:0:
191,202,121755,2,0,P|200:230|203:289,1,68.0000012969971,8|0,0:0|0:0,0:0:0:0:
191,202,122255,21,0,3:0:0:0:
353,330,122422,1,8,0:0:0:0:
356,228,122589,1,0,3:0:0:0:
274,300,122755,1,8,0:0:0:0:
470,374,122922,85,8,0:0:0:0:
470,374,123005,1,8,0:0:0:0:
470,374,123089,2,0,B|483:293|449:315|466:228,1,136.000002593994,4|0,3:2|0:0,0:0:0:0:
332,119,123589,2,0,P|368:134|422:143,1,68.0000012969971,8|0,0:0|0:0,0:0:0:0:
396,140,123922,1,0,3:0:0:0:
274,338,124089,22,0,P|274:298|257:254,1,68.0000012969971,8|0,0:0|0:0,0:0:0:0:
69,165,124422,2,0,P|54:194|51:233,1,68.0000012969971,2|0,3:0|1:0,0:0:0:0:
200,176,124755,1,8,0:0:0:0:
200,176,124839,1,8,0:0:0:0:
200,176,124922,1,8,0:0:0:0:
168,37,125089,85,8,0:0:0:0:
168,37,125172,1,8,0:0:0:0:
168,37,125255,1,8,0:0:0:0:
168,37,125339,1,8,0:0:0:0:
168,37,125422,2,0,B|90:36|114:75|32:73,1,139.999995727539,4|0,3:1|3:0,0:0:0:0:
138,216,126422,1,2,0:3:0:0:
138,216,127422,6,0,P|133:243|116:274,1,55.9999982910157,2|0,0:3|0:0,0:0:0:0:
56,316,127922,1,0,0:0:0:0:
10,253,128088,2,0,P|24:247|43:243,1,27.9999991455078
182,143,128422,101,0,1:0:0:0:
161,152,128755,1,0,3:0:0:0:
258,210,128922,2,0,L|292:224,1,27.9999991455078,2|0,0:3|0:0,0:0:0:0:
253,287,129255,1,0,3:0:0:0:
382,242,129422,6,0,P|445:230|497:174,1,139.999995727539,4|0,3:2|0:0,0:0:0:0:
440,123,130422,2,0,L|382:101,2,55.9999982910157,2|0|0,0:3|0:0|0:0,0:0:0:0:
180,17,131422,101,4,0:0:0:0:
180,17,131922,2,0,L|144:31,1,27.9999991455078,2|0,0:0|0:0,0:0:0:0:
80,7,132255,1,2,0:0:0:0:
215,119,132422,6,0,P|249:129|281:141,1,51.999997619629,0|0,1:0|0:0,0:0:0:0:
290,123,132672,2,0,B|293:140|293:140|278:160,1,25.9999988098145,0|2,1:0|3:0,0:0:0:0:
394,252,132922,1,0,1:0:0:0:
294,232,133088,101,2,0:0:0:0:
398,161,133255,1,0,3:0:0:0:
195,337,133422,6,0,B|109:315|122:367|24:336,1,167.999994873047,2|2,3:2|0:3,0:0:0:0:
30,337,135422,2,0,L|148:322,1,111.999996582031,2|0,0:0|0:0,0:0:0:0:
237,15,136422,102,0,L|224:48,1,27.9999991455078,2|0,0:3|0:0,0:0:0:0:
157,81,136755,1,0,0:0:0:0:
277,151,136922,2,0,L|337:137,1,55.9999982910157,0|0,1:0|3:0,0:0:0:0:
512,35,137422,6,0,P|463:57|434:164,1,167.999994873047,2|0,3:2|1:0,0:0:0:0:
484,221,138755,1,0,0:0:0:0:
484,221,139088,1,2,0:0:0:0:
332,364,139422,37,8,0:0:0:0:
332,364,139755,1,0,3:0:0:0:
197,315,139921,1,2,0:3:0:0:
22,235,140088,5,8,0:0:0:0:
238,143,140255,1,8,0:0:0:0:
57,18,140421,101,0,1:2:0:0:
57,18,141421,22,0,B|157:13|117:72|213:60,1,160,4|0,3:1|0:0,0:0:0:0:
260,110,141921,1,2,3:0:0:0:
390,51,142087,2,0,P|440:38|488:19,1,80,2|0,3:0|1:0,0:0:0:0:
474,256,142421,6,0,P|433:322|357:331,1,160,12|0,0:0|0:0,0:0:0:0:
296,285,142921,1,0,3:0:0:0:
167,213,143087,1,2,3:0:0:0:
363,193,143254,101,8,0:0:0:0:
435,156,143421,2,0,L|470:-13,1,160,2|0,1:0|0:0,0:0:0:0:
360,94,143921,1,0,3:0:0:0:
185,6,144087,2,0,P|196:41|208:96,1,80,0|0,1:0|0:0,0:0:0:0:
123,288,144421,6,0,P|94:337|-2:337,1,160,10|0,0:0|0:0,0:0:0:0:
192,176,144921,2,0,P|141:163|94:142,1,80,2|8,3:0|0:0,0:0:0:0:
222,305,145254,1,8,0:0:0:0:
444,196,145421,102,0,L|416:22,1,160,4|0,1:0|0:0,0:0:0:0:
350,6,145921,1,2,3:0:0:0:
304,213,146087,1,0,3:0:0:0:
222,110,146254,1,8,0:0:0:0:
304,83,146421,6,0,P|371:90|419:186,1,160,12|0,0:0|0:0,0:0:0:0:
471,224,146921,1,2,3:0:0:0:
356,265,147087,1,0,1:0:0:0:
140,310,147254,101,8,0:0:0:0:
223,371,147421,2,0,B|312:355|295:405|406:374,1,160,2|8,3:0|3:0,0:0:0:0:
465,314,147921,1,0,3:0:0:0:
281,184,148087,2,0,P|323:173|357:162,1,80,0|0,1:0|0:0,0:0:0:0:
132,10,148421,6,0,P|127:53|101:119,1,80,8|0,0:0|0:0,0:0:0:0:
200,192,148754,1,8,0:0:0:0:
290,304,148921,1,0,0:0:0:0:
138,279,149087,101,2,3:0:0:0:
330,139,149254,1,0,3:0:0:0:
497,304,149421,2,0,B|401:372|344:244|344:244,1,160,4|0,1:2|0:0,0:0:0:0:
303,226,149921,1,2,3:0:0:0:
405,103,150087,2,0,L|431:203,1,80,0|0,3:0|0:0,0:0:0:0:
188,255,150421,6,0,P|203:184|214:98,1,160,12|0,0:0|0:0,0:0:0:0:
271,45,150921,1,2,0:0:0:0:
53,156,151087,101,8,0:0:0:0:
98,220,151254,1,8,0:0:0:0:
125,80,151421,6,0,L|27:43,1,80,4|0,1:0|0:0,0:0:0:0:
166,186,151754,1,2,3:0:0:0:
237,150,151921,2,0,B|329:124|317:172|402:141,1,160,0|0,3:0|0:0,0:0:0:0:
236,287,152421,101,8,0:0:0:0:
149,352,152587,1,0,0:0:0:0:
303,230,152754,5,8,0:0:0:0:
303,230,152837,1,8,0:0:0:0:
303,230,152921,1,8,0:0:0:0:
438,306,153087,1,2,3:0:0:0:
353,160,153254,101,8,0:0:0:0:
512,10,153421,2,0,P|474:73|364:77,1,160,4|0,1:2|3:0,0:0:0:0:
333,45,153921,1,2,3:0:0:0:
175,177,154087,2,0,P|223:162|275:157,1,80,2|0,0:3|1:0,0:0:0:0:
74,19,154421,5,8,0:0:0:0:
201,69,154587,1,8,3:0:0:0:
36,280,154754,2,0,P|51:208|63:117,1,160,2|2,1:0|0:3,0:0:0:0:
137,246,155254,1,8,0:0:0:0:
280,156,155420,1,4,3:2:0:0:
241,257,155587,101,0,0:0:0:0:
419,210,155754,1,8,0:3:0:0:
320,304,155920,5,8,0:0:0:0:
503,384,156087,1,0,1:0:0:0:
248,359,156254,101,8,0:0:0:0:
176,330,156420,2,0,B|85:307|112:352|2:313,1,160,12|2,0:0|3:0,0:0:0:0:
190,138,156920,1,8,3:0:0:0:
137,74,157087,2,0,P|187:58|240:36,1,80,0|0,1:0|0:0,0:0:0:0:
417,322,157420,101,12,0:0:0:0:
0,115,166760,70,0,L|74:96,1,71.9999978027344,2|0,3:0|0:0,0:0:0:0:
69,98,167260,1,2,0:0:0:0:
222,23,167760,86,0,L|264:36,1,35.9999989013672,2|0,0:0|0:0,0:0:0:0:
222,23,168093,1,0,0:0:0:0:
302,103,168260,1,2,0:0:0:0:
471,359,168760,22,0,L|429:370,1,35.9999989013672,2|2,0:0|0:3,0:0:0:0:
414,296,169093,2,0,L|335:282,1,71.9999978027344,0|0,3:0|0:0,0:0:0:0:
245,336,169593,1,0,3:0:0:0:
172,358,169760,2,0,L|92:349,1,71.9999978027344,2|0,0:0|0:0,0:0:0:0:
9,278,170260,1,2,0:0:0:0:
252,58,170593,85,0,0:0:0:0:
170,12,170760,2,0,L|150:91,1,71.9999978027344,2|0,0:0|0:0,0:0:0:0:
103,133,171260,2,0,L|115:182,1,35.9999989013672,2|0,0:0|3:0,0:0:0:0:
462,32,171760,21,2,0:0:0:0:
499,81,171926,1,0,0:0:0:0:
436,144,172093,1,0,0:0:0:0:
481,207,172260,2,0,L|500:289,1,71.9999978027344,2|0,0:0|0:0,0:0:0:0:
410,296,172760,2,0,L|402:344,1,35.9999989013672,2|0,0:0|0:0,0:0:0:0:
332,368,173093,1,0,0:0:0:0:
240,278,173260,2,0,P|246:302|262:347,1,71.9999978027344,2|0,0:1|0:0,0:0:0:0:
117,319,173760,86,0,L|77:334,1,35.9999989013672,0|0,3:0|0:0,0:0:0:0:
176,205,174260,2,0,L|134:216,1,35.9999989013672,0|0,3:0|0:0,0:0:0:0:
272,105,174760,2,0,L|228:96,1,35.9999989013672,2|0,0:0|0:0,0:0:0:0:
407,51,175260,2,0,L|365:38,1,35.9999989013672,2|0,0:0|0:0,0:0:0:0:
372,40,175760,70,0,B|458:23|437:72|527:40,1,136.000002593994,8|4,3:0|1:0,0:0:0:0:
505,46,176593,85,8,0:0:0:0:
446,159,176760,2,0,L|464:222,1,55.9999982910157,2|0,3:0|1:0,0:0:0:0:
291,105,177093,2,0,P|284:143|262:232,1,111.999996582031,12|0,0:0|0:0,0:0:0:0:
428,32,177593,102,0,L|353:56,1,55.9999982910157,8|0,0:0|0:0,0:0:0:0:
314,11,177926,1,0,0:0:0:0:
133,176,178093,2,0,P|109:183|78:195,1,55.9999982910157,8|0,0:0|0:0,0:0:0:0:
291,105,178426,5,12,0:0:0:0:
93,40,178593,1,0,0:0:0:0:
161,7,178760,2,0,L|182:127,1,111.999996582031,8|0,0:0|0:0,0:0:0:0:
235,173,179260,1,2,0:0:0:0:
118,326,179426,1,8,0:0:0:0:
118,326,179593,2,0,P|112:348|85:401,1,55.9999982910157,2|0,0:3|0:0,0:0:0:0:
50,174,179926,101,8,0:0:0:0:
139,224,180093,1,0,0:0:0:0:
247,326,180260,5,0,0:0:0:0:
304,177,180426,2,0,P|278:186|227:201,1,55.9999982910157,8|0,0:0|0:0,0:0:0:0:
386,304,180760,2,0,P|396:349|407:379,1,55.9999982910157,8|0,3:2|1:0,0:0:0:0:
399,358,181093,101,4,3:1:0:0:
448,246,181259,1,8,0:0:0:0:
388,204,181426,1,8,0:0:0:0:
480,81,181593,2,0,L|505:203,1,111.999996582031,2|0,0:3|3:0,0:0:0:0:
390,120,182093,1,2,0:0:0:0:
332,73,182259,2,0,P|305:67|260:53,1,55.9999982910157,10|0,0:0|3:0,0:0:0:0:
275,286,182593,5,2,0:0:0:0:
198,351,182759,1,0,0:0:0:0:
166,352,182843,1,0,0:0:0:0:
132,335,182926,1,0,0:0:0:0:
105,327,183009,1,0,0:0:0:0:
54,350,183093,102,0,P|30:355|-20:374,1,55.9999982910157,8|0,0:0|0:0,0:0:0:0:
146,255,183426,1,2,0:0:0:0:
109,177,183593,2,0,P|62:170|-16:140,1,111.999996582031,8|0,3:0|0:0,0:0:0:0:
171,35,184093,5,8,0:0:0:0:
171,35,184259,2,0,B|172:66|172:66|158:101,1,55.9999982910157,2|0,0:0|0:0,0:0:0:0:
251,220,184593,1,8,0:0:0:0:
327,165,184759,1,0,0:0:0:0:
326,158,184843,1,2,0:3:0:0:
319,162,184926,1,0,0:0:0:0:
348,264,185093,101,8,0:0:0:0:
236,114,185259,1,8,0:0:0:0:
455,190,185426,6,0,P|438:240|421:315,1,128,2|0,3:0|0:0,0:0:0:0:
352,352,185926,2,0,L|281:375,1,55.9999982910157,8|0,0:0|1:0,0:0:0:0:
231,276,186259,1,0,0:0:0:0:
231,276,186426,2,0,P|171:261|100:249,1,111.999996582031,12|0,0:0|0:0,0:0:0:0:
209,183,186926,101,8,0:0:0:0:
300,98,187093,2,0,L|359:80,1,55.9999982910157,2|0,0:3|0:0,0:0:0:0:
142,7,187426,5,8,0:0:0:0:
146,41,187509,1,0,0:0:0:0:
136,61,187593,1,0,0:0:0:0:
142,80,187676,1,0,0:0:0:0:
172,109,187759,102,0,B|115:92|128:122|38:94,1,111.999996582031,8|0,3:2|0:0,0:0:0:0:
125,242,188259,1,8,3:2:0:0:
125,242,188426,2,0,B|116:274|116:274|119:313,1,55.9999982910157
248,219,188759,5,8,0:0:0:0:
266,124,188926,2,0,L|238:-9,1,111.999996582031,0|8,0:0|0:0,0:0:0:0:
402,151,189426,2,0,P|391:176|377:225,1,55.9999982910157,2|0,0:3|0:0,0:0:0:0:
316,319,189759,101,8,0:0:0:0:
436,375,189926,1,8,0:0:0:0:
276,229,190093,5,8,3:2:0:0:
177,270,190259,1,2,0:3:0:0:
231,327,190426,1,4,0:0:0:0:
157,140,190759,101,2,0:3:0:0:
191,23,190926,1,0,0:0:0:0:
123,62,191093,2,0,L|55:82,1,55.9999982910157,8|0,0:0|0:0,0:0:0:0:
239,187,191426,6,0,P|276:198|307:212,1,55.9999982910157,2|8,0:3|0:0,0:0:0:0:
402,46,191759,1,0,0:0:0:0:
330,80,191926,1,0,0:0:0:0:
381,205,192093,101,0,0:0:0:0:
485,255,192259,1,8,0:0:0:0:
485,255,192343,1,8,0:0:0:0:
485,255,192426,2,0,P|494:298|513:367,1,111.999996582031,4|0,3:2|0:0,0:0:0:0:
471,154,192926,2,0,P|463:197|443:266,1,111.999996582031,0|0,3:2|0:0,0:0:0:0:
462,35,193426,2,0,P|470:78|490:147,1,111.999996582031,8|0,3:2|0:0,0:0:0:0:
277,84,193926,2,0,L|348:61,1,55.9999982910157,8|0,3:2|0:0,0:0:0:0:
331,67,194259,1,8,0:0:0:0:
236,216,194426,37,12,0:2:0:0:
236,216,194759,1,4,3:1:0:0:
119,132,194926,2,0,P|107:69|99:7,1,115.2000028125,2|8,3:0|0:0,0:0:0:0:
31,61,195426,2,0,L|5:138,1,57.60000140625,0|0,1:0|3:0,0:0:0:0:
76,262,195759,53,8,0:0:0:0:
76,262,196259,2,0,B|126:274|126:274|144:286|144:286|207:300,1,115.2000028125,2|0,0:1|3:0,0:0:0:0:
269,247,196759,2,0,L|336:226,1,57.60000140625,8|8,0:0|0:0,0:0:0:0:
323,229,197009,1,8,0:0:0:0:
323,229,197093,1,0,3:0:0:0:
458,97,197259,54,0,P|443:151|428:218,1,115.2000028125,2|8,1:0|0:0,0:0:0:0:
360,62,197759,2,0,P|334:57|296:45,1,57.60000140625,2|0,0:0|0:0,0:0:0:0:
286,162,198093,1,8,0:0:0:0:
286,162,198426,1,0,0:0:0:0:
217,190,198593,1,0,0:0:0:0:
194,67,198759,53,12,0:0:0:0:
80,21,198926,1,0,0:0:0:0:
194,67,199093,1,8,0:0:0:0:
78,152,199259,53,8,0:0:0:0:
78,152,199343,1,8,0:0:0:0:
78,152,199426,1,8,0:0:0:0:
3,194,199593,2,0,P|25:129|39:62,1,115.2000028125,2|8,3:0|0:0,0:0:0:0:
80,234,200093,2,0,L|104:302,1,57.60000140625,2|0,0:0|1:0,0:0:0:0:
184,170,200426,54,0,B|224:158|224:158|252:132|252:132|305:120,1,115.2000028125,8|0,0:0|0:0,0:0:0:0:
343,49,200926,2,0,P|320:45|272:29,1,57.60000140625,0|8,3:0|0:0,0:0:0:0:
369,127,201259,1,0,3:0:0:0:
454,36,201426,53,8,0:0:0:0:
493,165,201593,1,2,0:0:0:0:
493,165,201676,1,10,0:0:0:0:
493,165,201759,1,2,0:0:0:0:
429,230,201926,2,0,P|371:239|317:258,1,115.2000028125,2|8,3:1|0:0,0:0:0:0:
221,326,202426,2,0,P|277:335|333:354,1,115.2000028125,2|8,0:1|0:0,0:0:0:0:
332,353,202926,1,0,0:0:0:0:
241,239,203093,2,0,P|233:206|235:165,1,57.60000140625,2|0,0:3|0:0,0:0:0:0:
106,78,203426,2,8,L|80:68,2,28.800000703125,8|8|0,0:0|0:0|0:0,0:0:0:0:
274,55,203759,53,8,0:0:0:0:
327,59,203843,1,8,0:0:0:0:
359,30,203926,1,8,0:0:0:0:
389,21,204009,1,10,0:0:0:0:
389,21,204093,2,0,L|513:-2,1,115.2000028125,4|0,3:2|0:0,0:0:0:0:
430,118,204593,1,8,0:0:0:0:
386,186,204759,2,0,L|410:264,1,57.60000140625,0|0,0:0|1:0,0:0:0:0:
480,357,205093,53,8,0:0:0:0:
480,357,205593,1,0,3:0:0:0:
376,316,205759,1,8,0:0:0:0:
299,358,205926,1,0,1:0:0:0:
229,319,206093,2,0,L|195:331,2,28.800000703125,8|2|0,0:0|0:0|0:0,0:0:0:0:
181,196,206426,53,0,1:0:0:0:
111,165,206593,2,0,L|-3:135,1,115.2000028125,2|8,3:0|0:0,0:0:0:0:
116,28,207093,2,0,B|119:56|119:56|108:90,1,57.60000140625,2|0,0:0|3:0,0:0:0:0:
30,264,207426,54,0,B|115:242|92:290|183:266,1,136.000002593994,10|0,0:0|1:0,0:0:0:0:
225,225,207926,1,0,3:0:0:0:
318,97,208093,53,8,0:0:0:0:
245,132,208259,1,0,1:0:0:0:
379,261,208426,53,8,0:0:0:0:
326,180,208593,1,10,3:2:0:0:
326,180,208676,1,8,0:0:0:0:
326,180,208759,2,0,P|384:178|430:129,1,115.2000028125,4|0,1:2|0:0,0:0:0:0:
494,266,209259,2,0,P|482:292|468:341,1,57.60000140625,10|0,0:0|0:0,0:0:0:0:
494,266,209593,1,0,3:0:0:0:
424,141,209759,54,0,L|300:114,1,115.2000028125,12|0,0:0|0:0,0:0:0:0:
369,50,210259,1,0,1:0:0:0:
235,167,210426,2,0,B|223:138|223:138|226:97,1,57.60000140625,8|0,0:0|0:0,0:0:0:0:
107,42,210759,2,0,L|43:20,1,57.60000140625,8|8,0:0|0:0,0:0:0:0:
52,23,211009,1,10,0:0:0:0:
52,23,211093,1,0,1:2:0:0:
114,176,211259,54,0,B|120:215|120:215|143:239|143:239|156:299,1,115.2000028125,2|8,3:0|0:0,0:0:0:0:
44,382,211759,2,0,P|55:349|63:316,1,57.60000140625,2|0,0:0|3:0,0:0:0:0:
217,197,212093,1,8,0:0:0:0:
217,197,212426,1,2,0:3:0:0:
314,253,212593,1,0,3:0:0:0:
243,122,212759,101,8,0:0:0:0:
196,103,212843,1,8,0:0:0:0:
149,116,212926,1,0,3:0:0:0:
135,132,213009,1,0,1:0:0:0:
92,153,213093,1,8,0:0:0:0:
46,168,213176,1,0,3:0:0:0:
3,141,213259,1,0,0:0:0:0:
161,19,213425,53,4,3:1:0:0:
161,19,214425,2,0,L|191:29,2,32,2|0|0,0:3|0:0|0:0,0:0:0:0:
467,199,215425,5,2,3:0:0:0:
391,225,215925,1,2,0:0:0:0:
325,259,216425,1,2,0:3:0:0:
216,265,216925,1,4,0:0:0:0:
142,275,217091,1,0,3:0:0:0:
83,337,217258,1,0,3:0:0:0:
0,240,217425,101,4,3:1:0:0:
0,240,218425,2,0,L|32:231,2,32,2|0|0,0:3|0:0|0:0,0:0:0:0:
163,52,219425,5,2,0:0:0:0:
237,57,219758,1,0,0:0:0:0:
327,129,219925,1,0,0:0:0:0:
392,174,220091,1,2,0:3:0:0:
454,154,220258,1,0,1:3:0:0:
511,74,220425,101,2,3:2:0:0:
511,74,220758,1,0,0:0:0:0:
432,44,220925,1,8,0:3:0:0:
288,225,221258,5,8,0:3:0:0:
147,280,221425,1,4,1:2:0:0:
147,280,222425,2,0,L|143:293,1,10,2|0,0:3|0:0,0:0:0:0:
24,139,222758,101,2,0:0:0:0:
93,115,223091,1,0,0:0:0:0:
174,93,223425,1,4,0:0:0:0:
308,12,223758,2,0,L|350:23,1,40,0|2,0:0|0:1,0:0:0:0:
495,232,224425,5,2,1:3:0:0:
422,209,224758,1,2,0:0:0:0:
331,233,224925,1,0,3:0:0:0:
294,299,225091,1,0,1:0:0:0:
220,344,225258,1,0,3:0:0:0:
67,289,225425,6,0,L|75:264,1,20,4|0,1:2|0:0,0:0:0:0:
145,236,225758,2,0,L|159:217,1,20,2|0,0:0|0:0,0:0:0:0:
329,189,226091,6,0,L|321:164,1,20,0|0,0:2|0:0,0:0:0:0:
252,136,226424,2,0,L|238:117,1,20,2|0,0:0|0:0,0:0:0:0:
76,23,226758,101,2,0:0:0:0:
76,23,227091,1,0,0:0:0:0:
76,23,227425,21,12,0:0:0:0:
13,118,227591,1,0,1:0:0:0:
193,124,227758,5,8,0:0:0:0:
40,211,227924,1,2,0:1:0:0:
226,211,228091,85,8,0:0:0:0:
365,362,228258,1,2,3:0:0:0:
371,149,228424,69,12,0:0:0:0:
439,133,228758,1,2,0:0:0:0:
512,115,229091,1,0,0:0:0:0:
512,115,231424,6,0,L|439:100,2,71.9999978027344,4|2|0,0:1|0:0|0:0,0:0:0:0:
278,238,233758,2,0,L|247:247,1,23.9999992675781,2|0,0:0|0:0,0:0:0:0:
178,251,234091,2,0,L|159:277,1,23.9999992675781
97,347,234424,102,0,B|172:335|153:362|221:351,1,120,2|0,0:0|0:0,0:0:0:0:
315,323,235091,2,0,L|275:309,1,40,2|0,0:0|0:0,0:0:0:0:
345,235,235424,6,0,P|367:230|395:224,1,40,2|0,0:3|0:0,0:0:0:0:
450,186,235758,1,2,0:0:0:0:
450,186,236091,1,0,0:0:0:0:
182,35,236424,101,4,0:0:0:0:
182,35,236758,2,0,L|128:21,1,40
231,120,237091,1,2,0:0:0:0:
274,184,237258,1,0,0:0:0:0:
170,256,237424,6,0,P|117:265|16:302,1,160,2|2,0:0|0:0,0:0:0:0:
274,184,238424,2,0,P|289:157|293:137,1,40,2|0,0:3|0:0,0:0:0:0:
196,93,238758,2,0,P|202:111|213:128,1,40,0|0,0:3|0:0,0:0:0:0:
386,258,239091,1,2,0:0:0:0:
386,258,239424,102,0,P|450:283|488:305,1,80,2|0,0:0|0:0,0:0:0:0:
459,288,239924,1,0,0:0:0:0:
410,182,240091,2,0,P|430:175|453:166,1,40
267,221,240424,6,0,P|279:181|286:135,1,80,2|0,0:0|0:0,0:0:0:0:
267,221,240924,1,0,0:0:0:0:
169,175,241091,2,0,P|142:167|120:159,1,40,2|0,0:0|0:0,0:0:0:0:
15,290,241424,102,0,B|84:272|65:301|133:281,1,103.999995239258,2|0,0:0|0:0,0:0:0:0:
250,125,241924,1,2,0:0:0:0:
250,125,242091,2,0,L|227:62,1,51.999997619629
416,254,242424,6,0,P|409:301|389:378,2,103.999995239258,2|2|0,0:0|0:3|1:0,0:0:0:0:
438,177,243258,1,0,0:0:0:0:
401,23,243424,101,4,3:1:0:0:
401,23,243758,2,0,L|466:8,1,51.999997619629
297,124,244091,2,0,L|347:135,1,51.999997619629,2|0,0:0|0:0,0:0:0:0:
173,228,244424,5,2,0:0:0:0:
82,272,244591,1,0,0:0:0:0:
230,325,244758,2,0,P|285:343|331:362,1,103.999995239258,2|0,0:0|0:0,0:0:0:0:
287,259,245258,1,0,0:0:0:0:
457,177,245424,101,4,0:0:0:0:
256,15,246424,69,8,3:2:0:0:
256,15,247424,2,0,B|173:12|187:69|95:44,1,160,4|0,3:1|0:0,0:0:0:0:
37,12,247924,1,2,3:0:0:0:
148,186,248091,1,0,1:0:0:0:
231,119,248258,1,8,0:0:0:0:
80,125,248424,102,0,B|78:205|48:299|48:299,1,160,12|0,0:0|0:0,0:0:0:0:
59,362,248924,1,2,3:0:0:0:
150,315,249091,1,0,1:0:0:0:
0,186,249258,5,8,0:0:0:0:
171,67,249424,2,0,P|223:71|281:154,1,160,4|0,1:2|0:0,0:0:0:0:
323,219,249924,1,2,3:0:0:0:
458,94,250091,1,0,1:0:0:0:
351,140,250258,1,2,3:0:0:0:
423,277,250424,2,0,B|470:289|509:315|509:315,1,80,14|2,0:0|0:0,0:0:0:0:
256,133,250758,101,8,0:0:0:0:
256,133,250841,1,8,0:0:0:0:
256,133,250924,1,8,0:0:0:0:
60,214,251091,1,0,3:0:0:0:
285,345,251258,5,8,0:0:0:0:
390,384,251424,2,0,L|367:215,1,160,4|2,1:2|3:0,0:0:0:0:
344,156,251924,1,0,0:0:0:0:
486,21,252091,2,0,B|504:59|504:59|488:131,1,80,0|0,3:0|1:0,0:0:0:0:
201,14,252424,102,0,P|163:25|124:33,1,80,12|0,0:0|0:0,0:0:0:0:
96,102,252758,1,2,3:0:0:0:
238,154,252924,1,0,1:0:0:0:
171,194,253091,5,0,3:0:0:0:
1,285,253258,1,8,0:0:0:0:
52,338,253424,2,0,B|153:330|119:384|219:372,1,160,4|2,3:2|3:0,0:0:0:0:
413,270,253924,1,8,0:0:0:0:
301,222,254091,2,0,P|308:260|328:317,1,80,0|0,1:0|1:0,0:0:0:0:
92,90,254424,101,12,0:0:0:0:
162,60,254591,1,0,0:0:0:0:
189,188,254758,5,8,0:0:0:0:
61,16,254924,1,8,0:0:0:0:
56,233,255091,101,2,3:0:0:0:
280,113,255258,1,0,1:0:0:0:
26,141,255424,6,0,P|21:210|4:314,1,160,4|2,1:2|3:0,0:0:0:0:
66,351,255924,1,8,0:0:0:0:
222,271,256091,2,0,B|210:220|206:173|206:173|207:173,1,80,2|0,0:0|0:0,0:0:0:0:
339,19,256424,101,12,0:0:0:0:
339,19,256758,1,8,0:0:0:0:
446,62,256924,1,0,3:0:0:0:
512,194,257091,5,0,3:0:0:0:
359,250,257258,1,8,0:0:0:0:
204,64,257424,102,0,P|254:85|304:102,1,80,4|0,1:2|0:0,0:0:0:0:
103,252,257758,1,8,0:0:0:0:
188,290,257924,2,0,B|102:267|117:318|9:280,1,160,2|0,0:3|0:0,0:0:0:0:
178,173,258424,5,8,0:0:0:0:
307,112,258591,1,0,0:0:0:0:
494,281,258758,101,8,0:0:0:0:
494,281,258841,1,8,0:0:0:0:
494,281,258924,1,8,0:0:0:0:
379,235,259091,1,0,1:0:0:0:
220,304,259258,5,8,0:0:0:0:
156,347,259424,2,0,P|76:358|-5:379,1,160,4|0,3:2|0:0,0:0:0:0:
135,268,259924,1,0,0:0:0:0:
31,142,260091,2,0,L|128:173,1,80,2|0,0:3|1:0,0:0:0:0:
290,110,260424,101,8,0:0:0:0:
321,41,260591,1,0,0:0:0:0:
204,186,260758,2,0,P|208:246|240:374,1,160,2|0,1:3|0:0,0:0:0:0:
295,299,261258,1,0,0:0:0:0:
386,193,261424,5,8,3:0:0:0:
476,232,261591,1,0,3:0:0:0:
288,220,261758,101,10,3:0:0:0:
145,277,261924,1,4,3:0:0:0:
161,116,262091,5,8,0:0:0:0:
0,31,262258,1,8,0:0:0:0:
295,0,262424,101,8,3:2:0:0:
47,340,262924,5,8,0:3:0:0:
44,346,263258,1,2,0:3:0:0:
223,252,263424,101,12,1:2:0:0:
256,192,263507,12,0,268090,0:0:0:0:
42,15,268590,54,0,L|68:27,1,23.9999992675781,2|0,0:0|0:0,0:0:0:0:
63,25,269090,1,2,0:0:0:0:
273,166,269590,2,0,L|270:180,1,11.9999996337891
280,254,269924,1,2,0:3:0:0:
176,334,270090,6,0,L|153:341,1,23.9999992675781,0|2,0:0|0:0,0:0:0:0:
354,258,270757,1,0,0:0:0:0:
354,258,270924,2,0,L|382:265,1,23.9999992675781
436,218,271424,1,0,0:0:0:0:
436,218,271590,1,0,0:0:0:0:
320,145,271757,101,2,0:0:0:0:
320,145,272090,1,0,0:0:0:0:
414,99,272257,1,0,0:0:0:0:
250,43,272424,5,2,0:0:0:0:
250,43,272757,2,0,P|244:63|237:94,1,47.9999985351563,2|0,3:0|0:0,0:0:0:0:
238,89,273590,1,0,0:0:0:0:
164,161,273757,2,0,L|173:185,1,23.9999992675781,2|0,0:3|0:0,0:0:0:0:
28,337,274257,102,0,L|15:332,2,11.9999996337891,0|2|0,0:0|0:0|0:0,0:0:0:0:
110,293,274757,1,2,0:0:0:0:
110,293,275090,2,0,L|123:291,1,11.9999996337891
192,255,275424,1,2,0:0:0:0:
248,341,275590,2,0,L|275:349,1,23.9999992675781,2|0,0:0|0:0,0:0:0:0:
337,312,276090,1,2,0:3:0:0:
448,273,276257,1,0,1:0:0:0:
380,234,276424,1,0,3:0:0:0:
249,38,276757,5,0,0:0:0:0:
318,12,276924,1,0,0:0:0:0:
246,115,277090,1,2,0:0:0:0:
246,115,277424,2,0,P|255:157|266:187,2,71.9999978027344,2|2|2,3:0|0:0|0:0,0:0:0:0:
118,31,279757,2,0,L|105:26,1,11.9999996337891
38,53,280090,1,0,0:0:0:0:
119,106,280257,102,0,P|100:114|93:117,1,23.9999992675781
169,170,280757,1,0,0:0:0:0:
114,217,280924,2,0,L|110:230,1,11.9999996337891,0|2,0:0|3:0,0:0:0:0:
18,359,281424,5,0,0:0:0:0:
79,343,281590,1,0,0:0:0:0:
156,327,281757,1,2,0:0:0:0:
464,227,282090,102,0,L|345:207,1,119.999996337891,8|0,1:3|0:0,0:0:0:0:
72,25,284090,1,2,0:3:0:0:
72,25,284424,1,2,0:0:0:0:
125,158,284757,1,0,1:0:0:0:
317,119,285090,5,2,0:0:0:0:
253,287,285424,1,2,3:0:0:0:
445,191,285757,101,2,0:0:0:0:
409,120,286090,1,2,0:0:0:0:
334,360,286424,5,0,0:0:0:0:
411,335,286590,1,0,0:0:0:0:
334,360,286757,2,0,P|263:345|191:338,1,143.999995605469,0|2,3:0|0:3,0:0:0:0:
24,243,289090,1,2,0:0:0:0:
96,210,289424,1,0,1:0:0:0:
218,74,289757,101,0,0:0:0:0:
287,90,289924,1,0,0:0:0:0:
376,103,290090,1,2,0:0:0:0:
376,103,290424,1,2,0:0:0:0:
394,349,290757,5,2,0:0:0:0:
488,318,291090,1,2,0:0:0:0:
376,103,291424,101,4,3:1:0:0:
237,143,291924,1,0,0:0:0:0:
152,263,292423,1,2,0:0:0:0:
61,176,292923,2,0,L|84:183,1,23.9999992675781
234,285,293423,5,2,0:0:0:0:
231,292,293757,1,0,0:0:0:0:
236,302,294090,1,2,0:3:0:0:
230,315,294423,1,0,0:0:0:0:
353,263,294757,1,0,0:0:0:0:
230,352,295090,101,2,0:0:0:0:
115,299,295423,2,0,L|102:294,2,11.9999996337891,0|2|0,0:0|0:0|0:0,0:0:0:0:
301,17,296090,6,0,L|228:32,1,71.9999978027344,0|2,3:0|0:3,0:0:0:0:
222,26,297423,2,0,L|216:40,1,11.9999996337891,2|0,0:0|0:0,0:0:0:0:
150,74,297757,1,2,0:0:0:0:
31,209,298090,54,0,L|35:224,1,11.9999996337891
240,349,298423,1,2,1:0:0:0:
256,192,298507,12,0,300757,0:0:0:0:
