osu file format v14

[General]
AudioFilename: audio.mp3
AudioLeadIn: 0
PreviewTime: 134762
Countdown: 0
SampleSet: None
StackLeniency: 0.2
Mode: 0
LetterboxInBreaks: 0
WidescreenStoryboard: 0

[Editor]
Bookmarks: 10973,21078,41289,51394,81710,112025,134762,154973,175183,185289,195394,200446,225710,235815
DistanceSpacing: 0.9
BeatDivisor: 4
GridSize: 16
TimelineZoom: 4.199998

[Metadata]
Title:Suna no Wakusei
TitleUnicode:Suna no Wakusei
Artist:Luschka
ArtistUnicode:Luschka
Creator:semaphore
Version:Udatte odorou, happy birthday!
Source:
Tags:
BeatmapID:1965729
BeatmapSetID:941297

[Difficulty]
HPDrainRate:6
CircleSize:4
OverallDifficulty:8
ApproachRate:9.2
SliderMultiplier:1.8
SliderTickRate:1

[Events]
//Background and Video events
0,0,"deez.jpg",0,0
//Break Periods
2,71804,81140
2,185489,194824
//Storyboard Layer 0 (Background)
//Storyboard Layer 1 (Fail)
//Storyboard Layer 2 (Pass)
//Storyboard Layer 3 (Foreground)
//Storyboard Sound Samples

[TimingPoints]
868,315.789473684211,4,3,1,60,1,0
868,-133.333333333333,4,3,1,60,0,0
10973,-100,4,3,1,60,0,0
51394,-66.6666666666667,4,1,1,60,0,1
70973,-200,4,1,1,60,0,0
71604,-100,4,3,1,60,0,1
71762,-100,4,3,1,60,0,0
134762,-66.6666666666667,4,1,1,60,0,1
154341,-200,4,1,1,60,0,0
154973,-100,4,3,1,60,0,0
195394,-66.6666666666667,4,3,1,60,0,0
196025,-57.1428571428571,4,3,1,60,0,0
196657,-50,4,3,1,60,0,0
197289,-44.4444444444445,4,3,1,60,0,0
197920,-40,4,3,1,60,0,0
198552,-36.3636363636364,4,3,1,60,0,0
199183,-33.3333333333333,4,3,1,60,0,0
199815,-30.7692307692308,4,3,1,60,0,0
200446,-62.5,4,1,1,60,0,1
220657,-133.333333333333,4,3,1,60,0,0

[HitObjects]
44,179,868,5,0,0:0:0:0:
44,179,1183,1,0,0:0:0:0:
119,177,1341,2,0,P|113:214|111:250,1,67.5000025749208
186,251,1657,2,0,P|188:217|193:183,1,67.5000025749208
267,110,1973,2,0,P|320:117|377:187,2,135.000005149842
273,183,2762,1,0,0:0:0:0:
265,255,2920,1,0,0:0:0:0:
270,327,3078,1,0,0:0:0:0:
270,327,3394,5,0,0:0:0:0:
270,327,3710,1,0,0:0:0:0:
340,351,3868,2,0,P|346:310|354:280,1,67.5000025749208
426,298,4183,2,0,P|417:330|413:364,1,67.5000025749208
497,262,4499,2,0,P|515:213|489:130,2,135.000005149842
351,234,5289,1,0,0:0:0:0:
428,203,5446,1,0,0:0:0:0:
417,299,5604,1,0,0:0:0:0:
256,40,5920,5,0,0:0:0:0:
256,40,6236,1,0,0:0:0:0:
220,169,6394,2,0,L|213:82,1,67.5000025749208
138,108,6710,2,0,L|143:175,1,67.5000025749208
89,239,7025,2,0,P|58:214|45:111,2,135.000005149842
153,276,7815,1,0,0:0:0:0:
221,255,7973,1,0,0:0:0:0:
276,305,8131,1,0,0:0:0:0:
276,305,8446,5,0,0:0:0:0:
276,305,8762,1,0,0:0:0:0:
350,326,8920,2,0,P|394:315|438:311,1,67.5000025749208
402,235,9236,2,0,P|368:240|336:248,1,67.5000025749208
325,173,9552,2,0,P|288:194|201:226,2,135.000005149842
237,121,10341,1,0,0:0:0:0:
173,226,10499,1,0,0:0:0:0:
278,291,10657,1,0,0:0:0:0:
93,237,10973,6,0,P|95:169|89:49,1,180
165,71,11446,1,0,0:0:0:0:
293,26,11604,2,0,P|284:79|282:125,1,90
284,210,11920,1,0,0:0:0:0:
466,384,12078,6,0,P|399:348|397:220,1,180
448,166,12552,2,0,B|410:143|410:143|364:155,1,90
202,259,12868,1,0,0:0:0:0:
242,354,13025,1,0,0:0:0:0:
269,285,13183,1,0,0:0:0:0:
174,325,13341,2,0,P|142:328|120:336,1,45
4,154,13499,6,0,P|76:159|143:247,1,180
292,183,13973,2,0,P|249:194|209:240,1,90
185,127,14289,2,0,P|191:76|191:30,1,90
429,23,14604,6,0,P|425:71|426:209,1,180
416,228,15078,1,0,0:0:0:0:
433,246,15236,1,0,0:0:0:0:
421,265,15394,5,0,0:0:0:0:
505,155,15552,1,0,0:0:0:0:
343,123,15710,1,0,0:0:0:0:
259,240,15868,2,0,P|256:272|258:305,1,45
394,373,16025,6,0,P|447:355|477:234,1,180
507,171,16499,1,0,0:0:0:0:
448,41,16657,2,0,B|429:85|429:85|441:132,1,90
314,91,16973,1,0,0:0:0:0:
195,23,17131,6,0,P|198:85|192:204,1,180
116,288,17604,2,0,L|23:305,1,90
279,371,17920,1,0,0:0:0:0:
189,329,18078,1,0,0:0:0:0:
265,294,18236,1,0,0:0:0:0:
216,234,18394,2,0,P|218:203|229:154,1,45
400,162,18552,6,0,P|403:210|398:348,1,180
310,262,19025,1,0,0:0:0:0:
419,59,19183,2,0,P|370:73|337:111,1,90
491,143,19499,1,0,0:0:0:0:
203,70,19657,6,0,P|266:83|317:200,1,180
119,122,20131,2,0,P|72:138|36:175,1,90
112,357,20446,6,0,L|181:368,2,60
58,297,20762,2,0,L|-9:313,2,60
119,238,21078,6,0,P|183:234|323:240,1,180
373,227,21552,1,0,0:0:0:0:
446,242,21868,1,0,0:0:0:0:
442,165,22025,2,0,P|446:120|443:76,1,90
512,36,22341,5,0,0:0:0:0:
390,0,22499,1,0,0:0:0:0:
319,100,22657,2,0,P|269:96|215:100,1,90
96,56,22973,1,0,0:0:0:0:
96,56,23131,1,0,0:0:0:0:
96,56,23446,1,0,0:0:0:0:
35,103,23604,6,0,P|40:151|37:294,1,180
111,275,24078,1,0,0:0:0:0:
184,285,24394,1,0,0:0:0:0:
254,269,24552,2,0,P|260:320|258:368,1,90
501,149,24868,5,0,0:0:0:0:
512,228,25025,2,0,B|414:196|439:276|321:272,1,180
258,161,25499,1,0,0:0:0:0:
353,83,25657,1,0,0:0:0:0:
266,258,25815,1,0,0:0:0:0:
151,180,25973,1,0,0:0:0:0:
352,196,26131,6,0,P|354:266|351:379,1,180
279,368,26604,1,0,0:0:0:0:
207,377,26920,1,0,0:0:0:0:
135,370,27236,1,0,0:0:0:0:
139,208,27394,6,0,L|150:313,1,90
225,245,27710,1,0,0:0:0:0:
134,181,27868,1,0,0:0:0:0:
60,258,28025,1,0,0:0:0:0:
150,320,28183,1,0,0:0:0:0:
225,245,28341,5,0,0:0:0:0:
60,258,28499,1,0,0:0:0:0:
150,320,28657,6,0,P|156:251|152:130,1,180
156,66,29131,1,0,0:0:0:0:
156,66,29446,2,0,L|255:45,1,90
342,12,29762,2,0,P|403:20|468:129,2,180
341,85,30552,5,0,0:0:0:0:
330,112,30657,5,0,0:0:0:0:
336,141,30762,5,0,0:0:0:0:
341,198,30868,5,0,0:0:0:0:
354,226,30973,5,0,0:0:0:0:
340,252,31078,5,0,0:0:0:0:
353,325,31183,6,0,B|254:294|284:381|165:370,1,180
113,353,31657,1,0,0:0:0:0:
38,360,31973,1,0,0:0:0:0:
49,287,32289,1,0,0:0:0:0:
26,218,32446,6,0,P|30:163|24:119,1,90
206,154,32762,2,0,P|202:209|208:253,1,90
126,289,33078,1,0,0:0:0:0:
119,215,33236,2,0,L|105:27,1,180
409,140,33710,6,0,L|393:325,1,180
322,305,34183,1,0,0:0:0:0:
251,319,34499,1,0,0:0:0:0:
179,313,34815,1,0,0:0:0:0:
29,343,34973,6,0,B|76:333|76:333|116:354,1,90
149,195,35289,1,0,0:0:0:0:
94,248,35446,1,0,0:0:0:0:
256,291,35604,1,0,0:0:0:0:
237,216,35762,2,0,P|231:165|116:103,1,180
312,12,36236,6,0,P|307:62|313:107,1,90
398,48,36552,1,0,0:0:0:0:
492,27,36710,2,0,L|482:132,1,90
396,292,37025,1,0,0:0:0:0:
287,262,37183,1,0,0:0:0:0:
318,153,37341,1,0,0:0:0:0:
426,182,37499,6,0,P|439:236|418:369,1,180
347,351,37973,1,0,0:0:0:0:
275,365,38289,1,0,0:0:0:0:
201,357,38446,1,0,0:0:0:0:
198,326,38552,1,0,0:0:0:0:
205,296,38657,1,0,0:0:0:0:
202,266,38762,6,0,P|196:204|213:72,1,180
136,91,39236,1,0,0:0:0:0:
62,83,39552,1,0,0:0:0:0:
63,157,39868,1,0,0:0:0:0:
136,169,40025,1,0,0:0:0:0:
332,226,40183,2,0,L|515:207,1,180
512,99,40657,5,0,0:0:0:0:
436,109,40815,1,0,0:0:0:0:
426,185,40973,1,0,0:0:0:0:
229,351,41131,1,0,0:0:0:0:
155,329,41289,2,0,P|148:259|160:121,1,180
146,71,41762,1,0,0:0:0:0:
136,331,41920,6,0,P|129:261|141:123,1,180
256,230,42394,1,0,0:0:0:0:
362,109,42552,6,0,P|420:123|476:241,1,180
442,296,43025,1,0,0:0:0:0:
169,177,43183,2,0,P|183:119|301:63,1,180
338,292,43657,1,0,0:0:0:0:
338,292,43736,1,0,0:0:0:0:
338,292,43815,6,0,P|289:292|231:309,1,90
124,363,44131,2,0,P|173:363|231:380,1,90
412,381,44446,2,0,L|426:176,1,180
391,131,44920,1,0,0:0:0:0:
433,39,45078,6,0,B|334:14|365:91|248:71,1,180
189,62,45552,1,0,0:0:0:0:
118,87,45710,5,0,0:0:0:0:
243,185,45868,1,0,0:0:0:0:
256,111,46026,5,0,0:0:0:0:
107,160,46183,1,0,0:0:0:0:
164,208,46341,6,0,P|231:218|302:323,1,180
293,379,46815,1,0,0:0:0:0:
364,223,46973,2,0,P|287:224|213:297,1,180
198,365,47446,1,0,0:0:0:0:
111,316,47604,6,0,P|67:322|16:321,1,90
24,246,47920,1,0,0:0:0:0:
8,174,48078,1,0,0:0:0:0:
21,101,48236,5,0,0:0:0:0:
192,156,48394,1,0,0:0:0:0:
182,80,48552,5,0,0:0:0:0:
30,176,48710,1,0,0:0:0:0:
94,217,48868,6,0,P|100:163|93:25,1,180
226,120,49341,1,0,0:0:0:0:
338,57,49499,2,0,P|394:74|428:129,1,90
249,137,49815,1,0,0:0:0:0:
256,62,49973,1,0,0:0:0:0:
255,366,50131,6,0,P|251:306|259:214,1,135
264,204,50446,2,0,P|269:271|265:338,1,135
255,366,50762,2,0,P|251:306|259:214,1,135
264,204,51078,2,0,P|269:271|265:338,1,135
40,44,51394,6,0,B|144:24|119:126|228:127,1,202.500007724762,6|0,0:0|0:0,0:0:0:0:
248,126,51710,1,0,0:0:0:0:
228,30,51868,2,0,L|310:15,1,67.5000025749208,2|0,0:0|0:0,0:0:0:0:
352,70,52025,2,0,P|428:81|503:230,1,202.500007724762,8|0,0:0|0:0,0:0:0:0:
492,207,52341,1,0,0:0:0:0:
401,319,52499,1,2,0:0:0:0:
401,319,52578,1,0,0:0:0:0:
401,319,52657,6,0,P|384:250|384:181,1,135.000005149842,0|2,0:0|0:0,0:0:0:0:
369,172,52894,2,0,P|367:239|351:304,1,135.000005149842
360,377,53131,2,0,P|363:344|359:296,1,67.5000025749208,2|0,0:0|0:0,0:0:0:0:
292,192,53289,1,8,0:0:0:0:
232,137,53446,1,0,0:0:0:0:
140,159,53604,1,0,0:0:0:0:
87,253,53762,1,2,0:0:0:0:
162,348,53920,6,0,P|170:262|164:145,1,202.500007724762,6|0,0:0|0:0,0:0:0:0:
163,112,54236,1,0,0:0:0:0:
240,120,54394,1,2,0:0:0:0:
316,101,54552,6,0,L|324:257,1,135.000005149842,8|0,0:0|0:0,0:0:0:0:
478,166,54868,1,0,0:0:0:0:
378,335,55025,1,8,0:0:0:0:
378,335,55104,1,0,0:0:0:0:
378,335,55183,6,0,P|296:329|228:258,1,135.000005149842,2|0,0:0|0:0,0:0:0:0:
378,335,55420,2,0,P|296:341|228:412,1,135.000005149842,2|0,0:0|0:0,0:0:0:0:
188,335,55657,2,0,B|156:345|156:345|118:336,1,67.5000025749208,2|0,0:0|0:0,0:0:0:0:
45,313,55815,6,0,B|176:277|110:382|275:371,1,202.500007724762,8|0,0:0|0:0,0:0:0:0:
261,365,56131,1,0,0:0:0:0:
463,223,56289,2,0,L|419:230,1,33.7500012874604,2|0,0:0|0:0,0:0:0:0:
457,205,56368,2,0,L|501:212,1,33.7500012874604
471,189,56446,6,0,P|460:139|311:65,1,202.500007724762,6|0,0:0|0:0,0:0:0:0:
306,69,56762,1,0,0:0:0:0:
196,181,56920,1,2,0:0:0:0:
297,294,57078,2,0,L|439:320,1,135.000005149842,8|0,0:0|0:0,0:0:0:0:
290,185,57394,1,0,0:0:0:0:
149,335,57552,1,2,0:0:0:0:
149,335,57631,1,0,0:0:0:0:
149,335,57710,6,0,L|109:200,1,135.000005149842,0|2,0:0|0:0,0:0:0:0:
72,335,57946,2,0,L|112:200,1,135.000005149842
80,192,58183,2,0,P|76:226|79:271,1,67.5000025749208,2|0,0:0|0:0,0:0:0:0:
47,204,58341,2,0,P|45:125|60:32,1,135.000005149842,8|0,0:0|0:0,0:0:0:0:
177,134,58657,1,0,0:0:0:0:
290,45,58815,1,2,0:0:0:0:
290,45,58894,1,0,0:0:0:0:
290,45,58973,6,0,L|333:321,1,270.000010299683,6|0,0:0|0:0,0:0:0:0:
398,356,59446,1,2,0:0:0:0:
483,316,59604,1,8,0:0:0:0:
495,208,59762,1,0,0:0:0:0:
404,126,59920,1,0,0:0:0:0:
275,166,60078,1,8,0:0:0:0:
129,136,60236,6,0,P|120:210|124:279,1,135.000005149842,2|0,0:0|0:0,0:0:0:0:
137,293,60473,2,0,P|139:263|137:224,1,67.5000025749208,2|0,0:0|0:0,0:0:0:0:
124,365,60710,1,2,0:0:0:0:
389,266,60868,5,8,0:0:0:0:
283,250,61025,1,0,0:0:0:0:
283,347,61183,5,0,0:0:0:0:
299,241,61341,2,0,L|311:164,1,67.5000025749208,8|0,0:0|0:0,0:0:0:0:
191,236,61499,6,0,B|300:196|273:311|406:296,1,202.500007724762,6|0,0:0|0:0,0:0:0:0:
405,292,61815,1,0,0:0:0:0:
479,306,61973,2,0,L|484:396,1,67.5000025749208,2|0,0:0|0:0,0:0:0:0:
506,227,62131,2,0,P|493:156|358:81,1,202.500007724762,8|0,0:0|0:0,0:0:0:0:
371,62,62446,2,0,P|407:67|446:63,1,67.5000025749208
390,45,62604,2,0,P|354:50|315:46,1,67.5000025749208,2|0,0:0|0:0,0:0:0:0:
351,191,62762,6,0,P|282:178|206:178,1,135.000005149842,0|2,0:0|0:0,0:0:0:0:
351,191,62999,2,0,P|282:204|206:204,1,135.000005149842
3,184,63236,2,0,B|36:177|36:177|70:187,1,67.5000025749208,2|0,0:0|0:0,0:0:0:0:
351,191,63394,6,0,B|238:154|279:255|135:233,1,202.500007724762,8|0,0:0|0:0,0:0:0:0:
131,224,63710,1,0,0:0:0:0:
144,144,63868,1,2,0:0:0:0:
133,72,64025,6,0,P|124:155|123:284,1,202.500007724762,6|0,0:0|0:0,0:0:0:0:
124,308,64341,1,0,0:0:0:0:
273,377,64499,1,2,0:0:0:0:
424,301,64657,2,0,L|273:261,1,135.000005149842,8|0,0:0|0:0,0:0:0:0:
405,158,64973,1,0,0:0:0:0:
316,54,65131,1,2,0:0:0:0:
316,54,65210,1,0,0:0:0:0:
316,54,65289,6,0,P|234:76|190:134,1,135.000005149842,0|2,0:0|0:0,0:0:0:0:
397,5,65525,2,0,P|467:18|517:78,1,135.000005149842
497,159,65762,2,0,P|501:123|491:82,1,67.5000025749208,2|0,0:0|0:0,0:0:0:0:
511,235,65920,1,8,0:0:0:0:
478,241,66078,1,0,0:0:0:0:
453,227,66236,1,0,0:0:0:0:
417,239,66394,2,0,B|382:234|382:234|422:225,1,67.5000025749208,2|0,0:0|0:0,0:0:0:0:
13,207,66552,6,0,B|122:161|91:268|220:255,1,202.500007724762,6|0,0:0|0:0,0:0:0:0:
229,246,66868,1,0,0:0:0:0:
136,338,67025,2,0,P|181:335|222:343,1,67.5000025749208,2|0,0:0|0:0,0:0:0:0:
256,36,67183,5,8,0:0:0:0:
245,111,67341,1,0,0:0:0:0:
257,182,67499,1,0,0:0:0:0:
243,257,67657,6,0,P|288:254|389:264,1,135.000005149842,2|0,0:0|0:0,0:0:0:0:
348,280,67894,1,0,0:0:0:0:
379,292,67973,2,0,P|312:285|245:288,1,135.000005149842,2|0,0:0|0:0,0:0:0:0:
161,206,68289,1,2,0:0:0:0:
91,275,68446,2,0,P|84:204|100:66,1,202.500007724762,8|0,0:0|0:0,0:0:0:0:
112,42,68762,1,0,0:0:0:0:
53,138,68920,2,0,P|57:174|58:225,1,67.5000025749208,2|0,0:0|0:0,0:0:0:0:
214,21,69078,6,0,P|291:34|387:147,1,202.500007724762,6|0,0:0|0:0,0:0:0:0:
405,188,69394,2,0,P|411:149|433:98,1,67.5000025749208
349,252,69552,2,0,L|373:384,1,135.000005149842,2|8,0:0|0:0,0:0:0:0:
163,252,69868,2,0,L|139:384,1,135.000005149842
378,259,70183,6,0,B|413:271|413:271|431:400,1,135.000005149842,2|0,0:0|0:0,0:0:0:0:
134,259,70499,2,0,B|99:271|99:271|81:400,1,135.000005149842,2|0,0:0|0:0,0:0:0:0:
100,178,70815,1,2,0:0:0:0:
154,117,70973,6,0,B|178:31|178:31|205:117,1,180,8|0,0:0|0:0,0:0:0:0:
489,33,81710,6,0,P|431:40|361:153,1,180
371,205,82183,1,0,0:0:0:0:
357,279,82499,1,0,0:0:0:0:
461,319,82657,1,0,0:0:0:0:
490,210,82815,1,0,0:0:0:0:
267,258,82973,5,0,0:0:0:0:
277,334,83131,1,0,0:0:0:0:
252,268,83289,1,0,0:0:0:0:
255,344,83447,1,0,0:0:0:0:
180,330,83604,1,0,0:0:0:0:
107,353,83762,2,0,P|102:299|109:171,1,180
236,0,84236,6,0,P|241:54|234:182,1,180
310,168,84710,1,0,0:0:0:0:
381,185,85025,1,0,0:0:0:0:
431,84,85183,1,0,0:0:0:0:
325,44,85341,1,0,0:0:0:0:
356,260,85499,5,0,0:0:0:0:
431,252,85657,1,0,0:0:0:0:
356,272,85815,1,0,0:0:0:0:
431,270,85973,1,0,0:0:0:0:
366,357,86131,1,0,0:0:0:0:
277,296,86289,2,0,B|176:286|209:349|101:348,1,180
11,176,86762,5,0,0:0:0:0:
11,176,87078,1,0,0:0:0:0:
87,187,87236,1,0,0:0:0:0:
87,187,87552,1,0,0:0:0:0:
380,199,87710,5,0,0:0:0:0:
462,189,87868,1,0,0:0:0:0:
150,260,88025,6,0,P|100:269|61:302,1,90
309,237,88341,1,0,0:0:0:0:
384,256,88499,1,0,0:0:0:0:
78,103,88657,5,0,0:0:0:0:
154,90,88815,1,0,0:0:0:0:
380,88,88973,1,0,0:0:0:0:
453,72,89131,1,0,0:0:0:0:
203,194,89289,6,0,B|110:171|137:258|2:239,1,180
197,278,89762,2,0,P|247:289|285:324,1,90
111,304,90078,2,0,P|83:346|72:386,1,90
321,212,90394,2,0,P|398:222|460:332,2,180
326,139,91183,1,0,0:0:0:0:
302,70,91341,1,0,0:0:0:0:
326,0,91499,1,0,0:0:0:0:
326,0,91657,1,0,0:0:0:0:
162,112,91815,6,0,P|107:121|29:223,1,180
100,237,92289,1,0,0:0:0:0:
172,223,92604,1,0,0:0:0:0:
244,238,92920,1,0,0:0:0:0:
381,295,93078,6,0,B|339:278|339:278|297:295,1,90
211,381,93394,1,0,0:0:0:0:
202,305,93552,1,0,0:0:0:0:
264,112,93710,1,0,0:0:0:0:
254,36,93868,2,0,P|249:93|252:226,1,180
324,203,94341,5,0,0:0:0:0:
396,220,94499,1,0,0:0:0:0:
472,205,94657,1,0,0:0:0:0:
398,192,94815,1,0,0:0:0:0:
407,267,95131,1,0,0:0:0:0:
400,342,95446,1,0,0:0:0:0:
483,339,95604,6,0,P|479:295|484:246,1,90
273,286,95920,1,0,0:0:0:0:
330,382,96078,1,0,0:0:0:0:
438,179,96236,5,0,0:0:0:0:
326,180,96394,1,0,0:0:0:0:
483,339,96552,2,0,L|528:349,4,30
428,283,96868,6,0,B|337:263|361:337|255:335,1,180
194,302,97341,1,0,0:0:0:0:
125,333,97657,2,0,B|100:322|100:322|100:245,1,90
104,184,97973,1,0,0:0:0:0:
133,9,98131,6,0,P|190:27|234:163,1,180
78,79,98604,2,0,P|32:88|-10:130,1,90
71,196,98920,1,0,0:0:0:0:
186,184,99078,1,0,0:0:0:0:
304,203,99236,2,0,L|255:209,1,45
436,181,99394,6,0,P|442:240|437:367,1,180
364,345,99868,1,0,0:0:0:0:
290,360,100183,1,0,0:0:0:0:
216,346,100499,1,0,0:0:0:0:
65,302,100657,6,0,B|110:316|110:316|159:297,1,90
153,225,100973,1,0,0:0:0:0:
118,117,101131,1,0,0:0:0:0:
14,161,101289,2,0,L|62:168,1,45
256,192,101446,6,0,L|323:192,1,45
256,192,101604,2,0,P|287:199|329:199,1,45
256,192,101762,2,0,P|287:185|329:185,1,45
488,212,101920,6,0,B|392:192|425:275|308:279,1,180
253,275,102394,1,0,0:0:0:0:
186,126,102552,1,0,0:0:0:0:
346,73,102710,2,0,L|337:176,1,90
262,164,103025,1,0,0:0:0:0:
55,236,103183,6,0,P|51:182|59:52,1,180
134,257,103657,2,0,P|136:306|132:352,1,90
210,344,103973,1,0,0:0:0:0:
286,354,104131,1,0,0:0:0:0:
359,343,104289,1,0,0:0:0:0:
120,344,104604,6,0,P|116:299|118:254,1,90
217,302,104920,1,0,0:0:0:0:
114,373,105078,1,0,0:0:0:0:
25,287,105236,2,0,P|43:217|152:165,1,180
189,106,105710,6,0,L|291:121,1,90
331,177,106025,1,0,0:0:0:0:
440,186,106183,2,0,L|249:219,1,180
375,234,106657,1,0,0:0:0:0:
256,241,106815,1,0,0:0:0:0:
31,270,106973,5,0,0:0:0:0:
81,332,107131,1,0,0:0:0:0:
143,185,107289,5,0,0:0:0:0:
64,197,107447,1,0,0:0:0:0:
165,331,107604,5,0,0:0:0:0:
194,256,107762,1,0,0:0:0:0:
210,88,107920,2,0,L|225:188,1,90
377,289,108236,6,0,L|488:305,1,90
377,289,108473,2,0,L|488:273,1,90
337,352,108710,2,0,B|290:337|290:337|248:354,1,90
182,328,109025,1,0,0:0:0:0:
111,352,109341,1,0,0:0:0:0:
39,327,109499,6,0,P|33:266|44:139,1,180
34,73,109973,1,0,0:0:0:0:
49,3,110289,1,0,0:0:0:0:
210,23,110446,2,0,L|117:35,1,90
241,200,110762,1,0,0:0:0:0:
316,189,110999,1,0,0:0:0:0:
393,200,111236,1,0,0:0:0:0:
467,186,111394,1,0,0:0:0:0:
467,186,111710,2,0,B|514:192,4,30
399,354,112025,6,0,P|382:317|374:263,1,90
362,251,112262,2,0,P|355:310|342:345,1,90
271,368,112499,2,0,P|267:342|258:313,1,45
188,247,112657,2,0,P|139:256|81:252,1,90
108,180,112973,1,0,0:0:0:0:
100,104,113131,1,0,0:0:0:0:
276,0,113289,6,0,P|291:44|300:92,1,90
300,107,113525,2,0,P|315:52|337:17,1,90
357,172,113762,2,0,P|367:196|374:234,1,45
489,73,113920,2,0,P|435:81|386:94,1,90
115,203,114236,1,0,0:0:0:0:
42,187,114394,1,0,0:0:0:0:
42,187,114473,1,0,0:0:0:0:
42,187,114552,6,0,P|99:180|151:181,1,90
42,187,114789,2,0,P|99:194|151:193,1,90
236,190,115025,2,0,B|308:197,1,45
488,191,115183,6,0,P|431:184|379:185,1,90
385,181,115420,2,0,P|437:178|480:169,1,90
288,192,115657,2,0,B|244:197,1,45
33,203,115815,6,0,P|39:148|35:98,1,90
51,180,116052,2,0,P|57:235|53:285,1,90
69,203,116289,2,0,L|127:198,1,45
258,168,116446,1,0,0:0:0:0:
265,93,116604,1,0,0:0:0:0:
242,21,116762,2,0,L|207:27,4,30
352,74,117078,5,0,0:0:0:0:
177,145,117236,1,0,0:0:0:0:
155,151,117315,1,0,0:0:0:0:
309,227,117473,1,0,0:0:0:0:
331,233,117552,1,0,0:0:0:0:
251,384,117710,2,0,P|247:332|253:280,1,90
232,217,118025,1,0,0:0:0:0:
246,142,118183,1,0,0:0:0:0:
447,158,118341,5,0,0:0:0:0:
391,211,118499,1,0,0:0:0:0:
369,217,118578,1,0,0:0:0:0:
146,228,118736,1,0,0:0:0:0:
124,222,118815,1,0,0:0:0:0:
51,197,118973,2,0,P|45:248|50:305,1,90
43,121,119289,1,0,0:0:0:0:
126,29,119446,2,0,L|64:29,1,45
113,45,119604,6,0,P|164:55|210:94,1,90
113,45,119841,2,0,P|164:35|210:-4,1,90
319,46,120078,2,0,L|274:43,1,45
427,34,120236,6,0,P|420:80|420:138,1,90
427,34,120473,2,0,P|434:80|434:138,1,90
460,234,120710,2,0,P|468:208|495:176,1,45
401,280,120868,6,0,B|311:259|328:340|202:324,1,180
157,307,121341,1,0,0:0:0:0:
208,246,121499,5,0,0:0:0:0:
199,216,121604,5,0,0:0:0:0:
199,185,121710,5,0,0:0:0:0:
208,156,121815,5,0,0:0:0:0:
220,128,121920,5,0,0:0:0:0:
221,98,122025,5,0,0:0:0:0:
218,68,122131,5,0,0:0:0:0:
218,68,122604,1,0,0:0:0:0:
220,142,122762,1,0,0:0:0:0:
233,220,123078,1,0,0:0:0:0:
235,146,123236,1,0,0:0:0:0:
226,294,123552,1,0,0:0:0:0:
235,146,123867,1,0,0:0:0:0:
226,294,124025,5,0,0:0:0:0:
300,276,124183,1,0,0:0:0:0:
155,146,124341,5,0,0:0:0:0:
133,219,124499,1,0,0:0:0:0:
320,178,124657,6,0,P|325:122|313:-2,1,180
402,147,125131,1,0,0:0:0:0:
496,202,125289,2,0,B|511:159|511:159|502:113,1,90
354,254,125604,2,0,B|339:297|339:297|348:343,1,90
430,307,125920,6,0,B|336:287|348:366|256:364,1,180
155,345,126394,1,0,0:0:0:0:
264,326,126552,1,0,0:0:0:0:
186,236,126710,1,0,0:0:0:0:
191,162,126868,1,0,0:0:0:0:
179,91,127025,2,0,L|184:34,1,45
300,14,127183,6,0,P|367:21|454:121,1,180
477,165,127657,1,0,0:0:0:0:
182,241,127815,2,0,P|189:174|289:87,1,180
338,94,128289,1,0,0:0:0:0:
49,41,128446,6,0,P|56:84|50:146,1,90
194,25,128762,2,0,P|187:68|193:130,1,90
98,214,129078,1,0,0:0:0:0:
21,296,129236,1,0,0:0:0:0:
102,374,129394,1,0,0:0:0:0:
185,298,129552,2,0,P|162:300|131:289,1,45
21,296,129710,6,0,B|118:269|90:362|212:354,1,180
340,247,130183,1,0,0:0:0:0:
414,251,130341,2,0,B|425:297|425:297|405:339,1,90
253,287,130657,2,0,B|241:240|241:240|261:198,1,90
305,0,130973,5,0,0:0:0:0:
321,72,131131,1,0,0:0:0:0:
304,144,131289,1,0,0:0:0:0:
292,72,131446,1,0,0:0:0:0:
305,0,131604,2,0,P|309:51|304:108,1,90
200,136,131920,1,0,0:0:0:0:
126,119,132078,2,0,L|122:173,1,45
354,240,132236,5,0,0:0:0:0:
428,223,132394,1,0,0:0:0:0:
404,150,132552,1,0,0:0:0:0:
256,280,132710,2,0,P|252:328|257:373,1,90
242,239,133025,1,0,0:0:0:0:
253,163,133183,1,0,0:0:0:0:
237,91,133341,1,0,0:0:0:0:
258,16,133499,6,0,P|264:84|258:161,1,135
250,183,133815,2,0,P|244:115|250:38,1,135
258,16,134131,2,0,P|264:84|258:161,1,135
250,183,134447,2,0,P|244:115|250:38,1,135
494,222,134762,6,0,B|390:195|409:279|297:275,1,202.500007724762,6|0,0:0|0:0,0:0:0:0:
273,269,135078,1,0,0:0:0:0:
181,352,135236,2,0,L|181:266,1,67.5000025749208,2|0,0:0|0:0,0:0:0:0:
0,154,135394,2,0,P|70:166|147:294,1,202.500007724762,8|0,0:0|0:0,0:0:0:0:
144,300,135710,1,0,0:0:0:0:
221,185,135868,1,2,0:0:0:0:
221,185,135946,1,0,0:0:0:0:
221,185,136025,6,0,P|243:126|249:50,1,135.000005149842,0|2,0:0|0:0,0:0:0:0:
249,36,136262,2,0,P|255:109|281:188,1,135.000005149842
257,303,136499,2,0,P|272:266|302:234,1,67.5000025749208,2|0,0:0|0:0,0:0:0:0:
392,125,136657,1,8,0:0:0:0:
512,142,136815,1,0,0:0:0:0:
496,262,136973,1,0,0:0:0:0:
375,245,137131,1,2,0:0:0:0:
375,245,137210,1,0,0:0:0:0:
375,245,137289,6,0,P|371:170|384:66,1,135.000005149842,6|0,0:0|0:0,0:0:0:0:
440,354,137604,1,0,0:0:0:0:
451,280,137762,1,2,0:0:0:0:
240,330,137920,6,0,P|169:296|138:157,1,202.500007724762,8|0,0:0|0:0,0:0:0:0:
139,151,138236,1,0,0:0:0:0:
131,74,138394,1,2,0:0:0:0:
158,3,138552,6,0,P|232:-4|305:1,1,135.000005149842,0|2,0:0|0:0,0:0:0:0:
158,3,138789,2,0,P|232:10|305:5,1,135.000005149842
337,102,139025,2,0,B|303:95|303:95|270:103,1,67.5000025749208,2|0,0:0|0:0,0:0:0:0:
457,45,139183,6,0,B|358:19|386:110|253:103,1,202.500007724762,8|0,0:0|0:0,0:0:0:0:
237,101,139499,1,0,0:0:0:0:
176,149,139657,2,0,L|100:143,1,67.5000025749208,2|0,0:0|0:0,0:0:0:0:
29,161,139815,6,0,P|97:170|184:299,1,202.500007724762,6|0,0:0|0:0,0:0:0:0:
183,301,140131,1,0,0:0:0:0:
372,344,140289,1,2,0:0:0:0:
372,344,140368,1,0,0:0:0:0:
372,344,140446,2,0,B|306:324|306:324|244:363,1,135.000005149842,8|0,0:0|0:0,0:0:0:0:
83,383,140762,1,0,0:0:0:0:
73,308,140920,1,2,0:0:0:0:
286,162,141078,6,0,P|364:186|434:193,1,135.000005149842,0|2,0:0|0:0,0:0:0:0:
441,193,141315,2,0,P|364:198|301:220,1,135.000005149842
160,207,141552,2,0,B|194:197|194:197|233:211,1,67.5000025749208,2|0,0:0|0:0,0:0:0:0:
396,281,141710,5,8,0:0:0:0:
471,291,141868,1,0,0:0:0:0:
135,289,142025,5,0,0:0:0:0:
60,299,142183,1,2,0:0:0:0:
60,299,142262,1,0,0:0:0:0:
60,299,142341,6,0,L|48:158,1,135.000005149842,6|0,0:0|0:0,0:0:0:0:
59,77,142657,1,0,0:0:0:0:
28,0,142815,1,2,0:0:0:0:
26,79,142973,2,0,B|118:51|122:142|248:128,1,202.500007724762,8|0,0:0|0:0,0:0:0:0:
233,110,143289,2,0,L|246:36,1,67.5000025749208
249,129,143446,2,0,L|264:216,1,67.5000025749208,2|0,0:0|0:0,0:0:0:0:
353,117,143604,6,0,P|440:129|517:229,2,202.500007724762,2|2|2,0:0|0:0|0:0,0:0:0:0:
338,190,144236,1,8,0:0:0:0:
358,261,144394,1,0,0:0:0:0:
347,334,144552,1,0,0:0:0:0:
327,262,144710,2,0,L|334:182,1,67.5000025749208,8|0,0:0|0:0,0:0:0:0:
101,374,144868,6,0,L|78:154,1,202.500007724762,6|0,0:0|0:0,0:0:0:0:
75,139,145183,1,0,0:0:0:0:
80,303,145341,2,0,L|95:219,1,67.5000025749208,2|0,0:0|0:0,0:0:0:0:
263,118,145499,2,0,P|343:141|382:192,1,135.000005149842,8|0,0:0|0:0,0:0:0:0:
164,50,145815,1,0,0:0:0:0:
155,124,145973,1,2,0:0:0:0:
265,340,146131,6,0,P|271:270|261:197,1,135.000005149842,0|2,0:0|0:0,0:0:0:0:
256,248,146368,2,0,P|250:318|260:391,1,135.000005149842
276,306,146604,2,0,P|279:265|271:211,1,67.5000025749208,2|0,0:0|0:0,0:0:0:0:
252,20,146762,5,8,0:0:0:0:
239,96,146920,1,0,0:0:0:0:
260,170,147078,1,0,0:0:0:0:
256,249,147236,1,2,0:0:0:0:
256,249,147315,1,0,0:0:0:0:
256,249,147394,6,0,B|161:227|183:320|60:314,1,202.500007724762,6|0,0:0|0:0,0:0:0:0:
67,347,147710,2,0,B|100:339|100:339|142:350,1,67.5000025749208
220,334,147868,2,0,B|253:326|253:326|295:337,1,67.5000025749208,2|0,0:0|0:0,0:0:0:0:
381,247,148025,1,8,0:0:0:0:
501,263,148183,1,0,0:0:0:0:
483,383,148341,1,0,0:0:0:0:
362,366,148499,1,2,0:0:0:0:
314,186,148657,6,0,P|240:153|200:16,2,202.500007724762,2|2|2,0:0|0:0|0:0,0:0:0:0:
384,163,149289,1,8,0:0:0:0:
449,197,149446,1,0,0:0:0:0:
512,159,149604,1,0,0:0:0:0:
452,124,149762,1,2,0:0:0:0:
452,124,149841,1,0,0:0:0:0:
452,124,149920,6,0,P|441:197|451:341,1,202.500007724762,6|0,0:0|0:0,0:0:0:0:
427,352,150236,2,0,P|428:273|419:201,1,135.000005149842,0|2,0:0|0:0,0:0:0:0:
356,323,150552,1,8,0:0:0:0:
284,348,150710,1,0,0:0:0:0:
215,327,150868,1,0,0:0:0:0:
90,356,151025,6,0,L|110:217,1,135.000005149842,2|0,0:0|0:0,0:0:0:0:
12,276,151341,1,2,0:0:0:0:
98,384,151499,1,0,0:0:0:0:
190,295,151657,1,2,0:0:0:0:
116,90,151815,5,8,0:0:0:0:
64,147,151973,1,0,0:0:0:0:
226,173,152131,5,0,0:0:0:0:
202,99,152289,2,0,P|161:103|118:135,1,67.5000025749208,2|0,0:0|0:0,0:0:0:0:
64,147,152446,6,0,B|176:123|139:217|286:205,1,202.500007724762,6|0,0:0|0:0,0:0:0:0:
250,233,152762,2,0,P|205:228|165:239,1,67.5000025749208
401,126,152920,6,0,P|473:142|518:204,1,135.000005149842,2|8,0:0|0:0,0:0:0:0:
379,26,153236,2,0,P|316:52|274:116,1,135.000005149842
487,206,153552,6,0,P|478:294|355:342,1,202.500007724762,2|0,0:0|0:0,0:0:0:0:
352,337,153868,1,2,0:0:0:0:
278,319,154025,1,0,0:0:0:0:
204,345,154183,1,2,0:0:0:0:
131,315,154341,6,0,B|141:265|124:231|124:231|107:274|116:314,1,157.5,8|0,0:0|0:0,0:0:0:0:
252,372,154973,5,0,0:0:0:0:
260,296,155446,1,0,0:0:0:0:
252,224,155920,1,0,0:0:0:0:
256,152,156078,1,0,0:0:0:0:
252,80,156394,1,0,0:0:0:0:
260,8,156552,5,0,0:0:0:0:
396,32,156710,1,0,0:0:0:0:
252,8,156868,5,0,0:0:0:0:
116,32,157026,1,0,0:0:0:0:
374,132,157183,1,0,0:0:0:0:
448,141,157341,1,0,0:0:0:0:
202,200,157499,6,0,P|145:206|71:309,1,180
136,338,157973,1,0,0:0:0:0:
209,320,158131,1,0,0:0:0:0:
279,345,158446,1,0,0:0:0:0:
351,328,158604,1,0,0:0:0:0:
421,345,158762,5,0,0:0:0:0:
447,156,158920,1,0,0:0:0:0:
433,350,159078,5,0,0:0:0:0:
421,256,159236,1,0,0:0:0:0:
295,10,159394,5,0,0:0:0:0:
321,199,159552,1,0,0:0:0:0:
307,5,159710,5,0,0:0:0:0:
295,99,159868,1,0,0:0:0:0:
16,196,160025,5,0,0:0:0:0:
92,188,160499,1,0,0:0:0:0:
168,196,160973,1,0,0:0:0:0:
244,188,161131,1,0,0:0:0:0:
320,196,161446,1,0,0:0:0:0:
396,188,161604,5,0,0:0:0:0:
472,196,161762,1,0,0:0:0:0:
124,201,161920,5,0,0:0:0:0:
48,209,162078,1,0,0:0:0:0:
421,279,162236,5,0,0:0:0:0:
345,287,162394,1,0,0:0:0:0:
78,300,162552,6,0,B|182:277|151:360|269:352,1,180
260,192,163025,1,0,0:0:0:0:
242,31,163183,1,0,0:0:0:0:
242,352,163499,5,0,0:0:0:0:
224,192,163657,1,0,0:0:0:0:
241,31,163815,1,0,0:0:0:0:
241,31,164131,5,0,0:0:0:0:
258,192,164289,1,0,0:0:0:0:
240,352,164447,1,0,0:0:0:0:
314,338,164762,1,0,0:0:0:0:
385,361,165078,6,0,P|391:307|384:176,1,180
309,232,165552,1,0,0:0:0:0:
438,274,165710,1,0,0:0:0:0:
478,162,165868,1,0,0:0:0:0:
358,111,166025,1,0,0:0:0:0:
49,196,166183,6,0,P|122:187|195:113,1,180
338,20,166657,2,0,P|298:47|271:90,1,90
252,344,166973,1,0,0:0:0:0:
240,272,167289,1,0,0:0:0:0:
252,200,167446,1,0,0:0:0:0:
243,348,167604,6,0,P|185:342|54:344,1,180
163,306,168078,1,0,0:0:0:0:
49,319,168236,2,0,L|41:218,1,90
158,165,168552,1,0,0:0:0:0:
53,138,168710,1,0,0:0:0:0:
161,114,168868,6,0,L|176:223,1,90
82,46,169183,1,0,0:0:0:0:
180,29,169341,1,0,0:0:0:0:
84,12,169499,2,0,L|58:114,1,90
228,207,169815,2,0,P|279:210|357:294,1,135
172,267,170131,6,0,B|77:238|104:319|-5:319,1,180
87,336,170604,1,0,0:0:0:0:
161,322,170762,1,0,0:0:0:0:
235,338,170920,1,0,0:0:0:0:
506,293,171078,6,0,L|409:299,1,90
506,91,171552,2,0,L|409:85,1,90
309,164,171868,1,0,0:0:0:0:
217,45,172025,2,0,P|207:110|221:220,1,135
220,217,172341,2,0,P|229:150|224:82,1,135
127,30,172657,6,0,P|67:48|14:162,1,180
35,216,173131,1,0,0:0:0:0:
19,289,173289,1,0,0:0:0:0:
134,113,173604,5,0,0:0:0:0:
157,184,173762,1,0,0:0:0:0:
141,257,173920,1,0,0:0:0:0:
268,70,174236,5,0,0:0:0:0:
291,141,174394,1,0,0:0:0:0:
275,214,174552,1,0,0:0:0:0:
288,288,174868,1,0,0:0:0:0:
273,363,175183,6,0,P|269:306|278:184,1,180
402,124,175657,1,0,0:0:0:0:
441,254,175815,2,0,P|384:265|344:279,1,90
66,212,176131,5,0,0:0:0:0:
231,261,176289,1,0,0:0:0:0:
113,284,176446,1,0,0:0:0:0:
216,129,176604,2,0,P|210:78|183:19,1,90
132,107,176920,1,0,0:0:0:0:
420,54,177078,5,0,0:0:0:0:
331,35,177236,1,0,0:0:0:0:
314,123,177394,1,0,0:0:0:0:
314,123,177710,6,0,P|335:179|359:300,1,180
427,357,178183,2,0,L|528:389,1,90
309,373,178499,1,0,0:0:0:0:
441,276,178657,1,0,0:0:0:0:
302,226,178815,1,0,0:0:0:0:
175,312,178973,6,0,P|174:257|179:208,1,90
385,122,179289,2,0,P|386:177|381:226,1,90
298,157,179604,1,0,0:0:0:0:
375,85,179762,1,0,0:0:0:0:
468,147,179920,1,0,0:0:0:0:
86,87,180236,6,0,P|90:140|81:274,1,180
195,338,180710,1,0,0:0:0:0:
257,213,180868,2,0,P|202:201|160:185,1,90
321,272,181183,5,0,0:0:0:0:
430,170,181341,1,0,0:0:0:0:
326,71,181499,2,0,P|321:130|329:179,1,90
506,237,181815,2,0,P|511:178|503:129,1,90
426,329,182131,1,0,0:0:0:0:
426,329,182446,2,0,B|324:315|362:366|251:355,1,180
208,100,183078,6,0,P|255:106|306:102,1,90
238,184,183394,1,0,0:0:0:0:
176,99,183552,1,0,0:0:0:0:
255,29,183710,1,0,0:0:0:0:
394,159,183868,1,0,0:0:0:0:
380,235,184025,1,0,0:0:0:0:
132,235,184183,1,0,0:0:0:0:
118,159,184340,1,0,0:0:0:0:
300,293,184499,5,0,0:0:0:0:
211,283,184657,1,0,0:0:0:0:
296,319,184815,1,0,0:0:0:0:
202,305,184973,1,0,0:0:0:0:
256,192,185289,5,0,0:0:0:0:
32,192,195394,6,0,L|248:192,1,202.500007724762
234,192,195710,6,0,L|31:192,1,202.500007724762
32,192,196025,6,0,L|268:192,1,236.250002253056
268,192,196341,6,0,L|32:192,1,236.250002253056
32,192,196657,6,0,L|308:192,1,270
302,192,196973,6,0,L|32:192,1,270
32,192,197289,6,0,L|340:192,1,303.750011587143
335,192,197604,6,0,L|31:192,1,303.750011587143
32,192,197920,6,0,L|372:192,1,337.5
369,192,198236,6,0,L|31:192,1,337.5
32,192,198552,6,0,L|404:192,1,371.250003540516
404,192,198868,6,0,L|32:192,1,371.250003540516
32,192,199183,6,0,L|444:192,1,405.000015449525
437,192,199499,6,0,L|32:192,1,405.000015449525
32,192,199815,6,0,L|480:192,1,438.750012552739
470,192,200131,6,0,L|31:192,1,438.750012552739
20,176,200446,6,0,B|145:149|95:240|242:235,1,216,6|0,0:0|0:0,0:0:0:0:
254,228,200762,1,0,0:0:0:0:
230,336,200920,2,0,L|319:329,1,72,2|0,0:0|0:0,0:0:0:0:
371,364,201078,2,0,P|456:341|495:221,1,216,8|0,0:0|0:0,0:0:0:0:
487,193,201394,1,0,0:0:0:0:
253,119,201552,1,2,0:0:0:0:
253,119,201631,1,0,0:0:0:0:
253,119,201710,6,0,P|336:138|402:143,1,144,0|2,0:0|0:0,0:0:0:0:
415,143,201946,2,0,P|331:148|262:168,1,144
406,116,202183,2,0,L|507:126,1,72,2|0,0:0|0:0,0:0:0:0:
91,52,202341,6,0,L|110:223,1,144,8|0,0:0|0:0,0:0:0:0:
202,357,202657,1,0,0:0:0:0:
295,211,202815,2,0,P|256:212|201:241,1,72,2|0,0:0|0:0,0:0:0:0:
108,298,202973,6,0,L|371:358,1,216,6|0,0:0|0:0,0:0:0:0:
354,353,203289,1,0,0:0:0:0:
473,226,203446,1,2,0:0:0:0:
341,107,203604,2,0,P|332:180|340:256,1,144,8|0,0:0|0:0,0:0:0:0:
412,228,203920,1,0,0:0:0:0:
484,251,204078,2,0,L|497:171,1,72,2|0,0:0|0:0,0:0:0:0:
213,67,204236,6,0,P|131:74|34:188,2,216,2|2|2,0:0|0:0|0:0,0:0:0:0:
285,47,204868,1,8,0:0:0:0:
358,70,205025,1,0,0:0:0:0:
430,46,205183,1,0,0:0:0:0:
359,32,205341,2,0,L|254:43,1,72,2|0,0:0|0:0,0:0:0:0:
511,176,205499,6,0,B|399:150|432:254|281:227,1,216,6|0,0:0|0:0,0:0:0:0:
275,222,205815,1,0,0:0:0:0:
141,293,205973,2,0,L|133:212,1,72,2|0,0:0|0:0,0:0:0:0:
162,20,206131,2,0,B|193:26|193:26|198:157,1,144,8|0,0:0|0:0,0:0:0:0:
233,131,206368,1,0,0:0:0:0:
267,139,206446,1,0,0:0:0:0:
341,137,206604,1,2,0:0:0:0:
494,329,206762,6,0,P|469:262|465:175,1,144,0|2,0:0|0:0,0:0:0:0:
449,174,206999,2,0,P|441:268|419:328,1,144
356,354,207236,2,0,B|318:342|318:342|274:356,1,72,2|0,0:0|0:0,0:0:0:0:
217,322,207394,5,8,0:0:0:0:
27,193,207552,1,0,0:0:0:0:
101,182,207710,1,0,0:0:0:0:
410,216,207868,2,0,L|311:230,1,72,2|0,0:0|0:0,0:0:0:0:
484,227,208025,6,0,P|494:157|485:74,1,144,6|0,0:0|0:0,0:0:0:0:
332,145,208341,1,0,0:0:0:0:
215,28,208499,2,0,L|190:259,1,216,2|0,0:0|0:0,0:0:0:0:
172,264,208815,2,0,L|73:279,1,72
200,272,208973,2,0,L|276:296,1,72
182,346,209131,1,2,0:0:0:0:
349,226,209289,6,0,P|426:239|518:379,2,216,2|2|2,0:0|0:0|0:0,0:0:0:0:
362,151,209920,1,8,0:0:0:0:
338,79,210078,1,0,0:0:0:0:
350,4,210236,1,0,0:0:0:0:
371,79,210394,2,0,L|353:214,1,72,8|0,0:0|0:0,0:0:0:0:
24,170,210552,6,0,B|145:143|107:248|228:248,1,216,6|0,0:0|0:0,0:0:0:0:
249,244,210868,1,0,0:0:0:0:
157,324,211025,2,0,P|113:319|66:328,1,72,2|0,0:0|0:0,0:0:0:0:
323,368,211183,2,0,P|331:289|321:130,1,216,8|0,0:0|0:0,0:0:0:0:
317,117,211499,1,0,0:0:0:0:
512,31,211657,1,2,0:0:0:0:
512,31,211736,1,0,0:0:0:0:
512,31,211815,6,0,P|428:25|354:-18,1,144,0|2,0:0|0:0,0:0:0:0:
512,31,212052,2,0,P|428:37|354:80,1,144
300,34,212289,2,0,B|266:23|266:23|228:34,1,72,2|0,0:0|0:0,0:0:0:0:
183,97,212446,1,8,0:0:0:0:
112,84,212604,1,0,0:0:0:0:
35,124,212762,1,0,0:0:0:0:
28,224,212920,1,2,0:0:0:0:
119,294,213078,6,0,B|236:263|203:366|336:362,1,216,6|0,0:0|0:0,0:0:0:0:
348,353,213394,1,0,0:0:0:0:
319,138,213552,2,0,P|312:209|319:281,1,144,2|8,0:0|0:0,0:0:0:0:
284,170,213868,1,0,0:0:0:0:
310,93,214025,1,0,0:0:0:0:
276,22,214183,1,2,0:0:0:0:
276,22,214262,1,0,0:0:0:0:
276,22,214341,6,0,P|269:98|280:178,1,144,0|2,0:0|0:0,0:0:0:0:
251,196,214578,2,0,P|258:120|247:40,1,144
283,183,214815,2,0,P|277:220|280:258,1,72,2|0,0:0|0:0,0:0:0:0:
512,50,214973,6,0,P|436:57|365:188,1,216,8|0,0:0|0:0,0:0:0:0:
370,201,215289,1,0,0:0:0:0:
133,314,215446,1,2,0:0:0:0:
133,314,215525,1,0,0:0:0:0:
133,314,215604,6,0,L|123:91,1,216,6|0,0:0|0:0,0:0:0:0:
118,281,215920,2,0,L|134:126,1,144
177,332,216236,1,8,0:0:0:0:
250,321,216394,1,0,0:0:0:0:
320,336,216552,1,0,0:0:0:0:
399,330,216710,1,2,0:0:0:0:
399,330,216789,1,0,0:0:0:0:
399,330,216868,6,0,L|385:179,1,144,0|2,0:0|0:0,0:0:0:0:
275,22,217183,1,0,0:0:0:0:
200,28,217341,2,0,B|176:99|176:99|213:164,1,144,2|8,0:0|0:0,0:0:0:0:
493,11,217657,1,0,0:0:0:0:
483,82,217815,1,0,0:0:0:0:
495,155,217973,2,0,L|506:80,1,72,2|0,0:0|0:0,0:0:0:0:
511,230,218131,6,0,B|395:195|431:301|280:293,1,216,6|0,0:0|0:0,0:0:0:0:
314,321,218446,2,0,P|357:316|404:329,1,72
151,332,218604,6,0,B|120:319|120:319|112:169,1,144,2|8,0:0|0:0,0:0:0:0:
361,332,218920,2,0,B|392:319|392:319|400:169,1,144
112,338,219236,6,0,B|106:229|106:229|138:193,1,144,2|0,0:0|0:0,0:0:0:0:
400,338,219552,2,0,B|405:229|405:229|373:193,1,144,2|0,0:0|0:0,0:0:0:0:
256,32,219868,5,2,0:0:0:0:
256,352,220025,5,8,0:0:0:0:
256,352,220183,1,0,0:0:0:0:
266,281,220341,1,0,0:0:0:0:
256,212,220499,1,0,0:0:0:0:
259,136,220657,6,0,P|254:186|258:279,1,135.000005149842
256,270,221289,1,0,0:0:0:0:
357,329,221446,1,0,0:0:0:0:
425,232,221604,1,0,0:0:0:0:
326,167,221762,6,0,L|334:250,1,67.5000025749208
512,273,222078,2,0,L|504:190,1,67.5000025749208
422,344,222394,2,0,B|344:333|368:375|285:364,1,135.000005149842
154,343,222868,1,0,0:0:0:0:
226,326,223025,1,0,0:0:0:0:
84,307,223183,6,0,P|78:263|85:163,1,135.000005149842
220,234,223657,2,0,L|143:246,1,67.5000025749208
1,170,223973,1,0,0:0:0:0:
86,58,224131,1,0,0:0:0:0:
184,154,224289,6,0,P|126:163|51:183,2,135.000005149842
258,146,225078,1,0,0:0:0:0:
258,146,225710,6,0,P|257:102|267:67,1,67.5000025749208
339,26,226025,1,0,0:0:0:0:
386,103,226183,2,0,B|417:124|417:124|518:103,1,135.000005149842
489,227,226657,2,0,L|407:245,1,67.5000025749208
297,365,226973,5,0,0:0:0:0:
318,266,227131,1,0,0:0:0:0:
219,241,227289,1,0,0:0:0:0:
190,337,227446,2,0,P|222:297|248:207,1,135.000005149842
115,273,227920,2,0,P|85:299|65:345,1,67.5000025749208
12,240,228236,6,0,P|19:196|14:161,1,67.5000025749208
72,83,228552,1,0,0:0:0:0:
164,137,228710,2,0,L|313:122,1,135.000005149842
390,190,229183,1,0,0:0:0:0:
390,190,229341,1,0,0:0:0:0:
472,264,229499,6,0,P|489:301|491:338,1,67.5000025749208
396,325,229815,1,0,0:0:0:0:
396,325,229973,1,0,0:0:0:0:
299,297,230131,2,0,P|280:333|276:370,1,67.5000025749208
205,295,230446,2,0,P|195:244|153:178,1,101.250003862381
158,190,230762,6,0,L|89:171,1,67.5000025749208
7,250,231078,1,0,0:0:0:0:
35,359,231236,2,0,B|73:340|73:340|178:373,1,135.000005149842
227,270,231710,1,0,0:0:0:0:
227,270,231868,1,0,0:0:0:0:
285,167,232025,6,0,P|281:125|266:98,1,67.5000025749208
353,209,232341,2,0,P|368:246|405:279,1,67.5000025749208
472,210,232657,1,0,0:0:0:0:
503,142,232815,1,0,0:0:0:0:
483,69,232973,1,0,0:0:0:0:
153,19,233289,6,0,P|144:58|141:95,1,67.5000025749208
188,182,233604,1,0,0:0:0:0:
102,227,233762,2,0,P|90:179|53:96,1,135.000005149842
45,285,234236,2,0,P|36:326|34:359,1,67.5000025749208
165,307,234552,5,0,0:0:0:0:
234,279,234710,1,0,0:0:0:0:
309,284,234868,1,0,0:0:0:0:
367,335,235025,2,0,L|425:345,2,33.7500012874604
431,259,235341,1,0,0:0:0:0:
431,259,235499,2,0,P|421:209|359:130,1,135.000005149842
