osu file format v14

[General]
AudioFilename: audio.mp3
AudioLeadIn: 0
PreviewTime: 183387
Countdown: 0
SampleSet: None
StackLeniency: 0.7
Mode: 3
LetterboxInBreaks: 0
SpecialStyle: 0
WidescreenStoryboard: 0

[Editor]
DistanceSpacing: 1
BeatDivisor: 4
GridSize: 16
TimelineZoom: 2

[Metadata]
Title:Kami no Kotoba
TitleUnicode:カミノコトバ
Artist:Luschka
ArtistUnicode:Luschka
Creator:Violet-Fox
Version:Truth
Source:
Tags:
BeatmapID:2209983
BeatmapSetID:1057317

[Difficulty]
HPDrainRate:7
CircleSize:4
OverallDifficulty:7
ApproachRate:5
SliderMultiplier:1.4
SliderTickRate:1

[Events]
//Background and Video events
0,0,"bg.jpg",0,0
//Break Periods
//Storyboard Layer 0 (Background)
//Storyboard Layer 1 (Fail)
//Storyboard Layer 2 (Pass)
//Storyboard Layer 3 (Foreground)
//Storyboard Layer 4 (Overlay)
//Storyboard Sound Samples

[TimingPoints]
4478,545.454545454546,4,2,0,100,1,0
8841,-100,4,2,0,30,0,0
13205,-100,4,3,0,30,0,0
29568,-100,4,3,0,20,0,0
30659,-100,4,3,0,30,0,0
33932,-100,4,3,0,20,0,0
35023,-100,4,3,0,30,0,0
38296,-100,4,3,0,20,0,0
39387,-100,4,3,0,30,0,0
42659,-100,4,3,0,20,0,0
43750,-100,4,3,0,30,0,0
47023,-100,4,3,0,20,0,0
48114,-100,4,3,0,30,0,0
51387,-100,4,3,0,20,0,0
52478,-100,4,3,0,30,0,0
55750,-100,4,3,0,20,0,0
56841,-100,4,3,0,30,0,0
60114,-100,4,3,0,20,0,0
61205,-100,4,3,0,30,0,0
64478,-100,4,3,0,20,0,0
65568,-100,4,3,0,30,0,0
68841,-100,4,3,0,20,0,0
69387,-100,4,3,0,30,0,0
73205,-100,4,3,0,20,0,0
74296,-100,4,3,0,30,0,0
78659,-100,4,3,0,50,0,1
96114,-100,4,3,0,40,0,1
113568,-100,4,3,0,20,0,0
117932,-100,4,2,0,30,0,0
122296,-100,4,3,0,20,0,0
131023,-100,4,3,0,30,0,0
148478,-100,4,3,0,40,0,1
183387,-100,4,2,0,20,0,0
200841,-100,4,2,0,10,0,0
235750,-100,4,3,0,60,0,1
270659,-100,4,2,0,40,0,0

[HitObjects]
192,192,8841,5,2,0:0:0:0:
448,192,9250,1,2,0:0:0:0:
320,192,9659,1,2,0:0:0:0:
64,192,10205,128,2,12659:0:0:0:0:
192,192,13205,1,0,0:0:0:0:
448,192,13205,1,0,0:0:0:0:
320,192,13341,1,0,0:0:0:0:
64,192,13478,1,0,0:0:0:0:
192,192,13614,1,0,0:0:0:0:
320,192,13750,1,0,0:0:0:0:
448,192,13750,1,0,0:0:0:0:
64,192,14023,1,0,0:0:0:0:
192,192,14023,1,0,0:0:0:0:
448,192,14023,1,0,0:0:0:0:
448,192,14841,1,0,0:0:0:0:
64,192,14841,1,0,0:0:0:0:
320,192,14978,1,0,0:0:0:0:
320,192,15114,1,0,0:0:0:0:
192,192,15250,1,0,0:0:0:0:
192,192,15387,1,0,0:0:0:0:
64,192,15387,1,0,0:0:0:0:
448,192,15523,1,0,0:0:0:0:
64,192,15659,1,0,0:0:0:0:
448,192,15796,1,0,0:0:0:0:
192,192,15932,1,0,0:0:0:0:
320,192,15932,1,0,0:0:0:0:
64,192,16205,1,0,0:0:0:0:
320,192,16205,1,0,0:0:0:0:
448,192,16205,1,0,0:0:0:0:
320,192,17023,1,0,0:0:0:0:
448,192,17023,1,0,0:0:0:0:
320,192,17159,1,0,0:0:0:0:
64,192,17296,1,0,0:0:0:0:
64,192,17432,1,0,0:0:0:0:
192,192,17568,1,0,0:0:0:0:
448,192,17568,1,0,0:0:0:0:
320,192,17705,1,0,0:0:0:0:
64,192,17841,1,0,0:0:0:0:
448,192,17978,1,0,0:0:0:0:
320,192,18114,1,0,0:0:0:0:
64,192,18114,1,0,0:0:0:0:
192,192,18387,1,0,0:0:0:0:
64,192,18387,1,0,0:0:0:0:
64,192,19205,1,0,0:0:0:0:
192,192,19205,1,0,0:0:0:0:
192,192,19341,1,0,0:0:0:0:
320,192,19478,1,0,0:0:0:0:
320,192,19614,1,0,0:0:0:0:
64,192,19750,1,0,0:0:0:0:
448,192,19750,1,0,0:0:0:0:
192,192,19887,1,0,0:0:0:0:
320,192,20023,1,0,0:0:0:0:
64,192,20159,1,0,0:0:0:0:
448,192,20296,1,0,0:0:0:0:
320,192,20296,1,0,0:0:0:0:
64,192,20568,1,0,0:0:0:0:
320,192,20568,1,0,0:0:0:0:
192,192,20568,1,0,0:0:0:0:
192,192,21387,1,2,0:2:0:0:
64,192,21387,1,0,0:0:0:0:
448,192,21568,1,2,0:2:0:0:
320,192,21750,1,2,0:2:0:0:
64,192,21932,1,0,0:0:0:0:
192,192,21932,1,0,0:0:0:0:
448,192,21932,1,0,0:0:0:0:
64,192,22068,1,0,0:0:0:0:
320,192,22205,1,0,0:0:0:0:
192,192,22341,1,0,0:0:0:0:
448,192,22478,1,0,0:0:0:0:
64,192,22478,1,0,0:0:0:0:
64,192,22750,1,0,0:0:0:0:
320,192,22750,1,0,0:0:0:0:
448,192,22750,1,0,0:0:0:0:
64,192,23568,1,0,0:0:0:0:
320,192,23568,1,0,0:0:0:0:
320,192,23705,1,0,0:0:0:0:
192,192,23841,1,0,0:0:0:0:
192,192,23978,1,0,0:0:0:0:
448,192,24114,1,0,0:0:0:0:
320,192,24114,1,0,0:0:0:0:
320,192,24250,1,0,0:0:0:0:
192,192,24387,1,0,0:0:0:0:
64,192,24523,1,0,0:0:0:0:
320,192,24659,1,0,0:0:0:0:
448,192,24659,1,0,0:0:0:0:
64,192,24932,1,0,0:0:0:0:
448,192,24932,1,0,0:0:0:0:
320,192,24932,1,0,0:0:0:0:
192,192,25068,128,0,25750:0:0:0:0:
448,192,26296,1,0,0:0:0:0:
320,192,26296,1,4,0:1:0:0:
64,192,26296,1,0,0:0:0:0:
192,192,26296,1,4,0:1:0:0:
192,192,26432,1,0,0:0:0:0:
448,192,26568,1,0,0:0:0:0:
320,192,26568,1,0,0:0:0:0:
64,192,26705,1,0,0:0:0:0:
320,192,26705,1,0,0:0:0:0:
192,192,26841,1,0,0:0:0:0:
448,192,26978,1,0,0:0:0:0:
64,192,27114,1,0,0:0:0:0:
192,192,27114,1,0,0:0:0:0:
320,192,27250,1,0,0:0:0:0:
64,192,27250,1,0,0:0:0:0:
192,192,27387,1,0,0:0:0:0:
448,192,27523,1,0,0:0:0:0:
320,192,27523,1,0,0:0:0:0:
320,192,27659,1,0,0:0:0:0:
192,192,27659,1,0,0:0:0:0:
64,192,27796,1,0,0:0:0:0:
192,192,27796,1,0,0:0:0:0:
64,192,27932,1,0,0:0:0:0:
448,192,27932,1,0,0:0:0:0:
320,192,28068,1,0,0:0:0:0:
64,192,28205,1,0,0:0:0:0:
192,192,28205,1,0,0:0:0:0:
448,192,28341,1,0,0:0:0:0:
192,192,28341,1,0,0:0:0:0:
320,192,28478,1,0,0:0:0:0:
320,192,28614,1,0,0:0:0:0:
64,192,28750,1,0,0:0:0:0:
192,192,28750,1,0,0:0:0:0:
64,192,28887,1,0,0:0:0:0:
448,192,28887,1,0,0:0:0:0:
320,192,29023,1,0,0:0:0:0:
192,192,29159,1,0,0:0:0:0:
64,192,29296,1,0,0:0:0:0:
320,192,29432,1,0,0:0:0:0:
448,192,29568,1,0,0:0:0:0:
192,192,29568,1,0,0:0:0:0:
64,192,29750,1,0,0:0:0:0:
320,192,29750,1,0,0:0:0:0:
448,192,29932,1,0,0:0:0:0:
192,192,29932,1,0,0:0:0:0:
64,192,30114,1,0,0:0:0:0:
192,192,30114,1,0,0:0:0:0:
320,192,30296,1,0,0:0:0:0:
448,192,30296,1,0,0:0:0:0:
192,192,30478,1,0,0:0:0:0:
64,192,30478,1,0,0:0:0:0:
64,192,30659,1,0,0:0:0:0:
192,192,30659,1,0,0:0:0:0:
320,192,30659,1,0,0:0:0:0:
448,192,30659,1,0,0:0:0:0:
320,192,30796,1,0,0:0:0:0:
192,192,30932,1,0,0:0:0:0:
448,192,30932,1,0,0:0:0:0:
64,192,31068,1,0,0:0:0:0:
448,192,31068,1,0,0:0:0:0:
64,192,31205,1,0,0:0:0:0:
320,192,31205,1,0,0:0:0:0:
192,192,31341,1,0,0:0:0:0:
448,192,31478,1,0,0:0:0:0:
320,192,31478,1,0,0:0:0:0:
64,192,31614,1,0,0:0:0:0:
448,192,31614,1,0,0:0:0:0:
192,192,31750,1,0,0:0:0:0:
320,192,31887,1,0,0:0:0:0:
448,192,31887,1,0,0:0:0:0:
64,192,32023,1,0,0:0:0:0:
192,192,32023,1,0,0:0:0:0:
192,192,32159,1,0,0:0:0:0:
320,192,32159,1,0,0:0:0:0:
320,192,32296,1,0,0:0:0:0:
448,192,32296,1,0,0:0:0:0:
64,192,32296,1,0,0:0:0:0:
192,192,32432,1,0,0:0:0:0:
320,192,32568,1,0,0:0:0:0:
64,192,32568,1,0,0:0:0:0:
448,192,32705,1,0,0:0:0:0:
64,192,32841,1,0,0:0:0:0:
192,192,32841,1,0,0:0:0:0:
320,192,32978,1,0,0:0:0:0:
64,192,33114,1,0,0:0:0:0:
192,192,33114,1,0,0:0:0:0:
448,192,33250,1,0,0:0:0:0:
320,192,33250,1,0,0:0:0:0:
64,192,33387,1,0,0:0:0:0:
320,192,33387,1,0,0:0:0:0:
448,192,33387,1,0,0:0:0:0:
192,192,33523,1,0,0:0:0:0:
320,192,33659,1,0,0:0:0:0:
448,192,33659,1,0,0:0:0:0:
192,192,33796,1,0,0:2:0:0:
64,192,33796,1,0,0:0:0:0:
320,192,33932,1,2,0:2:0:0:
448,192,33932,1,2,0:2:0:0:
320,192,34114,1,2,0:2:0:0:
192,192,34114,1,0,0:0:0:0:
64,192,34296,1,0,0:0:0:0:
192,192,34296,1,2,0:2:0:0:
448,192,34478,128,4,34841:0:2:0:0:
64,192,34478,128,4,34841:0:1:0:0:
64,192,35023,1,0,0:0:0:0:
192,192,35023,1,4,0:1:0:0:
448,192,35023,1,0,0:0:0:0:
320,192,35023,1,4,0:1:0:0:
320,192,35159,1,0,0:0:0:0:
64,192,35296,1,0,0:0:0:0:
192,192,35296,1,0,0:0:0:0:
320,192,35432,1,0,0:0:0:0:
448,192,35432,1,0,0:0:0:0:
64,192,35568,1,0,0:0:0:0:
192,192,35705,1,0,0:0:0:0:
448,192,35841,1,0,0:0:0:0:
64,192,35841,1,0,0:0:0:0:
64,192,35978,1,0,0:0:0:0:
320,192,35978,1,0,0:0:0:0:
192,192,36114,1,0,0:0:0:0:
448,192,36250,1,0,0:0:0:0:
320,192,36250,1,0,0:0:0:0:
64,192,36387,1,0,0:0:0:0:
192,192,36387,1,0,0:0:0:0:
192,192,36523,1,0,0:0:0:0:
320,192,36523,1,0,0:0:0:0:
320,192,36659,1,0,0:0:0:0:
448,192,36659,1,0,0:0:0:0:
64,192,36659,1,0,0:0:0:0:
192,192,36796,1,0,0:0:0:0:
448,192,36932,1,0,0:0:0:0:
64,192,36932,1,0,0:0:0:0:
320,192,37068,1,0,0:0:0:0:
64,192,37068,1,0,0:0:0:0:
448,192,37205,1,0,0:0:0:0:
192,192,37341,1,0,0:0:0:0:
64,192,37478,1,0,0:0:0:0:
320,192,37478,1,0,0:0:0:0:
448,192,37614,1,0,0:0:0:0:
192,192,37614,1,0,0:0:0:0:
320,192,37750,1,0,0:0:0:0:
64,192,37887,1,0,0:0:0:0:
448,192,38023,1,0,0:0:0:0:
320,192,38023,1,0,0:0:0:0:
64,192,38159,1,0,0:0:0:0:
192,192,38159,1,0,0:0:0:0:
448,192,38296,1,0,0:0:0:0:
320,192,38296,1,0,0:0:0:0:
320,192,38478,1,0,0:0:0:0:
192,192,38478,1,0,0:0:0:0:
64,192,38659,1,0,0:0:0:0:
192,192,38659,1,0,0:0:0:0:
448,192,38841,1,0,0:0:0:0:
64,192,38841,1,0,0:0:0:0:
192,192,39023,1,0,0:0:0:0:
320,192,39023,1,0,0:0:0:0:
448,192,39205,1,0,0:0:0:0:
64,192,39205,1,0,0:0:0:0:
64,192,39387,1,0,0:0:0:0:
192,192,39387,1,4,0:1:0:0:
320,192,39387,1,4,0:1:0:0:
448,192,39387,1,0,0:0:0:0:
192,192,39523,1,0,0:0:0:0:
320,192,39659,1,0,0:0:0:0:
64,192,39659,1,0,0:0:0:0:
192,192,39796,1,0,0:0:0:0:
448,192,39796,1,0,0:0:0:0:
320,192,39932,1,0,0:0:0:0:
192,192,40068,1,0,0:0:0:0:
192,192,40205,1,0,0:0:0:0:
320,192,40205,1,0,0:0:0:0:
448,192,40341,1,0,0:0:0:0:
64,192,40341,1,0,0:0:0:0:
320,192,40478,1,0,0:0:0:0:
192,192,40478,1,0,0:0:0:0:
320,192,40614,1,0,0:0:0:0:
448,192,40614,1,0,0:0:0:0:
192,192,40750,1,0,0:0:0:0:
64,192,40750,1,0,0:0:0:0:
320,192,40887,1,0,0:0:0:0:
192,192,41023,1,0,0:0:0:0:
448,192,41023,1,0,0:0:0:0:
64,192,41159,1,0,0:0:0:0:
320,192,41296,1,0,0:0:0:0:
448,192,41296,1,0,0:0:0:0:
192,192,41432,1,0,0:0:0:0:
64,192,41432,1,0,0:0:0:0:
192,192,41568,1,0,0:0:0:0:
320,192,41705,1,0,0:0:0:0:
64,192,41841,1,0,0:0:0:0:
192,192,41841,1,0,0:0:0:0:
320,192,41978,1,0,0:0:0:0:
448,192,41978,1,0,0:0:0:0:
192,192,42114,1,0,0:0:0:0:
64,192,42250,1,0,0:0:0:0:
320,192,42387,1,0,0:0:0:0:
448,192,42387,1,0,0:0:0:0:
64,192,42523,1,0,0:0:0:0:
320,192,42523,1,0,0:0:0:0:
192,192,42659,1,0,0:0:0:0:
448,192,42659,1,0,0:0:0:0:
64,192,42841,1,0,0:0:0:0:
320,192,42841,1,0,0:0:0:0:
192,192,43023,1,0,0:0:0:0:
448,192,43023,1,0,0:0:0:0:
64,192,43205,128,0,43750:0:0:0:0:
448,192,43205,128,0,43750:0:0:0:0:
320,192,43750,1,0,0:0:0:0:
192,192,43750,1,0,0:0:0:0:
64,192,44023,1,0,0:0:0:0:
192,192,44023,1,0,0:0:0:0:
192,192,44159,1,0,0:0:0:0:
448,192,44296,1,0,0:0:0:0:
320,192,44296,1,0,0:0:0:0:
320,192,44432,1,0,0:0:0:0:
64,192,44568,1,0,0:0:0:0:
192,192,44568,1,0,0:0:0:0:
320,192,44705,1,0,0:0:0:0:
448,192,44841,1,0,0:0:0:0:
64,192,44841,1,0,0:0:0:0:
320,192,44978,1,0,0:0:0:0:
192,192,45114,1,0,0:0:0:0:
64,192,45114,1,0,0:0:0:0:
192,192,45250,1,0,0:0:0:0:
320,192,45250,1,0,0:0:0:0:
320,192,45387,1,0,0:0:0:0:
448,192,45523,1,0,0:0:0:0:
64,192,45659,1,0,0:0:0:0:
192,192,45659,1,0,0:0:0:0:
192,192,45796,1,0,0:0:0:0:
64,192,45932,1,0,0:0:0:0:
320,192,45932,1,0,0:0:0:0:
448,192,45932,1,0,0:0:0:0:
192,192,46205,1,0,0:0:0:0:
448,192,46478,1,0,0:0:0:0:
320,192,46478,1,0,0:0:0:0:
320,192,46750,1,0,0:0:0:0:
64,192,46750,1,0,0:0:0:0:
192,192,46887,1,0,0:0:0:0:
320,192,47023,1,0,0:0:0:0:
192,192,47205,1,0,0:0:0:0:
64,192,47387,1,0,0:0:0:0:
448,192,47568,1,0,0:0:0:0:
320,192,47750,1,0,0:0:0:0:
192,192,47932,1,0,0:0:0:0:
320,192,48114,1,0,0:0:0:0:
448,192,48114,1,0,0:0:0:0:
64,192,48114,1,0,0:0:0:0:
192,192,48387,1,0,0:0:0:0:
448,192,48387,1,0,0:0:0:0:
192,192,48523,1,0,0:0:0:0:
320,192,48659,1,0,0:0:0:0:
448,192,48659,1,0,0:0:0:0:
64,192,48659,1,0,0:0:0:0:
320,192,48796,1,0,0:0:0:0:
64,192,48932,1,0,0:0:0:0:
192,192,48932,1,0,0:0:0:0:
192,192,49068,1,0,0:0:0:0:
320,192,49205,1,0,0:0:0:0:
64,192,49205,1,0,0:0:0:0:
320,192,49341,1,0,0:0:0:0:
64,192,49478,1,0,0:0:0:0:
192,192,49478,1,0,0:0:0:0:
448,192,49614,1,0,0:0:0:0:
192,192,49614,1,0,0:0:0:0:
64,192,49750,1,0,0:0:0:0:
320,192,49750,1,0,0:0:0:0:
320,192,49887,1,0,0:0:0:0:
192,192,50023,1,0,0:0:0:0:
64,192,50023,1,0,0:0:0:0:
64,192,50159,1,0,0:0:0:0:
192,192,50296,1,0,0:0:0:0:
320,192,50296,1,0,0:0:0:0:
448,192,50296,1,0,0:0:0:0:
448,192,50432,1,0,0:0:0:0:
320,192,50432,1,0,0:0:0:0:
64,192,50705,1,0,0:0:0:0:
192,192,50705,1,0,0:0:0:0:
320,192,50705,1,0,0:0:0:0:
192,192,50841,1,0,0:0:0:0:
64,192,50841,1,0,0:0:0:0:
64,192,51114,1,0,0:0:0:0:
320,192,51114,1,0,0:0:0:0:
448,192,51114,1,0,0:0:0:0:
320,192,51250,1,0,0:0:0:0:
448,192,51250,1,0,0:0:0:0:
64,192,51387,1,0,0:0:0:0:
192,192,51387,1,0,0:0:0:0:
192,192,51568,1,0,0:0:0:0:
320,192,51568,1,0,0:0:0:0:
320,192,51750,1,0,0:0:0:0:
448,192,51750,1,0,0:0:0:0:
192,192,51932,128,0,52296:0:0:0:0:
64,192,51932,128,0,52478:0:0:0:0:
192,192,52478,1,0,0:0:0:0:
320,192,52478,1,0,0:0:0:0:
448,192,52478,1,0,0:0:0:0:
64,192,52750,1,0,0:0:0:0:
448,192,52750,1,0,0:0:0:0:
192,192,52887,1,0,0:0:0:0:
64,192,53023,1,0,0:0:0:0:
320,192,53023,1,0,0:0:0:0:
448,192,53023,1,0,0:0:0:0:
448,192,53159,1,0,0:0:0:0:
64,192,53296,1,0,0:0:0:0:
192,192,53296,1,0,0:0:0:0:
320,192,53296,1,0,0:0:0:0:
192,192,53432,1,0,0:0:0:0:
320,192,53568,1,0,0:0:0:0:
64,192,53705,1,0,0:0:0:0:
192,192,53841,1,0,0:0:0:0:
448,192,53841,1,0,0:0:0:0:
320,192,53978,1,0,0:0:0:0:
64,192,54114,1,0,0:0:0:0:
192,192,54114,1,0,0:0:0:0:
192,192,54250,1,0,0:0:0:0:
448,192,54387,1,0,0:0:0:0:
320,192,54387,1,0,0:0:0:0:
64,192,54523,1,0,0:0:0:0:
192,192,54523,1,0,0:0:0:0:
64,192,54659,1,0,0:0:0:0:
320,192,54659,1,0,0:0:0:0:
448,192,54659,1,0,0:0:0:0:
448,192,54796,1,0,0:0:0:0:
192,192,54932,1,0,0:0:0:0:
64,192,54932,1,0,0:0:0:0:
320,192,55068,1,0,0:0:0:0:
448,192,55205,1,0,0:0:0:0:
192,192,55205,1,0,0:0:0:0:
64,192,55205,1,0,0:0:0:0:
64,192,55478,1,0,0:0:0:0:
192,192,55478,1,0,0:0:0:0:
320,192,55478,1,0,0:0:0:0:
448,192,55478,1,0,0:0:0:0:
320,192,55614,1,0,0:0:0:0:
64,192,55750,1,0,0:0:0:0:
192,192,55932,1,0,0:0:0:0:
320,192,56114,1,0,0:0:0:0:
64,192,56296,1,0,0:0:0:0:
448,192,56296,1,0,0:0:0:0:
192,192,56478,1,0,0:0:0:0:
320,192,56659,1,0,0:0:0:0:
64,192,56841,1,0,0:0:0:0:
192,192,56841,1,0,0:0:0:0:
448,192,56841,1,0,0:0:0:0:
320,192,56841,1,0,0:0:0:0:
192,192,56978,1,0,0:0:0:0:
64,192,57114,1,0,0:0:0:0:
320,192,57114,1,0,0:0:0:0:
192,192,57250,1,0,0:0:0:0:
64,192,57387,1,0,0:0:0:0:
320,192,57387,1,0,0:0:0:0:
448,192,57387,1,0,0:0:0:0:
320,192,57523,1,0,0:0:0:0:
64,192,57659,1,0,0:0:0:0:
192,192,57659,1,0,0:0:0:0:
448,192,57659,1,0,0:0:0:0:
192,192,57796,1,0,0:0:0:0:
320,192,57932,1,0,0:0:0:0:
448,192,57932,1,0,0:0:0:0:
192,192,58068,1,0,0:0:0:0:
64,192,58205,1,0,0:0:0:0:
320,192,58341,1,0,0:0:0:0:
448,192,58478,1,0,0:0:0:0:
192,192,58478,1,0,0:0:0:0:
320,192,58614,1,0,0:0:0:0:
64,192,58750,1,0,0:0:0:0:
192,192,58750,1,0,0:0:0:0:
320,192,58887,1,0,0:0:0:0:
448,192,58887,1,0,0:0:0:0:
320,192,59023,1,0,0:0:0:0:
64,192,59159,1,0,0:0:0:0:
192,192,59159,1,0,0:0:0:0:
192,192,59296,1,0,0:0:0:0:
320,192,59296,1,0,0:0:0:0:
320,192,59432,1,0,0:0:0:0:
448,192,59432,1,0,0:0:0:0:
64,192,59568,1,0,0:0:0:0:
192,192,59568,1,0,0:0:0:0:
448,192,59568,1,0,0:0:0:0:
64,192,59705,1,0,0:0:0:0:
192,192,59705,1,0,0:0:0:0:
448,192,59841,1,0,0:0:0:0:
320,192,59841,1,0,0:0:0:0:
192,192,59978,1,0,0:0:0:0:
64,192,59978,1,0,0:0:0:0:
320,192,60114,1,0,0:0:0:0:
448,192,60114,1,0,0:0:0:0:
320,192,60296,1,0,0:0:0:0:
192,192,60296,1,0,0:0:0:0:
64,192,60478,1,0,0:0:0:0:
192,192,60478,1,0,0:0:0:0:
448,192,60659,128,0,61023:0:0:0:0:
64,192,60659,128,0,61023:0:0:0:0:
64,192,61205,1,0,0:0:0:0:
192,192,61205,1,4,0:1:0:0:
320,192,61205,1,4,0:1:0:0:
448,192,61205,1,0,0:0:0:0:
64,192,61478,1,0,0:0:0:0:
192,192,61478,1,0,0:0:0:0:
192,192,61614,1,0,0:0:0:0:
448,192,61614,1,0,0:0:0:0:
320,192,61750,1,0,0:0:0:0:
64,192,61750,1,0,0:0:0:0:
448,192,61750,1,0,0:0:0:0:
320,192,61887,1,0,0:0:0:0:
64,192,62023,1,0,0:0:0:0:
448,192,62023,1,0,0:0:0:0:
192,192,62159,1,0,0:0:0:0:
320,192,62296,1,0,0:0:0:0:
448,192,62296,1,0,0:0:0:0:
64,192,62432,1,0,0:0:0:0:
320,192,62432,1,0,0:0:0:0:
192,192,62568,1,0,0:0:0:0:
192,192,62705,1,0,0:0:0:0:
64,192,62841,1,0,0:0:0:0:
320,192,62841,1,0,0:0:0:0:
448,192,62841,1,0,0:0:0:0:
320,192,62978,1,0,0:0:0:0:
64,192,63114,1,0,0:0:0:0:
192,192,63114,1,0,0:0:0:0:
320,192,63250,1,0,0:0:0:0:
448,192,63387,128,0,63932:0:0:0:0:
192,192,63659,1,0,0:0:0:0:
64,192,63932,128,0,64478:0:0:0:0:
192,192,63932,1,0,0:0:0:0:
320,192,63932,1,0,0:0:0:0:
320,192,64205,1,0,0:0:0:0:
448,192,64205,1,0,0:0:0:0:
320,192,64341,1,0,0:0:0:0:
192,192,64478,1,0,0:0:0:0:
448,192,64478,1,0,0:0:0:0:
320,192,64659,1,0,0:0:0:0:
64,192,64841,1,0,0:0:0:0:
320,192,65023,1,0,0:0:0:0:
448,192,65023,1,0,0:0:0:0:
192,192,65205,1,0,0:0:0:0:
320,192,65387,1,0,0:0:0:0:
64,192,65568,1,0,0:0:0:0:
192,192,65568,1,0,0:0:0:0:
448,192,65568,1,0,0:0:0:0:
320,192,65841,1,0,0:0:0:0:
448,192,65841,1,0,0:0:0:0:
320,192,65978,1,0,0:0:0:0:
64,192,66114,1,0,0:0:0:0:
192,192,66114,1,0,0:0:0:0:
448,192,66114,1,0,0:0:0:0:
192,192,66250,1,0,0:0:0:0:
320,192,66387,1,0,0:0:0:0:
448,192,66387,1,0,0:0:0:0:
320,192,66523,1,0,0:0:0:0:
192,192,66523,1,0,0:0:0:0:
192,192,66659,1,0,0:0:0:0:
64,192,66659,1,0,0:0:0:0:
320,192,66796,1,0,0:0:0:0:
192,192,66932,1,0,0:0:0:0:
448,192,66932,1,0,0:0:0:0:
64,192,67068,1,0,0:0:0:0:
320,192,67205,1,0,0:0:0:0:
448,192,67205,1,0,0:0:0:0:
320,192,67341,1,0,0:0:0:0:
64,192,67478,1,0,0:0:0:0:
192,192,67478,1,0,0:0:0:0:
192,192,67614,1,0,0:0:0:0:
64,192,67750,1,0,0:0:0:0:
448,192,67750,1,0,0:0:0:0:
320,192,67750,128,0,68296:0:0:0:0:
192,192,68023,1,0,0:0:0:0:
64,192,68296,128,0,68568:0:0:0:0:
192,192,68296,1,0,0:0:0:0:
448,192,68296,1,0,0:0:0:0:
320,192,68568,1,0,0:0:0:0:
448,192,68568,128,0,68841:0:0:0:0:
64,192,68841,1,0,0:0:0:0:
192,192,68841,1,0,0:0:0:0:
320,192,69023,1,0,0:0:0:0:
192,192,69205,1,0,0:0:0:0:
64,192,69387,128,0,69796:0:0:0:0:
448,192,69387,128,0,69796:0:0:0:0:
320,192,69387,1,0,0:0:0:0:
64,192,69932,1,0,0:0:0:0:
320,192,69932,1,0,0:0:0:0:
448,192,69932,1,0,0:0:0:0:
192,192,69932,1,0,0:0:0:0:
192,192,70205,1,0,0:0:0:0:
448,192,70205,1,0,0:0:0:0:
192,192,70341,1,0,0:0:0:0:
320,192,70478,1,0,0:0:0:0:
448,192,70478,1,0,0:0:0:0:
64,192,70478,1,0,0:0:0:0:
320,192,70614,1,0,0:0:0:0:
64,192,70750,1,0,0:0:0:0:
448,192,70750,1,0,0:0:0:0:
192,192,70750,1,0,0:0:0:0:
448,192,70887,1,0,0:0:0:0:
192,192,71023,1,0,0:0:0:0:
320,192,71023,1,0,0:0:0:0:
192,192,71159,1,0,0:0:0:0:
64,192,71296,1,0,0:0:0:0:
448,192,71296,1,0,0:0:0:0:
320,192,71432,1,0,0:0:0:0:
64,192,71568,1,0,0:0:0:0:
192,192,71568,1,0,0:0:0:0:
448,192,71568,1,0,0:0:0:0:
320,192,71705,1,0,0:0:0:0:
448,192,71841,1,0,0:0:0:0:
192,192,71978,1,0,0:0:0:0:
320,192,72114,1,0,0:0:0:0:
192,192,72114,1,0,0:0:0:0:
64,192,72114,1,0,0:0:0:0:
320,192,72250,1,0,0:0:0:0:
64,192,72387,1,0,0:0:0:0:
192,192,72523,1,0,0:0:0:0:
64,192,72659,1,0,0:0:0:0:
320,192,72659,1,0,0:0:0:0:
448,192,72659,1,0,0:0:0:0:
320,192,72796,1,0,0:0:0:0:
64,192,72932,1,0,0:0:0:0:
192,192,72932,1,0,0:0:0:0:
448,192,72932,1,0,0:0:0:0:
320,192,73068,1,0,0:0:0:0:
64,192,73205,1,0,0:0:0:0:
448,192,73205,1,0,0:0:0:0:
320,192,73387,1,0,0:0:0:0:
192,192,73568,1,0,0:0:0:0:
448,192,73750,1,0,0:0:0:0:
64,192,73750,1,0,0:0:0:0:
320,192,73932,1,0,0:0:0:0:
192,192,74114,1,0,0:0:0:0:
64,192,74296,1,0,0:0:0:0:
320,192,74296,1,0,0:0:0:0:
448,192,74296,1,0,0:0:0:0:
320,192,74432,1,0,0:0:0:0:
64,192,74568,1,0,0:0:0:0:
192,192,74568,1,0,0:0:0:0:
320,192,74705,1,0,0:0:0:0:
448,192,74705,1,0,0:0:0:0:
64,192,74841,1,0,0:0:0:0:
192,192,74841,1,0,0:0:0:0:
448,192,74841,1,0,0:0:0:0:
320,192,74978,1,0,0:0:0:0:
64,192,75114,1,0,0:0:0:0:
448,192,75114,1,0,0:0:0:0:
320,192,75114,1,0,0:0:0:0:
192,192,75114,1,0,0:0:0:0:
192,192,75250,1,0,0:0:0:0:
448,192,75250,1,0,0:0:0:0:
320,192,75387,1,0,0:0:0:0:
64,192,75523,1,0,0:0:0:0:
448,192,75523,1,0,0:0:0:0:
320,192,75659,1,0,0:0:0:0:
192,192,75659,1,0,0:0:0:0:
192,192,75796,1,0,0:0:0:0:
64,192,75932,1,0,0:0:0:0:
320,192,75932,1,0,0:0:0:0:
448,192,75932,1,0,0:0:0:0:
320,192,76205,1,0,0:0:0:0:
448,192,76205,1,0,0:0:0:0:
192,192,76478,1,0,0:0:0:0:
320,192,77023,1,0,0:0:0:0:
64,192,77568,1,0,0:0:0:0:
448,192,77568,1,0,0:0:0:0:
192,192,78114,1,0,0:0:0:0:
320,192,78114,1,0,0:0:0:0:
448,192,78114,1,0,0:0:0:0:
64,192,78659,1,0,0:0:0:0:
192,192,78659,1,0,0:0:0:0:
320,192,78659,1,0,0:0:0:0:
448,192,78659,1,0,0:0:0:0:
192,192,78796,1,0,0:0:0:0:
320,192,78932,1,0,0:0:0:0:
448,192,78932,1,0,0:0:0:0:
64,192,79068,1,0,0:0:0:0:
320,192,79068,1,0,0:0:0:0:
192,192,79205,1,0,0:0:0:0:
448,192,79205,1,0,0:0:0:0:
64,192,79205,1,0,0:0:0:0:
320,192,79341,1,0,0:0:0:0:
448,192,79341,1,0,0:0:0:0:
64,192,79478,1,0,0:0:0:0:
192,192,79478,1,0,0:0:0:0:
320,192,79614,1,0,0:0:0:0:
448,192,79614,1,0,0:0:0:0:
192,192,79750,1,0,0:0:0:0:
64,192,79750,1,0,0:0:0:0:
448,192,79887,1,0,0:0:0:0:
64,192,79887,1,0,0:0:0:0:
448,192,80023,1,0,0:0:0:0:
320,192,80023,1,0,0:0:0:0:
192,192,80159,1,0,0:0:0:0:
320,192,80159,1,0,0:0:0:0:
192,192,80296,1,0,0:0:0:0:
320,192,80296,1,0,0:0:0:0:
64,192,80296,1,0,0:0:0:0:
448,192,80432,1,0,0:0:0:0:
320,192,80432,1,0,0:0:0:0:
64,192,80568,1,0,0:0:0:0:
192,192,80568,1,0,0:0:0:0:
320,192,80705,1,0,0:0:0:0:
192,192,80705,1,0,0:0:0:0:
64,192,80841,1,0,0:0:0:0:
320,192,80841,1,0,0:0:0:0:
448,192,80841,1,0,0:0:0:0:
320,192,80978,1,0,0:0:0:0:
64,192,80978,1,0,0:0:0:0:
320,192,81114,1,0,0:0:0:0:
448,192,81114,1,0,0:0:0:0:
320,192,81250,1,0,0:0:0:0:
192,192,81250,1,0,0:0:0:0:
64,192,81387,1,0,0:0:0:0:
192,192,81387,1,0,0:0:0:0:
320,192,81387,1,0,0:0:0:0:
448,192,81387,1,0,0:0:0:0:
192,192,81523,1,0,0:0:0:0:
320,192,81659,1,0,0:0:0:0:
448,192,81659,1,0,0:0:0:0:
320,192,81796,1,0,0:0:0:0:
64,192,81796,1,0,0:0:0:0:
64,192,81932,1,0,0:0:0:0:
448,192,81932,1,0,0:0:0:0:
448,192,82068,1,0,0:0:0:0:
192,192,82068,1,0,0:0:0:0:
64,192,82205,1,0,0:0:0:0:
192,192,82205,1,0,0:0:0:0:
320,192,82341,1,0,0:0:0:0:
448,192,82341,1,0,0:0:0:0:
64,192,82478,1,0,0:0:0:0:
192,192,82478,1,0,0:0:0:0:
448,192,82478,1,0,0:0:0:0:
320,192,82614,1,0,0:0:0:0:
192,192,82614,1,0,0:0:0:0:
64,192,82750,1,0,0:0:0:0:
192,192,82750,1,0,0:0:0:0:
448,192,82887,1,0,0:0:0:0:
64,192,82887,1,0,0:0:0:0:
64,192,83023,1,0,0:0:0:0:
192,192,83023,1,0,0:0:0:0:
320,192,83023,1,0,0:0:0:0:
448,192,83023,1,0,0:0:0:0:
320,192,83159,1,0,0:0:0:0:
64,192,83296,1,0,0:0:0:0:
192,192,83296,1,0,0:0:0:0:
192,192,83432,1,0,0:0:0:0:
448,192,83432,1,0,0:0:0:0:
320,192,83568,1,0,0:0:0:0:
64,192,83568,1,0,0:0:0:0:
448,192,83705,1,0,0:0:0:0:
320,192,83705,1,0,0:0:0:0:
64,192,83841,1,0,0:0:0:0:
192,192,83841,1,0,0:0:0:0:
448,192,83978,1,0,0:0:0:0:
64,192,83978,1,0,0:0:0:0:
192,192,84114,1,0,0:0:0:0:
320,192,84114,1,0,0:0:0:0:
320,192,84250,1,0,0:0:0:0:
448,192,84250,1,0,0:0:0:0:
64,192,84387,1,0,0:0:0:0:
192,192,84387,1,0,0:0:0:0:
192,192,84523,1,0,0:0:0:0:
448,192,84523,1,0,0:0:0:0:
320,192,84659,1,0,0:0:0:0:
448,192,84659,1,0,0:0:0:0:
64,192,84796,1,0,0:0:0:0:
320,192,84796,1,0,0:0:0:0:
192,192,84932,1,0,0:0:0:0:
448,192,84932,1,0,0:0:0:0:
64,192,85068,1,0,0:0:0:0:
192,192,85068,1,0,0:0:0:0:
64,192,85205,1,0,0:0:0:0:
320,192,85205,1,0,0:0:0:0:
448,192,85205,1,0,0:0:0:0:
320,192,85341,1,0,0:0:0:0:
64,192,85478,1,0,0:0:0:0:
192,192,85478,1,0,0:0:0:0:
320,192,85614,1,0,0:0:0:0:
192,192,85750,1,0,0:0:0:0:
320,192,85750,1,0,0:0:0:0:
448,192,85750,1,0,0:0:0:0:
64,192,85887,1,0,0:0:0:0:
448,192,85887,1,0,0:0:0:0:
320,192,86023,1,0,0:0:0:0:
192,192,86023,1,0,0:0:0:0:
64,192,86159,1,0,0:0:0:0:
192,192,86159,1,0,0:0:0:0:
320,192,86296,1,0,0:0:0:0:
448,192,86296,1,0,0:0:0:0:
64,192,86432,1,0,0:0:0:0:
320,192,86432,1,0,0:0:0:0:
448,192,86568,1,0,0:0:0:0:
64,192,86568,1,0,0:0:0:0:
448,192,86705,1,0,0:0:0:0:
192,192,86705,1,0,0:0:0:0:
320,192,86841,1,0,0:0:0:0:
320,192,86978,1,0,0:0:0:0:
320,192,87114,1,0,0:0:0:0:
320,192,87250,1,0,0:0:0:0:
64,192,87387,1,0,0:0:0:0:
192,192,87387,1,0,0:0:0:0:
320,192,87387,1,0,0:0:0:0:
448,192,87387,1,0,0:0:0:0:
192,192,87523,1,0,0:0:0:0:
64,192,87659,1,0,0:0:0:0:
320,192,87659,1,0,0:0:0:0:
448,192,87796,1,0,0:0:0:0:
64,192,87796,1,0,0:0:0:0:
192,192,87932,1,0,0:0:0:0:
320,192,87932,1,0,0:0:0:0:
448,192,87932,1,0,0:0:0:0:
320,192,88068,1,0,0:0:0:0:
192,192,88068,1,0,0:0:0:0:
64,192,88205,1,0,0:0:0:0:
448,192,88205,1,0,0:0:0:0:
192,192,88341,1,0,0:0:0:0:
448,192,88341,1,0,0:0:0:0:
320,192,88478,1,0,0:0:0:0:
64,192,88478,1,0,0:0:0:0:
64,192,88614,1,0,0:0:0:0:
448,192,88614,1,0,0:0:0:0:
64,192,88750,1,0,0:0:0:0:
192,192,88750,1,0,0:0:0:0:
320,192,88887,1,0,0:0:0:0:
192,192,88887,1,0,0:0:0:0:
320,192,89023,1,0,0:0:0:0:
448,192,89023,1,0,0:0:0:0:
320,192,89159,1,0,0:0:0:0:
448,192,89159,1,0,0:0:0:0:
64,192,89296,1,0,0:0:0:0:
192,192,89296,1,0,0:0:0:0:
192,192,89432,1,0,0:0:0:0:
64,192,89432,1,0,0:0:0:0:
64,192,89568,1,0,0:0:0:0:
320,192,89568,1,0,0:0:0:0:
448,192,89568,1,0,0:0:0:0:
320,192,89705,1,0,0:0:0:0:
448,192,89705,1,0,0:0:0:0:
64,192,89841,1,0,0:0:0:0:
192,192,89841,1,0,0:0:0:0:
192,192,89978,1,0,0:0:0:0:
448,192,89978,1,0,0:0:0:0:
64,192,90114,1,0,0:0:0:0:
192,192,90114,1,0,0:0:0:0:
448,192,90114,1,0,0:0:0:0:
64,192,90250,1,0,0:0:0:0:
320,192,90250,1,0,0:0:0:0:
448,192,90387,1,0,0:0:0:0:
64,192,90387,1,0,0:0:0:0:
192,192,90523,1,0,0:0:0:0:
320,192,90523,1,0,0:0:0:0:
448,192,90659,1,0,0:0:0:0:
320,192,90659,1,0,0:0:0:0:
320,192,90796,1,0,0:0:0:0:
192,192,90796,1,0,0:0:0:0:
64,192,90932,1,0,0:0:0:0:
192,192,90932,1,0,0:0:0:0:
320,192,91068,1,0,0:0:0:0:
448,192,91068,1,0,0:0:0:0:
64,192,91205,1,0,0:0:0:0:
192,192,91205,1,0,0:0:0:0:
448,192,91205,1,0,0:0:0:0:
192,192,91341,1,0,0:0:0:0:
320,192,91341,1,0,0:0:0:0:
64,192,91478,1,0,0:0:0:0:
448,192,91478,1,0,0:0:0:0:
64,192,91614,1,0,0:0:0:0:
192,192,91614,1,0,0:0:0:0:
64,192,91750,1,0,0:0:0:0:
192,192,91750,1,0,0:0:0:0:
320,192,91750,1,0,0:0:0:0:
448,192,91750,1,0,0:0:0:0:
320,192,91887,1,0,0:0:0:0:
64,192,92023,1,0,0:0:0:0:
448,192,92023,1,0,0:0:0:0:
64,192,92159,1,0,0:0:0:0:
192,192,92159,1,0,0:0:0:0:
192,192,92296,1,0,0:0:0:0:
320,192,92296,1,0,0:0:0:0:
448,192,92296,1,0,0:0:0:0:
320,192,92432,1,0,0:0:0:0:
448,192,92432,1,0,0:0:0:0:
64,192,92568,1,0,0:0:0:0:
192,192,92568,1,0,0:0:0:0:
192,192,92705,1,0,0:0:0:0:
448,192,92705,1,0,0:0:0:0:
320,192,92841,1,0,0:0:0:0:
64,192,92841,1,0,0:0:0:0:
192,192,92978,1,0,0:0:0:0:
448,192,92978,1,0,0:0:0:0:
64,192,93114,1,0,0:0:0:0:
320,192,93114,1,0,0:0:0:0:
64,192,93250,1,0,0:0:0:0:
192,192,93250,1,0,0:0:0:0:
320,192,93387,1,0,0:0:0:0:
448,192,93387,1,0,0:0:0:0:
192,192,93523,1,0,0:0:0:0:
64,192,93523,1,0,0:0:0:0:
320,192,93659,1,0,0:0:0:0:
448,192,93659,1,0,0:0:0:0:
64,192,93796,1,0,0:0:0:0:
192,192,93796,1,0,0:0:0:0:
320,192,93932,128,0,94205:0:0:0:0:
448,192,93932,128,0,94478:0:0:0:0:
64,192,93932,128,0,95023:0:0:0:0:
192,192,94478,128,0,94750:0:0:0:0:
320,192,94478,128,0,95568:0:0:0:0:
192,192,95023,128,0,95978:0:0:0:0:
448,192,95023,128,0,95296:0:0:0:0:
64,192,95568,128,0,95978:0:0:0:0:
448,192,95568,128,0,95978:0:0:0:0:
64,192,96114,1,0,0:0:0:0:
192,192,96114,1,0,0:0:0:0:
320,192,96114,1,0,0:0:0:0:
448,192,96114,1,0,0:0:0:0:
320,192,96387,1,0,0:0:0:0:
448,192,96387,1,0,0:0:0:0:
320,192,96523,1,0,0:0:0:0:
448,192,96523,1,0,0:0:0:0:
64,192,96659,1,0,0:0:0:0:
320,192,96659,1,0,0:0:0:0:
192,192,96796,1,0,0:0:0:0:
448,192,96932,1,0,0:0:0:0:
64,192,96932,1,0,0:0:0:0:
320,192,97068,1,0,0:0:0:0:
64,192,97205,1,0,0:0:0:0:
192,192,97205,1,0,0:0:0:0:
192,192,97341,1,0,0:0:0:0:
320,192,97478,1,0,0:0:0:0:
448,192,97478,1,0,0:0:0:0:
448,192,97614,1,0,0:0:0:0:
64,192,97750,1,0,0:0:0:0:
192,192,97750,1,0,0:0:0:0:
320,192,97750,1,0,0:0:0:0:
192,192,97887,1,0,0:0:0:0:
320,192,98023,1,0,0:0:0:0:
448,192,98023,1,0,0:0:0:0:
64,192,98023,1,0,0:0:0:0:
320,192,98159,1,0,0:0:0:0:
64,192,98296,1,0,0:0:0:0:
192,192,98296,1,0,0:0:0:0:
192,192,98432,1,0,0:0:0:0:
192,192,98568,1,0,0:0:0:0:
192,192,98705,1,0,0:0:0:0:
64,192,98841,1,0,0:0:0:0:
320,192,98841,1,0,0:0:0:0:
448,192,98841,1,0,0:0:0:0:
320,192,98978,1,0,0:0:0:0:
192,192,99114,1,0,0:0:0:0:
64,192,99114,1,0,0:0:0:0:
320,192,99250,1,0,0:0:0:0:
448,192,99387,1,0,0:0:0:0:
192,192,99387,1,0,0:0:0:0:
192,192,99523,1,0,0:0:0:0:
64,192,99659,1,0,0:0:0:0:
320,192,99659,1,0,0:0:0:0:
320,192,99796,1,0,0:0:0:0:
448,192,99932,1,0,0:0:0:0:
64,192,99932,1,0,0:0:0:0:
64,192,100068,1,0,0:0:0:0:
192,192,100205,1,0,0:0:0:0:
320,192,100205,1,0,0:0:0:0:
320,192,100341,1,0,0:0:0:0:
64,192,100478,1,0,0:0:0:0:
192,192,100478,1,0,0:0:0:0:
320,192,100478,1,0,0:0:0:0:
448,192,100478,1,0,0:0:0:0:
64,192,100750,1,0,0:0:0:0:
192,192,100750,1,0,0:0:0:0:
64,192,100887,1,0,0:0:0:0:
192,192,100887,1,0,0:0:0:0:
192,192,101023,1,0,0:0:0:0:
448,192,101023,1,0,0:0:0:0:
320,192,101159,1,0,0:0:0:0:
448,192,101159,1,0,0:0:0:0:
64,192,101296,1,0,0:0:0:0:
192,192,101296,1,0,0:0:0:0:
192,192,101432,1,0,0:0:0:0:
448,192,101568,1,0,0:0:0:0:
64,192,101568,1,0,0:0:0:0:
320,192,101705,1,0,0:0:0:0:
192,192,101841,1,0,0:0:0:0:
448,192,101841,1,0,0:0:0:0:
192,192,101978,1,0,0:0:0:0:
320,192,102114,1,0,0:0:0:0:
64,192,102114,1,0,0:0:0:0:
320,192,102250,1,0,0:0:0:0:
64,192,102387,1,0,0:0:0:0:
448,192,102387,1,0,0:0:0:0:
192,192,102523,1,0,0:0:0:0:
64,192,102659,1,0,0:0:0:0:
320,192,102659,1,0,0:0:0:0:
448,192,102659,1,0,0:0:0:0:
320,192,102796,1,0,0:0:0:0:
448,192,102796,1,0,0:0:0:0:
64,192,103068,1,0,0:0:0:0:
192,192,103068,1,0,0:0:0:0:
448,192,103068,1,0,0:0:0:0:
64,192,103205,1,0,0:0:0:0:
192,192,103205,1,0,0:0:0:0:
192,192,103478,1,0,0:0:0:0:
320,192,103478,1,0,0:0:0:0:
448,192,103478,1,0,0:0:0:0:
448,192,103614,1,0,0:0:0:0:
320,192,103614,1,0,0:0:0:0:
64,192,103887,1,0,0:0:0:0:
192,192,103887,1,0,0:0:0:0:
320,192,103887,1,0,0:0:0:0:
192,192,104023,1,0,0:0:0:0:
64,192,104023,1,0,0:0:0:0:
320,192,104159,1,0,0:0:0:0:
64,192,104296,1,0,0:0:0:0:
192,192,104296,1,0,0:0:0:0:
448,192,104296,1,0,0:0:0:0:
64,192,104568,1,0,0:0:0:0:
320,192,104568,1,0,0:0:0:0:
448,192,104568,1,0,0:0:0:0:
64,192,104841,1,0,0:0:0:0:
192,192,104841,1,0,0:0:0:0:
448,192,104841,1,0,0:0:0:0:
320,192,104841,1,0,0:0:0:0:
64,192,105114,1,0,0:0:0:0:
320,192,105114,1,0,0:0:0:0:
320,192,105250,1,0,0:0:0:0:
64,192,105250,1,0,0:0:0:0:
192,192,105387,1,0,0:0:0:0:
320,192,105387,1,0,0:0:0:0:
448,192,105387,1,0,0:0:0:0:
320,192,105523,1,0,0:0:0:0:
192,192,105659,1,0,0:0:0:0:
448,192,105659,1,0,0:0:0:0:
320,192,105796,1,0,0:0:0:0:
64,192,105932,1,0,0:0:0:0:
448,192,105932,1,0,0:0:0:0:
64,192,106068,1,0,0:0:0:0:
192,192,106068,1,0,0:0:0:0:
320,192,106205,1,0,0:0:0:0:
448,192,106205,1,0,0:0:0:0:
320,192,106341,1,0,0:0:0:0:
64,192,106478,1,0,0:0:0:0:
192,192,106478,1,0,0:0:0:0:
448,192,106478,1,0,0:0:0:0:
448,192,106614,1,0,0:0:0:0:
320,192,106614,1,0,0:0:0:0:
320,192,106750,1,0,0:0:0:0:
64,192,106750,1,0,0:0:0:0:
192,192,106887,1,0,0:0:0:0:
320,192,107023,1,0,0:0:0:0:
448,192,107023,1,0,0:0:0:0:
64,192,107023,1,0,0:0:0:0:
320,192,107159,1,0,0:0:0:0:
320,192,107296,1,0,0:0:0:0:
192,192,107432,1,0,0:0:0:0:
64,192,107568,1,0,0:0:0:0:
448,192,107568,1,0,0:0:0:0:
320,192,107568,1,0,0:0:0:0:
320,192,107705,1,0,0:0:0:0:
192,192,107841,1,0,0:0:0:0:
64,192,107841,1,0,0:0:0:0:
448,192,107978,1,0,0:0:0:0:
320,192,108114,1,0,0:0:0:0:
64,192,108114,1,0,0:0:0:0:
192,192,108250,1,0,0:0:0:0:
192,192,108387,1,0,0:0:0:0:
320,192,108523,1,0,0:0:0:0:
192,192,108659,1,0,0:0:0:0:
64,192,108659,1,0,0:0:0:0:
448,192,108659,1,0,0:0:0:0:
448,192,108796,1,0,0:0:0:0:
192,192,108932,1,0,0:0:0:0:
64,192,108932,1,0,0:0:0:0:
320,192,109068,1,0,0:0:0:0:
64,192,109205,1,0,0:0:0:0:
448,192,109205,1,0,0:0:0:0:
320,192,109205,1,0,0:0:0:0:
192,192,109205,1,0,0:0:0:0:
192,192,109478,1,0,0:0:0:0:
448,192,109478,1,0,0:0:0:0:
64,192,109478,1,0,0:0:0:0:
192,192,109614,1,0,0:0:0:0:
320,192,109750,1,0,0:0:0:0:
448,192,109750,1,0,0:0:0:0:
320,192,109887,1,0,0:0:0:0:
64,192,110023,1,0,0:0:0:0:
448,192,110023,1,0,0:0:0:0:
192,192,110159,1,0,0:0:0:0:
320,192,110296,1,0,0:0:0:0:
64,192,110296,1,0,0:0:0:0:
320,192,110432,1,0,0:0:0:0:
192,192,110568,1,0,0:0:0:0:
448,192,110568,1,0,0:0:0:0:
192,192,110705,1,0,0:0:0:0:
64,192,110841,1,0,0:0:0:0:
320,192,110841,1,0,0:0:0:0:
320,192,110978,1,0,0:0:0:0:
320,192,111114,1,0,0:0:0:0:
320,192,111250,1,0,0:0:0:0:
64,192,111387,1,0,0:0:0:0:
192,192,111387,1,0,0:0:0:0:
192,192,111523,1,0,0:0:0:0:
320,192,111523,1,0,0:0:0:0:
320,192,111659,1,0,0:0:0:0:
448,192,111659,1,0,0:0:0:0:
192,192,111796,1,0,0:0:0:0:
64,192,111932,1,0,0:0:0:0:
320,192,111932,1,0,0:0:0:0:
448,192,111932,1,0,0:0:0:0:
192,192,112068,1,0,0:0:0:0:
320,192,112205,1,0,0:0:0:0:
192,192,112341,1,0,0:0:0:0:
448,192,112478,1,0,0:0:0:0:
64,192,112614,1,0,0:0:0:0:
448,192,112750,1,0,0:0:0:0:
320,192,112887,1,0,0:0:0:0:
192,192,113023,1,0,0:0:0:0:
192,192,113159,1,0,0:0:0:0:
320,192,113296,1,0,0:0:0:0:
320,192,113432,1,0,0:0:0:0:
192,192,113568,128,0,115750:0:0:0:0:
64,192,113568,128,0,122023:0:0:0:0:
448,192,113568,128,0,117932:0:0:0:0:
320,192,117932,128,0,118341:0:0:0:0:
192,192,118341,128,0,118750:0:0:0:0:
448,192,118750,128,0,119296:0:0:0:0:
320,192,119296,128,0,121478:0:0:0:0:
320,192,121750,1,0,0:0:0:0:
320,192,121887,1,0,0:0:0:0:
192,192,122023,1,0,0:0:0:0:
192,192,122159,1,0,0:0:0:0:
64,192,122296,1,0,0:0:0:0:
320,192,122296,1,0,0:0:0:0:
448,192,122296,1,0,0:0:0:0:
320,192,122568,1,0,0:0:0:0:
320,192,122705,1,0,0:0:0:0:
192,192,122841,1,0,0:0:0:0:
448,192,122841,1,0,0:0:0:0:
192,192,122978,1,0,0:0:0:0:
64,192,123114,1,0,0:0:0:0:
448,192,123114,1,0,0:0:0:0:
320,192,123250,1,0,0:0:0:0:
320,192,123387,1,0,0:0:0:0:
64,192,123932,1,0,0:0:0:0:
192,192,123932,1,0,0:0:0:0:
192,192,124068,1,0,0:0:0:0:
320,192,124068,1,0,0:0:0:0:
320,192,124205,1,0,0:0:0:0:
448,192,124205,1,0,0:0:0:0:
64,192,124341,1,0,0:0:0:0:
192,192,124341,1,0,0:0:0:0:
64,192,124478,1,0,0:0:0:0:
320,192,124478,1,0,0:0:0:0:
448,192,124478,1,0,0:0:0:0:
320,192,124614,1,0,0:0:0:0:
192,192,124750,1,0,0:0:0:0:
448,192,124887,1,0,0:0:0:0:
320,192,125023,1,0,0:0:0:0:
64,192,125023,1,0,0:0:0:0:
320,192,125159,1,0,0:0:0:0:
64,192,125296,1,0,0:0:0:0:
192,192,125296,1,0,0:0:0:0:
448,192,125296,1,0,0:0:0:0:
192,192,125432,1,0,0:0:0:0:
192,192,125568,1,0,0:0:0:0:
192,192,126114,1,0,0:0:0:0:
64,192,126114,1,0,0:0:0:0:
192,192,126250,1,0,0:0:0:0:
320,192,126387,1,0,0:0:0:0:
448,192,126387,1,0,0:0:0:0:
320,192,126523,1,0,0:0:0:0:
64,192,126659,1,0,0:0:0:0:
192,192,126659,1,0,0:0:0:0:
448,192,126659,1,0,0:0:0:0:
192,192,126796,1,0,0:0:0:0:
320,192,126932,1,0,0:0:0:0:
64,192,127068,1,0,0:0:0:0:
192,192,127205,1,0,0:0:0:0:
448,192,127205,1,0,0:0:0:0:
192,192,127341,1,0,0:0:0:0:
64,192,127478,1,0,0:0:0:0:
320,192,127478,1,0,0:0:0:0:
448,192,127478,1,0,0:0:0:0:
320,192,127614,1,0,0:0:0:0:
320,192,127750,1,0,0:0:0:0:
64,192,128296,1,0,0:0:0:0:
192,192,128296,1,0,0:0:0:0:
64,192,128432,1,0,0:0:0:0:
320,192,128432,1,0,0:0:0:0:
64,192,128568,1,0,0:0:0:0:
448,192,128568,1,0,0:0:0:0:
320,192,128705,1,0,0:0:0:0:
192,192,128705,1,0,0:0:0:0:
448,192,128841,1,0,0:0:0:0:
320,192,128841,1,0,0:0:0:0:
64,192,128841,1,0,0:0:0:0:
192,192,128978,1,0,0:0:0:0:
192,192,129114,1,0,0:0:0:0:
320,192,129250,1,0,0:0:0:0:
192,192,129387,1,0,0:0:0:0:
64,192,129387,1,0,0:0:0:0:
448,192,129387,1,0,0:0:0:0:
192,192,129523,1,0,0:0:0:0:
64,192,129659,1,0,0:0:0:0:
320,192,129659,1,0,0:0:0:0:
192,192,129796,1,0,0:0:0:0:
448,192,129932,1,0,0:0:0:0:
320,192,129932,1,0,0:0:0:0:
320,192,130114,1,0,0:0:0:0:
64,192,130296,1,0,0:0:0:0:
192,192,130478,128,0,131023:0:0:0:0:
448,192,130478,128,0,131023:0:0:0:0:
320,192,131023,1,0,0:0:0:0:
64,192,131023,1,0,0:0:0:0:
192,192,131296,1,0,0:0:0:0:
320,192,131296,1,0,0:0:0:0:
192,192,131432,1,0,0:0:0:0:
64,192,131568,1,0,0:0:0:0:
320,192,131568,1,0,0:0:0:0:
448,192,131568,1,0,0:0:0:0:
320,192,131705,1,0,0:0:0:0:
64,192,131841,1,0,0:0:0:0:
192,192,131841,1,0,0:0:0:0:
192,192,131978,1,0,0:0:0:0:
192,192,132114,1,0,0:0:0:0:
320,192,132659,1,0,0:0:0:0:
448,192,132659,1,0,0:0:0:0:
448,192,132796,1,0,0:0:0:0:
192,192,132932,1,0,0:0:0:0:
64,192,132932,1,0,0:0:0:0:
64,192,133068,1,0,0:0:0:0:
192,192,133205,1,0,0:0:0:0:
320,192,133205,1,0,0:0:0:0:
448,192,133205,1,0,0:0:0:0:
320,192,133341,1,0,0:0:0:0:
64,192,133478,1,0,0:0:0:0:
192,192,133478,1,0,0:0:0:0:
320,192,133614,1,0,0:0:0:0:
64,192,133750,1,0,0:0:0:0:
192,192,133750,1,0,0:0:0:0:
448,192,133750,1,0,0:0:0:0:
192,192,133887,1,0,0:0:0:0:
64,192,134023,1,0,0:0:0:0:
320,192,134023,1,0,0:0:0:0:
192,192,134159,1,0,0:0:0:0:
192,192,134296,1,0,0:0:0:0:
192,192,134841,1,0,0:0:0:0:
448,192,135023,1,0,0:0:0:0:
320,192,135205,1,0,0:0:0:0:
64,192,135387,1,0,0:0:0:0:
192,192,135387,1,0,0:0:0:0:
448,192,135387,1,0,0:0:0:0:
192,192,135523,1,0,0:0:0:0:
320,192,135659,1,0,0:0:0:0:
448,192,135659,1,0,0:0:0:0:
192,192,135796,1,0,0:0:0:0:
64,192,135932,1,0,0:0:0:0:
320,192,135932,1,0,0:0:0:0:
448,192,135932,1,0,0:0:0:0:
320,192,136068,1,0,0:0:0:0:
192,192,136205,1,0,0:0:0:0:
64,192,136205,1,0,0:0:0:0:
192,192,136341,1,0,0:0:0:0:
192,192,136478,1,0,0:0:0:0:
320,192,137023,1,0,0:0:0:0:
448,192,137023,1,0,0:0:0:0:
320,192,137159,1,0,0:0:0:0:
320,192,137296,1,0,0:0:0:0:
320,192,137432,1,0,0:0:0:0:
64,192,137568,1,0,0:0:0:0:
192,192,137568,1,0,0:0:0:0:
448,192,137568,1,0,0:0:0:0:
192,192,137705,1,0,0:0:0:0:
64,192,137705,1,0,0:0:0:0:
192,192,137978,1,0,0:0:0:0:
320,192,137978,1,0,0:0:0:0:
448,192,137978,1,0,0:0:0:0:
448,192,138114,1,0,0:0:0:0:
320,192,138114,1,0,0:0:0:0:
64,192,138387,1,0,0:0:0:0:
192,192,138387,1,0,0:0:0:0:
320,192,138387,1,0,0:0:0:0:
64,192,138523,1,0,0:0:0:0:
192,192,138523,1,0,0:0:0:0:
64,192,138796,1,0,0:0:0:0:
320,192,138796,1,0,0:0:0:0:
448,192,138796,1,0,0:0:0:0:
448,192,138932,1,0,0:0:0:0:
320,192,138932,1,0,0:0:0:0:
192,192,139068,1,0,0:0:0:0:
64,192,139205,1,0,0:0:0:0:
320,192,139205,1,0,0:0:0:0:
448,192,139205,1,0,0:0:0:0:
320,192,139341,1,0,0:0:0:0:
64,192,139478,1,0,0:0:0:0:
192,192,139478,1,0,0:0:0:0:
448,192,139478,1,0,0:0:0:0:
192,192,139750,1,0,0:0:0:0:
320,192,139750,1,0,0:0:0:0:
448,192,139750,1,0,0:0:0:0:
64,192,140023,1,0,0:0:0:0:
320,192,140023,1,0,0:0:0:0:
320,192,140159,1,0,0:0:0:0:
64,192,140296,1,0,0:0:0:0:
192,192,140296,1,0,0:0:0:0:
448,192,140296,1,0,0:0:0:0:
192,192,140432,1,0,0:0:0:0:
320,192,140568,1,0,0:0:0:0:
448,192,140568,1,0,0:0:0:0:
64,192,140568,1,0,0:0:0:0:
320,192,140705,1,0,0:0:0:0:
320,192,140841,1,0,0:0:0:0:
192,192,141114,1,0,0:0:0:0:
64,192,141387,1,0,0:0:0:0:
192,192,141387,1,0,0:0:0:0:
320,192,141387,1,0,0:0:0:0:
320,192,141523,1,0,0:0:0:0:
320,192,141659,1,0,0:0:0:0:
192,192,141796,1,0,0:0:0:0:
64,192,141932,1,0,0:0:0:0:
320,192,141932,1,0,0:0:0:0:
448,192,141932,1,0,0:0:0:0:
320,192,142068,1,0,0:0:0:0:
192,192,142205,1,0,0:0:0:0:
64,192,142341,1,0,0:0:0:0:
192,192,142478,1,0,0:0:0:0:
320,192,142478,1,0,0:0:0:0:
448,192,142478,1,0,0:0:0:0:
64,192,142750,1,0,0:0:0:0:
192,192,142750,1,0,0:0:0:0:
320,192,142750,1,0,0:0:0:0:
320,192,143296,1,0,0:0:0:0:
64,192,143568,1,0,0:0:0:0:
192,192,143568,1,0,0:0:0:0:
448,192,143568,1,0,0:0:0:0:
320,192,143705,1,0,0:0:0:0:
192,192,143841,1,0,0:0:0:0:
448,192,143841,1,0,0:0:0:0:
192,192,143978,1,0,0:0:0:0:
64,192,144114,1,0,0:0:0:0:
320,192,144114,1,0,0:0:0:0:
448,192,144114,1,0,0:0:0:0:
320,192,144250,1,0,0:0:0:0:
64,192,144387,1,0,0:0:0:0:
320,192,144523,1,0,0:0:0:0:
64,192,144659,1,0,0:0:0:0:
192,192,144659,1,0,0:0:0:0:
448,192,144659,1,0,0:0:0:0:
192,192,144796,1,0,0:0:0:0:
64,192,144932,1,0,0:0:0:0:
320,192,144932,1,0,0:0:0:0:
448,192,144932,1,0,0:0:0:0:
320,192,145068,1,0,0:0:0:0:
320,192,145205,1,0,0:0:0:0:
64,192,145750,1,0,0:0:0:0:
192,192,145750,1,0,0:0:0:0:
192,192,145887,1,0,0:0:0:0:
320,192,146023,1,0,0:0:0:0:
448,192,146023,1,0,0:0:0:0:
448,192,146159,1,0,0:0:0:0:
320,192,146159,1,0,0:0:0:0:
64,192,146296,128,0,146841:0:0:0:0:
320,192,146296,128,0,146705:0:0:0:0:
192,192,146841,128,0,147250:0:0:0:0:
448,192,146841,128,0,147387:0:0:0:0:
320,192,147387,128,0,147796:0:0:0:0:
192,192,147387,128,0,147932:0:0:0:0:
64,192,147932,128,0,148341:0:0:0:0:
448,192,147932,128,0,148341:0:0:0:0:
64,192,148478,1,0,0:0:0:0:
192,192,148478,1,0,0:0:0:0:
320,192,148478,1,0,0:0:0:0:
448,192,148478,1,0,0:0:0:0:
320,192,148614,1,0,0:0:0:0:
64,192,148750,1,0,0:0:0:0:
192,192,148750,1,0,0:0:0:0:
192,192,148887,1,0,0:0:0:0:
320,192,148887,1,0,0:0:0:0:
320,192,149023,1,0,0:0:0:0:
448,192,149023,1,0,0:0:0:0:
192,192,149159,1,0,0:0:0:0:
64,192,149159,1,0,0:0:0:0:
320,192,149296,1,0,0:0:0:0:
448,192,149296,1,0,0:0:0:0:
192,192,149432,1,0,0:0:0:0:
64,192,149568,1,0,0:0:0:0:
320,192,149568,1,0,0:0:0:0:
448,192,149568,1,0,0:0:0:0:
448,192,149705,1,0,0:0:0:0:
320,192,149705,1,0,0:0:0:0:
64,192,149841,1,0,0:0:0:0:
192,192,149841,1,0,0:0:0:0:
64,192,149978,1,0,0:0:0:0:
192,192,149978,1,0,0:0:0:0:
64,192,150114,1,0,0:0:0:0:
320,192,150114,1,0,0:0:0:0:
448,192,150114,1,0,0:0:0:0:
320,192,150250,1,0,0:0:0:0:
192,192,150387,1,0,0:0:0:0:
448,192,150523,1,0,0:0:0:0:
64,192,150523,1,0,0:0:0:0:
192,192,150659,1,0,0:0:0:0:
320,192,150659,1,0,0:0:0:0:
448,192,150659,1,0,0:0:0:0:
320,192,150796,1,0,0:0:0:0:
320,192,150932,1,0,0:0:0:0:
192,192,151068,1,0,0:0:0:0:
64,192,151205,1,0,0:0:0:0:
192,192,151205,1,0,0:0:0:0:
320,192,151205,1,0,0:0:0:0:
448,192,151341,1,0,0:0:0:0:
448,192,151478,1,0,0:0:0:0:
320,192,151614,1,0,0:0:0:0:
192,192,151750,1,0,0:0:0:0:
64,192,151750,1,0,0:0:0:0:
448,192,151750,1,0,0:0:0:0:
192,192,151887,1,0,0:0:0:0:
448,192,152023,1,0,0:0:0:0:
320,192,152091,1,0,0:0:0:0:
192,192,152159,1,0,0:0:0:0:
64,192,152228,1,0,0:0:0:0:
448,192,152296,1,0,0:0:0:0:
320,192,152296,1,0,0:0:0:0:
320,192,152432,1,0,0:0:0:0:
64,192,152568,1,0,0:0:0:0:
192,192,152568,1,0,0:0:0:0:
192,192,152705,1,0,0:0:0:0:
64,192,152841,1,0,0:0:0:0:
320,192,152841,1,0,0:0:0:0:
448,192,152841,1,0,0:0:0:0:
192,192,152841,1,0,0:0:0:0:
320,192,152978,1,0,0:0:0:0:
192,192,153114,1,0,0:0:0:0:
448,192,153114,1,0,0:0:0:0:
64,192,153250,1,0,0:0:0:0:
320,192,153387,1,0,0:0:0:0:
448,192,153387,1,0,0:0:0:0:
320,192,153523,1,0,0:0:0:0:
192,192,153659,1,0,0:0:0:0:
320,192,153796,1,0,0:0:0:0:
64,192,153932,1,0,0:0:0:0:
192,192,153932,1,0,0:0:0:0:
448,192,153932,1,0,0:0:0:0:
192,192,154068,1,0,0:0:0:0:
64,192,154205,1,0,0:0:0:0:
320,192,154341,1,0,0:0:0:0:
64,192,154478,1,0,0:0:0:0:
320,192,154478,1,0,0:0:0:0:
448,192,154478,1,0,0:0:0:0:
192,192,154614,1,0,0:0:0:0:
192,192,154750,1,0,0:0:0:0:
320,192,154887,1,0,0:0:0:0:
192,192,155023,128,0,155296:0:0:0:0:
64,192,155023,128,0,155568:0:0:0:0:
448,192,155023,1,0,0:0:0:0:
448,192,155159,1,0,0:0:0:0:
192,192,155568,1,0,0:0:0:0:
320,192,155568,128,0,155841:0:0:0:0:
448,192,155568,128,0,155978:0:0:0:0:
192,192,155705,1,0,0:0:0:0:
64,192,156114,1,0,0:0:0:0:
192,192,156114,128,0,156659:0:0:0:0:
320,192,156114,128,0,156387:0:0:0:0:
64,192,156250,1,0,0:0:0:0:
448,192,156659,128,0,157068:0:0:0:0:
64,192,156659,128,0,156932:0:0:0:0:
320,192,156659,1,0,0:0:0:0:
320,192,156796,1,0,0:0:0:0:
64,192,157205,1,0,0:0:0:0:
320,192,157205,1,0,0:0:0:0:
448,192,157205,1,0,0:0:0:0:
192,192,157205,1,0,0:0:0:0:
192,192,157341,1,0,0:0:0:0:
320,192,157478,1,0,0:0:0:0:
320,192,157614,1,0,0:0:0:0:
64,192,157750,1,0,0:0:0:0:
192,192,157750,1,0,0:0:0:0:
448,192,157750,1,0,0:0:0:0:
192,192,157887,1,0,0:0:0:0:
448,192,158023,1,0,0:0:0:0:
448,192,158159,1,0,0:0:0:0:
320,192,158296,1,0,0:0:0:0:
192,192,158296,1,0,0:0:0:0:
64,192,158296,1,0,0:0:0:0:
192,192,158432,1,0,0:0:0:0:
192,192,158568,1,0,0:0:0:0:
320,192,158705,1,0,0:0:0:0:
192,192,158841,1,0,0:0:0:0:
64,192,158841,1,0,0:0:0:0:
448,192,158841,1,0,0:0:0:0:
64,192,158978,1,0,0:0:0:0:
64,192,159114,1,0,0:0:0:0:
192,192,159250,1,0,0:0:0:0:
320,192,159387,1,0,0:0:0:0:
448,192,159387,1,0,0:0:0:0:
64,192,159387,1,0,0:0:0:0:
320,192,159523,1,0,0:0:0:0:
320,192,159659,1,0,0:0:0:0:
320,192,159796,1,0,0:0:0:0:
64,192,159932,1,0,0:0:0:0:
192,192,159932,1,0,0:0:0:0:
448,192,159932,1,0,0:0:0:0:
192,192,160068,1,0,0:0:0:0:
192,192,160205,1,0,0:0:0:0:
192,192,160341,1,0,0:0:0:0:
64,192,160478,1,0,0:0:0:0:
320,192,160478,1,0,0:0:0:0:
448,192,160478,1,0,0:0:0:0:
320,192,160614,1,0,0:0:0:0:
320,192,160750,1,0,0:0:0:0:
320,192,160887,1,0,0:0:0:0:
64,192,161023,1,0,0:0:0:0:
192,192,161023,1,0,0:0:0:0:
192,192,161159,1,0,0:0:0:0:
320,192,161159,1,0,0:0:0:0:
448,192,161296,1,0,0:0:0:0:
320,192,161296,1,0,0:0:0:0:
192,192,161432,1,0,0:0:0:0:
192,192,161568,1,0,0:0:0:0:
320,192,161568,1,0,0:0:0:0:
448,192,161568,1,0,0:0:0:0:
64,192,161568,1,0,0:0:0:0:
320,192,161705,1,0,0:0:0:0:
320,192,161841,1,0,0:0:0:0:
192,192,161978,1,0,0:0:0:0:
64,192,162114,1,0,0:0:0:0:
448,192,162114,1,0,0:0:0:0:
320,192,162250,1,0,0:0:0:0:
192,192,162387,1,0,0:0:0:0:
192,192,162523,1,0,0:0:0:0:
64,192,162659,1,0,0:0:0:0:
448,192,162659,1,0,0:0:0:0:
320,192,162659,1,0,0:0:0:0:
320,192,162796,1,0,0:0:0:0:
320,192,162932,1,0,0:0:0:0:
64,192,163068,1,0,0:0:0:0:
192,192,163205,1,0,0:0:0:0:
448,192,163205,1,0,0:0:0:0:
320,192,163205,1,0,0:0:0:0:
320,192,163341,1,0,0:0:0:0:
192,192,163478,1,0,0:0:0:0:
448,192,163478,1,0,0:0:0:0:
192,192,163614,1,0,0:0:0:0:
64,192,163750,128,0,164023:0:0:0:0:
448,192,163750,128,0,164296:0:0:0:0:
320,192,163750,1,0,0:0:0:0:
320,192,163887,1,0,0:0:0:0:
320,192,164296,128,0,164568:0:0:0:0:
64,192,164296,128,0,164841:0:0:0:0:
192,192,164296,1,0,0:0:0:0:
192,192,164432,1,0,0:0:0:0:
192,192,164841,128,0,165387:0:0:0:0:
448,192,164841,128,0,165114:0:0:0:0:
320,192,164841,1,0,0:0:0:0:
320,192,164978,1,0,0:0:0:0:
448,192,165387,128,0,165796:0:0:0:0:
64,192,165387,128,0,165796:0:0:0:0:
320,192,165387,1,0,0:0:0:0:
320,192,165523,1,0,0:0:0:0:
320,192,165659,1,0,0:0:0:0:
320,192,165796,1,0,0:0:0:0:
64,192,165932,1,0,0:0:0:0:
192,192,165932,1,0,0:0:0:0:
448,192,165932,1,0,0:0:0:0:
192,192,166068,1,0,0:0:0:0:
192,192,166205,1,0,0:0:0:0:
192,192,166341,1,0,0:0:0:0:
320,192,166478,1,0,0:0:0:0:
64,192,166478,1,0,0:0:0:0:
448,192,166614,1,0,0:0:0:0:
448,192,166750,1,0,0:0:0:0:
448,192,166887,1,0,0:0:0:0:
448,192,167023,1,0,0:0:0:0:
64,192,167023,1,0,0:0:0:0:
320,192,167023,1,0,0:0:0:0:
320,192,167159,1,0,0:0:0:0:
320,192,167296,1,0,0:0:0:0:
64,192,167432,1,0,0:0:0:0:
64,192,167568,1,0,0:0:0:0:
192,192,167568,1,0,0:0:0:0:
448,192,167568,1,0,0:0:0:0:
192,192,167705,1,0,0:0:0:0:
192,192,167841,1,0,0:0:0:0:
192,192,167978,1,0,0:0:0:0:
64,192,168114,1,0,0:0:0:0:
320,192,168114,1,0,0:0:0:0:
448,192,168114,1,0,0:0:0:0:
320,192,168250,1,0,0:0:0:0:
192,192,168250,1,0,0:0:0:0:
64,192,168387,1,0,0:0:0:0:
192,192,168387,1,0,0:0:0:0:
320,192,168523,1,0,0:0:0:0:
448,192,168523,1,0,0:0:0:0:
64,192,168659,1,0,0:0:0:0:
192,192,168659,1,0,0:0:0:0:
320,192,168796,1,0,0:0:0:0:
320,192,168932,1,0,0:0:0:0:
320,192,169068,1,0,0:0:0:0:
64,192,169205,1,0,0:0:0:0:
192,192,169205,1,0,0:0:0:0:
448,192,169205,1,0,0:0:0:0:
320,192,169341,1,0,0:0:0:0:
64,192,169478,1,0,0:0:0:0:
192,192,169546,1,0,0:0:0:0:
320,192,169614,1,0,0:0:0:0:
448,192,169682,1,0,0:0:0:0:
64,192,169750,1,0,0:0:0:0:
192,192,169750,1,0,0:0:0:0:
64,192,169887,1,0,0:0:0:0:
320,192,170023,1,0,0:0:0:0:
448,192,170023,1,0,0:0:0:0:
448,192,170159,1,0,0:0:0:0:
64,192,170296,1,0,0:0:0:0:
192,192,170296,1,0,0:0:0:0:
320,192,170296,1,0,0:0:0:0:
192,192,170432,1,0,0:0:0:0:
192,192,170568,1,0,0:0:0:0:
320,192,170705,1,0,0:0:0:0:
64,192,170841,1,0,0:0:0:0:
448,192,170841,1,0,0:0:0:0:
192,192,170978,1,0,0:0:0:0:
192,192,171114,1,0,0:0:0:0:
448,192,171250,1,0,0:0:0:0:
192,192,171387,1,0,0:0:0:0:
64,192,171387,1,0,0:0:0:0:
192,192,171523,1,0,0:0:0:0:
192,192,171659,1,0,0:0:0:0:
320,192,171796,1,0,0:0:0:0:
448,192,171932,1,0,0:0:0:0:
64,192,171932,1,0,0:0:0:0:
192,192,171932,1,0,0:0:0:0:
192,192,172068,1,0,0:0:0:0:
320,192,172205,1,0,0:0:0:0:
448,192,172205,1,0,0:0:0:0:
64,192,172341,1,0,0:0:0:0:
192,192,172478,1,0,0:0:0:0:
320,192,172478,1,0,0:0:0:0:
448,192,172478,1,0,0:0:0:0:
320,192,172614,1,0,0:0:0:0:
448,192,172614,1,0,0:0:0:0:
64,192,172750,1,0,0:0:0:0:
192,192,172750,1,0,0:0:0:0:
64,192,172887,1,0,0:0:0:0:
192,192,172887,1,0,0:0:0:0:
320,192,173023,1,0,0:0:0:0:
448,192,173023,1,0,0:0:0:0:
320,192,173159,1,0,0:0:0:0:
192,192,173159,1,0,0:0:0:0:
192,192,173296,1,0,0:0:0:0:
64,192,173296,1,0,0:0:0:0:
320,192,173432,1,0,0:0:0:0:
448,192,173432,1,0,0:0:0:0:
192,192,173568,1,0,0:0:0:0:
64,192,173568,1,0,0:0:0:0:
64,192,173705,1,0,0:0:0:0:
192,192,173705,1,0,0:0:0:0:
448,192,173841,1,0,0:0:0:0:
320,192,173909,1,0,0:0:0:0:
192,192,173978,1,0,0:0:0:0:
64,192,174046,1,0,0:0:0:0:
320,192,174114,1,0,0:0:0:0:
448,192,174114,1,0,0:0:0:0:
320,192,174250,1,0,0:0:0:0:
64,192,174387,1,0,0:0:0:0:
192,192,174387,1,0,0:0:0:0:
192,192,174523,1,0,0:0:0:0:
64,192,174659,1,0,0:0:0:0:
320,192,174659,1,0,0:0:0:0:
448,192,174659,1,0,0:0:0:0:
320,192,174796,1,0,0:0:0:0:
192,192,174932,1,0,0:0:0:0:
192,192,175068,1,0,0:0:0:0:
64,192,175205,1,0,0:0:0:0:
320,192,175205,1,0,0:0:0:0:
320,192,175341,1,0,0:0:0:0:
192,192,175478,1,0,0:0:0:0:
192,192,175614,1,0,0:0:0:0:
64,192,175750,1,0,0:0:0:0:
448,192,175750,1,0,0:0:0:0:
320,192,175750,1,0,0:0:0:0:
448,192,175887,1,0,0:0:0:0:
64,192,176023,1,0,0:0:0:0:
64,192,176159,1,0,0:0:0:0:
320,192,176296,1,0,0:0:0:0:
448,192,176296,1,0,0:0:0:0:
192,192,176432,1,0,0:0:0:0:
320,192,176568,1,0,0:0:0:0:
320,192,176705,1,0,0:0:0:0:
64,192,176841,1,0,0:0:0:0:
192,192,176841,1,0,0:0:0:0:
448,192,176841,1,0,0:0:0:0:
192,192,176978,1,0,0:0:0:0:
320,192,177114,1,0,0:0:0:0:
448,192,177114,1,0,0:0:0:0:
320,192,177250,1,0,0:0:0:0:
64,192,177387,1,0,0:0:0:0:
192,192,177387,1,0,0:0:0:0:
64,192,177523,1,0,0:0:0:0:
320,192,177659,1,0,0:0:0:0:
448,192,177659,1,0,0:0:0:0:
448,192,177796,1,0,0:0:0:0:
64,192,177932,1,0,0:0:0:0:
192,192,177932,1,0,0:0:0:0:
192,192,178068,1,0,0:0:0:0:
320,192,178068,1,0,0:0:0:0:
448,192,178205,1,0,0:0:0:0:
64,192,178205,1,0,0:0:0:0:
192,192,178273,1,0,0:0:0:0:
320,192,178341,1,0,0:0:0:0:
448,192,178409,1,0,0:0:0:0:
64,192,178478,1,0,0:0:0:0:
192,192,178478,1,0,0:0:0:0:
64,192,178614,1,0,0:0:0:0:
192,192,178614,1,0,0:0:0:0:
320,192,178750,1,0,0:0:0:0:
448,192,178750,1,0,0:0:0:0:
448,192,178887,1,0,0:0:0:0:
320,192,178887,1,0,0:0:0:0:
64,192,179023,1,0,0:0:0:0:
192,192,179023,1,0,0:0:0:0:
448,192,179023,1,0,0:0:0:0:
192,192,179159,1,0,0:0:0:0:
320,192,179296,1,0,0:0:0:0:
448,192,179296,1,0,0:0:0:0:
64,192,179432,1,0,0:0:0:0:
192,192,179568,1,0,0:0:0:0:
448,192,179568,1,0,0:0:0:0:
320,192,179705,1,0,0:0:0:0:
320,192,179841,1,0,0:0:0:0:
192,192,179978,1,0,0:0:0:0:
64,192,180114,1,0,0:0:0:0:
320,192,180114,1,0,0:0:0:0:
448,192,180114,1,0,0:0:0:0:
192,192,180250,1,0,0:0:0:0:
320,192,180387,1,0,0:0:0:0:
448,192,180523,1,0,0:0:0:0:
320,192,180659,1,0,0:0:0:0:
192,192,180659,1,0,0:0:0:0:
64,192,180659,1,0,0:0:0:0:
192,192,180796,1,0,0:0:0:0:
192,192,180932,1,0,0:0:0:0:
320,192,181068,1,0,0:0:0:0:
64,192,181205,1,0,0:0:0:0:
192,192,181205,1,0,0:0:0:0:
448,192,181205,1,0,0:0:0:0:
64,192,181341,1,0,0:0:0:0:
192,192,181341,1,0,0:0:0:0:
320,192,181478,1,0,0:0:0:0:
448,192,181478,1,0,0:0:0:0:
448,192,181614,1,0,0:0:0:0:
320,192,181614,1,0,0:0:0:0:
64,192,181750,1,0,0:0:0:0:
192,192,181750,1,0,0:0:0:0:
320,192,181750,1,0,0:0:0:0:
64,192,181887,1,0,0:0:0:0:
192,192,181887,1,0,0:0:0:0:
320,192,182023,1,0,0:0:0:0:
448,192,182023,1,0,0:0:0:0:
320,192,182159,1,0,0:0:0:0:
448,192,182159,1,0,0:0:0:0:
64,192,182296,1,0,0:0:0:0:
192,192,182296,1,0,0:0:0:0:
192,192,182432,1,0,0:0:0:0:
320,192,182432,1,0,0:0:0:0:
448,192,182568,1,0,0:0:0:0:
64,192,182568,1,0,0:0:0:0:
192,192,182637,1,0,0:0:0:0:
320,192,182705,1,0,0:0:0:0:
448,192,182773,1,0,0:0:0:0:
64,192,182841,1,0,0:0:0:0:
192,192,182841,1,0,0:0:0:0:
320,192,182978,1,0,0:0:0:0:
192,192,182978,1,0,0:0:0:0:
320,192,183114,1,0,0:0:0:0:
448,192,183114,1,0,0:0:0:0:
64,192,183250,1,0,0:0:0:0:
192,192,183250,1,0,0:0:0:0:
320,192,183387,128,0,184750:0:0:0:0:
448,192,183796,128,0,184750:0:0:0:0:
64,192,184205,128,0,184750:0:0:0:0:
192,192,184750,128,0,187205:0:0:0:0:
192,192,187750,128,0,189114:0:0:0:0:
448,192,188159,128,0,189114:0:0:0:0:
64,192,188568,128,0,189114:0:0:0:0:
320,192,189114,128,0,191568:0:0:0:0:
192,192,191841,128,0,192114:0:0:0:0:
64,192,192114,128,0,193478:0:0:0:0:
320,192,192523,128,0,193478:0:0:0:0:
192,192,192932,128,0,193478:0:0:0:0:
448,192,193478,128,0,195932:0:0:0:0:
64,192,195932,128,0,196114:0:0:0:0:
192,192,196114,128,0,196296:0:0:0:0:
320,192,196296,128,0,196478:0:0:0:0:
192,192,196478,128,0,197841:0:0:0:0:
448,192,196887,128,0,197841:0:0:0:0:
64,192,197296,128,0,197841:0:0:0:0:
320,192,197841,128,0,200296:0:0:0:0:
192,192,200568,1,0,0:0:0:0:
192,192,200705,1,0,0:0:0:0:
320,192,200841,128,0,202205:0:0:0:0:
64,192,200841,1,0,0:0:0:0:
192,192,200978,1,0,0:0:0:0:
448,192,201114,1,0,0:0:0:0:
192,192,201250,1,0,0:0:0:0:
448,192,201387,1,0,0:0:0:0:
64,192,201523,1,0,0:0:0:0:
192,192,201659,1,0,0:0:0:0:
448,192,201796,1,0,0:0:0:0:
192,192,201932,1,0,0:0:0:0:
64,192,202068,1,0,0:0:0:0:
192,192,202205,128,0,203023:0:0:0:0:
448,192,202341,1,0,0:0:0:0:
64,192,202478,1,0,0:0:0:0:
320,192,202614,1,0,0:0:0:0:
448,192,202750,1,0,0:0:0:0:
64,192,202887,1,0,0:0:0:0:
448,192,203023,128,0,205205:0:0:0:0:
320,192,203159,1,0,0:0:0:0:
64,192,203296,1,0,0:0:0:0:
192,192,203432,1,0,0:0:0:0:
320,192,203568,1,0,0:0:0:0:
64,192,203705,1,0,0:0:0:0:
320,192,203841,1,0,0:0:0:0:
192,192,203978,1,0,0:0:0:0:
64,192,204114,1,0,0:0:0:0:
320,192,204250,1,0,0:0:0:0:
192,192,204387,1,0,0:0:0:0:
320,192,204523,1,0,0:0:0:0:
64,192,204659,1,0,0:0:0:0:
192,192,204796,1,0,0:0:0:0:
64,192,204932,1,0,0:0:0:0:
192,192,205068,1,0,0:0:0:0:
64,192,205205,128,0,206568:0:0:0:0:
320,192,205341,1,0,0:0:0:0:
192,192,205478,1,0,0:0:0:0:
448,192,205614,1,0,0:0:0:0:
320,192,205750,1,0,0:0:0:0:
192,192,205887,1,0,0:0:0:0:
448,192,206023,1,0,0:0:0:0:
192,192,206159,1,0,0:0:0:0:
448,192,206296,1,0,0:0:0:0:
320,192,206432,1,0,0:0:0:0:
192,192,206568,128,0,207387:0:0:0:0:
448,192,206705,1,0,0:0:0:0:
64,192,206841,1,0,0:0:0:0:
320,192,206978,1,0,0:0:0:0:
64,192,207114,1,0,0:0:0:0:
320,192,207250,1,0,0:0:0:0:
448,192,207387,128,0,209568:0:0:0:0:
64,192,207523,1,0,0:0:0:0:
192,192,207659,1,0,0:0:0:0:
320,192,207796,1,0,0:0:0:0:
192,192,207932,1,0,0:0:0:0:
320,192,208068,1,0,0:0:0:0:
192,192,208205,1,0,0:0:0:0:
320,192,208341,1,0,0:0:0:0:
64,192,208478,1,0,0:0:0:0:
320,192,208614,1,0,0:0:0:0:
64,192,208750,1,0,0:0:0:0:
320,192,208887,1,0,0:0:0:0:
192,192,209023,1,0,0:0:0:0:
64,192,209159,1,0,0:0:0:0:
192,192,209296,1,0,0:0:0:0:
64,192,209432,1,0,0:0:0:0:
192,192,209568,128,0,210932:0:0:0:0:
320,192,209705,1,0,0:0:0:0:
64,192,209841,1,0,0:0:0:0:
448,192,209978,1,0,0:0:0:0:
320,192,210114,1,0,0:0:0:0:
64,192,210250,1,0,0:0:0:0:
448,192,210387,1,0,0:0:0:0:
64,192,210523,1,0,0:0:0:0:
320,192,210659,1,0,0:0:0:0:
448,192,210796,1,0,0:0:0:0:
320,192,210932,128,0,211750:0:0:0:0:
64,192,211068,1,0,0:0:0:0:
192,192,211205,1,0,0:0:0:0:
448,192,211341,1,0,0:0:0:0:
192,192,211478,1,0,0:0:0:0:
448,192,211614,1,0,0:0:0:0:
64,192,211750,128,0,213932:0:0:0:0:
192,192,211887,1,0,0:0:0:0:
320,192,212023,1,0,0:0:0:0:
448,192,212159,1,0,0:0:0:0:
192,192,212296,1,0,0:0:0:0:
448,192,212432,1,0,0:0:0:0:
192,192,212568,1,0,0:0:0:0:
320,192,212705,1,0,0:0:0:0:
448,192,212841,1,0,0:0:0:0:
192,192,212978,1,0,0:0:0:0:
448,192,213114,1,0,0:0:0:0:
192,192,213250,1,0,0:0:0:0:
320,192,213387,1,0,0:0:0:0:
448,192,213523,1,0,0:0:0:0:
192,192,213659,1,0,0:0:0:0:
320,192,213796,1,0,0:0:0:0:
448,192,213932,128,0,215296:0:0:0:0:
192,192,214068,1,0,0:0:0:0:
64,192,214205,1,0,0:0:0:0:
320,192,214341,1,0,0:0:0:0:
192,192,214478,1,0,0:0:0:0:
64,192,214614,1,0,0:0:0:0:
320,192,214750,1,0,0:0:0:0:
192,192,214887,1,0,0:0:0:0:
64,192,215023,1,0,0:0:0:0:
192,192,215159,1,0,0:0:0:0:
320,192,215296,128,0,218159:0:0:0:0:
64,192,215841,128,0,216114:0:0:0:0:
192,192,216114,128,0,218159:0:0:0:0:
448,192,216659,128,0,218159:0:0:0:0:
64,192,217205,128,0,218159:0:0:0:0:
64,192,218296,1,0,0:0:0:0:
448,192,218296,1,0,0:0:0:0:
64,192,220478,1,0,0:0:0:0:
320,192,220478,1,0,0:0:0:0:
320,192,222659,1,0,0:0:0:0:
448,192,222659,1,0,0:0:0:0:
192,192,224841,1,0,0:0:0:0:
320,192,224841,1,0,0:0:0:0:
64,192,227023,1,0,0:0:0:0:
192,192,227023,1,0,0:0:0:0:
192,192,229205,1,0,0:0:0:0:
448,192,229205,1,0,0:0:0:0:
448,192,231387,1,0,0:0:0:0:
64,192,231387,1,0,0:0:0:0:
448,192,233568,1,0,0:0:0:0:
192,192,233568,1,0,0:0:0:0:
320,192,234114,1,0,0:0:0:0:
192,192,234659,1,0,0:0:0:0:
320,192,235205,1,0,0:0:0:0:
64,192,235750,1,0,0:0:0:0:
320,192,235750,1,0,0:0:0:0:
192,192,235750,1,0,0:0:0:0:
448,192,235750,1,0,0:0:0:0:
64,192,235887,1,0,0:0:0:0:
192,192,235887,1,0,0:0:0:0:
320,192,236023,1,0,0:0:0:0:
448,192,236023,1,0,0:0:0:0:
320,192,236159,1,0,0:0:0:0:
448,192,236159,1,0,0:0:0:0:
64,192,236296,1,0,0:0:0:0:
192,192,236296,1,0,0:0:0:0:
448,192,236296,1,0,0:0:0:0:
64,192,236432,1,0,0:0:0:0:
192,192,236432,1,0,0:0:0:0:
448,192,236568,1,0,0:0:0:0:
64,192,236568,1,0,0:0:0:0:
320,192,236705,1,0,0:0:0:0:
192,192,236705,1,0,0:0:0:0:
64,192,236841,1,0,0:0:0:0:
320,192,236841,1,0,0:0:0:0:
448,192,236841,1,0,0:0:0:0:
64,192,236978,1,0,0:0:0:0:
448,192,236978,1,0,0:0:0:0:
64,192,237114,1,0,0:0:0:0:
320,192,237114,1,0,0:0:0:0:
192,192,237250,1,0,0:0:0:0:
448,192,237250,1,0,0:0:0:0:
64,192,237387,1,0,0:0:0:0:
320,192,237387,1,0,0:0:0:0:
192,192,237387,1,0,0:0:0:0:
64,192,237523,1,0,0:0:0:0:
192,192,237523,1,0,0:0:0:0:
320,192,237659,1,0,0:0:0:0:
448,192,237659,1,0,0:0:0:0:
64,192,237796,1,0,0:0:0:0:
192,192,237796,1,0,0:0:0:0:
64,192,237932,1,0,0:0:0:0:
192,192,237932,1,0,0:0:0:0:
320,192,237932,1,0,0:0:0:0:
448,192,237932,1,0,0:0:0:0:
448,192,238068,1,0,0:0:0:0:
64,192,238068,1,0,0:0:0:0:
448,192,238205,1,0,0:0:0:0:
64,192,238205,1,0,0:0:0:0:
192,192,238341,1,0,0:0:0:0:
320,192,238341,1,0,0:0:0:0:
320,192,238478,1,0,0:0:0:0:
64,192,238478,1,0,0:0:0:0:
448,192,238478,1,0,0:0:0:0:
320,192,238614,1,0,0:0:0:0:
448,192,238614,1,0,0:0:0:0:
64,192,238750,1,0,0:0:0:0:
192,192,238750,1,0,0:0:0:0:
64,192,238887,1,0,0:0:0:0:
192,192,238887,1,0,0:0:0:0:
64,192,239023,1,0,0:0:0:0:
320,192,239023,1,0,0:0:0:0:
448,192,239023,1,0,0:0:0:0:
448,192,239159,1,0,0:0:0:0:
320,192,239159,1,0,0:0:0:0:
320,192,239296,1,0,0:0:0:0:
192,192,239296,1,0,0:0:0:0:
64,192,239432,1,0,0:0:0:0:
192,192,239432,1,0,0:0:0:0:
192,192,239568,1,0,0:0:0:0:
320,192,239568,1,0,0:0:0:0:
448,192,239568,1,0,0:0:0:0:
320,192,239705,1,0,0:0:0:0:
192,192,239705,1,0,0:0:0:0:
64,192,239841,1,0,0:0:0:0:
448,192,239841,1,0,0:0:0:0:
448,192,239978,1,0,0:0:0:0:
64,192,239978,1,0,0:0:0:0:
64,192,240114,1,0,0:0:0:0:
192,192,240114,1,0,0:0:0:0:
320,192,240114,1,0,0:0:0:0:
448,192,240114,1,0,0:0:0:0:
320,192,240250,1,0,0:0:0:0:
192,192,240250,1,0,0:0:0:0:
64,192,240387,1,0,0:0:0:0:
192,192,240387,1,0,0:0:0:0:
448,192,240523,1,0,0:0:0:0:
320,192,240523,1,0,0:0:0:0:
64,192,240659,1,0,0:0:0:0:
192,192,240659,1,0,0:0:0:0:
448,192,240659,1,0,0:0:0:0:
64,192,240796,1,0,0:0:0:0:
192,192,240796,1,0,0:0:0:0:
320,192,240932,1,0,0:0:0:0:
448,192,240932,1,0,0:0:0:0:
320,192,241068,1,0,0:0:0:0:
64,192,241068,1,0,0:0:0:0:
64,192,241205,1,0,0:0:0:0:
320,192,241205,1,0,0:0:0:0:
192,192,241205,1,0,0:0:0:0:
192,192,241341,1,0,0:0:0:0:
448,192,241341,1,0,0:0:0:0:
320,192,241478,1,0,0:0:0:0:
448,192,241478,1,0,0:0:0:0:
64,192,241614,1,0,0:0:0:0:
192,192,241614,1,0,0:0:0:0:
192,192,241750,1,0,0:0:0:0:
320,192,241750,1,0,0:0:0:0:
448,192,241750,1,0,0:0:0:0:
192,192,241887,1,0,0:0:0:0:
320,192,241887,1,0,0:0:0:0:
64,192,242023,1,0,0:0:0:0:
448,192,242023,1,0,0:0:0:0:
448,192,242159,1,0,0:0:0:0:
64,192,242159,1,0,0:0:0:0:
64,192,242296,1,0,0:0:0:0:
192,192,242296,1,0,0:0:0:0:
448,192,242296,1,0,0:0:0:0:
320,192,242296,1,0,0:0:0:0:
320,192,242432,1,0,0:0:0:0:
192,192,242432,1,0,0:0:0:0:
448,192,242568,1,0,0:0:0:0:
320,192,242568,1,0,0:0:0:0:
64,192,242705,1,0,0:0:0:0:
192,192,242705,1,0,0:0:0:0:
448,192,242841,1,0,0:0:0:0:
192,192,242841,1,0,0:0:0:0:
320,192,242841,1,0,0:0:0:0:
64,192,242978,1,0,0:0:0:0:
320,192,242978,1,0,0:0:0:0:
64,192,243114,1,0,0:0:0:0:
320,192,243114,1,0,0:0:0:0:
448,192,243250,1,0,0:0:0:0:
320,192,243250,1,0,0:0:0:0:
64,192,243387,1,0,0:0:0:0:
192,192,243387,1,0,0:0:0:0:
448,192,243387,1,0,0:0:0:0:
64,192,243523,1,0,0:0:0:0:
192,192,243523,1,0,0:0:0:0:
448,192,243659,1,0,0:0:0:0:
320,192,243659,1,0,0:0:0:0:
64,192,243796,1,0,0:0:0:0:
448,192,243796,1,0,0:0:0:0:
64,192,243932,1,0,0:0:0:0:
192,192,243932,1,0,0:0:0:0:
320,192,243932,1,0,0:0:0:0:
192,192,244068,1,0,0:0:0:0:
64,192,244068,1,0,0:0:0:0:
64,192,244205,1,0,0:0:0:0:
192,192,244205,1,0,0:0:0:0:
192,192,244341,1,0,0:0:0:0:
64,192,244341,1,0,0:0:0:0:
64,192,244478,1,0,0:0:0:0:
192,192,244478,1,0,0:0:0:0:
320,192,244478,1,0,0:0:0:0:
448,192,244478,1,0,0:0:0:0:
448,192,244614,1,0,0:0:0:0:
320,192,244614,1,0,0:0:0:0:
64,192,244750,1,0,0:0:0:0:
192,192,244750,1,0,0:0:0:0:
64,192,244887,1,0,0:0:0:0:
448,192,244887,1,0,0:0:0:0:
320,192,245023,1,0,0:0:0:0:
192,192,245023,1,0,0:0:0:0:
448,192,245023,1,0,0:0:0:0:
320,192,245159,1,0,0:0:0:0:
192,192,245159,1,0,0:0:0:0:
64,192,245296,1,0,0:0:0:0:
448,192,245296,1,0,0:0:0:0:
448,192,245432,1,0,0:0:0:0:
64,192,245432,1,0,0:0:0:0:
192,192,245568,1,0,0:0:0:0:
320,192,245568,1,0,0:0:0:0:
64,192,245568,1,0,0:0:0:0:
192,192,245705,1,0,0:0:0:0:
320,192,245705,1,0,0:0:0:0:
320,192,245841,1,0,0:0:0:0:
448,192,245841,1,0,0:0:0:0:
448,192,245978,1,0,0:0:0:0:
320,192,245978,1,0,0:0:0:0:
64,192,246114,1,0,0:0:0:0:
192,192,246114,1,0,0:0:0:0:
448,192,246114,1,0,0:0:0:0:
64,192,246250,1,0,0:0:0:0:
192,192,246250,1,0,0:0:0:0:
320,192,246387,1,0,0:0:0:0:
192,192,246387,1,0,0:0:0:0:
320,192,246523,1,0,0:0:0:0:
448,192,246523,1,0,0:0:0:0:
448,192,246659,1,0,0:0:0:0:
320,192,246659,1,0,0:0:0:0:
64,192,246659,1,0,0:0:0:0:
192,192,246659,1,0,0:0:0:0:
64,192,246796,1,0,0:0:0:0:
448,192,246796,1,0,0:0:0:0:
64,192,246932,1,0,0:0:0:0:
192,192,246932,1,0,0:0:0:0:
320,192,247068,1,0,0:0:0:0:
448,192,247068,1,0,0:0:0:0:
64,192,247205,1,0,0:0:0:0:
192,192,247205,1,0,0:0:0:0:
448,192,247205,1,0,0:0:0:0:
64,192,247341,1,0,0:0:0:0:
448,192,247341,1,0,0:0:0:0:
320,192,247478,1,0,0:0:0:0:
192,192,247478,1,0,0:0:0:0:
192,192,247614,1,0,0:0:0:0:
320,192,247614,1,0,0:0:0:0:
64,192,247750,1,0,0:0:0:0:
448,192,247750,1,0,0:0:0:0:
320,192,247750,1,0,0:0:0:0:
448,192,247887,1,0,0:0:0:0:
64,192,247887,1,0,0:0:0:0:
448,192,248023,1,0,0:0:0:0:
320,192,248023,1,0,0:0:0:0:
320,192,248159,1,0,0:0:0:0:
448,192,248159,1,0,0:0:0:0:
64,192,248296,1,0,0:0:0:0:
192,192,248296,1,0,0:0:0:0:
320,192,248296,1,0,0:0:0:0:
64,192,248432,1,0,0:0:0:0:
192,192,248432,1,0,0:0:0:0:
64,192,248568,1,0,0:0:0:0:
192,192,248568,1,0,0:0:0:0:
320,192,248705,1,0,0:0:0:0:
448,192,248705,1,0,0:0:0:0:
192,192,248841,1,0,0:0:0:0:
64,192,248841,1,0,0:0:0:0:
448,192,248841,1,0,0:0:0:0:
320,192,248841,1,0,0:0:0:0:
64,192,248978,1,0,0:0:0:0:
320,192,248978,1,0,0:0:0:0:
192,192,249114,1,0,0:0:0:0:
448,192,249114,1,0,0:0:0:0:
192,192,249250,1,0,0:0:0:0:
448,192,249250,1,0,0:0:0:0:
64,192,249387,1,0,0:0:0:0:
320,192,249387,1,0,0:0:0:0:
448,192,249387,1,0,0:0:0:0:
448,192,249523,1,0,0:0:0:0:
320,192,249523,1,0,0:0:0:0:
64,192,249659,1,0,0:0:0:0:
192,192,249659,1,0,0:0:0:0:
192,192,249796,1,0,0:0:0:0:
320,192,249796,1,0,0:0:0:0:
448,192,249932,1,0,0:0:0:0:
320,192,249932,1,0,0:0:0:0:
64,192,249932,1,0,0:0:0:0:
64,192,250068,1,0,0:0:0:0:
448,192,250068,1,0,0:0:0:0:
448,192,250205,1,0,0:0:0:0:
64,192,250205,1,0,0:0:0:0:
320,192,250341,1,0,0:0:0:0:
192,192,250341,1,0,0:0:0:0:
448,192,250478,1,0,0:0:0:0:
192,192,250478,1,0,0:0:0:0:
320,192,250478,1,0,0:0:0:0:
64,192,250614,1,0,0:0:0:0:
192,192,250614,1,0,0:0:0:0:
64,192,250750,1,0,0:0:0:0:
320,192,250750,1,0,0:0:0:0:
192,192,250887,1,0,0:0:0:0:
448,192,250887,1,0,0:0:0:0:
64,192,251023,1,0,0:0:0:0:
192,192,251023,1,0,0:0:0:0:
320,192,251023,1,0,0:0:0:0:
448,192,251023,1,0,0:0:0:0:
64,192,251159,1,0,0:0:0:0:
192,192,251159,1,0,0:0:0:0:
64,192,251296,1,0,0:0:0:0:
192,192,251296,1,0,0:0:0:0:
64,192,251432,1,0,0:0:0:0:
192,192,251432,1,0,0:0:0:0:
64,192,251568,1,0,0:0:0:0:
320,192,251568,1,0,0:0:0:0:
448,192,251568,1,0,0:0:0:0:
320,192,251705,1,0,0:0:0:0:
448,192,251705,1,0,0:0:0:0:
320,192,251841,1,0,0:0:0:0:
448,192,251841,1,0,0:0:0:0:
320,192,251978,1,0,0:0:0:0:
448,192,251978,1,0,0:0:0:0:
64,192,252114,1,0,0:0:0:0:
192,192,252114,1,0,0:0:0:0:
320,192,252114,1,0,0:0:0:0:
64,192,252250,1,0,0:0:0:0:
192,192,252250,1,0,0:0:0:0:
320,192,252250,1,0,0:0:0:0:
320,192,252387,1,0,0:0:0:0:
192,192,252387,1,0,0:0:0:0:
64,192,252387,1,0,0:0:0:0:
64,192,252523,1,0,0:0:0:0:
192,192,252523,1,0,0:0:0:0:
320,192,252523,1,0,0:0:0:0:
192,192,252659,1,0,0:0:0:0:
320,192,252659,1,0,0:0:0:0:
448,192,252659,1,0,0:0:0:0:
448,192,252796,1,0,0:0:0:0:
320,192,252796,1,0,0:0:0:0:
192,192,252796,1,0,0:0:0:0:
192,192,252932,1,0,0:0:0:0:
320,192,252932,1,0,0:0:0:0:
448,192,252932,1,0,0:0:0:0:
192,192,253068,1,0,0:0:0:0:
320,192,253068,1,0,0:0:0:0:
448,192,253068,1,0,0:0:0:0:
448,192,253205,1,0,0:0:0:0:
320,192,253205,1,0,0:0:0:0:
192,192,253205,1,0,0:0:0:0:
64,192,253205,1,0,0:0:0:0:
64,192,253478,1,0,0:0:0:0:
192,192,253478,1,0,0:0:0:0:
448,192,253478,1,0,0:0:0:0:
64,192,253614,1,0,0:0:0:0:
320,192,253614,1,0,0:0:0:0:
448,192,253614,1,0,0:0:0:0:
64,192,253750,1,0,0:0:0:0:
192,192,253750,1,0,0:0:0:0:
448,192,253750,1,0,0:0:0:0:
64,192,253887,1,0,0:0:0:0:
192,192,253887,1,0,0:0:0:0:
320,192,254023,1,0,0:0:0:0:
448,192,254023,1,0,0:0:0:0:
320,192,254159,1,0,0:0:0:0:
448,192,254159,1,0,0:0:0:0:
64,192,254296,1,0,0:0:0:0:
192,192,254296,1,0,0:0:0:0:
320,192,254296,1,0,0:0:0:0:
64,192,254432,1,0,0:0:0:0:
192,192,254432,1,0,0:0:0:0:
448,192,254568,1,0,0:0:0:0:
192,192,254568,1,0,0:0:0:0:
64,192,254705,1,0,0:0:0:0:
320,192,254705,1,0,0:0:0:0:
192,192,254841,1,0,0:0:0:0:
320,192,254841,1,0,0:0:0:0:
448,192,254841,1,0,0:0:0:0:
320,192,254978,1,0,0:0:0:0:
448,192,254978,1,0,0:0:0:0:
64,192,255114,1,0,0:0:0:0:
192,192,255114,1,0,0:0:0:0:
192,192,255250,1,0,0:0:0:0:
64,192,255250,1,0,0:0:0:0:
64,192,255387,1,0,0:0:0:0:
320,192,255387,1,0,0:0:0:0:
448,192,255387,1,0,0:0:0:0:
192,192,255387,1,0,0:0:0:0:
192,192,255523,1,0,0:0:0:0:
320,192,255659,1,0,0:0:0:0:
448,192,255659,1,0,0:0:0:0:
192,192,255796,1,0,0:0:0:0:
64,192,255796,1,0,0:0:0:0:
320,192,255932,1,0,0:0:0:0:
448,192,255932,1,0,0:0:0:0:
320,192,256068,1,0,0:0:0:0:
192,192,256068,1,0,0:0:0:0:
64,192,256205,1,0,0:0:0:0:
192,192,256205,1,0,0:0:0:0:
448,192,256341,1,0,0:0:0:0:
320,192,256341,1,0,0:0:0:0:
64,192,256478,1,0,0:0:0:0:
192,192,256478,1,0,0:0:0:0:
448,192,256478,1,0,0:0:0:0:
320,192,256614,1,0,0:0:0:0:
64,192,256750,1,0,0:0:0:0:
192,192,256750,1,0,0:0:0:0:
64,192,256887,1,0,0:0:0:0:
192,192,256887,1,0,0:0:0:0:
320,192,257023,1,0,0:0:0:0:
448,192,257023,1,0,0:0:0:0:
64,192,257023,1,0,0:0:0:0:
320,192,257159,1,0,0:0:0:0:
448,192,257159,1,0,0:0:0:0:
320,192,257296,1,0,0:0:0:0:
192,192,257296,1,0,0:0:0:0:
64,192,257432,1,0,0:0:0:0:
192,192,257432,1,0,0:0:0:0:
64,192,257568,1,0,0:0:0:0:
192,192,257568,1,0,0:0:0:0:
320,192,257568,1,0,0:0:0:0:
448,192,257568,1,0,0:0:0:0:
192,192,257841,1,0,0:0:0:0:
320,192,257841,1,0,0:0:0:0:
448,192,257841,1,0,0:0:0:0:
320,192,257978,1,0,0:0:0:0:
192,192,257978,1,0,0:0:0:0:
64,192,257978,1,0,0:0:0:0:
192,192,258114,1,0,0:0:0:0:
448,192,258114,1,0,0:0:0:0:
320,192,258114,1,0,0:0:0:0:
320,192,258250,1,0,0:0:0:0:
448,192,258250,1,0,0:0:0:0:
64,192,258387,1,0,0:0:0:0:
192,192,258387,1,0,0:0:0:0:
192,192,258523,1,0,0:0:0:0:
448,192,258523,1,0,0:0:0:0:
320,192,258659,1,0,0:0:0:0:
192,192,258659,1,0,0:0:0:0:
64,192,258659,1,0,0:0:0:0:
64,192,258796,1,0,0:0:0:0:
320,192,258796,1,0,0:0:0:0:
448,192,258932,1,0,0:0:0:0:
192,192,258932,1,0,0:0:0:0:
320,192,259068,1,0,0:0:0:0:
448,192,259068,1,0,0:0:0:0:
64,192,259205,1,0,0:0:0:0:
192,192,259205,1,0,0:0:0:0:
448,192,259205,1,0,0:0:0:0:
64,192,259341,1,0,0:0:0:0:
192,192,259341,1,0,0:0:0:0:
448,192,259478,1,0,0:0:0:0:
64,192,259478,1,0,0:0:0:0:
320,192,259614,1,0,0:0:0:0:
192,192,259614,1,0,0:0:0:0:
64,192,259750,1,0,0:0:0:0:
192,192,259750,1,0,0:0:0:0:
320,192,259750,1,0,0:0:0:0:
448,192,259750,1,0,0:0:0:0:
64,192,259887,1,0,0:0:0:0:
320,192,259887,1,0,0:0:0:0:
448,192,259887,1,0,0:0:0:0:
64,192,260159,1,0,0:0:0:0:
320,192,260159,1,0,0:0:0:0:
448,192,260159,1,0,0:0:0:0:
192,192,260159,1,0,0:0:0:0:
64,192,260296,1,0,0:0:0:0:
192,192,260296,1,0,0:0:0:0:
448,192,260296,1,0,0:0:0:0:
64,192,260568,1,0,0:0:0:0:
192,192,260568,1,0,0:0:0:0:
320,192,260568,1,0,0:0:0:0:
448,192,260568,1,0,0:0:0:0:
192,192,260705,1,0,0:0:0:0:
320,192,260705,1,0,0:0:0:0:
448,192,260705,1,0,0:0:0:0:
64,192,260978,1,0,0:0:0:0:
192,192,260978,1,0,0:0:0:0:
320,192,260978,1,0,0:0:0:0:
448,192,260978,1,0,0:0:0:0:
320,192,261114,1,0,0:0:0:0:
192,192,261114,1,0,0:0:0:0:
64,192,261114,1,0,0:0:0:0:
64,192,261250,1,0,0:0:0:0:
192,192,261250,1,0,0:0:0:0:
64,192,261387,1,0,0:0:0:0:
320,192,261387,1,0,0:0:0:0:
448,192,261387,1,0,0:0:0:0:
64,192,261659,1,0,0:0:0:0:
192,192,261659,1,0,0:0:0:0:
448,192,261659,1,0,0:0:0:0:
64,192,261932,1,0,0:0:0:0:
192,192,261932,1,0,0:0:0:0:
320,192,261932,1,0,0:0:0:0:
448,192,261932,1,0,0:0:0:0:
64,192,262205,1,0,0:0:0:0:
320,192,262205,1,0,0:0:0:0:
448,192,262205,1,0,0:0:0:0:
64,192,262341,1,0,0:0:0:0:
192,192,262341,1,0,0:0:0:0:
448,192,262341,1,0,0:0:0:0:
448,192,262478,1,0,0:0:0:0:
320,192,262478,1,0,0:0:0:0:
64,192,262478,1,0,0:0:0:0:
320,192,262614,1,0,0:0:0:0:
448,192,262614,1,0,0:0:0:0:
64,192,262750,1,0,0:0:0:0:
192,192,262750,1,0,0:0:0:0:
320,192,262750,1,0,0:0:0:0:
64,192,262887,1,0,0:0:0:0:
192,192,262887,1,0,0:0:0:0:
64,192,263023,1,0,0:0:0:0:
320,192,263023,1,0,0:0:0:0:
448,192,263023,1,0,0:0:0:0:
448,192,263159,1,0,0:0:0:0:
64,192,263159,1,0,0:0:0:0:
320,192,263296,1,0,0:0:0:0:
192,192,263296,1,0,0:0:0:0:
192,192,263432,1,0,0:0:0:0:
320,192,263432,1,0,0:0:0:0:
64,192,263568,1,0,0:0:0:0:
192,192,263568,1,0,0:0:0:0:
448,192,263568,1,0,0:0:0:0:
64,192,263705,1,0,0:0:0:0:
192,192,263705,1,0,0:0:0:0:
320,192,263841,1,0,0:0:0:0:
448,192,263841,1,0,0:0:0:0:
320,192,263978,1,0,0:0:0:0:
192,192,263978,1,0,0:0:0:0:
64,192,264114,1,0,0:0:0:0:
192,192,264114,1,0,0:0:0:0:
320,192,264114,1,0,0:0:0:0:
448,192,264114,1,0,0:0:0:0:
64,192,264250,1,0,0:0:0:0:
192,192,264250,1,0,0:0:0:0:
64,192,264387,1,0,0:0:0:0:
192,192,264387,1,0,0:0:0:0:
320,192,264523,1,0,0:0:0:0:
448,192,264523,1,0,0:0:0:0:
448,192,264659,1,0,0:0:0:0:
192,192,264659,1,0,0:0:0:0:
64,192,264659,1,0,0:0:0:0:
64,192,264796,1,0,0:0:0:0:
192,192,264796,1,0,0:0:0:0:
192,192,264932,1,0,0:0:0:0:
320,192,264932,1,0,0:0:0:0:
448,192,265068,1,0,0:0:0:0:
320,192,265068,1,0,0:0:0:0:
64,192,265205,1,0,0:0:0:0:
192,192,265205,1,0,0:0:0:0:
320,192,265205,1,0,0:0:0:0:
64,192,265341,1,0,0:0:0:0:
448,192,265341,1,0,0:0:0:0:
448,192,265478,1,0,0:0:0:0:
64,192,265478,1,0,0:0:0:0:
320,192,265614,1,0,0:0:0:0:
192,192,265614,1,0,0:0:0:0:
192,192,265750,1,0,0:0:0:0:
320,192,265750,1,0,0:0:0:0:
64,192,265887,1,0,0:0:0:0:
192,192,265887,1,0,0:0:0:0:
64,192,266023,1,0,0:0:0:0:
192,192,266023,1,0,0:0:0:0:
320,192,266159,1,0,0:0:0:0:
448,192,266159,1,0,0:0:0:0:
64,192,266296,1,0,0:0:0:0:
192,192,266296,1,0,0:0:0:0:
320,192,266296,1,0,0:0:0:0:
448,192,266296,1,0,0:0:0:0:
64,192,266568,1,0,0:0:0:0:
192,192,266568,1,0,0:0:0:0:
320,192,266568,1,0,0:0:0:0:
192,192,266705,1,0,0:0:0:0:
320,192,266705,1,0,0:0:0:0:
448,192,266705,1,0,0:0:0:0:
320,192,266841,1,0,0:0:0:0:
192,192,266841,1,0,0:0:0:0:
64,192,266841,1,0,0:0:0:0:
64,192,266978,1,0,0:0:0:0:
192,192,266978,1,0,0:0:0:0:
320,192,267114,1,0,0:0:0:0:
448,192,267114,1,0,0:0:0:0:
448,192,267250,1,0,0:0:0:0:
320,192,267250,1,0,0:0:0:0:
64,192,267387,1,0,0:0:0:0:
192,192,267387,1,0,0:0:0:0:
448,192,267387,1,0,0:0:0:0:
64,192,267523,1,0,0:0:0:0:
192,192,267523,1,0,0:0:0:0:
448,192,267659,1,0,0:0:0:0:
192,192,267659,1,0,0:0:0:0:
64,192,267796,1,0,0:0:0:0:
320,192,267796,1,0,0:0:0:0:
448,192,267932,1,0,0:0:0:0:
320,192,267932,1,0,0:0:0:0:
192,192,267932,1,0,0:0:0:0:
64,192,268068,1,0,0:0:0:0:
448,192,268068,1,0,0:0:0:0:
192,192,268205,1,0,0:0:0:0:
64,192,268205,1,0,0:0:0:0:
320,192,268341,1,0,0:0:0:0:
448,192,268341,1,0,0:0:0:0:
448,192,268478,1,0,0:0:0:0:
320,192,268478,1,0,0:0:0:0:
192,192,268478,1,0,0:0:0:0:
64,192,268478,1,0,0:0:0:0:
64,192,268614,1,0,0:0:0:0:
192,192,268614,1,0,0:0:0:0:
320,192,268750,1,0,0:0:0:0:
448,192,268750,1,0,0:0:0:0:
448,192,268887,1,0,0:0:0:0:
320,192,268887,1,0,0:0:0:0:
64,192,269023,1,0,0:0:0:0:
192,192,269023,1,0,0:0:0:0:
448,192,269023,1,0,0:0:0:0:
64,192,269159,1,0,0:0:0:0:
448,192,269159,1,0,0:0:0:0:
320,192,269296,1,0,0:0:0:0:
192,192,269296,1,0,0:0:0:0:
64,192,269432,1,0,0:0:0:0:
192,192,269432,1,0,0:0:0:0:
192,192,269568,1,0,0:0:0:0:
320,192,269568,1,0,0:0:0:0:
448,192,269568,1,0,0:0:0:0:
448,192,269705,1,0,0:0:0:0:
320,192,269705,1,0,0:0:0:0:
64,192,269841,1,0,0:0:0:0:
192,192,269841,1,0,0:0:0:0:
64,192,269978,1,0,0:0:0:0:
192,192,269978,1,0,0:0:0:0:
448,192,270114,1,0,0:0:0:0:
64,192,270114,1,0,0:0:0:0:
64,192,270250,1,0,0:0:0:0:
448,192,270250,1,0,0:0:0:0:
320,192,270387,1,0,0:0:0:0:
192,192,270387,1,0,0:0:0:0:
192,192,270523,1,0,0:0:0:0:
320,192,270523,1,0,0:0:0:0:
64,192,270659,1,0,0:0:0:0:
448,192,270659,1,0,0:0:0:0:
