osu file format v14

[General]
AudioFilename: audio.mp3
AudioLeadIn: 0
PreviewTime: 52372
Countdown: 0
SampleSet: Soft
StackLeniency: 0.7
Mode: 0
LetterboxInBreaks: 0
WidescreenStoryboard: 0

[Editor]
DistanceSpacing: 0.9
BeatDivisor: 4
GridSize: 32
TimelineZoom: 2.799999

[Metadata]
Title:Kami no Kotoba
TitleUnicode:カミノコトバ
Artist:Luschka
ArtistUnicode:ルシュカ
Creator:Twiggykun
Version:wave
Source:
Tags:
BeatmapID:1762446
BeatmapSetID:842249

[Difficulty]
HPDrainRate:6
CircleSize:4
OverallDifficulty:8.2
ApproachRate:9.6
SliderMultiplier:1.7
SliderTickRate:1

[Events]
//Background and Video events
0,0,"t44Ga-znWLo.jpg",0,0
//Break Periods
2,87481,104227
//Storyboard Layer 0 (Background)
//Storyboard Layer 1 (Fail)
//Storyboard Layer 2 (Pass)
//Storyboard Layer 3 (Foreground)
//Storyboard Sound Samples

[TimingPoints]
13100,272.727272727273,4,2,0,50,1,0
21668,-83.3333333333333,4,2,0,50,0,0
21805,-100,4,2,0,50,0,0
24941,-133.333333333333,4,2,0,50,0,0
26168,-100,4,2,0,50,0,0
34918,-90.9090909090909,4,2,0,50,0,0
44463,-133.333333333333,4,2,0,50,0,0
45281,-90.9090909090909,4,2,0,50,0,0
46645,-133.333333333333,4,2,0,50,0,0
47190,-90.9090909090909,4,2,0,50,0,0
48009,-133.333333333333,4,2,0,50,0,0
49918,-90.9090909090909,4,2,0,50,0,0
52372,-66.6666666666667,4,2,0,50,0,0
78554,-76.9230769230769,4,2,0,50,0,0
104736,-100,4,2,0,50,0,0
121645,-133.333333333333,4,2,0,50,0,0
122190,-66.6666666666667,4,2,0,50,0,0
125463,-50,4,2,0,50,0,0
125736,-66.6666666666667,4,2,0,50,0,0

[HitObjects]
323,78,13100,6,0,P|356:135|357:174,1,85
279,244,13372,2,0,P|246:187|245:148,1,85
147,328,13645,2,0,P|180:271|181:232,1,85
125,161,13918,1,0,0:0:0:0:
125,161,14054,1,0,0:0:0:0:
37,145,14736,6,0,L|157:115,1,85
239,77,15009,2,0,L|119:47,1,85
233,172,15281,6,0,P|315:145|340:54,1,170
342,71,15690,1,0,0:0:0:0:
359,170,15827,2,0,P|390:217|448:234,1,85
512,266,16100,1,0,0:0:0:0:
512,266,16236,1,0,0:0:0:0:
140,136,16918,5,0,0:0:0:0:
240,176,17054,1,0,0:0:0:0:
150,252,17190,2,0,P|133:306|141:345,1,85
239,309,17463,6,0,L|344:289,1,85
438,231,17736,2,0,L|333:211,1,85
261,150,18009,2,0,L|366:130,1,85
481,105,18281,1,0,0:0:0:0:
377,8,18418,1,0,0:0:0:0:
274,161,19100,6,0,P|261:217|278:268,1,85
351,107,19372,2,0,P|364:163|347:214,1,85
188,203,19645,6,0,B|167:100|224:117|212:11,1,170
213,38,20054,1,0,0:0:0:0:
124,130,20190,2,0,P|66:157|16:159,1,85
204,222,20463,1,0,0:0:0:0:
46,160,20600,1,0,0:0:0:0:
225,112,21281,6,0,P|288:110|328:138,1,85
332,179,21486,2,0,P|302:234|257:255,1,85
220,238,21690,2,0,P|186:184|190:159,1,50.9999984436036
160,101,21827,6,0,P|90:157|59:161,1,85
0,193,22100,2,0,P|36:213|63:246,1,85
143,325,22372,2,0,P|195:340|252:321,1,85
341,250,22645,1,0,0:0:0:0:
215,204,22781,1,0,0:0:0:0:
367,327,23463,6,0,P|434:318|467:283,1,85
329,252,23736,2,0,P|281:203|277:155,1,85
408,132,24009,6,0,P|436:82|331:60,1,170
356,34,24418,1,0,0:0:0:0:
240,137,24554,2,0,P|170:161|134:150,1,85
43,116,24827,1,0,0:0:0:0:
164,235,24963,2,0,P|186:283|92:226,1,318.750012159348
251,175,26190,5,0,0:0:0:0:
343,158,26327,1,0,0:0:0:0:
311,246,26463,1,0,0:0:0:0:
282,84,26600,1,0,0:0:0:0:
437,153,26736,2,0,L|457:239,1,85
343,158,27009,1,0,0:0:0:0:
301,290,27145,6,0,P|252:326|142:298,1,170
148,198,27554,1,0,0:0:0:0:
55,255,27690,1,0,0:0:0:0:
51,147,27827,6,0,L|80:63,1,85
190,65,28100,2,0,L|217:145,1,85
252,237,28372,2,0,L|279:317,1,85
388,364,28645,1,0,0:0:0:0:
373,251,28781,1,0,0:0:0:0:
280,317,28918,6,0,P|218:314|170:226,1,170
217,129,29327,1,0,0:0:0:0:
166,228,29463,1,0,0:0:0:0:
83,86,29645,1,0,0:0:0:0:
132,257,29827,1,0,0:0:0:0:
212,72,30009,1,0,0:0:0:0:
249,257,30190,1,0,0:0:0:0:
65,192,30372,1,0,0:0:0:0:
172,139,30554,6,0,P|193:73|182:32,1,85
71,96,30827,1,0,0:0:0:0:
94,204,30963,1,0,0:0:0:0:
195,245,31100,2,0,P|216:311|205:352,1,85
121,306,31372,1,0,0:0:0:0:
304,324,31509,6,0,P|360:319|429:217,1,170
395,124,31918,1,0,0:0:0:0:
277,108,32054,1,0,0:0:0:0:
328,218,32190,6,0,P|371:241|417:235,1,85
395,124,32463,2,0,P|352:101|306:107,1,85
194,163,32736,2,0,P|152:163|115:141,1,85
77,52,33009,1,0,0:0:0:0:
187,64,33145,1,0,0:0:0:0:
117,143,33281,6,0,P|103:196|105:233,1,85
225,194,33554,2,0,P|239:141|237:104,1,85
218,12,33827,5,0,0:0:0:0:
267,121,34009,1,0,0:0:0:0:
321,235,34190,1,0,0:0:0:0:
369,338,34372,2,0,B|336:220|425:202|389:84,1,255
251,83,34918,6,0,P|259:131|367:213,1,187.000005706787
462,228,35327,1,0,0:0:0:0:
299,232,35463,2,0,P|236:258|208:291,1,93.5000028533936
92,165,35736,2,0,P|155:191|183:224,1,93.5000028533936
61,272,36009,5,0,0:0:0:0:
61,272,36145,1,0,0:0:0:0:
54,131,36281,2,0,L|101:41,1,93.5000028533936
200,179,36554,1,0,0:0:0:0:
200,179,36690,1,0,0:0:0:0:
115,320,36827,2,0,L|68:230,1,93.5000028533936
185,288,37100,6,0,B|283:317|277:244|385:275,1,187.000005706787
466,308,37509,1,0,0:0:0:0:
352,218,37645,2,0,P|340:171|345:115,1,93.5000028533936
197,69,37918,2,0,P|224:138|183:267,1,187.000005706787
69,57,38463,2,0,P|46:108|52:158,1,93.5000028533936
94,244,38736,2,0,P|117:295|111:345,1,93.5000028533936
183,204,39009,2,0,P|232:164|345:178,1,140.25000428009
375,192,39281,6,0,P|424:212|476:109,1,187.000005706787
380,45,39690,1,0,0:0:0:0:
403,201,39827,2,0,P|393:264|370:309,1,93.5000028533936
231,141,40100,2,0,P|241:204|264:249,1,93.5000028533936
314,337,40372,5,0,0:0:0:0:
198,276,40509,1,0,0:0:0:0:
100,344,40645,1,0,0:0:0:0:
206,223,40781,1,0,0:0:0:0:
15,139,40918,2,0,P|63:176|127:178,1,93.5000028533936
211,178,41190,2,0,P|267:154|300:100,1,93.5000028533936
368,19,41463,5,0,0:0:0:0:
408,165,41600,2,0,L|434:264,1,93.5000028533936
272,86,41872,1,0,0:0:0:0:
312,232,42009,2,0,L|338:331,1,93.5000028533936
185,173,42281,5,0,0:0:0:0:
120,323,42418,2,0,L|96:232,1,93.5000028533936
60,123,42690,1,0,0:0:0:0:
194,242,42827,2,0,P|264:264|304:252,1,93.5000028533936
161,152,43100,2,0,P|106:201|97:242,1,93.5000028533936
253,169,43372,2,0,P|237:97|206:68,1,93.5000028533936
311,257,43645,6,0,P|324:193|445:114,1,187.000005706787
487,203,44054,1,0,0:0:0:0:
334,124,44190,2,0,P|292:84|274:38,1,93.5000028533936
253,162,44463,2,0,B|210:279|127:220|71:344,1,255.000009727478
35,170,45281,2,0,P|70:223|77:263,1,93.5000028533936
154,54,45554,2,0,P|119:107|112:147,1,93.5000028533936
254,87,45827,6,0,P|301:89|358:119,1,93.5000028533936
334,256,46100,2,0,P|287:254|230:224,1,93.5000028533936
441,178,46372,2,0,L|466:276,1,93.5000028533936
378,70,46645,2,0,L|328:277,1,191.250007295609
297,361,47190,1,0,0:0:0:0:
269,153,47463,2,0,P|241:96|198:64,1,93.5000028533936
70,175,47736,2,0,P|98:232|141:264,1,93.5000028533936
75,80,48009,6,0,B|176:87|136:182|236:222|236:222|222:191|229:167,1,255.000009727478
351,338,48827,2,0,B|471:294|354:222|505:147|505:147|448:147|386:93,1,382.500014591218
299,68,49918,2,0,P|279:113|320:193,1,140.25000428009
371,217,50190,6,0,B|214:132|196:301|23:192,1,327.250009986878
8,167,50736,2,0,P|51:131|161:126,1,140.25000428009
196,134,51009,2,0,P|274:122|338:68,1,140.25000428009
364,40,51281,5,0,0:0:0:0:
297,209,51463,1,0,0:0:0:0:
198,61,51645,1,0,0:0:0:0:
299,299,51827,2,0,P|315:232|374:167,1,140.25000428009
422,144,52100,2,0,P|315:166|247:138,1,140.25000428009
219,122,52372,6,0,P|69:123|144:295,1,382.500014591218
71,92,52918,2,0,P|127:149|144:209,1,127.500004863739
285,324,53190,2,0,P|306:247|349:202,1,127.500004863739
357,22,53463,6,0,P|285:54|441:155,1,382.500014591218
264,100,54009,2,0,P|194:81|112:104,1,127.500004863739
42,241,54281,2,0,P|112:260|194:237,1,127.500004863739
331,182,54554,6,0,B|411:123|511:137|511:137|483:235|374:269,1,382.500014591218
213,135,55100,2,0,P|118:119|45:150,1,127.500004863739
0,245,55372,2,0,P|95:261|168:230,1,127.500004863739
281,344,55645,6,0,P|295:277|366:213,1,127.500004863739
436,70,55918,2,0,P|370:91|280:61,1,127.500004863739
121,72,56190,2,0,P|172:117|191:211,1,127.500004863739
91,335,56463,2,0,P|40:290|21:196,1,127.500004863739
173,114,56736,6,0,B|284:66|316:182|445:132,1,255.000009727478
301,48,57145,1,0,0:0:0:0:
354,196,57281,2,0,P|356:267|336:323,1,127.500004863739
174,319,57554,2,0,P|154:259|158:196,1,127.500004863739
270,65,57827,6,0,B|136:108|127:4|-23:65,1,255.000009727478
111,151,58236,1,0,0:0:0:0:
73,314,58372,2,0,P|40:246|-8:208,1,127.500004863739
245,133,58645,2,0,P|212:201|164:239,1,127.500004863739
180,49,58918,6,0,P|322:54|214:245,1,446.250017023087
122,208,59463,2,0,P|24:193|-25:216,1,127.500004863739
152,326,59736,2,0,P|250:341|299:318,1,127.500004863739
397,210,60009,5,0,0:0:0:0:
246,238,60145,1,0,0:0:0:0:
371,108,60281,2,0,P|447:117|490:157,1,127.500004863739
314,197,60554,1,0,0:0:0:0:
346,20,60690,1,0,0:0:0:0:
229,147,60827,2,0,P|160:171|101:164,1,127.500004863739
0,90,61100,6,0,P|70:66|46:276,1,382.500014591218
279,190,61645,2,0,P|310:267|365:302,1,127.500004863739
416,146,61918,2,0,P|385:69|330:34,1,127.500004863739
142,138,62190,6,0,P|140:239|392:278,1,382.500014591218
231,80,62736,2,0,P|252:165|295:200,1,127.500004863739
109,306,63009,2,0,P|149:257|157:195,1,127.500004863739
12,112,63281,6,0,B|162:52|170:225|261:223|359:137|303:63|257:52,1,382.500014591218
425,177,63827,2,0,P|466:234|475:324,1,127.500004863739
213,294,64100,2,0,P|227:232|265:181,1,127.500004863739
90,167,64372,6,0,P|32:128|7:53,1,127.500004863739
204,16,64645,2,0,P|262:55|287:130,1,127.500004863739
312,321,64918,2,0,L|340:173,1,127.500004863739
157,66,65190,2,0,L|180:191,1,127.500004863739
65,347,65463,6,0,L|41:221,1,127.500004863739
26,82,65736,1,0,0:0:0:0:
171,221,65872,1,0,0:0:0:0:
0,184,66009,2,0,L|134:138,1,127.500004863739
285,67,66281,1,0,0:0:0:0:
118,77,66418,1,0,0:0:0:0:
277,122,66554,6,0,P|322:181|333:255,1,127.500004863739
284,368,66827,1,0,0:0:0:0:
367,217,66963,1,0,0:0:0:0:
431,353,67100,2,0,P|399:245|405:171,1,127.500004863739
379,33,67372,2,0,P|343:138|291:195,1,127.500004863739
198,237,67645,6,0,P|85:219|108:76,1,255.000009727478
184,64,68054,1,0,0:0:0:0:
59,162,68190,2,0,P|17:228|29:302,1,127.500004863739
181,362,68463,2,0,P|223:296|211:222,1,127.500004863739
346,68,68736,6,0,P|310:138|412:289,1,255.000009727478
488,195,69145,1,0,0:0:0:0:
288,154,69281,1,0,0:0:0:0:
255,159,69349,1,0,0:0:0:0:
228,173,69417,1,0,0:0:0:0:
204,195,69485,1,0,0:0:0:0:
188,222,69553,1,0,0:0:0:0:
157,337,69690,1,0,0:0:0:0:
84,128,69827,6,0,P|128:188|145:254,1,127.500004863739
197,110,70100,2,0,P|217:49|256:0,1,127.500004863739
377,65,70372,1,0,0:0:0:0:
377,65,70509,1,0,0:0:0:0:
328,199,70645,2,0,P|329:271|356:330,1,127.500004863739
205,109,70918,6,0,P|241:185|240:255,1,127.500004863739
85,312,71190,2,0,P|18:272|129:238,1,255.000009727478
163,351,71600,1,0,0:0:0:0:
147,180,71736,2,0,P|117:106|49:67,1,127.500004863739
254,112,72009,6,0,P|353:103|406:50,1,127.500004863739
473,16,72281,1,0,0:0:0:0:
386,134,72418,1,0,0:0:0:0:
475,264,72554,1,0,0:0:0:0:
315,177,72690,1,0,0:0:0:0:
219,305,72827,1,0,0:0:0:0:
260,97,72963,1,0,0:0:0:0:
326,262,73100,6,0,P|333:183|376:116,1,127.500004863739
203,203,73372,2,0,P|131:236|51:232,1,127.500004863739
83,238,73577,1,0,0:0:0:0:
83,238,73645,1,0,0:0:0:0:
62,118,73781,1,0,0:0:0:0:
182,318,73918,1,0,0:0:0:0:
196,132,74054,1,0,0:0:0:0:
51,314,74190,6,0,P|29:237|-2:200,1,127.500004863739
152,238,74463,2,0,P|234:238|287:207,1,127.500004863739
384,132,74736,1,0,0:0:0:0:
384,132,74872,1,0,0:0:0:0:
351,338,75009,2,0,P|327:273|275:234,1,127.500004863739
91,180,75281,6,0,P|159:106|160:47,1,127.500004863739
0,227,75554,2,0,P|21:297|207:320,1,255.000009727478
290,229,75963,1,0,0:0:0:0:
43,228,76100,2,0,P|104:186|172:192,1,127.500004863739
404,179,76372,6,0,P|341:173|287:140,1,127.500004863739
206,33,76645,1,0,0:0:0:0:
213,177,76781,1,0,0:0:0:0:
94,99,76918,1,0,0:0:0:0:
94,99,76986,1,0,0:0:0:0:
94,99,77054,1,0,0:0:0:0:
291,97,77190,1,0,0:0:0:0:
291,97,77259,1,0,0:0:0:0:
291,97,77327,1,0,0:0:0:0:
166,252,77463,6,0,P|103:299|48:307,1,127.500004863739
190,123,77736,2,0,P|262:154|296:197,1,127.500004863739
292,190,77940,1,0,0:0:0:0:
292,190,78009,1,0,0:0:0:0:
376,77,78145,1,0,0:0:0:0:
350,303,78281,1,0,0:0:0:0:
216,192,78418,1,0,0:0:0:0:
490,188,78554,6,0,P|433:165|292:285,1,220.999989883423
269,347,78963,1,0,0:0:0:0:
111,331,79100,2,0,P|33:261|62:140,1,220.999989883423
140,81,79509,1,0,0:0:0:0:
259,157,79645,6,0,P|318:184|372:181,1,110.499994941712
117,271,79918,2,0,P|176:244|316:341,1,220.999989883423
199,354,80327,1,0,0:0:0:0:
168,207,80463,2,0,P|137:147|94:118,1,110.499994941712
13,221,80736,6,0,P|37:271|56:287,4,55.2499974708558
144,295,81145,1,0,0:0:0:0:
209,174,81281,2,0,P|185:124|166:108,4,55.2499974708558
331,216,81690,1,0,0:0:0:0:
156,182,81827,6,0,P|94:165|51:118,1,110.499994941712
188,19,82100,2,0,P|250:36|293:83,1,110.499994941712
368,247,82372,2,0,P|376:177|431:111,2,147.333326588949
190,359,82918,6,0,P|241:311|180:174,1,220.999989883423
64,143,83327,1,0,0:0:0:0:
263,57,83463,2,0,P|230:168|343:240,1,220.999989883423
432,265,83872,1,0,0:0:0:0:
209,174,84009,6,0,P|123:181|94:204,1,110.499994941712
255,73,84281,2,0,P|306:113|257:270,1,220.999989883423
163,319,84690,1,0,0:0:0:0:
328,291,84827,2,0,P|386:311|429:342,1,110.499994941712
388,205,85100,6,0,P|388:142|393:127,4,55.2499974708558
283,105,85509,1,0,0:0:0:0:
169,189,85645,2,0,P|169:126|164:111,4,55.2499974708558
18,143,86054,1,0,0:0:0:0:
179,259,86190,6,0,P|213:313|207:381,1,110.499994941712
107,167,86463,2,0,P|73:221|79:289,1,110.499994941712
71,266,86668,1,0,0:0:0:0:
71,266,86736,5,0,0:0:0:0:
196,124,86872,1,0,0:0:0:0:
275,241,87009,1,0,0:0:0:0:
277,34,87145,1,0,0:0:0:0:
87,115,87281,1,0,0:0:0:0:
256,66,104736,6,0,L|256:124,4,42.5
144,142,105145,1,0,0:0:0:0:
243,237,105281,2,0,P|264:303|259:348,1,85
138,301,105554,1,0,0:0:0:0:
137,187,105690,1,0,0:0:0:0:
243,238,105827,6,0,P|319:259|354:254,1,85
381,149,106100,6,0,B|340:220|298:166|243:237,1,170
248,108,106509,1,0,0:0:0:0:
139,160,106645,2,0,P|87:148|57:115,1,85
205,34,106918,6,0,P|268:24|329:132,1,170
318,262,107327,2,0,L|244:100,1,170
195,241,107736,2,0,P|145:305|72:151,1,340
256,177,108554,2,0,P|336:146|341:40,2,170
25,90,109372,6,0,P|62:127|80:194,1,85
97,269,109645,1,0,0:0:0:0:
191,199,109781,1,0,0:0:0:0:
267,300,109918,1,0,0:0:0:0:
358,231,110054,1,0,0:0:0:0:
302,340,110190,5,0,0:0:0:0:
256,206,110327,1,0,0:0:0:0:
405,286,110463,1,0,0:0:0:0:
337,134,110600,1,0,0:0:0:0:
256,322,110736,2,0,P|230:268|124:212,1,170
27,205,111281,6,0,B|174:178|102:66|254:71,1,255
378,111,111827,2,0,P|333:85|306:87,4,42.5
393,229,112236,1,0,0:0:0:0:
302,328,112372,6,0,P|313:267|293:221,1,85
175,247,112645,2,0,P|164:308|184:354,1,85
52,251,112918,2,0,P|100:204|108:67,1,170
85,26,113327,1,0,0:0:0:0:
188,116,113463,1,0,0:0:0:0:
298,212,113736,6,0,L|310:320,1,85
392,176,114009,2,0,L|380:284,1,85
469,120,114281,2,0,L|481:228,1,85
384,85,114554,6,0,P|299:103|217:79,1,170
74,178,115100,2,0,P|159:160|241:184,1,170
333,257,115645,6,0,P|359:300|358:354,1,85
272,190,115918,2,0,P|246:233|247:287,1,85
332,124,116190,2,0,P|358:167|357:221,1,85
243,109,116463,2,0,P|173:123|65:103,1,170
39,290,117009,6,0,P|14:230|-17:206,1,85
121,332,117281,2,0,P|146:272|177:248,1,85
299,278,117554,2,0,P|326:310|337:350,1,85
223,238,117827,6,0,B|260:182|296:187|334:232|412:144|409:80|327:8|249:66,1,340
175,166,118645,2,0,B|126:225|145:316|145:316|90:213|13:183,1,340
229,237,119463,2,0,P|257:202|295:351,1,340
322,347,120554,5,0,0:0:0:0:
322,347,121100,5,0,0:0:0:0:
298,221,121645,2,0,P|277:180|128:218,1,223.125008511544
126,236,122190,2,0,P|153:305|299:244,1,255.000009727478
280,142,122600,1,0,0:0:0:0:
213,243,122736,1,0,0:0:0:0:
200,74,122872,1,0,0:0:0:0:
343,212,123009,2,0,P|422:219|472:188,1,127.500004863739
290,48,123281,6,0,P|211:41|161:72,1,127.500004863739
49,167,123554,1,0,0:0:0:0:
217,167,123690,1,0,0:0:0:0:
69,74,123827,1,0,0:0:0:0:
105,271,123963,1,0,0:0:0:0:
166,119,124100,1,0,0:0:0:0:
253,302,124236,1,0,0:0:0:0:
356,143,124372,6,0,P|267:129|222:102,1,127.500004863739
370,10,124645,2,0,P|459:24|504:51,1,127.500004863739
432,199,124918,1,0,0:0:0:0:
297,81,125054,1,0,0:0:0:0:
296,277,125190,1,0,0:0:0:0:
382,117,125327,1,0,0:0:0:0:
173,152,125463,6,0,P|100:144|15:55,1,170
280,241,125736,2,0,P|309:308|310:377,1,127.500004863739
303,103,126009,2,0,P|346:43|405:8,1,127.500004863739
468,288,126281,2,0,P|415:251|379:199,1,127.500004863739
74,136,126554,2,0,P|146:120|269:244,1,255.000009727478
242,353,126963,1,0,0:0:0:0:
213,165,127100,2,0,P|227:98|279:45,1,127.500004863739
424,69,127372,1,0,0:0:0:0:
336,211,127509,1,0,0:0:0:0:
341,62,127645,5,0,0:0:0:0:
456,238,127781,1,0,0:0:0:0:
247,238,127918,1,0,0:0:0:0:
392,141,128054,1,0,0:0:0:0:
397,335,128190,2,0,P|308:321|245:261,1,127.500004863739
151,219,128463,1,0,0:0:0:0:
351,219,128600,1,0,0:0:0:0:
177,302,128736,5,0,0:0:0:0:
293,147,128872,1,0,0:0:0:0:
264,293,129009,1,0,0:0:0:0:
208,79,129145,1,0,0:0:0:0:
247,226,129281,1,0,0:0:0:0:
299,28,129418,1,0,0:0:0:0:
114,142,129554,1,0,0:0:0:0:
329,147,129690,1,0,0:0:0:0:
116,50,129827,5,0,0:0:0:0:
207,146,129963,1,0,0:0:0:0:
209,43,130100,1,0,0:0:0:0:
58,111,130236,1,0,0:0:0:0:
207,220,130372,1,0,0:0:0:0:
148,113,130509,1,0,0:0:0:0:
78,253,130645,1,0,0:0:0:0:
88,44,130781,1,0,0:0:0:0:
282,179,130918,6,0,P|356:201|468:60,1,255.000009727478
341,71,131327,1,0,0:0:0:0:
324,218,131463,2,0,P|263:300|199:316,1,127.500004863739
58,214,131736,2,0,P|119:132|183:116,1,127.500004863739
167,244,132009,5,0,0:0:0:0:
43,124,132145,1,0,0:0:0:0:
256,118,132281,1,0,0:0:0:0:
156,319,132418,1,0,0:0:0:0:
192,50,132554,2,0,P|235:114|394:182,1,255.000009727478
441,81,132963,1,0,0:0:0:0:
364,298,133100,6,0,P|291:352|179:241,1,255.000009727478
140,147,133509,1,0,0:0:0:0:
57,340,133645,2,0,P|24:252|-4:229,1,127.500004863739
83,38,133918,2,0,P|116:126|144:149,1,127.500004863739
294,190,134190,5,0,0:0:0:0:
213,67,134327,1,0,0:0:0:0:
207,262,134463,1,0,0:0:0:0:
395,163,134600,1,0,0:0:0:0:
141,217,134736,2,0,P|56:212|16:192,1,127.500004863739
207,328,135009,2,0,P|292:323|332:303,1,127.500004863739
479,135,135281,6,0,B|362:177|344:83|230:124,1,255.000009727478
108,189,135690,1,0,0:0:0:0:
277,34,135827,2,0,P|301:98|346:143,1,127.500004863739
384,320,136100,2,0,P|405:260|448:214,1,127.500004863739
240,363,136372,6,0,P|233:289|110:153,1,255.000009727478
3,120,136781,1,0,0:0:0:0:
101,329,136918,2,0,P|117:244|146:200,1,127.500004863739
352,111,137190,2,0,P|381:167|388:230,1,127.500004863739
70,174,137463,6,0,B|216:136|139:69|281:37,1,255.000009727478
409,144,137872,1,0,0:0:0:0:
188,71,138009,2,0,P|116:51|50:54,1,127.500004863739
340,236,138281,2,0,P|412:256|478:253,1,127.500004863739
192,189,138554,6,0,P|96:214|67:356,1,255.000009727478
75,194,138963,1,0,0:0:0:0:
271,285,139100,2,0,P|367:260|396:118,1,255.000009727478
283,30,139509,1,0,0:0:0:0:
180,246,139645,6,0,P|215:317|275:361,1,127.500004863739
180,148,139918,1,0,0:0:0:0:
117,315,140054,1,0,0:0:0:0:
96,167,140190,2,0,P|77:101|24:41,1,127.500004863739
249,261,140463,2,0,P|268:195|321:135,1,127.500004863739
428,87,140736,5,0,0:0:0:0:
395,239,140872,1,0,0:0:0:0:
209,143,141009,2,0,P|142:123|76:131,1,127.500004863739
12,249,141281,1,0,0:0:0:0:
119,123,141418,1,0,0:0:0:0:
196,275,141554,2,0,P|235:331|299:362,1,127.500004863739
286,190,141827,6,0,P|310:128|482:82,1,255.000009727478
420,197,142236,1,0,0:0:0:0:
210,135,142372,2,0,P|154:94|117:29,1,127.500004863739
102,212,142645,1,0,0:0:0:0:
182,46,142781,1,0,0:0:0:0:
208,243,142918,6,0,P|247:306|314:336,1,127.500004863739
129,152,143190,2,0,P|90:215|23:245,1,127.500004863739
291,134,143463,2,0,P|345:91|434:84,1,127.500004863739
288,251,143736,2,0,P|298:319|260:400,1,127.500004863739
188,190,144009,6,0,P|124:165|73:91,1,127.500004863739
48,20,144281,1,0,0:0:0:0:
70,245,144418,1,0,0:0:0:0:
186,91,144554,2,0,P|257:65|312:67,1,127.500004863739
391,230,144827,2,0,P|320:256|265:254,1,127.500004863739
327,130,145100,5,0,0:0:0:0:
407,319,145236,1,0,0:0:0:0:
194,243,145372,2,0,P|118:233|55:251,1,127.500004863739
142,338,145645,1,0,0:0:0:0:
194,139,145781,1,0,0:0:0:0:
11,214,145918,2,0,P|81:246|137:240,1,127.500004863739
366,228,146190,5,0,0:0:0:0:
166,151,146327,2,0,P|137:89|150:29,1,127.500004863739
169,269,146600,5,0,0:0:0:0:
336,134,146737,2,0,P|404:140|450:181,1,127.500004863739
232,78,147009,5,0,0:0:0:0:
265,290,147146,2,0,P|226:346|167:365,1,127.500004863739
44,302,147418,1,0,0:0:0:0:
137,149,147554,2,0,P|161:73|156:21,1,127.500004863739
313,251,147827,2,0,P|289:175|294:123,1,127.500004863739
467,79,148100,2,0,P|491:155|486:207,1,127.500004863739
254,38,148372,6,0,P|203:97|197:162,1,127.500004863739
208,269,148645,1,0,0:0:0:0:
110,132,148781,1,0,0:0:0:0:
119,348,148918,2,0,P|127:275|102:213,1,127.500004863739
273,295,149190,2,0,P|366:310|424:291,1,127.500004863739
260,166,149463,5,0,0:0:0:0:
254,358,149600,1,0,0:0:0:0:
207,169,149736,2,0,P|163:104|83:53,1,127.500004863739
0,126,150009,1,0,0:0:0:0:
166,28,150146,1,0,0:0:0:0:
72,219,150281,2,0,P|69:289|90:350,1,127.500004863739
268,329,150554,6,0,B|337:222|220:200|310:85,1,255.000009727478
416,90,150963,1,0,0:0:0:0:
232,187,151100,2,0,P|150:179|85:131,1,127.500004863739
37,42,151372,1,0,0:0:0:0:
217,93,151509,1,0,0:0:0:0:
86,231,151645,6,0,P|69:305|86:361,1,127.500004863739
337,264,151918,2,0,P|354:190|337:134,1,127.500004863739
86,97,152190,2,0,P|161:118|213:182,1,127.500004863739
280,344,152463,2,0,P|260:268|290:191,1,127.500004863739
398,49,152735,6,0,P|342:103|260:116,1,127.500004863739
87,91,153009,1,0,0:0:0:0:
233,38,153145,1,0,0:0:0:0:
124,207,153281,2,0,P|105:283|117:345,1,127.500004863739
353,304,153554,2,0,P|372:228|360:166,1,127.500004863739
220,82,153827,5,0,0:0:0:0:
259,256,153963,1,0,0:0:0:0:
376,80,154100,2,0,P|430:40|494:25,1,127.500004863739
377,207,154372,1,0,0:0:0:0:
285,44,154509,1,0,0:0:0:0:
236,224,154645,2,0,P|201:280|142:314,1,127.500004863739
7,191,154918,6,0,P|42:135|248:123,1,255.000009727478
323,197,155327,1,0,0:0:0:0:
231,335,155463,2,0,P|216:247|172:199,1,127.500004863739
18,109,155736,2,0,P|33:197|77:245,1,127.500004863739
109,104,156009,2,0,B|216:-37|357:190|459:56,1,382.500014591218
321,250,156554,2,0,P|312:325|340:399,1,127.500004863739
173,219,156827,2,0,P|112:173|34:161,1,127.500004863739
272,104,157100,1,0,0:0:0:0:
