osu file format v14

[General]
AudioFilename: audio.mp3
AudioLeadIn: 0
PreviewTime: 233568
Countdown: 0
SampleSet: None
StackLeniency: 0.4
Mode: 0
LetterboxInBreaks: 0
WidescreenStoryboard: 0

[Editor]
Bookmarks: 130750,156932
DistanceSpacing: 0.8
BeatDivisor: 4
GridSize: 32
TimelineZoom: 1

[Metadata]
Title:Kami no Kotoba
TitleUnicode:Kami no Kotoba
Artist:Luschka
ArtistUnicode:Luschka
Creator:Sakura Blossom
Version:Relaxing
Source:
Tags:Kami no Kotoba, Luschka, Sakura Blossom
BeatmapID:1879898
BeatmapSetID:899997

[Difficulty]
HPDrainRate:3
CircleSize:3.5
OverallDifficulty:5
ApproachRate:6.5
SliderMultiplier:2.2
SliderTickRate:1

[Events]
//Background and Video events
0,0,"kami.jpg",0,0
//Break Periods
2,9041,25246
2,113769,129973
//Storyboard Layer 0 (Background)
//Storyboard Layer 1 (Fail)
//Storyboard Layer 2 (Pass)
//Storyboard Layer 3 (Foreground)
//Storyboard Sound Samples

[TimingPoints]
4478,545.454545454546,4,2,0,60,1,0
8841,-100,4,2,0,10,0,0
26296,-100,4,2,0,25,0,0
43750,-100,4,2,0,35,0,0
78659,-100,4,2,0,60,0,1
113568,-100,4,2,0,50,0,0
131022,-100,4,2,1,50,0,0
148478,-100,4,2,1,60,0,0

[Colours]
Combo1 : 17,254,176
Combo2 : 173,255,95
Combo3 : 255,88,100
Combo4 : 255,94,55

[HitObjects]
256,192,4478,12,0,8841,0:0:0:0:
329,85,26296,6,0,B|354:147|354:147|349:309,1,220,0|8,1:2|1:0,0:0:0:0:
239,311,27114,2,0,B|215:237|148:222|148:222|186:167|174:107|152:64|97:33,1,330,0|0,1:0|1:0,0:0:0:0:
316,143,28478,6,0,L|336:34,1,110,0|0,1:0|0:0,0:0:0:0:
445,37,29023,2,0,L|480:142,1,110,0|0,1:0|2:0,0:0:0:0:
489,251,29569,1,0,0:0:0:0:
282,325,30114,1,0,0:0:0:0:
61,316,30660,6,0,B|72:265|72:265|170:247|210:145,1,220,0|8,1:2|1:0,0:0:0:0:
119,92,31478,2,0,B|196:101|238:47|238:47|271:104|330:119|379:117|430:80,1,330,0|0,1:0|1:0,0:0:0:0:
436,311,32842,6,0,L|338:256,1,110,0|2,1:0|1:2,0:0:0:0:
273,344,33387,2,0,L|164:332,1,110,0|2,1:0|1:0,0:0:0:0:
57,303,33932,1,0,1:2:0:0:
239,180,34478,1,0,1:2:0:0:
430,71,35023,6,0,B|408:129|413:224|413:224|386:180|336:183,1,220,0|8,1:2|1:0,0:0:0:0:
278,114,35841,2,0,B|120:130|210:242|65:271|65:271|58:313|30:340,1,330
267,341,37205,6,0,L|377:359,1,110,0|0,1:0|0:0,0:0:0:0:
478,317,37751,2,0,L|439:213,1,110,0|2,1:0|1:2,0:0:0:0:
332,185,38296,1,0,0:0:0:0:
126,262,38841,1,0,0:2:0:0:
294,119,39387,6,0,B|319:169|319:169|341:334,1,220,0|8,1:2|1:0,0:0:0:0:
450,339,40205,2,0,B|429:280|445:224|445:224|428:174|429:130|429:130|390:85|390:85|390:47|369:16,1,330
161,73,41569,6,0,L|153:183,1,110,0|2,1:0|0:0,0:0:0:0:
261,203,42114,2,0,L|273:312,1,110,0|0,1:0|0:0,0:0:0:0:
177,366,42659,1,0,1:2:0:0:
18,212,43205,1,0,0:0:0:0:
177,366,43751,6,0,B|193:318|193:318|207:121,1,220,0|8,1:2|1:0,0:0:0:0:
119,80,44569,2,0,B|52:156|52:156|139:199|104:307|104:307|80:279|25:278,1,330,0|2,1:0|1:2,0:0:0:0:
268,351,45932,5,0,1:0:0:0:
425,197,46478,1,0,0:0:0:0:
212,141,47023,1,0,0:0:0:0:
269,353,47569,2,0,L|162:327,1,110,0|0,1:2|1:2,0:0:0:0:
84,248,48114,6,0,B|35:210|35:210|36:50,1,220,0|8,1:2|1:0,0:0:0:0:
144,68,48932,2,0,P|206:21|204:170,1,330,0|2,1:0|0:0,0:0:0:0:
42,315,50296,2,0,L|150:333,1,110
228,255,50842,2,0,L|337:237,1,110,0|0,0:3|0:3,0:3:0:0:
398,328,51387,1,0,0:0:0:0:
438,225,51660,1,0,0:0:0:0:
336,237,51932,2,0,L|321:114,1,110,0|2,1:0|0:0,0:0:0:0:
305,18,52478,6,0,B|266:46|266:46|97:80,1,220,0|10,1:2|1:0,0:0:0:0:
18,156,53296,2,0,P|4:192|158:167,1,330,0|0,1:0|1:2,0:0:0:0:
376,125,54660,6,0,L|367:241,1,110,0|0,1:0|0:0,0:0:0:0:
347,343,55205,1,0,0:1:0:0:
245,300,55478,1,0,0:0:0:0:
98,135,56023,1,0,0:0:0:0:
189,73,56296,2,0,L|302:149,1,110,0|0,1:0|2:0,0:0:0:0:
356,213,56842,6,0,B|331:256|322:299|322:299|233:283|160:298|160:298|126:280|89:283|89:283|84:219|27:157|27:157|76:150|113:118|113:118|131:190|170:206,1,660,0|4,1:2|1:0,0:0:0:0:
290,370,59023,1,0,0:0:0:0:
155,197,59569,1,0,0:0:0:0:
221,109,59842,1,0,0:0:0:0:
155,197,60114,5,0,0:0:0:0:
46,179,60387,1,0,0:0:0:0:
108,97,60659,2,0,L|8:23,1,110,0|2,1:0|0:0,0:0:0:0:
129,16,61205,6,0,B|188:32|188:32|291:181,1,220,0|8,3:3|3:3,3:3:0:0:
278,272,62023,2,0,B|219:275|184:304|184:304|127:299|83:339|83:339|89:267|22:251,1,330,0|0,1:0|1:0,0:0:0:0:
167,85,63387,6,0,B|237:48|291:101|291:101|356:104|356:104|432:52|492:96,1,330
429,187,64478,1,0,0:0:0:0:
210,168,65023,1,0,1:2:0:0:
62,331,65569,6,0,B|105:358|105:358|275:359,1,220,0|12,1:2|1:0,0:0:0:0:
384,359,66387,2,0,B|371:183|248:252|234:78,1,330,0|0,1:0|1:0,0:0:0:0:
452,48,67751,6,0,B|412:200|412:200|389:167|347:154,1,220,0|0,1:2|0:0,0:0:0:0:
319,260,68569,1,0,1:0:0:0:
364,161,68841,5,0,0:0:0:0:
287,81,69114,1,0,0:0:0:0:
255,179,69386,2,0,L|138:141,1,110,0|2,1:0|0:0,0:0:0:0:
90,238,69932,6,0,B|140:231|140:231|333:288,1,220,0|8,1:2|1:0,0:0:0:0:
409,304,70750,2,0,B|412:245|441:210|441:210|436:153|476:109|476:109|404:115|388:48,1,330,0|0,1:0|1:0,0:0:0:0:
196,156,72114,6,0,B|171:216|171:216|156:279,1,110,8|4,1:0|1:1,0:0:0:0:
67,318,72660,2,0,B|58:253|58:253|40:191,1,110,8|4,1:0|1:1,0:0:0:0:
21,102,73205,1,0,0:0:0:0:
240,83,73751,1,8,1:0:0:0:
444,163,74296,6,0,B|367:164|367:164|295:187|295:187|203:193,1,220,4|8,1:2|1:0,0:0:0:0:
193,296,75114,6,0,B|269:297|269:297|342:320|342:320|434:326,1,220,4|8,1:2|1:0,0:0:0:0:
508,373,75932,1,0,0:0:0:0:
448,161,76478,5,0,0:0:0:0:
235,217,77024,5,0,0:0:0:0:
76,64,77569,5,0,0:0:0:0:
118,280,78115,2,0,B|171:301|171:301|225:306,1,110,4|0,0:0|0:0,0:0:0:0:
373,144,78660,6,0,P|358:80|270:167,1,220,4|8,1:0|1:0,0:0:0:0:
241,238,79478,6,0,P|256:302|344:215,1,220,4|8,1:0|1:0,0:0:0:0:
373,144,80296,2,0,L|265:118,1,110,8|4,1:2|0:0,0:0:0:0:
159,87,80842,6,0,B|137:118|103:126|103:126|82:166|50:183|50:183|36:237|-7:271,1,220,4|8,1:0|0:0,0:0:0:0:
107,309,81659,6,0,B|138:287|146:253|146:253|186:232|203:200|203:200|257:186|291:143,1,220,4|8,1:0|0:0,0:0:0:0:
366,122,82478,2,0,B|393:177|393:177|395:244,1,110,8|0,1:2|1:2,0:0:0:0:
473,302,83023,6,0,P|484:211|492:73,2,220,2|8|2,1:2|1:2|0:2,0:0:0:0:
266,378,84660,1,8,0:0:0:0:
79,261,85205,1,0,1:0:0:0:
297,233,85751,1,8,1:2:0:0:
166,56,86296,1,0,1:0:0:0:
385,40,86842,1,10,1:2:0:0:
396,125,87387,6,0,B|306:110|232:153|232:153|246:122|236:79,1,220,6|8,1:0|0:0,0:0:0:0:
148,43,88205,6,0,B|163:133|120:207|120:207|151:193|194:203,1,220,6|8,1:0|0:0,0:0:0:0:
162,309,89023,2,0,L|284:280,1,110,12|2,0:0|0:0,0:0:0:0:
376,256,89569,6,0,B|338:167|338:167|269:189|269:189|267:275,1,220,6|8,1:0|1:2,0:0:0:0:
159,222,90387,6,0,B|197:311|197:311|266:289|266:289|268:203,1,220,6|8,1:0|1:2,0:0:0:0:
251,129,91205,2,0,L|222:7,1,110,8|4,1:2|1:2,0:0:0:0:
132,81,91751,6,0,B|82:141|8:177|8:177|86:199|165:266,1,330,0|8,1:0|1:2,0:0:0:0:
476,348,93387,1,8,1:2:0:0:
418,205,93932,5,6,1:0:0:0:
280,275,94478,1,2,0:0:0:0:
277,121,95023,1,2,1:2:0:0:
146,202,95569,1,6,1:0:0:0:
280,275,96114,6,0,B|232:315|232:315|60:332,1,220,4|8,1:2|1:0,0:0:0:0:
1,307,96932,1,0,1:0:0:0:
65,218,97205,2,0,L|70:101,1,110,0|0,1:0|1:0,0:0:0:0:
180,105,97751,2,0,L|203:212,1,110,12|0,1:0|1:0,0:0:0:0:
246,313,98296,6,0,B|264:267|264:267|345:240|355:169|355:169|390:149,1,220,4|0,1:2|0:0,0:0:0:0:
452,71,99114,6,0,B|408:47|408:47|329:78|275:30|275:30|236:37,1,220,4|0,1:2|0:0,0:0:0:0:
144,75,99932,1,6,1:0:0:0:
73,159,100205,1,4,1:0:0:0:
82,268,100478,6,0,P|150:315|279:374,1,220,6|12,1:2|1:0,0:0:0:0:
349,292,101296,6,0,P|248:248|156:187,1,220,6|12,1:2|1:0,0:0:0:0:
84,104,102114,2,0,P|135:86|190:90,1,110,12|0,1:0|1:0,0:0:0:0:
293,51,102660,6,0,L|382:115,1,110,2|0,1:2|0:0,0:0:0:0:
278,153,103205,2,0,L|177:197,1,110,2|0,1:2|0:0,0:0:0:0:
275,248,103750,2,0,L|364:312,1,110,2|0,1:2|0:0,0:0:0:0:
256,336,104296,2,0,L|155:380,1,110,2|0,1:2|0:0,0:0:0:0:
47,359,104842,6,0,B|46:308|46:308|115:123,1,220,4|8,1:2|1:0,0:0:0:0:
152,50,105660,1,0,1:0:0:0:
211,142,105932,6,0,B|231:188|231:188|372:327,1,220,4|8,1:2|1:0,0:0:0:0:
462,317,106751,1,2,0:0:0:0:
434,210,107023,2,0,B|411:148|411:148|368:92,1,110,4|0,2:0|0:0,0:0:0:0:
292,52,107569,1,8,0:1:0:0:
185,59,107842,6,0,B|126:110|126:110|90:186|90:186|37:242,1,220,4|2,1:0|0:0,0:0:0:0:
13,331,108659,1,0,0:0:0:0:
122,331,108932,1,0,0:0:0:0:
228,301,109205,6,0,B|284:287|284:287|402:165,1,220,4|8,1:0|1:0,0:0:0:0:
432,66,110023,2,0,B|380:91|380:91|211:73,1,220,4|8,1:0|1:0,0:0:0:0:
108,71,110841,6,0,L|60:171,1,110,8|8,1:0|1:0,0:0:0:0:
72,280,111387,6,0,B|126:277|126:277|178:295,1,110,4|0,1:0|1:0,0:0:0:0:
184,185,111932,2,0,B|235:204|235:204|290:203,1,110,8|4,1:0|1:0,0:0:0:0:
289,313,112478,2,0,B|343:310|343:310|395:328,1,110,4|0,1:0|1:0,0:0:0:0:
401,218,113023,2,0,B|452:237|452:237|507:236,1,110,8|4,1:0|1:0,0:0:0:0:
510,346,113569,5,0,1:0:0:0:
375,158,131023,6,0,P|405:137|310:103,1,220,0|8,3:0|3:0,0:0:0:0:
292,203,131842,1,0,3:0:0:0:
12,378,132660,2,0,B|16:318|16:318|35:265,1,110,0|0,1:0|0:0,0:0:0:0:
97,181,133205,6,0,B|118:234|118:234|279:273,1,220,0|8,3:0|3:0,0:0:0:0:
384,295,134023,1,0,1:2:0:0:
229,80,134842,2,0,L|120:95,1,110,0|0,1:0|0:0,0:0:0:0:
88,177,135387,6,0,B|137:188|137:188|315:160,1,220,0|8,3:0|3:3,0:0:0:0:
390,143,136205,1,0,3:0:0:0:
507,379,137023,1,0,1:0:0:0:
342,316,137569,6,0,L|440:367,1,110,4|0,1:0|0:0,0:0:0:0:
445,278,138114,2,0,L|397:178,1,110,4|2,0:0|0:0,0:0:0:0:
354,101,138660,2,0,B|277:138|277:138|219:147|219:147|184:193|134:192,1,220,0|4,2:0|1:0,0:0:0:0:
135,104,139478,1,4,0:0:0:0:
163,20,139750,2,0,B|248:19|248:19|305:34|305:34|355:8|400:30,1,220,0|4,2:0|1:0,0:0:0:0:
461,52,140569,1,0,3:0:0:0:
271,236,141387,6,0,B|327:233|327:233|390:261,1,110,0|4,3:0|0:0,0:0:0:0:
432,322,141932,6,0,B|401:350|401:350|340:326|258:371,1,165,0|8,3:0|3:0,0:0:0:0:
149,367,142751,1,2,0:0:0:0:
101,107,143569,1,0,0:0:0:0:
163,169,143842,1,0,0:0:0:0:
228,227,144114,6,0,B|293:205|380:210|380:210|342:191|333:139,1,220,0|8,3:0|3:0,0:0:0:0:
422,134,144932,2,0,B|425:104|463:84|463:84|376:90|311:68,1,220,0|8,3:0|3:0,0:0:0:0:
140,30,146023,1,4,0:1:0:0:
178,109,146296,6,0,L|220:210,1,110,8|0,3:0|0:0,0:0:0:0:
133,225,146841,2,0,L|161:350,1,110,0|0,3:3|0:3,0:3:0:0:
241,348,147387,2,0,B|290:346|290:346|315:314|384:299|384:299|343:286|323:234,1,220,0|8,3:0|3:0,0:0:0:0:
411,214,148205,1,0,0:0:0:0:
369,136,148478,6,0,P|401:81|456:40,1,110,0|0,3:0|0:0,0:0:0:0:
278,159,149023,2,0,P|285:96|317:35,1,110,0|0,3:0|0:0,0:0:0:0:
206,216,149568,2,0,P|185:155|188:87,1,110,0|0,3:0|0:0,0:0:0:0:
164,299,150114,2,0,P|120:253|94:189,1,110,0|0,3:0|0:0,0:0:0:0:
169,157,150660,6,0,L|215:58,1,110,0|0,3:0|0:0,0:0:0:0:
269,126,151205,2,0,L|331:215,1,110,0|0,3:0|0:0,0:0:0:0:
246,228,151750,2,0,L|137:237,1,110,0|0,3:0|0:0,0:0:0:0:
95,315,152296,2,0,L|32:225,1,110,0|0,3:0|0:0,0:0:0:0:
90,159,152841,6,0,L|198:149,1,110,0|0,3:0|0:0,0:0:0:0:
244,148,153251,1,0,2:0:0:0:
375,141,153660,1,0,1:0:0:0:
370,228,153932,2,0,B|366:291|366:291|348:366,1,110,0|0,3:0|1:0,0:0:0:0:
337,377,154342,1,0,0:0:0:0:
210,340,154751,1,0,1:0:0:0:
206,247,155023,6,0,L|402:224,1,165,4|0,1:0|0:0,0:0:0:0:
413,219,155569,2,0,L|400:110,1,110,8|0,3:0|0:0,0:0:0:0:
387,22,156114,6,0,L|191:45,1,165,4|0,1:0|0:0,0:0:0:0:
179,50,156660,2,0,L|191:160,1,110,8|0,3:0|0:0,0:0:0:0:
