osu file format v14

[General]
AudioFilename: audio.mp3
AudioLeadIn: 0
PreviewTime: 75796
Countdown: 0
SampleSet: Normal
StackLeniency: 0.2
Mode: 0
LetterboxInBreaks: 0
WidescreenStoryboard: 0

[Editor]
Bookmarks: 84932,87387,96114
DistanceSpacing: 1
BeatDivisor: 4
GridSize: 16
TimelineZoom: 1.6

[Metadata]
Title:Kami no Kotoba
TitleUnicode:カミノコトバ
Artist:Luschka
ArtistUnicode:ルシュカ
Creator:P4ndemonium
Version:
Source:
Tags:
BeatmapID:1793270
BeatmapSetID:858050

[Difficulty]
HPDrainRate:3
CircleSize:4
OverallDifficulty:9
ApproachRate:9.5
SliderMultiplier:2
SliderTickRate:1

[Events]
//Background and Video events
0,0,"yoo.jpg",0,0
//Break Periods
//Storyboard Layer 0 (Background)
//Storyboard Layer 1 (Fail)
//Storyboard Layer 2 (Pass)
//Storyboard Layer 3 (Foreground)
//Storyboard Sound Samples

[TimingPoints]
4478,545.454545454546,4,1,0,20,1,0
8296,-100,4,1,0,5,0,0
8841,-200,4,1,0,20,0,0
10205,-400,4,1,0,20,0,0
13205,-200,4,1,0,20,0,0
26296,-100,4,1,0,20,0,0
44705,-66.6666666666667,4,1,0,20,0,0
45250,-100,4,1,0,20,0,0
45659,-200,4,1,0,20,0,0
47568,-100,4,1,0,20,0,0
47841,-66.6666666666667,4,1,0,20,0,0
49068,-100,4,1,0,20,0,0
50023,-200,4,1,0,20,0,0
52205,-100,4,1,0,20,0,0
53023,-66.6666666666667,4,1,0,20,0,0
53296,-80,4,1,0,20,0,0
53568,-100,4,1,0,20,0,0
53841,-133.333333333333,4,1,0,20,0,0
54114,-200,4,1,0,20,0,0
56023,-100,4,1,0,20,0,0
56841,-66.6666666666667,4,1,0,20,0,0
57659,-200,4,1,0,20,0,0
60114,-100,4,1,0,20,0,0
61614,-66.6666666666667,4,1,0,20,0,0
62023,-100,4,1,0,20,0,0
63114,-200,4,1,0,20,0,0
65023,-100,4,1,0,20,0,0
65296,-66.6666666666667,4,1,0,20,0,0
67205,-100,4,1,0,20,0,0
67478,-200,4,1,0,20,0,0
69659,-100,4,1,0,20,0,0
70478,-66.6666666666667,4,1,0,20,0,0
70750,-80,4,1,0,20,0,0
71023,-100,4,1,0,20,0,0
71296,-133.333333333333,4,1,0,20,0,0
71568,-200,4,1,0,20,0,0
73478,-100,4,1,0,20,0,0
74296,-66.6666666666667,4,1,0,20,0,0
75114,-200,4,1,0,20,0,0
75932,-400,4,1,0,20,0,0
77568,-100,4,1,0,20,0,0
78659,-100,4,1,0,60,0,1
85205,-100,4,1,0,90,0,1
85478,-100,4,1,0,80,0,1
85750,-100,4,1,0,70,0,1
86023,-100,4,1,0,60,0,1
86296,-100,4,1,0,50,0,1
86568,-100,4,1,0,40,0,1
86841,-100,4,1,0,70,0,1
87387,-100,4,1,0,60,0,1
96659,-33.3333333333333,4,1,0,20,0,1
96932,-28.5714285714286,4,1,0,20,0,1
97205,-33.3333333333333,4,1,0,20,0,1
97478,-40,4,1,0,20,0,1
98296,-66.6666666666667,4,1,0,20,0,1
98705,-100,4,1,0,20,0,1
99114,-200,4,1,0,20,0,1
99659,-66.6666666666667,4,1,0,20,0,1
99932,-100,4,1,0,20,0,1
100205,-200,4,1,0,20,0,1
101023,-33.3333333333333,4,1,0,20,0,1
101296,-28.5714285714286,4,1,0,20,0,1
101568,-33.3333333333333,4,1,0,20,0,1
101841,-40,4,1,0,20,0,1
105387,-33.3333333333333,4,1,0,20,0,1
105659,-28.5714285714286,4,1,0,20,0,1
105932,-33.3333333333333,4,1,0,20,0,1
106205,-40,4,1,0,20,0,1
107023,-66.6666666666667,4,1,0,20,0,1
107432,-100,4,1,0,20,0,1
107841,-200,4,1,0,20,0,1
108387,-66.6666666666667,4,1,0,20,0,1
108659,-100,4,1,0,20,0,1
108932,-200,4,1,0,20,0,1
109750,-33.3333333333333,4,1,0,20,0,1
110023,-28.5714285714286,4,1,0,20,0,1
110296,-33.3333333333333,4,1,0,20,0,1
110568,-40,4,1,0,20,0,1
111387,-100,4,1,0,20,0,1
113568,-200,4,1,0,20,0,0
114932,-400,4,1,0,20,0,0
117932,-200,4,1,0,20,0,0
119296,-400,4,1,0,20,0,0

[Colours]
Combo1 : 255,0,128
Combo2 : 0,128,255
Combo3 : 0,255,255
Combo4 : 255,0,255

[HitObjects]
256,192,4478,12,0,8296,0:1:0:0:
88,224,8841,6,0,P|51:219|16:233,2,75,0|0|0,0:1|0:1|0:1,0:1:0:0:
125,148,10205,6,0,P|224:190|317:134,1,225,0|0,0:1|0:1,0:1:0:0:
382,60,13205,6,0,L|377:84,2,25,0|0|0,0:1|0:1|0:1,0:1:0:0:
333,0,13750,1,0,0:1:0:0:
427,145,14023,1,0,0:1:0:0:
427,145,14841,6,0,L|422:169,2,25,0|0|0,0:1|0:1|0:1,0:1:0:0:
471,229,15250,1,0,0:1:0:0:
382,60,15387,6,0,L|377:84,2,25,0|0|0,0:1|0:1|0:1,0:1:0:0:
333,0,15932,1,0,0:1:0:0:
427,145,16205,1,0,0:1:0:0:
427,145,17023,6,0,L|422:169,2,25,0|0|0,0:1|0:1|0:1,0:1:0:0:
471,229,17432,1,0,0:1:0:0:
312,159,17568,6,0,L|317:183,2,25,0|0|0,0:1|0:1|0:1,0:1:0:0:
361,99,18113,1,0,0:1:0:0:
267,244,18386,1,0,0:1:0:0:
267,244,19204,6,0,L|272:268,2,25,0|0|0,0:1|0:1|0:1,0:1:0:0:
223,328,19613,1,0,0:1:0:0:
312,159,19750,6,0,L|317:183,2,25,0|0|0,0:1|0:1|0:1,0:1:0:0:
361,99,20295,1,0,0:1:0:0:
267,244,20568,1,0,0:1:0:0:
267,244,21386,6,0,L|272:268,2,25,0|0|0,0:1|0:1|0:1,0:1:0:0:
223,328,21795,1,0,0:1:0:0:
134,159,21932,6,0,L|129:183,2,25,0|0|0,0:1|0:1|0:1,0:1:0:0:
85,99,22477,1,0,0:1:0:0:
179,244,22750,1,0,0:1:0:0:
179,244,23568,6,0,L|174:268,2,25,0|0|0,0:1|0:1|0:1,0:1:0:0:
223,328,23977,1,0,0:1:0:0:
134,159,24114,6,0,L|129:183,2,25,0|0|0,0:1|0:1|0:1,0:1:0:0:
85,99,24659,1,0,0:1:0:0:
179,244,24932,1,0,0:1:0:0:
258,203,25068,6,0,P|319:198|368:234,1,125,0|0,0:1|0:1,0:1:0:0:
367,234,26023,6,0,L|369:246,3,12.5,0|0|0|0,0:1|0:1|0:1|0:1,0:1:0:0:
434,190,26296,5,0,0:1:0:0:
447,111,26432,1,0,0:1:0:0:
406,42,26568,1,0,0:1:0:0:
330,15,26705,1,0,0:1:0:0:
317,33,26841,5,0,0:1:0:0:
290,109,26978,1,0,0:1:0:0:
221,150,27114,1,0,0:1:0:0:
142,136,27250,2,0,P|118:127|93:126,1,50,0|0,0:1|0:1,0:1:0:0:
8,328,27523,5,0,0:1:0:0:
35,252,27660,1,0,0:1:0:0:
104,211,27796,1,0,0:1:0:0:
132,226,27932,2,0,P|155:234|180:235,1,50,0|0,0:1|0:1,0:1:0:0:
211,318,28205,5,0,0:1:0:0:
227,309,28341,2,0,P|245:292|259:271,1,50,0|0,0:1|0:1,0:1:0:0:
352,176,28614,5,0,0:1:0:0:
337,254,28750,1,0,0:1:0:0:
377,324,28886,2,0,P|392:343|402:366,1,50,0|0,0:1|0:1,0:1:0:0:
292,109,29296,5,0,0:1:0:0:
370,166,29432,5,0,0:1:0:0:
462,139,29568,6,0,P|480:110|487:78,2,66.6666666666667,0|0|0,0:1|0:1|0:1,0:1:0:0:
352,176,30114,6,0,P|334:204|327:236,2,66.6666666666667,0|0|0,0:1|0:1|0:1,0:1:0:0:
255,37,30659,5,0,0:1:0:0:
176,24,30795,1,0,0:1:0:0:
107,65,30931,1,0,0:1:0:0:
80,141,31068,1,0,0:1:0:0:
94,159,31205,5,0,0:1:0:0:
172,173,31341,1,0,0:1:0:0:
223,235,31477,1,0,0:1:0:0:
222,316,31614,2,0,P|212:339|196:358,1,50,0|0,0:1|0:1,0:1:0:0:
252,160,31887,5,0,0:1:0:0:
320,120,32023,1,0,0:1:0:0:
399,135,32159,1,0,0:1:0:0:
428,159,32296,1,0,0:1:0:0:
435,199,32432,1,0,0:1:0:0:
430,217,32568,1,0,0:1:0:0:
415,229,32705,2,0,P|398:248|389:270,1,50,0|0,0:1|0:1,0:1:0:0:
490,384,32978,5,0,0:1:0:0:
421,343,33114,1,0,0:1:0:0:
342,356,33250,2,0,P|319:363|293:365,1,50,0|0,0:1|0:1,0:1:0:0:
352,183,33523,5,0,0:1:0:0:
268,181,33659,5,0,0:1:0:0:
187,240,33795,5,0,0:1:0:0:
165,333,33932,6,0,P|181:363|205:385,2,66.6666666666667,0|0|0,0:1|0:1|0:1,0:1:0:0:
137,173,34478,5,0,0:1:0:0:
156,162,34750,6,0,L|160:137,1,25,0|0,0:1|0:1,0:1:0:0:
174,57,34887,2,0,L|179:33,1,25,0|0,0:1|0:1,0:1:0:0:
238,165,35023,5,0,0:1:0:0:
317,178,35159,1,0,0:1:0:0:
386,137,35295,1,0,0:1:0:0:
413,61,35432,1,0,0:1:0:0:
434,72,35568,5,0,0:1:0:0:
485,132,35705,1,0,0:1:0:0:
486,213,35841,1,0,0:1:0:0:
435,275,35978,2,0,P|418:294|408:317,1,50,0|0,0:1|0:1,0:1:0:0:
143,222,36250,5,0,0:1:0:0:
218,193,36387,1,0,0:1:0:0:
294,220,36523,1,0,0:1:0:0:
300,251,36659,2,0,P|308:273|323:293,1,50,0|0,0:1|0:1,0:1:0:0:
281,371,36932,5,0,0:1:0:0:
298,377,37068,2,0,P|322:379|347:377,1,50,0|0,0:1|0:1,0:1:0:0:
152,380,37341,5,0,0:1:0:0:
167,302,37477,1,0,0:1:0:0:
127,232,37613,2,0,P|112:213|102:190,1,50,0|0,0:1|0:1,0:1:0:0:
312,217,38023,5,0,0:1:0:0:
218,193,38159,5,0,0:1:0:0:
179,106,38295,6,0,P|189:73|209:47,2,66.6666666666667,0|0|0,0:1|0:1|0:1,0:1:0:0:
112,44,38841,6,0,P|91:17|63:0,2,66.6666666666667,0|0|0,0:1|0:1|0:1,0:1:0:0:
268,116,39387,5,0,0:1:0:0:
343,89,39523,1,0,0:1:0:0:
418,117,39659,1,0,0:1:0:0:
458,188,39796,1,0,0:1:0:0:
448,206,39932,5,0,0:1:0:0:
368,206,40068,1,0,0:1:0:0:
307,258,40204,1,0,0:1:0:0:
294,338,40341,2,0,P|283:360|267:379,1,50,0|0,0:1|0:1,0:1:0:0:
32,311,40614,5,0,0:1:0:0:
100,351,40750,1,0,0:1:0:0:
179,336,40886,1,0,0:1:0:0:
208,312,41023,1,0,0:1:0:0:
215,272,41159,1,0,0:1:0:0:
210,254,41295,1,0,0:1:0:0:
195,242,41432,2,0,P|178:223|169:201,1,50,0|0,0:1|0:1,0:1:0:0:
6,195,41705,5,0,0:1:0:0:
85,182,41841,1,0,0:1:0:0:
137,121,41977,2,0,P|150:100|168:82,1,50,0|0,0:1|0:1,0:1:0:0:
311,5,42250,5,0,0:1:0:0:
309,89,42386,5,0,0:1:0:0:
368,170,42522,5,0,0:1:0:0:
461,192,42659,6,0,P|491:176|513:152,2,66.6666666666667,0|0|0,0:1|0:1|0:1,0:1:0:0:
358,372,43205,5,0,0:1:0:0:
339,361,43477,6,0,L|335:336,1,25,0|0,0:1|0:1,0:1:0:0:
321,256,43614,2,0,L|316:232,1,25,0|0,0:1|0:1,0:1:0:0:
143,344,43750,5,0,0:1:0:0:
95,278,44023,5,0,0:1:0:0:
208,296,44160,1,0,0:1:0:0:
77,196,44296,5,0,0:1:0:0:
150,151,44433,1,0,0:1:0:0:
20,140,44569,5,0,0:1:0:0:
46,96,44705,2,0,P|60:61|60:24,1,75.0000028610231,0|0,0:1|0:1,0:1:0:0:
236,214,44978,5,0,0:1:0:0:
150,151,45114,1,0,0:1:0:0:
175,49,45250,2,0,P|164:26|148:7,1,50,0|0,0:1|0:1,0:1:0:0:
304,75,45523,5,0,0:1:0:0:
264,6,45659,2,0,P|252:2|239:0,1,25,0|0,0:1|0:1,0:1:0:0:
418,131,45932,6,0,P|416:94|434:61,2,75,0|0|0,0:1|0:1|0:1,0:1:0:0:
418,131,47296,6,0,P|423:142|427:153,1,25,0|0,0:1|0:1,0:1:0:0:
469,221,47568,2,0,P|458:243|442:262,1,50,0|0,0:1|0:1,0:1:0:0:
429,341,47841,2,0,P|394:354|357:354,1,75.0000028610231,0|0,0:1|0:1,0:1:0:0:
230,268,48114,5,0,0:1:0:0:
266,351,48387,5,0,0:1:0:0:
300,211,48523,1,0,0:1:0:0:
180,133,48659,2,0,P|160:101|153:64,1,75.0000028610231,0|0,0:1|0:1,0:1:0:0:
210,261,48932,5,0,0:1:0:0:
131,235,49068,2,0,P|106:233|83:223,1,50,0|0,0:1|0:1,0:1:0:0:
340,320,49341,5,0,0:1:0:0:
352,274,49478,1,0,0:1:0:0:
254,306,49614,5,0,0:1:0:0:
246,279,49750,1,0,0:1:0:0:
183,341,49887,5,0,0:1:0:0:
168,326,50023,2,0,P|156:331|145:335,1,25,0|0,0:1|0:1,0:1:0:0:
0,294,50296,5,0,0:1:0:0:
76,303,50432,1,0,0:1:0:0:
158,125,50705,5,0,0:1:0:0:
66,135,50841,1,0,0:1:0:0:
292,383,51114,5,0,0:1:0:0:
402,371,51250,1,0,0:1:0:0:
512,15,51523,5,0,0:1:0:0:
380,0,51659,1,0,0:1:0:0:
147,106,51932,5,0,0:1:0:0:
158,125,52205,6,0,L|183:129,1,25,0|0,0:1|0:1,0:1:0:0:
263,143,52341,2,0,L|287:148,1,25,0|0,0:1|0:1,0:1:0:0:
199,317,52478,5,0,0:1:0:0:
124,365,52750,5,0,0:1:0:0:
237,235,52887,1,0,0:1:0:0:
387,318,53023,2,0,P|423:311|455:291,1,75.0000028610231,0|0,0:1|0:1,0:1:0:0:
456,169,53296,2,0,P|482:185|512:192,1,62.5,0|0,0:1|0:1,0:1:0:0:
341,50,53568,6,0,P|317:40|293:38,1,50,0|0,0:1|0:1,0:1:0:0:
298,129,53841,2,0,P|279:134|263:143,1,37.5000014305115,0|0,0:1|0:1,0:1:0:0:
184,289,54114,6,0,P|172:294|161:298,1,25,0|0,0:1|0:1,0:1:0:0:
103,245,54387,2,0,P|90:242|79:237,1,25,0|0,0:1|0:1,0:1:0:0:
56,163,54659,6,0,P|86:142|105:109,1,75,0|0,0:1|0:1,0:1:0:0:
105,110,55205,1,0,0:1:0:0:
195,120,55478,2,0,P|188:96|187:72,1,50,0|0,0:1|0:1,0:1:0:0:
369,230,56023,6,0,P|326:205|278:214,2,100,0|0|0,0:1|0:1|0:1,0:1:0:0:
356,384,56841,6,0,P|361:275|450:212,1,225.000008583069,0|0,0:1|0:1,0:1:0:0:
449,212,57387,1,0,0:1:0:0:
416,130,57659,6,0,P|464:123|508:146,1,100,0|0,0:1|0:1,0:1:0:0:
342,0,58478,6,0,L|347:24,2,25,0|0|0,0:1|0:1|0:1,0:1:0:0:
298,84,58887,1,0,0:1:0:0:
5,183,59160,5,0,0:1:0:0:
55,120,59296,1,0,0:1:0:0:
84,194,59432,1,0,0:1:0:0:
336,316,59705,5,0,0:1:0:0:
325,237,59842,1,0,0:1:0:0:
246,248,59978,1,0,0:1:0:0:
257,327,60114,6,0,P|235:353|208:371,2,66.6666666666667,0|0|0,0:1|0:1|0:1,0:1:0:0:
275,174,60659,5,0,0:1:0:0:
264,155,60932,6,0,L|239:151,1,25,0|0,0:1|0:1,0:1:0:0:
159,137,61068,2,0,L|135:132,1,25,0|0,0:1|0:1,0:1:0:0:
394,43,61205,5,0,0:1:0:0:
329,99,61478,5,0,0:1:0:0:
440,246,61614,2,0,P|476:239|508:219,1,75.0000028610231,0|0,0:1|0:1,0:1:0:0:
410,128,61887,5,0,0:1:0:0:
370,303,62023,2,0,P|389:320|411:330,1,50,0|0,0:1|0:1,0:1:0:0:
329,99,62296,5,0,0:1:0:0:
277,113,62432,1,0,0:1:0:0:
322,191,62568,5,0,0:1:0:0:
295,188,62704,1,0,0:1:0:0:
301,242,62841,5,0,0:1:0:0:
289,235,62977,1,0,0:1:0:0:
291,318,63114,2,0,P|294:331|299:342,1,25,0|0,0:1|0:1,0:1:0:0:
84,331,63387,6,0,P|121:329|154:347,2,75,0|0|0,0:1|0:1|0:1,0:1:0:0:
84,331,64751,6,0,P|73:336|62:340,1,25,0|0,0:1|0:1,0:1:0:0:
81,215,65023,2,0,P|92:237|108:256,1,50,0|0,0:1|0:1,0:1:0:0:
195,239,65296,2,0,P|201:202|219:170,1,75.0000028610231,0|0,0:1|0:1,0:1:0:0:
110,79,65568,5,0,0:1:0:0:
134,154,65841,5,0,0:1:0:0:
86,4,65978,1,0,0:1:0:0:
220,170,66114,5,0,0:1:0:0:
245,45,66251,1,0,0:1:0:0:
289,220,66387,5,0,0:1:0:0:
356,143,66524,1,0,0:1:0:0:
326,290,66659,5,0,0:1:0:0:
403,262,66796,1,0,0:1:0:0:
335,364,66932,5,0,0:1:0:0:
399,374,67069,1,0,0:1:0:0:
256,339,67205,6,0,P|245:316|228:298,1,50,0|0,0:1|0:1,0:1:0:0:
152,290,67478,6,0,P|153:277|157:265,1,25,0|0,0:1|0:1,0:1:0:0:
0,172,67750,6,0,P|37:174|70:156,2,75,0|0|0,0:1|0:1|0:1,0:1:0:0:
0,172,68841,5,0,0:1:0:0:
113,44,69114,1,0,0:1:0:0:
247,151,69387,1,0,0:1:0:0:
266,140,69660,6,0,L|270:115,1,25,0|0,0:1|0:1,0:1:0:0:
284,35,69796,2,0,L|289:11,1,25,0|0,0:1|0:1,0:1:0:0:
462,271,69932,5,0,0:1:0:0:
509,194,70205,5,0,0:1:0:0:
356,89,70342,1,0,0:1:0:0:
234,232,70478,2,0,P|201:248|164:252,1,75.0000028610231,0|0,0:1|0:1,0:1:0:0:
135,338,70750,2,0,P|108:321|88:298,1,62.5,0|0,0:1|0:1,0:1:0:0:
311,167,71023,6,0,P|335:177|359:179,1,50,0|0,0:1|0:1,0:1:0:0:
344,274,71296,2,0,P|363:269|379:260,1,37.5000014305115,0|0,0:1|0:1,0:1:0:0:
188,43,71568,6,0,P|177:50|166:55,1,25,0|0,0:1|0:1,0:1:0:0:
249,112,71841,2,0,P|235:111|223:108,1,25,0|0,0:1|0:1,0:1:0:0:
304,60,72114,6,0,P|337:44|375:44,1,75,0|0,0:1|0:1,0:1:0:0:
375,44,72659,1,0,0:1:0:0:
477,126,72933,2,0,P|452:124|428:117,1,50,0|0,0:1|0:1,0:1:0:0:
344,274,73478,6,0,P|352:225|327:183,2,100,0|0|0,0:1|0:1|0:1,0:1:0:0:
422,369,74296,6,0,P|335:302|229:330,1,225.000008583069,0|0,0:1|0:1,0:1:0:0:
231,329,74841,1,0,0:1:0:0:
188,250,75114,6,0,P|152:284|140:332,1,100,0|0,0:1|0:1,0:1:0:0:
74,241,75932,6,0,P|71:223|62:207,1,37.5,0|0,0:1|0:1,0:1:0:0:
52,195,76478,1,0,0:1:0:0:
437,241,77023,6,0,P|440:223|449:207,1,37.5,0|0,0:1|0:1,0:1:0:0:
460,195,77568,6,0,P|466:184|469:172,7,25,0|0|0|0|0|0|0|0,0:1|0:1|0:1|0:1|0:1|0:1|0:1|0:1,0:1:0:0:
435,103,78114,1,0,0:1:0:0:
435,103,78659,5,0,0:1:0:0:
321,43,78796,1,0,0:1:0:0:
240,192,78932,5,2,2:1:0:0:
126,132,79069,1,0,2:1:0:0:
455,94,79205,5,0,0:1:0:0:
318,22,79341,1,8,2:1:0:0:
244,213,79478,5,0,0:1:0:0:
107,141,79615,1,8,2:1:0:0:
266,328,79750,5,0,0:1:0:0:
352,163,79887,1,0,2:1:0:0:
158,48,80023,5,0,2:1:0:0:
244,213,80160,1,0,2:1:0:0:
388,31,80296,5,0,0:1:0:0:
154,155,80432,1,0,2:1:0:0:
496,234,80568,5,0,2:1:0:0:
271,93,80704,1,8,0:1:0:0:
331,360,80841,5,0,0:1:0:0:
391,246,80978,1,0,0:1:0:0:
162,329,81114,5,2,2:1:0:0:
144,201,81251,1,0,2:1:0:0:
340,380,81387,5,0,0:1:0:0:
412,243,81524,1,8,2:1:0:0:
146,344,81660,5,0,0:1:0:0:
125,191,81797,1,8,2:1:0:0:
256,250,81932,5,0,0:1:0:0:
15,285,82068,1,0,2:1:0:0:
179,84,82205,5,0,2:1:0:0:
420,119,82341,1,0,2:1:0:0:
250,295,82478,5,0,0:1:0:0:
292,5,82614,1,0,2:1:0:0:
502,332,82750,5,0,2:1:0:0:
271,151,82886,1,8,0:1:0:0:
468,43,83023,5,0,0:1:0:0:
431,278,83159,1,0,0:1:0:0:
201,106,83296,5,2,2:1:0:0:
269,283,83432,1,0,2:1:0:0:
52,251,83568,5,0,0:1:0:0:
169,346,83704,1,8,2:1:0:0:
464,66,83841,5,0,0:1:0:0:
434,254,83977,1,8,2:1:0:0:
207,123,84114,5,0,0:1:0:0:
262,265,84250,1,0,2:1:0:0:
63,260,84386,5,0,2:1:0:0:
157,336,84522,1,0,2:1:0:0:
0,384,84659,5,0,0:1:0:0:
0,384,84932,5,0,2:1:0:0:
262,265,85068,1,8,0:1:0:0:
36,96,85205,5,4,0:1:0:0:
86,384,85341,1,0,2:1:0:0:
159,81,85478,5,2,2:1:0:0:
78,300,85614,1,0,2:1:0:0:
276,121,85750,5,0,0:1:0:0:
132,240,85886,1,8,2:1:0:0:
359,214,86023,5,0,0:1:0:0:
211,238,86159,1,8,2:1:0:0:
361,320,86296,5,4,0:1:0:0:
248,276,86432,1,0,2:1:0:0:
314,384,86568,5,0,2:1:0:0:
253,308,86704,1,0,2:1:0:0:
445,294,86841,6,0,L|440:318,6,25,4|0|0|0|0|0|8,0:1|2:1|2:1|2:1|2:1|2:1|0:1,0:1:0:0:
473,154,87387,5,4,0:1:0:0:
359,214,87524,1,0,0:1:0:0:
391,0,87659,5,2,2:1:0:0:
277,60,87796,1,0,2:1:0:0:
493,163,87933,5,0,0:1:0:0:
356,235,88070,1,8,2:1:0:0:
411,9,88205,5,0,0:1:0:0:
274,81,88342,1,8,2:1:0:0:
463,272,88478,5,0,0:1:0:0:
372,103,88614,1,0,2:1:0:0:
137,328,88750,5,0,2:1:0:0:
228,159,88886,1,0,2:1:0:0:
283,298,89023,5,0,0:1:0:0:
81,188,89159,1,0,2:1:0:0:
378,122,89296,5,0,2:1:0:0:
182,243,89432,1,8,0:1:0:0:
77,98,89568,5,0,0:1:0:0:
59,226,89705,1,0,0:1:0:0:
246,67,89841,5,2,2:1:0:0:
306,181,89978,1,0,2:1:0:0:
61,83,90114,5,0,0:1:0:0:
40,236,90251,1,8,2:1:0:0:
255,48,90386,5,0,0:1:0:0:
327,184,90523,1,8,2:1:0:0:
152,33,90659,5,0,0:1:0:0:
202,319,90796,1,0,2:1:0:0:
360,33,90932,5,0,2:1:0:0:
310,319,91069,1,0,2:1:0:0:
192,151,91205,5,0,0:1:0:0:
478,201,91342,1,0,2:1:0:0:
151,384,91478,5,0,2:1:0:0:
337,161,91615,1,8,0:1:0:0:
468,341,91750,5,0,0:1:0:0:
431,106,91886,1,0,0:1:0:0:
201,278,92024,5,2,2:1:0:0:
269,101,92159,1,0,2:1:0:0:
52,133,92295,5,0,0:1:0:0:
169,38,92431,1,8,2:1:0:0:
464,317,92568,5,0,0:1:0:0:
434,129,92704,1,8,2:1:0:0:
207,260,92841,5,0,0:1:0:0:
262,118,92977,1,0,2:1:0:0:
63,123,93113,5,0,2:1:0:0:
157,47,93249,1,0,2:1:0:0:
0,0,93386,5,0,0:1:0:0:
0,0,93659,5,0,2:1:0:0:
193,176,93796,1,8,0:1:0:0:
38,311,93932,5,4,0:1:0:0:
262,118,94068,1,0,0:1:0:0:
299,346,94205,5,2,2:1:0:0:
63,123,94341,1,0,2:1:0:0:
386,124,94478,5,0,0:1:0:0:
89,384,94614,1,8,2:1:0:0:
188,0,94750,5,0,0:1:0:0:
324,384,94887,1,8,2:1:0:0:
69,87,95023,5,4,0:1:0:0:
443,297,95159,1,0,2:1:0:0:
14,223,95296,5,0,2:1:0:0:
498,161,95432,1,0,2:1:0:0:
0,368,95568,5,6,0:1:0:0:
512,16,95705,1,2,2:1:0:0:
0,384,95841,5,2,2:1:0:0:
512,0,95978,1,10,2:1:0:0:
256,192,96114,5,6,0:1:0:0:
256,192,96387,5,0,0:0:0:0:
423,308,96523,1,0,0:0:0:0:
414,125,96659,2,0,P|357:173|337:244,1,150.000005722046
262,384,96932,2,0,P|235:301|173:240,1,175.00000166893
1,325,97205,2,0,P|67:352|125:309,1,150.000005722046
247,24,97478,6,0,P|157:102|178:220,2,250
372,173,98296,6,0,P|437:209|509:195,1,150.000005722046
326,248,98705,6,0,P|337:296|370:332,1,100
249,281,99114,6,0,P|230:313|225:350,1,75
225,350,99659,6,0,P|194:371|158:380,1,75.0000028610231,0|0,0:1|0:1,0:1:0:0:
102,321,99932,2,0,P|77:314|55:302,1,50,0|0,0:1|0:1,0:1:0:0:
50,225,100205,2,0,P|46:212|44:200,1,25,0|0,0:1|0:1,0:1:0:0:
224,70,100478,5,0,0:0:0:0:
224,70,100750,5,0,0:0:0:0:
78,135,100887,1,0,0:0:0:0:
280,213,101023,2,0,P|288:138|323:73,1,150.000005722046
205,324,101296,2,0,P|150:256|72:218,1,175.00000166893
285,380,101568,2,0,P|304:309|366:270,1,150.000005722046
489,325,101841,6,0,P|405:240|445:129,2,250
367,74,102659,5,0,0:0:0:0:
495,51,102796,1,0,0:0:0:0:
424,314,103068,5,0,0:0:0:0:
270,286,103205,1,0,0:0:0:0:
79,0,103478,5,0,0:0:0:0:
263,33,103615,1,0,0:0:0:0:
221,345,103887,5,0,0:0:0:0:
0,384,104024,1,0,0:0:0:0:
21,56,104296,5,0,0:0:0:0:
92,116,104432,1,0,0:0:0:0:
132,229,104568,1,0,0:0:0:0:
89,371,104705,1,0,0:0:0:0:
256,192,104841,5,0,0:0:0:0:
256,192,105114,5,0,0:0:0:0:
368,293,105250,1,0,0:0:0:0:
131,229,105387,2,0,P|173:167|169:94,1,150.000005722046
278,24,105659,2,0,P|304:107|361:173,1,175.00000166893
512,312,105932,2,0,P|455:266|384:280,1,150.000005722046
175,369,106205,6,0,P|276:308|255:191,2,250
55,64,107023,6,0,P|53:137|5:192,1,150.000005722046
193,141,107432,6,0,P|177:93|141:59,1,100
208,10,107841,6,0,P|245:10|279:24,1,75
279,24,108387,6,0,P|282:61|298:94,1,75.0000028610231,0|0,0:1|0:1,0:1:0:0:
379,98,108660,2,0,P|399:112|422:121,1,50,0|0,0:1|0:1,0:1:0:0:
486,76,108933,2,0,P|497:70|508:64,1,25,0|0,0:1|0:1,0:1:0:0:
326,279,109205,5,0,0:0:0:0:
326,279,109478,5,0,0:0:0:0:
434,140,109614,1,0,0:0:0:0:
395,384,109750,2,0,P|382:314|312:301,1,150.000005722046
142,180,110023,2,0,P|155:260|236:274,1,175.00000166893
82,302,110296,2,0,P|12:314|0:384,1,150.000005722046
25,109,110568,6,0,P|136:148|222:66,2,250
274,153,111387,6,0,P|343:133|402:176,1,150.000005722046
274,153,112205,1,0,0:0:0:0:
197,384,112478,5,0,0:0:0:0:
226,306,112614,1,0,0:0:0:0:
293,241,112750,1,0,0:0:0:0:
401,228,112887,1,0,0:0:0:0:
511,270,113023,5,0,0:0:0:0:
449,149,113159,1,0,0:0:0:0:
306,74,113296,1,0,0:0:0:0:
129,92,113432,1,0,0:0:0:0:
0,225,113568,6,0,P|19:256|20:293,2,75,0|0|0,0:1|0:1|0:1,0:1:0:0:
67,384,114932,6,0,P|131:298|240:300,1,225,0|0,0:1|0:1,0:1:0:0:
490,107,117932,6,0,B|462:134|462:134|461:133|461:133|426:139,2,75
383,78,119296,6,0,B|355:60|355:60|352:61|352:61|324:58|324:58|322:56|322:56|291:84|291:84|293:88|293:88|251:77|251:77|254:75|254:75|193:80,1,212.5
256,192,122296,12,0,130205,0:1:0:0:
