osu file format v14

[General]
AudioFilename: audio.mp3
AudioLeadIn: 0
PreviewTime: 233534
Countdown: 0
SampleSet: Normal
StackLeniency: 0.4
Mode: 1
LetterboxInBreaks: 0
WidescreenStoryboard: 1

[Editor]
Bookmarks: 26296,43750,78659,113568,122296,131023,148478,165932,183387,200841,218296,235750,287432
DistanceSpacing: 0.3
BeatDivisor: 4
GridSize: 32
TimelineZoom: 1.7

[Metadata]
Title:Kami no Kotoba
TitleUnicode:カミノコトバ
Artist:Luschka
ArtistUnicode:ルシュカ
Creator:Hivie
Version:Oni
Source:
Tags:japanese pop jpop j-pop electronic yuyoyuppe 初音ミク hatsune miku vocaloid utaite cover ゆよゆっぺ dj'tekina//something
BeatmapID:3193372
BeatmapSetID:1563463

[Difficulty]
HPDrainRate:5.5
CircleSize:4
OverallDifficulty:5.5
ApproachRate:9
SliderMultiplier:1.4
SliderTickRate:1

[Events]
//Background and Video events
0,0,"bg.jpg",0,0
//Break Periods
2,76477,78059
2,113768,121695
2,233768,235150
//Storyboard Layer 0 (Background)
//Storyboard Layer 1 (Fail)
//Storyboard Layer 2 (Pass)
//Storyboard Layer 3 (Foreground)
//Storyboard Layer 4 (Overlay)
//Storyboard Sound Samples

[TimingPoints]
113,545.454545454546,727,1,0,30,1,8
8841,545.454545454546,727,1,0,30,1,0
8841,-250,4,1,0,30,0,0
13204,545.454545454546,4,1,0,60,1,8
13205,545.454545454546,4,1,0,60,1,0
13205,-166.666666666667,4,1,0,60,0,0
26261,-100,4,1,0,60,0,0
42660,-100,4,1,0,60,0,0
42842,-103.773624065519,4,1,0,60,0,0
43023,-107.843105536342,4,1,0,60,0,0
43205,-112.244909412746,4,1,0,60,0,0
43478,-119.56516540645,4,1,0,60,0,0
43569,-122.222195061734,4,1,0,60,0,0
43660,-125,4,1,0,60,0,0
78523,-166.666666666667,4,1,0,60,0,0
78659,-166.666666666667,4,1,0,80,0,0
80842,-166.666666666667,4,1,0,60,0,0
114114,-250,4,1,0,60,0,0
122159,-166.666666666667,4,1,0,60,0,0
130886,-125,4,1,0,60,0,0
148477,-166.666666666667,4,1,0,65,0,0
165795,-166.666666666667,4,1,0,70,0,0
165932,-200,4,1,0,70,0,0
183318,-250,4,1,0,40,0,0
218159,-166.666666666667,4,1,0,50,0,0
233568,-166.666666666667,4,1,0,30,0,0
235750,-100,4,1,0,80,0,1
270659,-100,4,1,0,80,0,0

[Colours]
Combo1 : 17,254,176
Combo2 : 173,255,95
Combo3 : 255,88,100
Combo4 : 255,94,55

[HitObjects]
256,192,8841,5,8,0:0:0:0:
256,192,9250,1,8,0:0:0:0:
256,192,9659,1,0,0:0:0:0:
256,192,10205,1,0,0:0:0:0:
256,192,13205,1,0,0:0:0:0:
256,192,13341,1,0,0:0:0:0:
256,192,13614,1,0,0:0:0:0:
256,192,13750,1,8,0:0:0:0:
256,192,14023,1,0,0:0:0:0:
256,192,14159,1,0,0:0:0:0:
256,192,14841,1,0,0:0:0:0:
256,192,15114,1,0,0:0:0:0:
256,192,15250,1,8,0:0:0:0:
256,192,15386,1,0,0:0:0:0:
256,192,15523,1,0,0:0:0:0:
256,192,15796,1,0,0:0:0:0:
256,192,15932,1,8,0:0:0:0:
256,192,16205,1,0,0:0:0:0:
256,192,16341,1,0,0:0:0:0:
256,192,17023,1,0,0:0:0:0:
256,192,17159,1,0,0:0:0:0:
256,192,17432,1,8,0:0:0:0:
256,192,17568,1,0,0:0:0:0:
256,192,17704,1,0,0:0:0:0:
256,192,17977,1,0,0:0:0:0:
256,192,18113,1,8,0:0:0:0:
256,192,18386,1,0,0:0:0:0:
256,192,18522,1,0,0:0:0:0:
256,192,19204,1,0,0:0:0:0:
256,192,19477,1,0,0:0:0:0:
256,192,19613,1,8,0:0:0:0:
256,192,19749,1,0,0:0:0:0:
256,192,19886,1,0,0:0:0:0:
256,192,20159,1,0,0:0:0:0:
256,192,20295,1,8,0:0:0:0:
256,192,20568,1,0,0:0:0:0:
256,192,20704,1,0,0:0:0:0:
256,192,21386,1,0,0:0:0:0:
256,192,21796,1,8,0:0:0:0:
256,192,21932,1,0,0:0:0:0:
256,192,22068,1,0,0:0:0:0:
256,192,22341,1,0,0:0:0:0:
256,192,22477,1,8,0:0:0:0:
256,192,22750,1,0,0:0:0:0:
256,192,22886,1,0,0:0:0:0:
256,192,23568,1,0,0:0:0:0:
256,192,23841,1,0,0:0:0:0:
256,192,23977,1,8,0:0:0:0:
256,192,24113,1,0,0:0:0:0:
256,192,24250,1,0,0:0:0:0:
256,192,24523,1,0,0:0:0:0:
256,192,24659,1,8,0:0:0:0:
256,192,24932,1,0,0:0:0:0:
256,192,25068,1,0,0:0:0:0:
256,192,26295,1,8,0:0:0:0:
256,192,26568,1,0,0:0:0:0:
256,192,26705,1,0,0:0:0:0:
256,192,26841,1,8,0:0:0:0:
256,192,26977,1,0,0:0:0:0:
256,192,27114,1,8,0:0:0:0:
256,192,27386,1,0,0:0:0:0:
256,192,27523,1,8,0:0:0:0:
256,192,27659,1,0,0:0:0:0:
256,192,27932,1,8,0:0:0:0:
256,192,28205,1,0,0:0:0:0:
256,192,28341,1,0,0:0:0:0:
256,192,28477,1,8,0:0:0:0:
256,192,28750,1,0,0:0:0:0:
256,192,28886,1,8,0:0:0:0:
256,192,29159,1,0,0:0:0:0:
256,192,29295,1,0,0:0:0:0:
256,192,29568,1,8,0:0:0:0:
256,192,29750,1,8,0:0:0:0:
256,192,29932,1,8,0:0:0:0:
256,192,30114,1,0,0:0:0:0:
256,192,30659,1,0,0:0:0:0:
256,192,30932,1,0,0:0:0:0:
256,192,31068,1,8,0:0:0:0:
256,192,31205,1,0,0:0:0:0:
256,192,31341,1,0,0:0:0:0:
256,192,31477,1,8,0:0:0:0:
256,192,31750,1,0,0:0:0:0:
256,192,31886,1,8,0:0:0:0:
256,192,32023,1,8,0:0:0:0:
256,192,32295,1,0,0:0:0:0:
256,192,32568,1,8,0:0:0:0:
256,192,32705,1,8,0:0:0:0:
256,192,32841,1,0,0:0:0:0:
256,192,33114,1,0,0:0:0:0:
256,192,33250,1,8,0:0:0:0:
256,192,33523,1,0,0:0:0:0:
256,192,33659,1,0,0:0:0:0:
256,192,33932,1,8,0:0:0:0:
256,192,34114,1,8,0:0:0:0:
256,192,34295,1,8,0:0:0:0:
256,192,34477,1,0,0:0:0:0:
256,192,35023,1,8,0:0:0:0:
256,192,35296,1,0,0:0:0:0:
256,192,35433,1,8,0:0:0:0:
256,192,35569,1,8,0:0:0:0:
256,192,35705,1,0,0:0:0:0:
256,192,35842,1,8,0:0:0:0:
256,192,36114,1,0,0:0:0:0:
256,192,36251,1,8,0:0:0:0:
256,192,36387,1,0,0:0:0:0:
256,192,36660,1,0,0:0:0:0:
256,192,36933,1,8,0:0:0:0:
256,192,37069,1,8,0:0:0:0:
256,192,37205,1,0,0:0:0:0:
256,192,37478,1,0,0:0:0:0:
256,192,37614,1,8,0:0:0:0:
256,192,37887,1,0,0:0:0:0:
256,192,38023,1,0,0:0:0:0:
256,192,38296,1,8,0:0:0:0:
256,192,38478,1,8,0:0:0:0:
256,192,38660,1,8,0:0:0:0:
256,192,38842,1,0,0:0:0:0:
256,192,39387,1,0,0:0:0:0:
256,192,39660,1,8,0:0:0:0:
256,192,39796,1,8,0:0:0:0:
256,192,39933,1,0,0:0:0:0:
256,192,40069,1,0,0:0:0:0:
256,192,40205,1,8,0:0:0:0:
256,192,40478,1,0,0:0:0:0:
256,192,40614,1,8,0:0:0:0:
256,192,40751,1,0,0:0:0:0:
256,192,41023,1,8,0:0:0:0:
256,192,41296,1,0,0:0:0:0:
256,192,41432,1,0,0:0:0:0:
256,192,41569,1,8,0:0:0:0:
256,192,41842,1,0,0:0:0:0:
256,192,41978,1,8,0:0:0:0:
256,192,42251,1,0,0:0:0:0:
256,192,42387,1,0,0:0:0:0:
256,192,42660,1,8,0:0:0:0:
256,192,42842,1,8,0:0:0:0:
256,192,43023,1,8,0:0:0:0:
256,192,43205,1,0,0:0:0:0:
256,192,43751,1,8,0:0:0:0:
256,192,44023,1,8,0:0:0:0:
256,192,44159,1,0,0:0:0:0:
256,192,44295,1,8,0:0:0:0:
256,192,44568,1,0,0:0:0:0:
256,192,44705,1,8,0:0:0:0:
256,192,44841,1,0,0:0:0:0:
256,192,45114,1,8,0:0:0:0:
256,192,45250,1,0,0:0:0:0:
256,192,45523,1,0,0:0:0:0:
256,192,45659,1,8,0:0:0:0:
256,192,45932,1,0,0:0:0:0:
256,192,46205,1,0,0:0:0:0:
256,192,46341,1,8,0:0:0:0:
256,192,46614,1,0,0:0:0:0:
256,192,46750,1,0,0:0:0:0:
256,192,47295,1,8,0:0:0:0:
256,192,47568,1,0,0:0:0:0:
256,192,47841,1,0,0:0:0:0:
256,192,48114,1,8,0:0:0:0:
256,192,48386,1,0,0:0:0:0:
256,192,48522,1,8,0:0:0:0:
256,192,48658,1,8,0:0:0:0:
256,192,48931,1,8,0:0:0:0:
256,192,49068,1,8,0:0:0:0:
256,192,49204,1,0,0:0:0:0:
256,192,49477,1,8,0:0:0:0:
256,192,49613,1,0,0:0:0:0:
256,192,49886,1,0,0:0:0:0:
256,192,50022,1,8,0:0:0:0:
256,192,50295,1,0,0:0:0:0:
256,192,50432,1,8,0:0:0:0:
256,192,50705,1,8,0:0:0:0:
256,192,50841,1,8,0:0:0:0:
256,192,51114,1,8,0:0:0:0:
256,192,51250,1,0,0:0:0:0:
256,192,51523,1,8,0:0:0:0:
256,192,51659,1,8,0:0:0:0:
256,192,51932,1,0,0:0:0:0:
256,192,52477,1,0,0:0:0:0:
256,192,52750,1,8,0:0:0:0:
256,192,52886,1,0,0:0:0:0:
256,192,53023,1,8,0:0:0:0:
256,192,53294,1,0,0:0:0:0:
256,192,53431,1,8,0:0:0:0:
256,192,53567,1,0,0:0:0:0:
256,192,53840,1,8,0:0:0:0:
256,192,54114,1,0,0:0:0:0:
256,192,54385,1,8,0:0:0:0:
256,192,54659,1,0,0:0:0:0:
256,192,54932,1,0,0:0:0:0:
256,192,55205,1,8,0:0:0:0:
256,192,55477,1,8,0:0:0:0:
256,192,56023,1,0,0:0:0:0:
256,192,56295,1,8,0:0:0:0:
256,192,56568,1,8,0:0:0:0:
256,192,56841,1,0,0:0:0:0:
256,192,57386,1,8,0:0:0:0:
256,192,57659,1,0,0:0:0:0:
256,192,58205,1,0,0:0:0:0:
256,192,58477,1,8,0:0:0:0:
256,192,59023,1,0,0:0:0:0:
256,192,59568,1,8,0:0:0:0:
256,192,59841,1,0,0:0:0:0:
256,192,60114,1,8,0:0:0:0:
256,192,60295,1,8,0:0:0:0:
256,192,60477,1,8,0:0:0:0:
256,192,60659,1,0,0:0:0:0:
256,192,60841,1,0,0:0:0:0:
256,192,61023,1,0,0:0:0:0:
256,192,61205,1,8,0:0:0:0:
256,192,61477,1,8,0:0:0:0:
256,192,61613,1,0,0:0:0:0:
256,192,61749,1,8,0:0:0:0:
256,192,62022,1,0,0:0:0:0:
256,192,62159,1,8,0:0:0:0:
256,192,62295,1,0,0:0:0:0:
256,192,62431,1,0,0:0:0:0:
256,192,62568,1,8,0:0:0:0:
256,192,62841,1,8,0:0:0:0:
256,192,63113,1,8,0:0:0:0:
256,192,63386,1,0,0:0:0:0:
256,192,63659,1,0,0:0:0:0:
256,192,63795,1,8,0:0:0:0:
256,192,64068,1,0,0:0:0:0:
256,192,64204,1,0,0:0:0:0:
256,192,64749,1,8,0:0:0:0:
256,192,65022,1,0,0:0:0:0:
256,192,65295,1,0,0:0:0:0:
256,192,65568,1,8,0:0:0:0:
256,192,65840,1,0,0:0:0:0:
256,192,65976,1,8,0:0:0:0:
256,192,66114,1,8,0:0:0:0:
256,192,66385,1,8,0:0:0:0:
256,192,66522,1,8,0:0:0:0:
256,192,66658,1,0,0:0:0:0:
256,192,66794,1,0,0:0:0:0:
256,192,66931,1,8,0:0:0:0:
256,192,67204,1,0,0:0:0:0:
256,192,67476,1,8,0:0:0:0:
256,192,67749,1,0,0:0:0:0:
256,192,67886,1,8,0:0:0:0:
256,192,68159,1,8,0:0:0:0:
256,192,68295,1,0,0:0:0:0:
256,192,68568,1,8,0:0:0:0:
256,192,68704,1,8,0:0:0:0:
256,192,68977,1,0,0:0:0:0:
256,192,69113,1,8,0:0:0:0:
256,192,69386,1,0,0:0:0:0:
256,192,69931,1,0,0:0:0:0:
256,192,70205,1,8,0:0:0:0:
256,192,70341,1,0,0:0:0:0:
256,192,70477,1,8,0:0:0:0:
256,192,70750,1,0,0:0:0:0:
256,192,70886,1,8,0:0:0:0:
256,192,71023,1,0,0:0:0:0:
256,192,71294,1,8,0:0:0:0:
256,192,71568,1,0,0:0:0:0:
256,192,71841,1,8,0:0:0:0:
256,192,72114,1,0,0:0:0:0:
256,192,72386,1,0,0:0:0:0:
256,192,72659,1,8,0:0:0:0:
256,192,72931,1,8,0:0:0:0:
256,192,73477,1,0,0:0:0:0:
256,192,73749,1,8,0:0:0:0:
256,192,74022,1,8,0:0:0:0:
256,192,74295,1,0,0:0:0:0:
256,192,74841,1,8,0:0:0:0:
256,192,75114,1,0,0:0:0:0:
256,192,75659,1,0,0:0:0:0:
256,192,75932,1,8,0:0:0:0:
256,192,78659,5,0,0:0:0:0:
256,192,78794,1,8,0:0:0:0:
256,192,78931,1,0,0:0:0:0:
256,192,79067,1,0,0:0:0:0:
256,192,79204,1,8,0:0:0:0:
256,192,79476,1,8,0:0:0:0:
256,192,79613,1,8,0:0:0:0:
256,192,79749,1,0,0:0:0:0:
256,192,79885,1,0,0:0:0:0:
256,192,80022,1,8,0:0:0:0:
256,192,80295,1,0,0:0:0:0:
256,192,80568,1,8,0:0:0:0:
256,192,80705,1,8,0:0:0:0:
256,192,80841,1,0,0:0:0:0:
256,192,81113,1,0,0:0:0:0:
256,192,81249,1,0,0:0:0:0:
256,192,81386,1,8,0:0:0:0:
256,192,81522,1,0,0:0:0:0:
256,192,81658,1,8,0:0:0:0:
256,192,81931,1,0,0:0:0:0:
256,192,82067,1,8,0:0:0:0:
256,192,82204,1,8,0:0:0:0:
256,192,82477,1,0,0:0:0:0:
256,192,82749,1,8,0:0:0:0:
256,192,82886,1,8,0:0:0:0:
256,192,83023,1,8,0:0:0:0:
256,192,83294,1,0,0:0:0:0:
256,192,83567,1,8,0:0:0:0:
256,192,83704,1,8,0:0:0:0:
256,192,83840,1,0,0:0:0:0:
256,192,83976,1,0,0:0:0:0:
256,192,84113,1,0,0:0:0:0:
256,192,84386,1,8,0:0:0:0:
256,192,84659,1,0,0:0:0:0:
256,192,84931,1,8,0:0:0:0:
256,192,85067,1,8,0:0:0:0:
256,192,85205,1,8,0:0:0:0:
256,192,85476,1,8,0:0:0:0:
256,192,85613,1,8,0:0:0:0:
256,192,85749,1,0,0:0:0:0:
256,192,86022,1,8,0:0:0:0:
256,192,86294,1,0,0:0:0:0:
256,192,86840,1,8,0:0:0:0:
256,192,86976,1,8,0:0:0:0:
256,192,87113,1,8,0:0:0:0:
256,192,87386,5,0,0:0:0:0:
256,192,87523,1,8,0:0:0:0:
256,192,87659,1,0,0:0:0:0:
256,192,87795,1,0,0:0:0:0:
256,192,87932,1,8,0:0:0:0:
256,192,88205,1,8,0:0:0:0:
256,192,88341,1,8,0:0:0:0:
256,192,88477,1,0,0:0:0:0:
256,192,88614,1,0,0:0:0:0:
256,192,88750,1,8,0:0:0:0:
256,192,89023,1,0,0:0:0:0:
256,192,89295,1,8,0:0:0:0:
256,192,89432,1,8,0:0:0:0:
256,192,89568,1,0,0:0:0:0:
256,192,89840,1,0,0:0:0:0:
256,192,89976,1,0,0:0:0:0:
256,192,90113,1,8,0:0:0:0:
256,192,90249,1,0,0:0:0:0:
256,192,90385,1,8,0:0:0:0:
256,192,90658,1,0,0:0:0:0:
256,192,90794,1,8,0:0:0:0:
256,192,90931,1,8,0:0:0:0:
256,192,91205,1,0,0:0:0:0:
256,192,91477,1,8,0:0:0:0:
256,192,91614,1,8,0:0:0:0:
256,192,91750,1,8,0:0:0:0:
256,192,92023,1,8,0:0:0:0:
256,192,92159,1,0,0:0:0:0:
256,192,92295,1,8,0:0:0:0:
256,192,92432,1,8,0:0:0:0:
256,192,92567,1,0,0:0:0:0:
256,192,92841,1,8,0:0:0:0:
256,192,93114,1,0,0:0:0:0:
256,192,93250,1,8,0:0:0:0:
256,192,93386,1,0,0:0:0:0:
256,192,93658,1,8,0:0:0:0:
256,192,93794,1,8,0:0:0:0:
256,192,93932,1,8,0:0:0:0:
256,192,94205,1,8,0:0:0:0:
256,192,94477,1,0,0:0:0:0:
256,192,94614,1,8,0:0:0:0:
256,192,94750,1,0,0:0:0:0:
256,192,95023,1,8,0:0:0:0:
256,192,95159,1,8,0:0:0:0:
256,192,95295,1,0,0:0:0:0:
256,192,95432,1,0,0:0:0:0:
256,192,95568,1,8,0:0:0:0:
256,192,96114,5,0,0:0:0:0:
256,192,96249,1,0,0:0:0:0:
256,192,96386,1,8,0:0:0:0:
256,192,96522,1,0,0:0:0:0:
256,192,96659,1,8,0:0:0:0:
256,192,96931,1,8,0:0:0:0:
256,192,97068,1,8,0:0:0:0:
256,192,97204,1,0,0:0:0:0:
256,192,97477,1,8,0:0:0:0:
256,192,97749,1,0,0:0:0:0:
256,192,97886,1,0,0:0:0:0:
256,192,98022,1,8,0:0:0:0:
256,192,98295,1,0,0:0:0:0:
256,192,98568,1,0,0:0:0:0:
256,192,98704,1,8,0:0:0:0:
256,192,98841,1,0,0:0:0:0:
256,192,99113,1,8,0:0:0:0:
256,192,99659,1,8,0:0:0:0:
256,192,99931,1,0,0:0:0:0:
256,192,100068,1,0,0:0:0:0:
256,192,100204,1,8,0:0:0:0:
256,192,100341,1,8,0:0:0:0:
256,192,100477,1,0,0:0:0:0:
256,192,100749,1,8,0:0:0:0:
256,192,100886,1,0,0:0:0:0:
256,192,101022,1,8,0:0:0:0:
256,192,101295,1,8,0:0:0:0:
256,192,101431,1,8,0:0:0:0:
256,192,101568,1,8,0:0:0:0:
256,192,101841,1,0,0:0:0:0:
256,192,102113,1,8,0:0:0:0:
256,192,102386,1,0,0:0:0:0:
256,192,102659,1,8,0:0:0:0:
256,192,102795,1,8,0:0:0:0:
256,192,102931,1,0,0:0:0:0:
256,192,103068,1,8,0:0:0:0:
256,192,103204,1,8,0:0:0:0:
256,192,103476,1,8,0:0:0:0:
256,192,103613,1,8,0:0:0:0:
256,192,103749,1,0,0:0:0:0:
256,192,103886,1,8,0:0:0:0:
256,192,104022,1,0,0:0:0:0:
256,192,104295,1,8,0:0:0:0:
256,192,104431,1,0,0:0:0:0:
256,192,104568,1,8,0:0:0:0:
256,192,104841,5,0,0:0:0:0:
256,192,104977,1,0,0:0:0:0:
256,192,105113,1,8,0:0:0:0:
256,192,105250,1,0,0:0:0:0:
256,192,105386,1,8,0:0:0:0:
256,192,105658,1,8,0:0:0:0:
256,192,105795,1,8,0:0:0:0:
256,192,105931,1,0,0:0:0:0:
256,192,106204,1,8,0:0:0:0:
256,192,106476,1,8,0:0:0:0:
256,192,106613,1,0,0:0:0:0:
256,192,106749,1,8,0:0:0:0:
256,192,107023,1,0,0:0:0:0:
256,192,107295,1,0,0:0:0:0:
256,192,107432,1,8,0:0:0:0:
256,192,107568,1,0,0:0:0:0:
256,192,107840,1,8,0:0:0:0:
256,192,108386,1,0,0:0:0:0:
256,192,108522,1,0,0:0:0:0:
256,192,108658,1,8,0:0:0:0:
256,192,108931,1,8,0:0:0:0:
256,192,109205,1,0,0:0:0:0:
256,192,109476,1,8,0:0:0:0:
256,192,109613,1,0,0:0:0:0:
256,192,109749,1,8,0:0:0:0:
256,192,110022,1,8,0:0:0:0:
256,192,110158,1,8,0:0:0:0:
256,192,110295,1,8,0:0:0:0:
256,192,110567,1,0,0:0:0:0:
256,192,110840,1,8,0:0:0:0:
256,192,111113,1,0,0:0:0:0:
256,192,111249,1,0,0:0:0:0:
256,192,111386,1,8,0:0:0:0:
256,192,111658,1,0,0:0:0:0:
256,192,111795,1,8,0:0:0:0:
256,192,111931,1,0,0:0:0:0:
256,192,112204,1,8,0:0:0:0:
256,192,112340,1,8,0:0:0:0:
256,192,112476,1,8,0:0:0:0:
256,192,112749,1,0,0:0:0:0:
256,192,113022,1,8,0:0:0:0:
256,192,113158,1,8,0:0:0:0:
256,192,113295,1,8,0:0:0:0:
256,192,113431,1,8,0:0:0:0:
256,192,113568,1,0,0:0:0:0:
256,192,122295,5,0,0:0:0:0:
256,192,122431,1,0,0:0:0:0:
256,192,122704,1,0,0:0:0:0:
256,192,122840,1,8,0:0:0:0:
256,192,123113,1,0,0:0:0:0:
256,192,123249,1,0,0:0:0:0:
256,192,123931,1,0,0:0:0:0:
256,192,124204,1,0,0:0:0:0:
256,192,124340,1,8,0:0:0:0:
256,192,124476,1,0,0:0:0:0:
256,192,124613,1,0,0:0:0:0:
256,192,124886,1,0,0:0:0:0:
256,192,125022,1,8,0:0:0:0:
256,192,125295,1,0,0:0:0:0:
256,192,125431,1,0,0:0:0:0:
256,192,126113,1,0,0:0:0:0:
256,192,126249,1,0,0:0:0:0:
256,192,126522,1,8,0:0:0:0:
256,192,126658,1,0,0:0:0:0:
256,192,126794,1,0,0:0:0:0:
256,192,127067,1,0,0:0:0:0:
256,192,127205,1,8,0:0:0:0:
256,192,127477,1,0,0:0:0:0:
256,192,127614,1,0,0:0:0:0:
256,192,128294,1,0,0:0:0:0:
256,192,128567,1,0,0:0:0:0:
256,192,128705,1,8,0:0:0:0:
256,192,128841,1,0,0:0:0:0:
256,192,128976,1,0,0:0:0:0:
256,192,129249,1,0,0:0:0:0:
256,192,129385,1,8,0:0:0:0:
256,192,129658,1,0,0:0:0:0:
256,192,129794,1,0,0:0:0:0:
256,192,130476,1,0,0:0:0:0:
256,192,131023,1,8,0:0:0:0:
256,192,131295,1,0,0:0:0:0:
256,192,131431,1,8,0:0:0:0:
256,192,131567,1,8,0:0:0:0:
256,192,131841,1,8,0:0:0:0:
256,192,131977,1,0,0:0:0:0:
256,192,132659,1,0,0:0:0:0:
256,192,132931,1,8,0:0:0:0:
256,192,133204,1,0,0:0:0:0:
256,192,133477,1,0,0:0:0:0:
256,192,133613,1,8,0:0:0:0:
256,192,133886,1,8,0:0:0:0:
256,192,134022,1,0,0:0:0:0:
256,192,134159,1,8,0:0:0:0:
256,192,134840,1,0,0:0:0:0:
256,192,135113,1,0,0:0:0:0:
256,192,135386,1,8,0:0:0:0:
256,192,135658,1,0,0:0:0:0:
256,192,135794,1,8,0:0:0:0:
256,192,135932,1,8,0:0:0:0:
256,192,136205,1,8,0:0:0:0:
256,192,136341,1,8,0:0:0:0:
256,192,137022,1,0,0:0:0:0:
256,192,137294,1,8,0:0:0:0:
256,192,137567,1,0,0:0:0:0:
256,192,137704,1,8,0:0:0:0:
256,192,137977,1,8,0:0:0:0:
256,192,138113,1,8,0:0:0:0:
256,192,138386,1,8,0:0:0:0:
256,192,138522,1,0,0:0:0:0:
256,192,138795,1,8,0:0:0:0:
256,192,138931,1,8,0:0:0:0:
256,192,139204,1,0,0:0:0:0:
256,192,139477,1,8,0:0:0:0:
256,192,139749,1,0,0:0:0:0:
256,192,140023,1,8,0:0:0:0:
256,192,140295,1,8,0:0:0:0:
256,192,140568,1,0,0:0:0:0:
256,192,140705,1,8,0:0:0:0:
256,192,141386,1,0,0:0:0:0:
256,192,141659,1,8,0:0:0:0:
256,192,141932,1,0,0:0:0:0:
256,192,142204,1,0,0:0:0:0:
256,192,142477,1,8,0:0:0:0:
256,192,142750,1,0,0:0:0:0:
256,192,142886,1,8,0:0:0:0:
256,192,143567,1,8,0:0:0:0:
256,192,143840,1,8,0:0:0:0:
256,192,144113,1,0,0:0:0:0:
256,192,144386,1,0,0:0:0:0:
256,192,144658,1,8,0:0:0:0:
256,192,144931,1,0,0:0:0:0:
256,192,145749,1,8,0:0:0:0:
256,192,146023,1,0,0:0:0:0:
256,192,146159,1,8,0:0:0:0:
256,192,146295,1,0,0:0:0:0:
256,192,146568,1,0,0:0:0:0:
256,192,146840,1,8,0:0:0:0:
256,192,147113,1,0,0:0:0:0:
256,192,147386,1,8,0:0:0:0:
256,192,147567,1,8,0:0:0:0:
256,192,147749,1,8,0:0:0:0:
256,192,147931,1,0,0:0:0:0:
256,192,148477,1,8,0:0:0:0:
256,192,148750,1,0,0:0:0:0:
256,192,149023,1,8,0:0:0:0:
256,192,149295,1,0,0:0:0:0:
256,192,149432,1,0,0:0:0:0:
256,192,149568,1,8,0:0:0:0:
256,192,149841,1,0,0:0:0:0:
256,192,150114,1,8,0:0:0:0:
256,192,150386,1,0,0:0:0:0:
256,192,150523,1,8,0:0:0:0:
256,192,150659,1,0,0:0:0:0:
256,192,150932,1,0,0:0:0:0:
256,192,151205,1,8,0:0:0:0:
256,192,151341,1,8,0:0:0:0:
256,192,151477,1,0,0:0:0:0:
256,192,151750,1,8,0:0:0:0:
256,192,152023,1,0,0:0:0:0:
256,192,152295,1,8,0:0:0:0:
256,192,152432,1,0,0:0:0:0:
256,192,152568,1,8,0:0:0:0:
256,192,152705,1,8,0:0:0:0:
256,192,152841,1,0,0:0:0:0:
256,192,153114,1,0,0:0:0:0:
256,192,153250,1,8,0:0:0:0:
256,192,153523,1,8,0:0:0:0:
256,192,153659,1,0,0:0:0:0:
256,192,153932,1,8,0:0:0:0:
256,192,154205,1,0,0:0:0:0:
256,192,154341,1,0,0:0:0:0:
256,192,154614,1,8,0:0:0:0:
256,192,154750,1,0,0:0:0:0:
256,192,155023,1,8,0:0:0:0:
256,192,155295,1,0,0:0:0:0:
256,192,155568,1,8,0:0:0:0:
256,192,155705,1,8,0:0:0:0:
256,192,155841,1,8,0:0:0:0:
256,192,156114,1,0,0:0:0:0:
256,192,156250,1,8,0:0:0:0:
256,192,156386,1,8,0:0:0:0:
256,192,156659,1,0,0:0:0:0:
256,192,157205,1,8,0:0:0:0:
256,192,157478,1,0,0:0:0:0:
256,192,157751,1,8,0:0:0:0:
256,192,158023,1,0,0:0:0:0:
256,192,158160,1,0,0:0:0:0:
256,192,158296,1,8,0:0:0:0:
256,192,158569,1,0,0:0:0:0:
256,192,158842,1,8,0:0:0:0:
256,192,159114,1,0,0:0:0:0:
256,192,159251,1,8,0:0:0:0:
256,192,159387,1,0,0:0:0:0:
256,192,159660,1,0,0:0:0:0:
256,192,159933,1,8,0:0:0:0:
256,192,160069,1,0,0:0:0:0:
256,192,160205,1,0,0:0:0:0:
256,192,160478,1,8,0:0:0:0:
256,192,160751,1,0,0:0:0:0:
256,192,161023,1,8,0:0:0:0:
256,192,161160,1,0,0:0:0:0:
256,192,161296,1,8,0:0:0:0:
256,192,161433,1,8,0:0:0:0:
256,192,161569,1,0,0:0:0:0:
256,192,161842,1,0,0:0:0:0:
256,192,161978,1,8,0:0:0:0:
256,192,162251,1,8,0:0:0:0:
256,192,162387,1,0,0:0:0:0:
256,192,162660,1,8,0:0:0:0:
256,192,162933,1,0,0:0:0:0:
256,192,163069,1,0,0:0:0:0:
256,192,163342,1,8,0:0:0:0:
256,192,163478,1,0,0:0:0:0:
256,192,163751,1,8,0:0:0:0:
256,192,164023,1,0,0:0:0:0:
256,192,164296,1,8,0:0:0:0:
256,192,164433,1,8,0:0:0:0:
256,192,164569,1,8,0:0:0:0:
256,192,164842,1,0,0:0:0:0:
256,192,164978,1,8,0:0:0:0:
256,192,165114,1,8,0:0:0:0:
256,192,165387,5,0,0:0:0:0:
256,192,165932,1,8,0:0:0:0:
256,192,166205,1,0,0:0:0:0:
256,192,166341,1,8,0:0:0:0:
256,192,166478,1,0,0:0:0:0:
256,192,166751,1,8,0:0:0:0:
256,192,166886,1,0,0:0:0:0:
256,192,167159,1,0,0:0:0:0:
256,192,167296,1,8,0:0:0:0:
256,192,167568,1,0,0:0:0:0:
256,192,167842,1,0,0:0:0:0:
256,192,167978,1,8,0:0:0:0:
256,192,168114,1,0,0:0:0:0:
256,192,168387,1,0,0:0:0:0:
256,192,168523,1,8,0:0:0:0:
256,192,168795,1,8,0:0:0:0:
256,192,168932,1,0,0:0:0:0:
256,192,169205,1,8,0:0:0:0:
256,192,169477,1,0,0:0:0:0:
256,192,169614,1,8,0:0:0:0:
256,192,169750,1,8,0:0:0:0:
256,192,170295,1,8,0:0:0:0:
256,192,170568,1,0,0:0:0:0:
256,192,170704,1,8,0:0:0:0:
256,192,170841,1,0,0:0:0:0:
256,192,171114,1,8,0:0:0:0:
256,192,171249,1,0,0:0:0:0:
256,192,171522,1,8,0:0:0:0:
256,192,171659,1,8,0:0:0:0:
256,192,171931,1,0,0:0:0:0:
256,192,172205,1,8,0:0:0:0:
256,192,172341,1,8,0:0:0:0:
256,192,172477,1,0,0:0:0:0:
256,192,172750,1,0,0:0:0:0:
256,192,172886,1,8,0:0:0:0:
256,192,173158,1,8,0:0:0:0:
256,192,173295,1,0,0:0:0:0:
256,192,173568,1,8,0:0:0:0:
256,192,173840,1,0,0:0:0:0:
256,192,173977,1,8,0:0:0:0:
256,192,174113,1,8,0:0:0:0:
256,192,174659,1,8,0:0:0:0:
256,192,174932,1,0,0:0:0:0:
256,192,175068,1,8,0:0:0:0:
256,192,175205,1,0,0:0:0:0:
256,192,175478,1,8,0:0:0:0:
256,192,175613,1,0,0:0:0:0:
256,192,175886,1,0,0:0:0:0:
256,192,176023,1,8,0:0:0:0:
256,192,176295,1,0,0:0:0:0:
256,192,176569,1,0,0:0:0:0:
256,192,176705,1,8,0:0:0:0:
256,192,176841,1,0,0:0:0:0:
256,192,177114,1,0,0:0:0:0:
256,192,177250,1,8,0:0:0:0:
256,192,177522,1,8,0:0:0:0:
256,192,177659,1,0,0:0:0:0:
256,192,177932,1,8,0:0:0:0:
256,192,178204,1,0,0:0:0:0:
256,192,178341,1,8,0:0:0:0:
256,192,178477,1,8,0:0:0:0:
256,192,179023,1,8,0:0:0:0:
256,192,179296,1,0,0:0:0:0:
256,192,179432,1,8,0:0:0:0:
256,192,179569,1,0,0:0:0:0:
256,192,179841,1,8,0:0:0:0:
256,192,179977,1,8,0:0:0:0:
256,192,180250,1,0,0:0:0:0:
256,192,180387,1,0,0:0:0:0:
256,192,180659,1,8,0:0:0:0:
256,192,180933,1,0,0:0:0:0:
256,192,181069,1,0,0:0:0:0:
256,192,181205,1,8,0:0:0:0:
256,192,181478,1,0,0:0:0:0:
256,192,181614,1,8,0:0:0:0:
256,192,181886,1,8,0:0:0:0:
256,192,182023,1,0,0:0:0:0:
256,192,182296,1,8,0:0:0:0:
256,192,182568,1,0,0:0:0:0:
256,192,182705,1,8,0:0:0:0:
256,192,182841,1,8,0:0:0:0:
256,192,183114,1,0,0:0:0:0:
256,192,183386,1,8,0:0:0:0:
256,192,183795,1,8,0:0:0:0:
256,192,184205,1,0,0:0:0:0:
256,192,184750,1,0,0:0:0:0:
256,192,187750,1,8,0:0:0:0:
256,192,188159,1,8,0:0:0:0:
256,192,188569,1,0,0:0:0:0:
256,192,189114,1,0,0:0:0:0:
256,192,191841,1,0,0:0:0:0:
256,192,192114,1,8,0:0:0:0:
256,192,192523,1,8,0:0:0:0:
256,192,192933,1,0,0:0:0:0:
256,192,193478,1,0,0:0:0:0:
256,192,195932,1,0,0:0:0:0:
256,192,196114,1,8,0:0:0:0:
256,192,196295,1,8,0:0:0:0:
256,192,196477,1,8,0:0:0:0:
256,192,196886,1,8,0:0:0:0:
256,192,197296,1,0,0:0:0:0:
256,192,197841,1,0,0:0:0:0:
256,192,200568,1,0,0:0:0:0:
256,192,200705,1,0,0:0:0:0:
256,192,200841,1,8,0:0:0:0:
256,192,201250,1,8,0:0:0:0:
256,192,201660,1,0,0:0:0:0:
256,192,202205,1,0,0:0:0:0:
256,192,203023,1,0,0:0:0:0:
256,192,205205,1,8,0:0:0:0:
256,192,205614,1,8,0:0:0:0:
256,192,206024,1,0,0:0:0:0:
256,192,206569,1,0,0:0:0:0:
256,192,207386,1,0,0:0:0:0:
256,192,209296,1,0,0:0:0:0:
256,192,209569,1,8,0:0:0:0:
256,192,209978,1,8,0:0:0:0:
256,192,210386,1,0,0:0:0:0:
256,192,210933,1,0,0:0:0:0:
256,192,211750,1,0,0:0:0:0:
256,192,213387,1,0,0:0:0:0:
256,192,213569,1,8,0:0:0:0:
256,192,213750,1,8,0:0:0:0:
256,192,213932,1,8,0:0:0:0:
256,192,214341,1,8,0:0:0:0:
256,192,214751,1,0,0:0:0:0:
256,192,215296,1,0,0:0:0:0:
256,192,216114,1,0,0:0:0:0:
256,192,218295,1,0,0:0:0:0:
256,192,218568,1,8,0:0:0:0:
256,192,218841,1,8,0:0:0:0:
256,192,219114,1,0,0:0:0:0:
256,192,219250,1,8,0:0:0:0:
256,192,219386,1,0,0:0:0:0:
256,192,219659,1,8,0:0:0:0:
256,192,219932,1,0,0:0:0:0:
256,192,220205,1,8,0:0:0:0:
256,192,220477,1,0,0:0:0:0:
256,192,220886,1,8,0:0:0:0:
256,192,221295,1,0,0:0:0:0:
256,192,221841,1,0,0:0:0:0:
256,192,222114,1,8,0:0:0:0:
256,192,222386,1,8,0:0:0:0:
256,192,222659,1,0,0:0:0:0:
256,192,222932,1,8,0:0:0:0:
256,192,223068,1,8,0:0:0:0:
256,192,223205,1,0,0:0:0:0:
256,192,223477,1,8,0:0:0:0:
256,192,223750,1,0,0:0:0:0:
256,192,224023,1,0,0:0:0:0:
256,192,224159,1,0,0:0:0:0:
256,192,224295,1,8,0:0:0:0:
256,192,224568,1,0,0:0:0:0:
256,192,224841,1,8,0:0:0:0:
256,192,225250,1,8,0:0:0:0:
256,192,225659,1,8,0:0:0:0:
256,192,226205,1,0,0:0:0:0:
256,192,226477,1,8,0:0:0:0:
256,192,227023,1,0,0:0:0:0:
256,192,227295,1,8,0:0:0:0:
256,192,227568,1,0,0:0:0:0:
256,192,227841,1,0,0:0:0:0:
256,192,227977,1,8,0:0:0:0:
256,192,228114,1,0,0:0:0:0:
256,192,228386,1,0,0:0:0:0:
256,192,228659,1,8,0:0:0:0:
256,192,228932,1,8,0:0:0:0:
256,192,229205,1,0,0:0:0:0:
256,192,229477,1,0,0:0:0:0:
256,192,229750,1,8,0:0:0:0:
256,192,230023,1,8,0:0:0:0:
256,192,230568,1,0,0:0:0:0:
256,192,230841,1,8,0:0:0:0:
256,192,231114,1,8,0:0:0:0:
256,192,231386,1,0,0:0:0:0:
256,192,231932,1,0,0:0:0:0:
256,192,232205,1,8,0:0:0:0:
256,192,233023,1,8,0:0:0:0:
256,192,233568,1,0,0:0:0:0:
241,121,235750,5,0,0:0:0:0:
311,153,235886,1,8,0:0:0:0:
196,232,236023,5,0,0:0:0:0:
180,162,236160,1,0,0:0:0:0:
320,223,236296,5,8,0:0:0:0:
173,87,236569,5,8,0:0:0:0:
297,68,236705,1,8,0:0:0:0:
203,307,236842,5,0,0:0:0:0:
123,203,236978,1,8,0:0:0:0:
392,180,237114,5,0,0:0:0:0:
102,115,237387,5,8,0:0:0:0:
220,18,237523,1,8,0:0:0:0:
272,363,237660,5,8,0:0:0:0:
410,77,237933,5,0,0:0:0:0:
447,242,238069,1,8,0:0:0:0:
494,96,238205,5,0,0:0:0:0:
509,182,238478,5,8,0:0:0:0:
494,176,238751,5,0,0:0:0:0:
363,132,238887,1,8,0:0:0:0:
440,241,239023,5,0,0:0:0:0:
417,60,239160,1,8,0:0:0:0:
369,215,239296,5,8,0:0:0:0:
254,190,239569,5,8,0:0:0:0:
254,190,239705,1,0,0:0:0:0:
254,190,239842,1,8,0:0:0:0:
254,190,239978,1,8,0:0:0:0:
264,275,240115,5,0,0:0:0:0:
324,140,240387,5,8,0:0:0:0:
174,154,240660,5,8,0:0:0:0:
182,228,240796,1,8,0:0:0:0:
289,266,240932,5,0,0:0:0:0:
339,203,241069,1,0,0:0:0:0:
302,119,241205,5,8,0:0:0:0:
172,179,241478,5,0,0:0:0:0:
199,250,241614,1,0,0:0:0:0:
250,190,241751,1,8,0:0:0:0:
249,363,242023,5,8,0:0:0:0:
249,363,242160,1,8,0:0:0:0:
361,348,242296,5,8,0:0:0:0:
157,268,242432,1,0,0:0:0:0:
116,334,242569,5,8,0:0:0:0:
365,219,242705,1,8,0:0:0:0:
405,285,242842,5,0,0:0:0:0:
92,228,243114,5,0,0:0:0:0:
365,94,243251,1,8,0:0:0:0:
408,156,243387,5,0,0:0:0:0:
105,97,243660,5,0,0:0:0:0:
255,195,243932,5,8,0:0:0:0:
255,195,244069,1,8,0:0:0:0:
255,195,244205,1,8,0:0:0:0:
265,105,244478,5,0,0:0:0:0:
327,152,244614,1,8,0:0:0:0:
171,207,244751,5,0,0:0:0:0:
179,128,244887,1,0,0:0:0:0:
320,244,245023,5,8,0:0:0:0:
103,172,245296,5,8,0:0:0:0:
252,180,245432,1,8,0:0:0:0:
197,49,245569,5,0,0:0:0:0:
252,180,245705,1,8,0:0:0:0:
345,80,245842,5,0,0:0:0:0:
402,242,246114,5,8,0:0:0:0:
252,180,246251,1,0,0:0:0:0:
192,310,246387,5,8,0:0:0:0:
330,228,246660,5,0,0:0:0:0:
181,229,246932,5,0,0:0:0:0:
177,151,247069,1,0,0:0:0:0:
261,102,247205,5,8,0:0:0:0:
328,147,247342,1,0,0:0:0:0:
186,322,247478,5,8,0:0:0:0:
101,210,247751,5,0,0:0:0:0:
398,173,247887,1,8,0:0:0:0:
141,77,248023,5,8,0:0:0:0:
256,193,248296,5,8,0:0:0:0:
256,193,248432,1,0,0:0:0:0:
256,193,248569,1,8,0:0:0:0:
256,193,248705,1,8,0:0:0:0:
241,83,248842,5,0,0:0:0:0:
269,302,249114,5,8,0:0:0:0:
364,176,249387,5,8,0:0:0:0:
334,113,249523,1,8,0:0:0:0:
149,209,249660,5,0,0:0:0:0:
182,269,249796,1,0,0:0:0:0:
364,176,249932,5,8,0:0:0:0:
255,58,250205,5,0,0:0:0:0:
249,202,250342,1,0,0:0:0:0:
157,156,250478,5,8,0:0:0:0:
127,296,250751,5,8,0:0:0:0:
269,207,250887,1,8,0:0:0:0:
276,304,251024,5,8,0:0:0:0:
410,254,251296,5,0,0:0:0:0:
371,328,251569,5,0,0:0:0:0:
303,124,251705,1,8,0:0:0:0:
400,148,251842,5,0,0:0:0:0:
274,250,252114,5,8,0:0:0:0:
401,220,252251,1,8,0:0:0:0:
333,204,252387,5,0,0:0:0:0:
344,276,252523,1,0,0:0:0:0:
401,220,252660,5,8,0:0:0:0:
274,250,252796,1,8,0:0:0:0:
449,280,252932,5,8,0:0:0:0:
402,342,253206,5,0,0:0:0:0:
249,275,253478,5,8,0:0:0:0:
250,69,253614,1,0,0:0:0:0:
121,336,253751,5,8,0:0:0:0:
53,220,254023,5,8,0:0:0:0:
30,146,254160,1,8,0:0:0:0:
150,235,254296,5,0,0:0:0:0:
260,221,254569,5,8,0:0:0:0:
246,126,254705,1,0,0:0:0:0:
362,260,254842,5,8,0:0:0:0:
458,223,255114,5,8,0:0:0:0:
395,177,255387,5,0,0:0:0:0:
293,249,255660,5,0,0:0:0:0:
366,268,255796,1,8,0:0:0:0:
193,189,255932,5,0,0:0:0:0:
87,243,256205,5,8,0:0:0:0:
178,270,256342,1,8,0:0:0:0:
7,208,256478,5,0,0:0:0:0:
11,231,256751,1,8,0:0:0:0:
93,153,256887,1,0,0:0:0:0:
303,202,257023,5,8,0:0:0:0:
294,200,257160,1,0,0:0:0:0:
213,203,257296,5,8,0:0:0:0:
379,221,257569,5,0,0:0:0:0:
431,278,257842,5,8,0:0:0:0:
433,157,257977,1,0,0:0:0:0:
217,196,258114,5,8,0:0:0:0:
290,126,258387,5,8,0:0:0:0:
300,285,258523,1,8,0:0:0:0:
55,291,258660,5,8,0:0:0:0:
73,180,258932,5,0,0:0:0:0:
209,309,259069,1,0,0:0:0:0:
126,355,259205,5,8,0:0:0:0:
154,110,259478,5,0,0:0:0:0:
98,212,259751,5,8,0:0:0:0:
63,203,259887,1,8,0:0:0:0:
167,228,260023,1,0,0:0:0:0:
245,160,260160,5,8,0:0:0:0:
208,163,260296,1,8,0:0:0:0:
365,69,260569,5,8,0:0:0:0:
330,82,260705,1,8,0:0:0:0:
431,41,260842,1,0,0:0:0:0:
470,175,260978,5,8,0:0:0:0:
505,188,261114,1,0,0:0:0:0:
328,207,261387,5,8,0:0:0:0:
177,198,261660,5,8,0:0:0:0:
26,185,261796,1,8,0:0:0:0:
123,286,261933,5,0,0:0:0:0:
89,283,262205,5,8,0:0:0:0:
102,210,262342,1,0,0:0:0:0:
211,52,262478,5,8,0:0:0:0:
250,56,262751,5,8,0:0:0:0:
222,143,262887,1,8,0:0:0:0:
363,344,263023,5,0,0:0:0:0:
316,143,263160,1,8,0:0:0:0:
324,349,263296,5,0,0:0:0:0:
444,25,263569,5,8,0:0:0:0:
425,264,263705,1,0,0:0:0:0:
484,33,263842,5,8,0:0:0:0:
299,179,264115,5,0,0:0:0:0:
202,286,264387,5,0,0:0:0:0:
271,253,264523,1,8,0:0:0:0:
58,277,264660,5,0,0:0:0:0:
190,152,264932,5,8,0:0:0:0:
212,51,265069,1,0,0:0:0:0:
308,289,265205,5,0,0:0:0:0:
484,264,265478,5,8,0:0:0:0:
393,309,265614,1,0,0:0:0:0:
410,228,265751,5,8,0:0:0:0:
471,350,265887,1,0,0:0:0:0:
262,186,266023,5,8,0:0:0:0:
199,338,266295,1,0,0:0:0:0:
155,221,266569,5,8,0:0:0:0:
77,318,266705,1,0,0:0:0:0:
227,299,266841,5,8,0:0:0:0:
76,181,267114,5,8,0:0:0:0:
0,235,267251,1,8,0:0:0:0:
230,221,267387,5,8,0:0:0:0:
376,225,267660,5,8,0:0:0:0:
267,293,267796,1,0,0:0:0:0:
485,284,267932,5,8,0:0:0:0:
327,98,268068,1,8,0:0:0:0:
281,178,268205,5,0,0:0:0:0:
406,49,268478,5,8,0:0:0:0:
106,49,268751,5,0,0:0:0:0:
175,15,268887,1,8,0:0:0:0:
406,72,269023,5,0,0:0:0:0:
337,38,269160,1,0,0:0:0:0:
106,72,269296,5,8,0:0:0:0:
344,171,269568,5,8,0:0:0:0:
163,218,269705,1,0,0:0:0:0:
336,273,269842,5,8,0:0:0:0:
208,134,269978,1,0,0:0:0:0:
67,188,270114,5,8,0:0:0:0:
29,199,270251,1,8,0:0:0:0:
424,228,270387,5,8,0:0:0:0:
52,295,270660,5,0,0:0:0:0:
