osu file format v14

[General]
AudioFilename: audio.mp3
AudioLeadIn: 0
PreviewTime: 233534
Countdown: 0
SampleSet: Normal
StackLeniency: 0.4
Mode: 1
LetterboxInBreaks: 0
WidescreenStoryboard: 1

[Editor]
Bookmarks: 26296,43750,78659,113568,122296,131023,148478,165932,183387,200841,218296,235750,287432
DistanceSpacing: 0.3
BeatDivisor: 4
GridSize: 32
TimelineZoom: 1.6

[Metadata]
Title:Kami no Kotoba
TitleUnicode:カミノコトバ
Artist:Luschka
ArtistUnicode:ルシュカ
Creator:Hivie
Version:Futsuu
Source:
Tags:japanese pop jpop j-pop electronic yuyoyuppe 初音ミク hatsune miku vocaloid utaite cover ゆよゆっぺ dj'tekina//something
BeatmapID:3193386
BeatmapSetID:1563463

[Difficulty]
HPDrainRate:7
CircleSize:4
OverallDifficulty:4
ApproachRate:9
SliderMultiplier:1.4
SliderTickRate:1

[Events]
//Background and Video events
0,0,"bg.jpg",0,0
//Break Periods
2,76477,78059
2,113768,121695
2,233768,235150
//Storyboard Layer 0 (Background)
//Storyboard Layer 1 (Fail)
//Storyboard Layer 2 (Pass)
//Storyboard Layer 3 (Foreground)
//Storyboard Layer 4 (Overlay)
//Storyboard Sound Samples

[TimingPoints]
113,545.454545454546,727,1,0,30,1,8
8841,545.454545454546,727,1,0,30,1,0
8841,-166.666666666667,4,1,0,30,0,0
13204,545.454545454546,4,1,0,60,1,8
13205,545.454545454546,4,1,0,60,1,0
13205,-125,4,1,0,60,0,0
26261,-100,4,1,0,60,0,0
43614,-105.263157894737,4,1,0,60,0,0
78523,-125,4,1,0,60,0,0
78659,-125,4,1,0,80,0,0
80842,-125,4,1,0,60,0,0
114114,-166.666666666667,4,1,0,60,0,0
122159,-125,4,1,0,60,0,0
130886,-105.263157894737,4,1,0,60,0,0
148477,-125,4,1,0,65,0,0
165795,-125,4,1,0,70,0,0
165932,-133.333333333333,4,1,0,70,0,0
183318,-166.666666666667,4,1,0,40,0,0
218159,-125,4,1,0,50,0,0
233568,-125,4,1,0,30,0,0
235750,-100,4,1,0,80,0,1
270659,-100,4,1,0,80,0,0

[Colours]
Combo1 : 17,254,176
Combo2 : 173,255,95
Combo3 : 255,88,100
Combo4 : 255,94,55

[HitObjects]
256,192,8841,5,8,0:0:0:0:
256,192,9250,1,8,0:0:0:0:
256,192,9659,1,0,0:0:0:0:
256,192,10205,1,0,0:0:0:0:
256,192,13205,1,0,0:0:0:0:
256,192,13750,1,8,0:0:0:0:
256,192,14023,1,0,0:0:0:0:
256,192,14841,1,0,0:0:0:0:
256,192,15386,1,0,0:0:0:0:
256,192,15932,1,8,0:0:0:0:
256,192,16205,1,0,0:0:0:0:
256,192,17023,1,0,0:0:0:0:
256,192,17568,1,0,0:0:0:0:
256,192,18113,1,8,0:0:0:0:
256,192,18386,1,0,0:0:0:0:
256,192,19204,1,0,0:0:0:0:
256,192,19749,1,0,0:0:0:0:
256,192,20295,1,8,0:0:0:0:
256,192,20568,1,0,0:0:0:0:
256,192,21386,1,0,0:0:0:0:
256,192,21932,1,0,0:0:0:0:
256,192,22477,1,8,0:0:0:0:
256,192,22750,1,0,0:0:0:0:
256,192,23568,1,0,0:0:0:0:
256,192,24113,1,0,0:0:0:0:
256,192,24659,1,8,0:0:0:0:
256,192,24932,1,0,0:0:0:0:
256,192,26295,1,8,0:0:0:0:
256,192,26568,1,0,0:0:0:0:
256,192,26841,1,8,0:0:0:0:
256,192,27114,1,0,0:0:0:0:
256,192,27386,1,8,0:0:0:0:
256,192,27659,1,8,0:0:0:0:
256,192,27932,1,0,0:0:0:0:
256,192,28205,1,0,0:0:0:0:
256,192,28477,1,8,0:0:0:0:
256,192,29023,1,0,0:0:0:0:
256,192,29295,1,0,0:0:0:0:
256,192,29568,1,8,0:0:0:0:
256,192,30659,1,8,0:0:0:0:
256,192,30932,1,0,0:0:0:0:
256,192,31205,1,0,0:0:0:0:
256,192,31477,1,8,0:0:0:0:
256,192,31750,1,0,0:0:0:0:
256,192,32023,1,8,0:0:0:0:
256,192,32295,1,0,0:0:0:0:
256,192,32568,1,8,0:0:0:0:
256,192,32841,1,0,0:0:0:0:
256,192,33386,1,8,0:0:0:0:
256,192,33659,1,0,0:0:0:0:
256,192,33932,1,8,0:0:0:0:
256,192,35023,1,8,0:0:0:0:
256,192,35296,1,0,0:0:0:0:
256,192,35569,1,8,0:0:0:0:
256,192,35842,1,0,0:0:0:0:
256,192,36114,1,8,0:0:0:0:
256,192,36387,1,8,0:0:0:0:
256,192,36660,1,0,0:0:0:0:
256,192,36933,1,0,0:0:0:0:
256,192,37205,1,8,0:0:0:0:
256,192,37751,1,0,0:0:0:0:
256,192,38023,1,0,0:0:0:0:
256,192,38296,1,8,0:0:0:0:
256,192,39387,1,8,0:0:0:0:
256,192,39660,1,0,0:0:0:0:
256,192,39933,1,0,0:0:0:0:
256,192,40205,1,8,0:0:0:0:
256,192,40478,1,0,0:0:0:0:
256,192,40751,1,8,0:0:0:0:
256,192,41023,1,0,0:0:0:0:
256,192,41296,1,8,0:0:0:0:
256,192,41569,1,0,0:0:0:0:
256,192,42114,1,8,0:0:0:0:
256,192,42387,1,0,0:0:0:0:
256,192,42660,1,8,0:0:0:0:
256,192,43750,5,0,0:0:0:0:
256,192,44023,1,8,0:0:0:0:
256,192,44295,1,8,0:0:0:0:
256,192,44568,1,0,0:0:0:0:
256,192,44841,1,0,0:0:0:0:
256,192,45250,1,8,0:0:0:0:
256,192,45932,1,0,0:0:0:0:
256,192,46341,1,8,0:0:0:0:
256,192,46750,1,0,0:0:0:0:
256,192,47295,1,8,0:0:0:0:
256,192,47568,1,0,0:0:0:0:
256,192,48114,1,8,0:0:0:0:
256,192,48386,1,0,0:0:0:0:
256,192,48658,1,8,0:0:0:0:
256,192,48931,1,8,0:0:0:0:
256,192,49204,1,0,0:0:0:0:
256,192,49614,1,8,0:0:0:0:
256,192,50295,1,0,0:0:0:0:
256,192,50705,1,8,0:0:0:0:
256,192,51114,1,0,0:0:0:0:
256,192,51523,1,8,0:0:0:0:
256,192,51932,1,0,0:0:0:0:
256,192,52477,1,0,0:0:0:0:
256,192,52750,1,8,0:0:0:0:
256,192,53023,1,8,0:0:0:0:
256,192,53294,1,0,0:0:0:0:
256,192,53567,1,0,0:0:0:0:
256,192,53840,1,8,0:0:0:0:
256,192,54114,1,0,0:0:0:0:
256,192,54659,1,0,0:0:0:0:
256,192,54932,1,0,0:0:0:0:
256,192,55205,1,8,0:0:0:0:
256,192,55477,1,8,0:0:0:0:
256,192,56023,1,0,0:0:0:0:
256,192,56295,1,8,0:0:0:0:
256,192,56841,1,0,0:0:0:0:
256,192,57386,1,8,0:0:0:0:
256,192,57659,1,0,0:0:0:0:
256,192,58477,1,8,0:0:0:0:
256,192,59023,1,0,0:0:0:0:
256,192,59568,1,8,0:0:0:0:
256,192,59841,1,0,0:0:0:0:
256,192,60114,1,8,0:0:0:0:
256,192,61205,5,0,0:0:0:0:
256,192,61478,1,8,0:0:0:0:
256,192,61750,1,8,0:0:0:0:
256,192,62023,1,0,0:0:0:0:
256,192,62296,1,0,0:0:0:0:
256,192,62841,1,8,0:0:0:0:
256,192,63387,1,0,0:0:0:0:
256,192,63796,1,8,0:0:0:0:
256,192,64205,1,0,0:0:0:0:
256,192,64750,1,8,0:0:0:0:
256,192,65023,1,0,0:0:0:0:
256,192,65569,1,8,0:0:0:0:
256,192,65841,1,0,0:0:0:0:
256,192,66113,1,8,0:0:0:0:
256,192,66386,1,8,0:0:0:0:
256,192,66659,1,0,0:0:0:0:
256,192,67205,1,8,0:0:0:0:
256,192,67750,1,0,0:0:0:0:
256,192,68160,1,8,0:0:0:0:
256,192,68569,1,0,0:0:0:0:
256,192,69387,1,0,0:0:0:0:
256,192,69932,1,0,0:0:0:0:
256,192,70205,1,8,0:0:0:0:
256,192,70478,1,8,0:0:0:0:
256,192,70749,1,0,0:0:0:0:
256,192,71022,1,0,0:0:0:0:
256,192,71295,1,8,0:0:0:0:
256,192,71569,1,0,0:0:0:0:
256,192,72114,1,0,0:0:0:0:
256,192,72387,1,0,0:0:0:0:
256,192,72660,1,8,0:0:0:0:
256,192,72932,1,8,0:0:0:0:
256,192,73478,1,0,0:0:0:0:
256,192,73750,1,8,0:0:0:0:
256,192,74296,1,0,0:0:0:0:
256,192,74841,1,8,0:0:0:0:
256,192,75114,1,0,0:0:0:0:
256,192,75932,5,8,0:0:0:0:
256,192,78659,5,0,0:0:0:0:
256,192,78931,1,0,0:0:0:0:
256,192,79204,1,8,0:0:0:0:
256,192,79476,1,8,0:0:0:0:
256,192,79749,1,0,0:0:0:0:
256,192,80022,1,8,0:0:0:0:
256,192,80295,1,0,0:0:0:0:
256,192,80568,1,8,0:0:0:0:
256,192,80841,1,0,0:0:0:0:
256,192,81386,1,8,0:0:0:0:
256,192,81658,1,8,0:0:0:0:
256,192,81931,1,8,0:0:0:0:
256,192,82204,1,0,0:0:0:0:
256,192,82477,1,8,0:0:0:0:
256,192,82749,1,8,0:0:0:0:
256,192,83023,1,0,0:0:0:0:
256,192,83567,1,8,0:0:0:0:
256,192,83840,1,0,0:0:0:0:
256,192,84113,1,0,0:0:0:0:
256,192,84386,1,8,0:0:0:0:
256,192,84659,1,0,0:0:0:0:
256,192,84931,1,8,0:0:0:0:
256,192,85205,1,8,0:0:0:0:
256,192,85476,1,8,0:0:0:0:
256,192,85749,1,0,0:0:0:0:
256,192,86022,1,8,0:0:0:0:
256,192,86294,1,0,0:0:0:0:
256,192,86840,1,8,0:0:0:0:
256,192,87386,5,0,0:0:0:0:
256,192,87659,1,0,0:0:0:0:
256,192,87932,1,8,0:0:0:0:
256,192,88205,1,8,0:0:0:0:
256,192,88477,1,0,0:0:0:0:
256,192,88750,1,8,0:0:0:0:
256,192,89023,1,0,0:0:0:0:
256,192,89295,1,8,0:0:0:0:
256,192,89568,1,0,0:0:0:0:
256,192,90113,1,8,0:0:0:0:
256,192,90385,1,8,0:0:0:0:
256,192,90658,1,0,0:0:0:0:
256,192,90931,1,0,0:0:0:0:
256,192,91205,1,8,0:0:0:0:
256,192,91477,1,8,0:0:0:0:
256,192,91750,1,8,0:0:0:0:
256,192,92295,1,8,0:0:0:0:
256,192,92567,1,0,0:0:0:0:
256,192,92841,1,0,0:0:0:0:
256,192,93114,1,8,0:0:0:0:
256,192,93386,1,0,0:0:0:0:
256,192,93658,1,8,0:0:0:0:
256,192,93932,1,8,0:0:0:0:
256,192,94477,1,0,0:0:0:0:
256,192,94750,1,0,0:0:0:0:
256,192,95023,1,8,0:0:0:0:
256,192,96114,5,0,0:0:0:0:
256,192,96386,1,8,0:0:0:0:
256,192,96659,1,8,0:0:0:0:
256,192,96931,1,0,0:0:0:0:
256,192,97204,1,8,0:0:0:0:
256,192,97477,1,8,0:0:0:0:
256,192,97749,1,0,0:0:0:0:
256,192,98022,1,8,0:0:0:0:
256,192,98295,1,0,0:0:0:0:
256,192,98705,1,8,0:0:0:0:
256,192,99114,1,0,0:0:0:0:
256,192,99659,1,8,0:0:0:0:
256,192,99931,1,0,0:0:0:0:
256,192,100477,1,0,0:0:0:0:
256,192,100750,1,8,0:0:0:0:
256,192,101022,1,8,0:0:0:0:
256,192,101295,1,8,0:0:0:0:
256,192,101568,1,0,0:0:0:0:
256,192,101841,1,0,0:0:0:0:
256,192,102113,1,8,0:0:0:0:
256,192,102659,1,8,0:0:0:0:
256,192,103068,1,8,0:0:0:0:
256,192,103476,1,8,0:0:0:0:
256,192,103886,1,0,0:0:0:0:
256,192,104295,1,8,0:0:0:0:
256,192,104841,5,0,0:0:0:0:
256,192,105113,1,8,0:0:0:0:
256,192,105386,1,8,0:0:0:0:
256,192,105658,1,0,0:0:0:0:
256,192,105931,1,8,0:0:0:0:
256,192,106204,1,8,0:0:0:0:
256,192,106476,1,0,0:0:0:0:
256,192,106749,1,8,0:0:0:0:
256,192,107023,1,0,0:0:0:0:
256,192,107432,1,8,0:0:0:0:
256,192,107840,1,8,0:0:0:0:
256,192,108386,1,0,0:0:0:0:
256,192,108658,1,8,0:0:0:0:
256,192,109205,1,0,0:0:0:0:
256,192,109476,1,8,0:0:0:0:
256,192,109749,1,8,0:0:0:0:
256,192,110022,1,8,0:0:0:0:
256,192,110295,1,0,0:0:0:0:
256,192,110567,1,0,0:0:0:0:
256,192,110840,1,8,0:0:0:0:
256,192,111113,1,0,0:0:0:0:
256,192,111386,1,8,0:0:0:0:
256,192,111795,1,0,0:0:0:0:
256,192,112204,1,8,0:0:0:0:
256,192,112749,1,0,0:0:0:0:
256,192,113022,1,8,0:0:0:0:
256,192,113295,1,8,0:0:0:0:
256,192,113568,1,0,0:0:0:0:
256,192,122295,5,0,0:0:0:0:
256,192,122840,1,8,0:0:0:0:
256,192,123113,1,0,0:0:0:0:
256,192,123931,1,0,0:0:0:0:
256,192,124476,1,0,0:0:0:0:
256,192,125022,1,8,0:0:0:0:
256,192,125295,1,0,0:0:0:0:
256,192,126113,1,0,0:0:0:0:
256,192,126658,1,0,0:0:0:0:
256,192,127205,1,8,0:0:0:0:
256,192,127477,1,0,0:0:0:0:
256,192,128294,1,0,0:0:0:0:
256,192,128841,1,0,0:0:0:0:
256,192,129385,1,8,0:0:0:0:
256,192,129658,1,0,0:0:0:0:
256,192,130476,1,0,0:0:0:0:
256,192,131023,1,8,0:0:0:0:
256,192,131295,1,0,0:0:0:0:
256,192,131567,1,8,0:0:0:0:
256,192,131977,1,8,0:0:0:0:
256,192,132659,1,0,0:0:0:0:
256,192,133204,1,0,0:0:0:0:
256,192,133613,1,8,0:0:0:0:
256,192,134023,1,8,0:0:0:0:
256,192,134840,1,0,0:0:0:0:
256,192,135386,1,8,0:0:0:0:
256,192,135658,1,0,0:0:0:0:
256,192,135932,1,8,0:0:0:0:
256,192,136341,1,8,0:0:0:0:
256,192,137022,1,0,0:0:0:0:
256,192,137294,1,0,0:0:0:0:
256,192,137568,1,8,0:0:0:0:
256,192,137977,1,8,0:0:0:0:
256,192,138386,1,0,0:0:0:0:
256,192,138795,1,8,0:0:0:0:
256,192,139204,1,0,0:0:0:0:
256,192,139749,1,0,0:0:0:0:
256,192,140023,1,8,0:0:0:0:
256,192,140295,1,8,0:0:0:0:
256,192,140705,1,8,0:0:0:0:
256,192,141386,1,0,0:0:0:0:
256,192,141932,1,0,0:0:0:0:
256,192,142204,1,0,0:0:0:0:
256,192,142477,1,8,0:0:0:0:
256,192,142886,1,8,0:0:0:0:
256,192,143567,1,8,0:0:0:0:
256,192,143840,1,8,0:0:0:0:
256,192,144113,1,0,0:0:0:0:
256,192,144658,1,8,0:0:0:0:
256,192,144931,1,0,0:0:0:0:
256,192,145749,1,8,0:0:0:0:
256,192,146295,1,0,0:0:0:0:
256,192,146568,1,0,0:0:0:0:
256,192,146840,1,8,0:0:0:0:
256,192,147113,1,0,0:0:0:0:
256,192,147386,1,8,0:0:0:0:
256,192,148477,1,8,0:0:0:0:
256,192,149023,1,0,0:0:0:0:
256,192,149295,1,0,0:0:0:0:
256,192,149568,1,8,0:0:0:0:
256,192,150114,1,8,0:0:0:0:
256,192,150386,1,0,0:0:0:0:
256,192,150659,1,8,0:0:0:0:
256,192,150932,1,8,0:0:0:0:
256,192,151205,1,0,0:0:0:0:
256,192,151477,1,0,0:0:0:0:
256,192,151750,1,8,0:0:0:0:
256,192,152295,1,8,0:0:0:0:
256,192,152568,1,8,0:0:0:0:
256,192,152841,1,0,0:0:0:0:
256,192,153250,1,8,0:0:0:0:
256,192,153659,1,0,0:0:0:0:
256,192,153932,1,8,0:0:0:0:
256,192,154341,1,0,0:0:0:0:
256,192,154750,1,8,0:0:0:0:
256,192,155023,1,0,0:0:0:0:
256,192,155568,1,8,0:0:0:0:
256,192,156114,1,0,0:0:0:0:
256,192,157205,1,8,0:0:0:0:
256,192,157751,1,8,0:0:0:0:
256,192,158023,1,0,0:0:0:0:
256,192,158296,1,8,0:0:0:0:
256,192,158842,1,0,0:0:0:0:
256,192,159114,1,8,0:0:0:0:
256,192,159387,1,0,0:0:0:0:
256,192,159660,1,0,0:0:0:0:
256,192,159933,1,8,0:0:0:0:
256,192,160478,1,8,0:0:0:0:
256,192,161023,1,0,0:0:0:0:
256,192,161296,1,8,0:0:0:0:
256,192,161569,1,0,0:0:0:0:
256,192,161978,1,8,0:0:0:0:
256,192,162387,1,0,0:0:0:0:
256,192,162660,1,8,0:0:0:0:
256,192,163069,1,0,0:0:0:0:
256,192,163478,1,8,0:0:0:0:
256,192,163751,1,8,0:0:0:0:
256,192,164296,1,8,0:0:0:0:
256,192,164569,1,8,0:0:0:0:
256,192,164842,1,0,0:0:0:0:
256,192,165932,1,8,0:0:0:0:
256,192,166341,1,0,0:0:0:0:
256,192,166751,1,8,0:0:0:0:
256,192,167023,1,0,0:0:0:0:
256,192,167296,1,8,0:0:0:0:
256,192,167568,1,0,0:0:0:0:
256,192,168114,1,0,0:0:0:0:
256,192,168523,1,8,0:0:0:0:
256,192,168932,1,0,0:0:0:0:
256,192,169205,1,8,0:0:0:0:
256,192,169750,1,8,0:0:0:0:
256,192,170295,1,8,0:0:0:0:
256,192,170705,1,0,0:0:0:0:
256,192,171114,1,8,0:0:0:0:
256,192,171386,1,0,0:0:0:0:
256,192,171659,1,8,0:0:0:0:
256,192,171931,1,0,0:0:0:0:
256,192,172477,1,0,0:0:0:0:
256,192,172886,1,8,0:0:0:0:
256,192,173295,1,0,0:0:0:0:
256,192,173568,1,8,0:0:0:0:
256,192,174659,1,8,0:0:0:0:
256,192,175068,1,0,0:0:0:0:
256,192,175478,1,8,0:0:0:0:
256,192,175750,1,0,0:0:0:0:
256,192,176023,1,8,0:0:0:0:
256,192,176295,1,0,0:0:0:0:
256,192,176841,1,8,0:0:0:0:
256,192,177250,1,0,0:0:0:0:
256,192,177659,1,0,0:0:0:0:
256,192,177932,1,8,0:0:0:0:
256,192,178477,1,8,0:0:0:0:
256,192,179023,1,8,0:0:0:0:
256,192,179432,1,8,0:0:0:0:
256,192,179841,1,0,0:0:0:0:
256,192,180114,1,8,0:0:0:0:
256,192,180387,1,0,0:0:0:0:
256,192,180659,1,8,0:0:0:0:
256,192,181205,1,8,0:0:0:0:
256,192,181614,1,8,0:0:0:0:
256,192,182023,1,0,0:0:0:0:
256,192,182296,1,8,0:0:0:0:
256,192,182841,1,8,0:0:0:0:
256,192,183386,1,8,0:0:0:0:
256,192,183795,1,8,0:0:0:0:
256,192,184205,1,0,0:0:0:0:
256,192,184750,1,0,0:0:0:0:
256,192,187750,1,8,0:0:0:0:
256,192,188159,1,8,0:0:0:0:
256,192,188569,1,0,0:0:0:0:
256,192,189114,1,0,0:0:0:0:
256,192,191841,1,0,0:0:0:0:
256,192,192114,1,8,0:0:0:0:
256,192,192523,1,8,0:0:0:0:
256,192,192933,1,0,0:0:0:0:
256,192,193478,1,0,0:0:0:0:
256,192,195932,1,0,0:0:0:0:
256,192,196477,1,8,0:0:0:0:
256,192,196886,1,8,0:0:0:0:
256,192,197296,1,0,0:0:0:0:
256,192,197841,1,0,0:0:0:0:
256,192,200841,1,8,0:0:0:0:
256,192,201250,1,8,0:0:0:0:
256,192,201660,1,0,0:0:0:0:
256,192,202205,1,0,0:0:0:0:
256,192,203023,1,0,0:0:0:0:
256,192,205205,1,8,0:0:0:0:
256,192,205614,1,8,0:0:0:0:
256,192,206024,1,0,0:0:0:0:
256,192,206569,1,0,0:0:0:0:
256,192,207386,1,0,0:0:0:0:
256,192,209296,1,0,0:0:0:0:
256,192,209569,1,8,0:0:0:0:
256,192,209978,1,8,0:0:0:0:
256,192,210386,1,0,0:0:0:0:
256,192,210933,1,0,0:0:0:0:
256,192,211750,1,0,0:0:0:0:
256,192,213387,1,0,0:0:0:0:
256,192,213932,1,8,0:0:0:0:
256,192,214341,1,8,0:0:0:0:
256,192,214751,1,0,0:0:0:0:
256,192,215296,1,0,0:0:0:0:
256,192,216114,1,0,0:0:0:0:
256,192,218295,1,0,0:0:0:0:
256,192,218841,1,8,0:0:0:0:
256,192,219386,1,0,0:0:0:0:
256,192,219659,1,8,0:0:0:0:
256,192,219932,1,0,0:0:0:0:
256,192,220477,1,0,0:0:0:0:
256,192,220886,1,8,0:0:0:0:
256,192,221295,1,0,0:0:0:0:
256,192,222114,1,8,0:0:0:0:
256,192,222659,1,0,0:0:0:0:
256,192,223205,1,0,0:0:0:0:
256,192,223750,1,0,0:0:0:0:
256,192,224023,1,8,0:0:0:0:
256,192,224295,1,0,0:0:0:0:
256,192,224841,1,8,0:0:0:0:
256,192,225250,1,8,0:0:0:0:
256,192,225659,1,8,0:0:0:0:
256,192,226477,1,8,0:0:0:0:
256,192,227023,1,0,0:0:0:0:
256,192,227568,1,8,0:0:0:0:
256,192,228114,1,0,0:0:0:0:
256,192,228386,1,8,0:0:0:0:
256,192,228659,1,8,0:0:0:0:
256,192,229205,1,0,0:0:0:0:
256,192,229750,1,8,0:0:0:0:
256,192,230023,1,8,0:0:0:0:
256,192,230568,1,0,0:0:0:0:
256,192,230841,1,8,0:0:0:0:
256,192,231386,1,0,0:0:0:0:
256,192,232205,1,8,0:0:0:0:
256,192,233023,1,8,0:0:0:0:
256,192,233568,1,0,0:0:0:0:
241,121,235750,5,0,0:0:0:0:
196,232,236023,5,0,0:0:0:0:
320,223,236296,5,8,0:0:0:0:
173,87,236569,5,8,0:0:0:0:
203,307,236842,5,0,0:0:0:0:
392,180,237114,5,0,0:0:0:0:
102,115,237387,5,8,0:0:0:0:
272,363,237660,5,8,0:0:0:0:
410,77,237933,5,0,0:0:0:0:
509,182,238478,5,8,0:0:0:0:
494,176,238751,5,0,0:0:0:0:
440,241,239023,5,0,0:0:0:0:
369,215,239296,5,8,0:0:0:0:
254,190,239569,5,8,0:0:0:0:
254,190,239842,1,8,0:0:0:0:
264,275,240115,5,0,0:0:0:0:
174,154,240660,5,8,0:0:0:0:
289,266,240932,5,0,0:0:0:0:
302,119,241205,5,8,0:0:0:0:
172,179,241478,5,0,0:0:0:0:
250,190,241751,1,8,0:0:0:0:
249,363,242023,5,8,0:0:0:0:
361,348,242296,5,8,0:0:0:0:
116,334,242569,5,0,0:0:0:0:
405,285,242842,5,0,0:0:0:0:
92,228,243114,5,8,0:0:0:0:
408,156,243387,5,0,0:0:0:0:
255,195,243932,5,8,0:0:0:0:
265,105,244478,5,0,0:0:0:0:
171,207,244751,5,0,0:0:0:0:
320,244,245023,5,8,0:0:0:0:
103,172,245296,5,8,0:0:0:0:
197,49,245569,5,0,0:0:0:0:
345,80,245841,5,8,0:0:0:0:
402,242,246114,5,0,0:0:0:0:
192,310,246387,5,0,0:0:0:0:
330,228,246659,5,8,0:0:0:0:
261,102,247205,5,8,0:0:0:0:
186,322,247478,5,0,0:0:0:0:
101,210,247751,5,0,0:0:0:0:
141,77,248023,5,8,0:0:0:0:
256,193,248295,5,0,0:0:0:0:
256,193,248569,1,8,0:0:0:0:
241,83,248842,5,0,0:0:0:0:
364,176,249387,5,8,0:0:0:0:
149,209,249659,5,8,0:0:0:0:
364,176,249932,5,0,0:0:0:0:
255,58,250205,5,0,0:0:0:0:
157,156,250478,5,8,0:0:0:0:
127,296,250751,5,8,0:0:0:0:
276,304,251024,5,8,0:0:0:0:
371,328,251569,5,0,0:0:0:0:
344,276,251841,1,0,0:0:0:0:
274,250,252114,5,8,0:0:0:0:
402,342,253206,5,0,0:0:0:0:
249,275,253478,5,8,0:0:0:0:
121,336,253751,5,8,0:0:0:0:
53,220,254023,5,8,0:0:0:0:
150,235,254296,5,0,0:0:0:0:
260,221,254569,5,8,0:0:0:0:
362,260,254842,5,0,0:0:0:0:
395,177,255387,5,0,0:0:0:0:
193,189,255795,5,8,0:0:0:0:
87,243,256205,5,8,0:0:0:0:
7,208,256478,5,0,0:0:0:0:
11,231,256751,1,8,0:0:0:0:
303,202,257023,5,8,0:0:0:0:
379,221,257569,5,0,0:0:0:0:
431,278,257842,5,8,0:0:0:0:
217,196,258114,5,8,0:0:0:0:
300,285,258386,1,0,0:0:0:0:
55,291,258660,5,8,0:0:0:0:
73,180,258932,5,0,0:0:0:0:
126,355,259205,5,8,0:0:0:0:
98,212,259751,5,8,0:0:0:0:
208,163,260159,1,8,0:0:0:0:
365,69,260569,5,8,0:0:0:0:
470,175,260977,5,0,0:0:0:0:
328,207,261387,5,8,0:0:0:0:
123,286,261933,5,0,0:0:0:0:
89,283,262205,5,8,0:0:0:0:
211,52,262478,5,8,0:0:0:0:
250,56,262751,5,0,0:0:0:0:
363,344,263023,5,8,0:0:0:0:
324,349,263296,5,0,0:0:0:0:
444,25,263569,5,8,0:0:0:0:
299,179,264115,5,0,0:0:0:0:
58,277,264523,5,0,0:0:0:0:
190,152,264932,5,8,0:0:0:0:
308,289,265205,5,0,0:0:0:0:
484,264,265477,5,0,0:0:0:0:
410,228,265751,5,8,0:0:0:0:
199,338,266295,1,0,0:0:0:0:
155,221,266569,5,8,0:0:0:0:
227,299,266841,5,8,0:0:0:0:
76,181,267114,5,8,0:0:0:0:
230,221,267387,5,0,0:0:0:0:
376,225,267660,5,8,0:0:0:0:
485,284,267932,5,0,0:0:0:0:
406,49,268478,5,8,0:0:0:0:
106,49,268886,5,0,0:0:0:0:
106,72,269296,5,8,0:0:0:0:
344,171,269568,5,8,0:0:0:0:
336,273,269842,5,8,0:0:0:0:
67,188,270114,5,0,0:0:0:0:
424,228,270387,5,8,0:0:0:0:
52,295,270660,5,0,0:0:0:0:
