osu file format v14

[General]
AudioFilename: audio.mp3
AudioLeadIn: 0
PreviewTime: 85260
Countdown: 0
SampleSet: Soft
StackLeniency: 0
Mode: 0
LetterboxInBreaks: 0
EpilepsyWarning: 1
WidescreenStoryboard: 0

[Editor]
Bookmarks: 1263,8120,14972,21829,28686,32120,35543,46757,51543,67543,82972,88120,112120,114120,118972,122400,133829,148972,164686,180972,195543,203829,232972,241263,254400,264686,273263,297263,312620,313120,319192
DistanceSpacing: 2.3
BeatDivisor: 4
GridSize: 4
TimelineZoom: 3.999998

[Metadata]
Title:Blindness
TitleUnicode:Blindness
Artist:Luschka
ArtistUnicode:ルシュカ
Creator:Faito
Version:"Since I know not, I see not."
Source:
Tags:vocaloid saheko cover japanese electronic utaite ELECTROCUTICA ElektLyze Treow Hysteresis ヒステリシス Piece of Cipher+ Hatsune Miku 初音ミク Megurine Luka 巡音ルカ dance pop 逆衝動p sakashoudou-p
BeatmapID:2599091
BeatmapSetID:1250600

[Difficulty]
HPDrainRate:5
CircleSize:4.8
OverallDifficulty:8.5
ApproachRate:9.3
SliderMultiplier:1.7
SliderTickRate:1

[Events]
//Background and Video events
0,0,"bggggggggggggg.png",0,0
//Break Periods
2,310274,312092
//Storyboard Layer 0 (Background)
//Storyboard Layer 1 (Fail)
//Storyboard Layer 2 (Pass)
//Storyboard Layer 3 (Foreground)
//Storyboard Layer 4 (Overlay)
//Storyboard Sound Samples

[TimingPoints]
1220,285.714285714286,3,2,6,40,1,0
1220,-250,3,2,6,40,0,0
6791,-133.333333333333,3,2,6,40,0,0
14934,-133.333333333333,3,2,6,55,0,0
15434,-133.333333333333,3,2,6,5,0,0
15505,-25,3,2,6,55,0,0
15791,-133.333333333333,3,2,6,55,0,0
16005,-133.333333333333,3,2,6,5,0,0
16077,-133.333333333333,3,2,6,55,0,0
16291,-133.333333333333,3,2,6,5,0,0
16362,-133.333333333333,3,2,6,55,0,0
16577,-133.333333333333,3,2,6,5,0,0
16648,-133.333333333333,3,2,6,55,0,0
21791,-166.666666666667,3,2,6,55,0,0
22291,-166.666666666667,3,2,6,5,0,0
22362,-200,3,2,6,55,0,0
22862,-200,3,2,6,5,0,0
22934,-250,3,2,6,55,0,0
23505,-333.333333333333,3,2,6,55,0,0
25220,-250,3,2,7,55,0,0
29410,-133.333333333333,3,2,7,55,0,0
32077,-250,3,2,7,55,0,0
35505,285.714285714286,7,2,6,40,1,0
35505,-133.333333333333,3,2,95,40,0,0
51505,-100,3,2,7,60,0,0
52076,-66.6666666666667,3,2,7,60,0,0
52505,-100,3,2,7,60,0,0
53219,-66.6666666666667,3,2,7,60,0,0
53505,-200,3,2,7,60,0,0
54076,-66.6666666666667,3,2,7,60,0,0
54505,-100,3,2,7,60,0,0
55219,-66.6666666666667,3,2,7,60,0,0
55505,-200,3,2,7,60,0,0
56076,-66.6666666666667,3,2,7,60,0,0
56647,-100,3,2,7,60,0,0
57077,-86.9565217391304,3,2,7,60,0,0
57505,-76.9230769230769,3,2,7,60,0,0
57933,-86.9565217391304,3,2,7,60,0,0
58362,-100,3,2,7,60,0,0
60076,-66.6666666666667,3,2,7,60,0,0
60505,-100,3,2,7,60,0,0
61219,-66.6666666666667,3,2,7,60,0,0
61505,-200,3,2,7,60,0,0
62076,-66.6666666666667,3,2,7,60,0,0
62505,-100,3,2,7,60,0,0
62933,-200,3,2,7,60,0,0
63505,-100,3,2,7,60,0,0
64076,-66.6666666666667,3,2,7,60,0,0
64505,-100,3,2,7,60,0,0
67505,285.714285714286,3,2,7,60,1,0
67505,-100,3,2,7,60,0,0
70933,-153.846153846154,3,2,7,60,0,0
72647,-76.9230769230769,3,2,7,60,0,0
74076,-133.333333333333,3,2,7,60,0,0
75576,-57.1428571428571,3,2,7,5,0,0
75647,-133.333333333333,3,2,7,60,0,0
76005,-57.1428571428571,3,2,7,5,0,0
76076,-133.333333333333,3,2,7,60,0,0
76576,-57.1428571428571,3,2,7,5,0,0
76647,-333.333333333333,3,2,7,60,0,0
77504,-133.333333333333,3,2,7,60,0,0
79147,-57.1428571428571,3,2,7,5,0,0
79219,-133.333333333333,3,2,7,60,0,0
79719,-57.1428571428571,3,2,7,5,0,0
79790,-100,3,2,7,60,0,0
80005,-57.1428571428571,3,2,7,5,0,0
80076,-100,3,2,7,60,0,0
81790,-86.9565217391304,3,2,7,60,0,0
82005,-57.1428571428571,3,2,7,5,0,0
82076,-86.9565217391304,3,2,7,60,0,0
82290,-57.1428571428571,3,2,7,5,0,0
82362,-86.9565217391304,3,2,7,60,0,0
82576,-57.1428571428571,3,2,7,5,0,0
82647,-86.9565217391304,3,2,7,60,0,0
82861,-86.9565217391304,3,2,7,5,0,0
82933,-86.9565217391304,3,2,7,60,0,0
83219,-86.9565217391304,3,2,7,50,0,0
83504,-86.9565217391304,3,2,7,40,0,0
83790,-86.9565217391304,3,2,7,30,0,0
84076,-86.9565217391304,3,2,7,25,0,0
84361,-86.9565217391304,3,2,7,20,0,0
84647,-86.9565217391304,3,2,7,15,0,0
84933,-86.9565217391304,3,2,7,10,0,0
85219,-86.9565217391304,3,2,7,5,0,0
85504,-86.9565217391304,3,2,7,60,0,0
88076,-57.1428571428571,3,2,70,70,0,0
88147,-57.1428571428571,3,2,7,70,0,0
89790,-57.1428571428571,3,2,71,70,0,0
89933,-57.1428571428571,3,2,7,70,0,0
91005,-57.1428571428571,3,2,7,5,0,0
91076,-57.1428571428571,3,2,7,70,0,0
91147,-57.1428571428571,3,2,7,5,0,0
91219,-57.1428571428571,3,2,7,70,0,0
91433,-57.1428571428571,3,2,7,5,0,0
91504,-57.1428571428571,3,2,72,70,0,0
91647,-57.1428571428571,3,2,7,70,0,0
91933,-100,3,2,7,70,0,0
92290,-100,3,2,7,5,0,0
92361,-57.1428571428571,3,2,7,70,0,0
93219,-57.1428571428571,3,2,73,70,0,0
93361,-57.1428571428571,3,2,7,70,0,0
93647,-133.333333333333,3,2,7,70,0,0
94076,-57.1428571428571,3,2,7,70,0,0
94933,-57.1428571428571,3,2,74,70,0,0
95076,-57.1428571428571,3,2,7,70,0,0
95290,-57.1428571428571,3,2,7,5,0,0
95361,-100,3,2,7,70,0,0
96647,-57.1428571428571,3,2,75,70,0,0
96790,-57.1428571428571,3,2,7,70,0,0
97718,-57.1428571428571,3,2,7,5,0,0
97790,-57.1428571428571,3,2,7,70,0,0
97862,-57.1428571428571,3,2,7,5,0,0
97933,-57.1428571428571,3,2,7,70,0,0
98005,-57.1428571428571,3,2,7,5,0,0
98076,-57.1428571428571,3,2,7,70,0,0
98290,-57.1428571428571,3,2,7,5,0,0
98361,-57.1428571428571,3,2,76,70,0,0
98504,-57.1428571428571,3,2,7,70,0,0
100076,-57.1428571428571,3,2,77,70,0,0
100219,-57.1428571428571,3,2,7,70,0,0
101147,-57.1428571428571,3,2,7,5,0,0
101219,-25,3,2,7,70,0,0
101290,-57.1428571428571,3,2,7,5,0,0
101362,-25,3,2,7,70,0,0
101433,-57.1428571428571,3,2,7,5,0,0
101505,-25,3,2,7,70,0,0
101576,-57.1428571428571,3,2,7,5,0,0
101647,-25,3,2,7,70,0,0
101718,-25,3,2,7,5,0,0
101790,-57.1428571428571,3,2,71,70,0,0
101933,-57.1428571428571,3,2,7,70,0,0
103076,-100,3,2,7,70,0,0
103504,-57.1428571428571,3,2,72,70,0,0
103647,-57.1428571428571,3,2,7,70,0,0
104575,-57.1428571428571,3,2,7,5,0,0
104647,-57.1428571428571,3,2,7,70,0,0
104719,-57.1428571428571,3,2,7,5,0,0
104790,-57.1428571428571,3,2,7,70,0,0
104862,-57.1428571428571,3,2,7,5,0,0
104933,-57.1428571428571,3,2,7,70,0,0
105147,-57.1428571428571,3,2,7,5,0,0
105219,-57.1428571428571,3,2,73,70,0,0
105361,-57.1428571428571,3,2,7,70,0,0
105647,-100,3,2,7,70,0,0
106004,-100,3,2,7,5,0,0
106076,-57.1428571428571,3,2,7,70,0,0
106933,-57.1428571428571,3,2,74,70,0,0
107076,-57.1428571428571,3,2,7,70,0,0
108361,-100,3,2,7,70,0,0
108647,-57.1428571428571,3,2,75,70,0,0
108790,-57.1428571428571,3,2,7,70,0,0
110075,-100,3,2,7,70,0,0
110361,-57.1428571428571,3,2,76,70,0,0
110504,-57.1428571428571,3,2,7,70,0,0
110790,-66.6666666666667,3,2,7,70,0,0
111219,-57.1428571428571,3,2,7,70,0,0
111790,-66.6666666666667,3,2,7,70,0,0
112076,-97.0873786407767,3,2,78,70,0,1
112219,-97.0873786407767,3,2,7,70,0,1
117219,-97.0873786407767,3,2,7,50,0,0
118504,-133.333333333333,3,2,7,50,0,0
122361,-133.333333333333,3,2,7,50,0,0
122362,285.714285714286,4,2,7,60,1,0
122362,-133.333333333333,4,2,7,60,0,0
126933,285.714285714286,7,2,7,50,1,0
126933,-1000,3,2,7,50,0,0
128933,-200,3,2,7,50,0,0
132646,-57.1428571428571,3,2,7,50,0,0
132694,-57.1428571428571,3,2,7,5,0,0
132742,-57.1428571428571,3,2,7,50,0,0
132790,-57.1428571428571,3,2,7,5,0,0
132837,-57.1428571428571,3,2,7,50,0,0
132885,-57.1428571428571,3,2,7,5,0,0
132932,-133.333333333333,3,2,7,50,0,0
148932,-133.333333333333,3,2,7,40,0,0
149932,-250,3,2,7,40,0,0
164646,-555.555555555556,3,2,7,40,0,0
164647,1142.85714285714,4,2,7,40,1,0
164647,-909.090909090909,4,2,7,40,0,0
180932,285.714285714286,7,2,7,40,1,0
181502,-666.666666666667,3,2,7,40,0,0
182359,-666.666666666667,3,2,10,40,0,0
182646,-666.666666666667,3,2,7,40,0,0
186359,-666.666666666667,3,2,10,40,0,0
186646,-666.666666666667,3,2,7,40,0,0
190359,-666.666666666667,3,2,10,40,0,0
192931,-666.666666666667,3,2,7,40,0,0
194360,-666.666666666667,3,2,10,40,0,0
194646,-666.666666666667,3,2,7,40,0,0
196932,285.714285714286,3,2,10,40,1,0
196932,-666.666666666667,3,2,10,40,0,0
201645,-500,3,2,6,42,0,0
202073,-400,3,2,6,44,0,0
202502,-333.333333333333,3,2,6,46,0,0
202931,-285.714285714286,3,2,6,48,0,0
203359,-250,3,2,6,50,0,0
203788,-200,3,2,20,55,0,0
204217,-133.333333333333,3,2,20,60,0,0
204645,-100,3,2,20,65,0,0
205074,-80,3,2,20,60,0,0
205502,-80,3,2,25,60,0,0
205788,-100,3,2,25,60,0,0
214931,-83.3333333333333,3,2,25,60,0,0
216074,-100,3,2,25,60,0,0
218645,-86.9565217391304,3,2,25,60,0,0
218931,-76.9230769230769,3,2,25,60,0,0
219217,-66.6666666666667,3,2,25,60,0,0
219502,-58.8235294117647,3,2,25,60,0,0
219788,-52.6315789473684,3,2,25,60,0,0
220074,-100,3,2,25,60,0,0
226074,-66.6666666666667,3,2,25,60,0,0
226359,-400,3,2,25,60,0,0
226645,-57.1428571428571,3,2,25,60,0,0
226931,-400,3,2,25,60,0,0
227502,-100,3,2,25,60,0,0
232359,-100,3,2,7,60,0,0
233217,-200,3,2,7,40,0,0
238502,-1000,3,2,7,50,0,0
238931,-333.333333333333,3,2,7,50,0,0
239359,-200,3,2,7,50,0,0
239788,-1000,3,2,7,50,0,0
240645,-200,3,2,6,50,0,0
249217,-250,3,2,6,50,0,0
251788,-200,3,2,6,50,0,0
254359,-133.333333333333,3,2,7,60,0,0
262931,-100,3,2,7,60,0,0
264645,-100,3,2,7,40,0,0
272693,-250,3,2,7,60,0,0
273146,-250,3,2,7,5,0,0
273217,-57.1428571428571,3,2,70,70,0,0
273359,-57.1428571428571,3,2,7,70,0,0
274931,-57.1428571428571,3,2,71,70,0,0
275074,-57.1428571428571,3,2,7,70,0,0
276002,-57.1428571428571,3,2,7,5,0,0
276074,-57.1428571428571,3,2,7,70,0,0
276573,-57.1428571428571,3,2,7,5,0,0
276645,-57.1428571428571,3,2,72,70,0,0
276788,-57.1428571428571,3,2,7,70,0,0
277074,-100,3,2,7,70,0,0
277502,-57.1428571428571,3,2,7,70,0,0
278359,-57.1428571428571,3,2,73,70,0,0
278502,-57.1428571428571,3,2,7,70,0,0
278788,-100,3,2,7,70,0,0
279217,-57.1428571428571,3,2,7,70,0,0
280074,-57.1428571428571,3,2,74,70,0,0
280217,-57.1428571428571,3,2,7,70,0,0
280431,-57.1428571428571,3,2,7,5,0,0
280502,-100,3,2,7,70,0,0
281788,-57.1428571428571,3,2,75,70,0,0
281931,-57.1428571428571,3,2,7,70,0,0
282859,-57.1428571428571,3,2,7,5,0,0
282931,-57.1428571428571,3,2,7,70,0,0
283431,-57.1428571428571,3,2,7,5,0,0
283502,-57.1428571428571,3,2,76,70,0,0
283645,-57.1428571428571,3,2,7,70,0,0
283931,-100,3,2,7,70,0,0
284359,-57.1428571428571,3,2,7,70,0,0
285217,-57.1428571428571,3,2,77,70,0,0
285359,-57.1428571428571,3,2,7,70,0,0
286288,-57.1428571428571,3,2,7,5,0,0
286359,-25,3,2,7,70,0,0
286931,-57.1428571428571,3,2,70,70,0,0
287074,-57.1428571428571,3,2,7,70,0,0
288217,-100,3,2,7,70,0,0
288645,-57.1428571428571,3,2,71,70,0,0
288788,-57.1428571428571,3,2,7,70,0,0
289716,-57.1428571428571,3,2,7,5,0,0
289788,-57.1428571428571,3,2,7,70,0,0
289859,-57.1428571428571,3,2,7,5,0,0
289931,-57.1428571428571,3,2,7,70,0,0
290003,-57.1428571428571,3,2,7,5,0,0
290074,-57.1428571428571,3,2,7,70,0,0
290288,-57.1428571428571,3,2,7,5,0,0
290359,-57.1428571428571,3,2,72,70,0,0
290502,-57.1428571428571,3,2,7,70,0,0
290788,-100,3,2,7,70,0,0
291145,-100,3,2,7,5,0,0
291217,-57.1428571428571,3,2,7,70,0,0
292074,-57.1428571428571,3,2,73,70,0,0
292217,-57.1428571428571,3,2,7,70,0,0
293502,-100,3,2,7,70,0,0
293788,-57.1428571428571,3,2,74,70,0,0
293931,-57.1428571428571,3,2,7,70,0,0
295217,-100,3,2,7,70,0,0
295502,-57.1428571428571,3,2,75,70,0,0
295645,-57.1428571428571,3,2,7,70,0,0
295931,-66.6666666666667,3,2,7,70,0,0
296359,-57.1428571428571,3,2,7,70,0,0
296931,-66.6666666666667,3,2,7,70,0,0
297217,-117.647058823529,3,2,78,70,0,1
297359,-117.647058823529,3,2,7,70,0,1
301789,-117.647058823529,3,2,7,40,0,0
302502,-133.333333333333,3,2,7,40,0,0
304074,-333.333333333333,3,2,7,40,0,0

[Colours]
Combo1 : 202,255,255
Combo2 : 192,192,192
Combo3 : 83,83,83
Combo4 : 2,146,162
Combo5 : 36,219,251

[HitObjects]
492,14,1220,6,0,P|455:26|427:55,1,68,2|0,2:0|2:0,2:0:0:0:
506,137,1791,1,0,2:0:0:0:
494,133,1934,1,0,2:0:0:0:
443,182,2077,2,0,P|414:155|374:146,1,68,2|0,2:0|2:0,2:0:0:0:
508,256,2648,1,2,2:0:0:0:
367,232,2934,6,0,L|245:312,1,136,2|0,2:0|2:0,2:0:0:0:
353,369,3791,2,0,L|309:353,1,34,2|0,2:0|2:0,2:0:0:0:
171,311,4077,5,2,2:0:0:0:
144,316,4220,1,0,2:0:0:0:
117,321,4362,1,0,2:0:0:0:
8,378,4648,6,0,L|32:229,1,136,2|0,2:0|2:0,2:0:0:0:
86,206,5362,1,0,2:0:0:0:
50,147,5505,6,0,L|62:72,1,68,2|0,2:0|2:0,2:0:0:0:
136,87,5934,5,2,2:0:0:0:
168,95,6077,1,0,2:0:0:0:
200,103,6220,1,0,2:0:0:0:
274,162,6362,5,2,2:0:0:0:
310,104,6505,1,0,2:0:0:0:
375,84,6648,1,0,2:0:0:0:
440,166,6791,6,0,P|454:130|472:100,2,63.7500000000002,2|0|0,2:0|2:0|2:0,2:0:0:0:
392,312,7220,5,2,2:0:0:0:
334,271,7362,1,0,2:0:0:0:
361,208,7505,1,0,2:0:0:0:
277,231,7648,5,2,2:0:0:0:
334,271,7791,1,0,2:0:0:0:
307,335,7934,1,0,2:0:0:0:
204,310,8077,6,0,L|54:328,1,127.5,6|0,3:2|2:0,2:0:0:0:
77,325,8505,1,0,2:0:0:0:
149,251,8648,1,0,3:0:0:0:
149,251,8934,1,2,2:0:0:0:
72,255,9077,2,0,L|89:185,1,63.7500000000002,0|0,3:0|2:0,2:0:0:0:
87,193,9362,1,0,3:3:0:0:
46,112,9505,5,0,3:1:0:0:
46,112,9791,2,0,L|185:125,1,127.5,2|0,3:2|2:0,2:0:0:0:
172,123,10220,1,2,0:2:0:0:
130,41,10362,5,2,3:2:0:0:
130,41,10648,1,2,2:0:0:0:
261,75,10791,1,0,3:0:0:0:
318,24,10934,5,2,2:0:0:0:
336,28,11077,1,0,3:0:0:0:
354,32,11220,1,0,3:0:0:0:
482,16,11505,6,0,P|448:124|445:222,1,191.25,6|0,3:2|3:0,2:0:0:0:
497,265,12077,1,2,3:2:0:0:
444,208,12220,1,0,2:0:0:0:
512,340,12362,6,0,P|433:325|313:319,1,191.25,6|0,2:0|2:0,2:0:0:0:
280,262,12934,1,0,3:2:0:0:
214,237,13077,1,0,2:0:0:0:
33,281,13220,5,2,3:2:0:0:
21,346,13362,1,0,2:0:0:0:
82,322,13505,1,0,3:2:0:0:
34,267,13648,5,2,2:0:0:0:
7,348,13791,1,0,3:2:0:0:
90,333,13934,1,0,2:0:0:0:
86,216,14077,5,2,3:2:0:0:
91,191,14220,1,0,3:2:0:0:
96,166,14362,1,0,2:0:0:0:
177,129,14505,5,2,3:2:0:0:
172,104,14648,1,0,3:2:0:0:
167,79,14791,1,0,2:0:0:0:
29,90,14934,6,0,B|124:137|124:137|133:137|133:137|236:189,1,223.125000000001,6|0,1:2|2:0,2:0:0:0:
247,199,15505,2,0,P|237:181|248:198,9,56.6666666666667,0|0|0|0|0|0|0|0|0|0,1:2|2:0|2:0|2:0|2:0|2:0|2:0|2:0|2:0|2:0,2:0:0:0:
324,238,15791,6,0,P|289:276|286:325,1,95.6250000000002,2|0,2:0|2:0,2:0:0:0:
287,329,16077,2,0,P|318:370|366:381,1,95.6250000000002,2|0,1:2|2:0,2:0:0:0:
374,384,16362,2,0,P|419:360|439:315,1,95.6250000000002,2|0,3:2|2:0,2:0:0:0:
398,258,16648,5,2,1:2:0:0:
398,258,16934,2,0,L|441:193,1,63.7500000000002,2|0,2:0|3:0,2:0:0:0:
366,182,17220,6,0,P|340:135|405:82,1,127.5,0|0,1:2|2:0,2:0:0:0:
363,17,17648,1,0,3:0:0:0:
270,89,17791,5,0,1:0:0:0:
200,77,17934,1,0,3:0:0:0:
130,65,18077,2,0,L|42:50,1,63.7500000000002,0|0,3:0|2:0,2:0:0:0:
0,244,18362,6,0,B|81:202|81:202|91:199|91:199|170:158,1,191.25,2|0,1:2|2:0,2:0:0:0:
286,175,18934,1,2,1:2:0:0:
225,210,19077,1,0,2:0:0:0:
166,240,19220,2,0,L|158:313,1,63.7500000000002,2|0,2:0|2:0,2:0:0:0:
151,373,19505,5,0,1:0:0:0:
97,328,19648,2,0,P|57:313|28:313,2,63.7500000000002,0|0|0,3:0|3:0|2:0,2:0:0:0:
237,375,20077,5,2,1:0:0:0:
288,327,20220,1,2,2:0:0:0:
355,308,20362,1,2,2:0:0:0:
502,311,20505,5,2,3:1:0:0:
384,244,20648,1,2,1:2:0:0:
435,292,20791,1,2,2:0:0:0:
361,179,20934,6,0,L|366:87,1,63.7500000000002,2|0,2:0|3:0,2:0:0:0:
491,54,21220,2,0,L|487:117,1,63.7500000000002,0|0,1:2|3:0,2:0:0:0:
400,27,21505,5,2,2:0:0:0:
400,27,21648,1,2,2:0:0:0:
258,165,21791,6,0,P|216:122|195:1,1,178.5,6|0,2:0|2:0,2:0:0:0:
193,9,22362,2,0,P|152:71|138:163,1,148.75,2|0,2:0|2:0,2:0:0:0:
137,143,22934,2,0,P|89:106|73:64,1,102,2|0,2:0|2:0,2:0:0:0:
73,58,23434,1,2,2:0:0:0:
73,50,23505,2,0,P|58:86|57:101,1,51.0000000000001,2|0,2:0|2:0,2:0:0:0:
52,180,23934,1,2,2:0:0:0:
52,180,24077,6,0,P|19:160|6:143,1,51.0000000000001,2|0,2:0|2:0,2:0:0:0:
67,247,24648,1,2,2:0:0:0:
10,298,24934,1,0,1:0:0:0:
69,343,25220,6,0,P|133:322|147:318,1,68,2|0,1:2|2:0,2:0:0:0:
201,240,25791,6,0,P|258:275|270:283,1,68,2|0,2:0|2:0,2:0:0:0:
351,353,26362,5,2,2:0:0:0:
491,302,26648,5,2,2:0:0:0:
366,246,26934,5,2,2:0:0:0:
475,191,27220,5,2,2:0:0:0:
379,139,27505,5,2,2:0:0:0:
462,92,27791,5,2,2:0:0:0:
390,51,28077,5,2,2:0:0:0:
447,14,28362,5,2,2:0:0:0:
226,143,28648,5,10,2:3:0:0:
66,136,28839,1,2,2:3:0:0:
143,145,29029,5,0,3:0:0:0:
147,125,29124,1,0,3:0:0:0:
162,50,29220,1,8,2:0:0:0:
137,173,29410,6,0,L|120:267,1,85.0000000000002,0|0,3:0|2:0,2:0:0:0:
102,338,29791,5,8,2:0:0:0:
48,291,29981,1,2,2:0:0:0:
36,361,30172,1,0,1:0:0:0:
177,301,30362,5,0,3:0:0:0:
243,315,30553,1,2,1:2:0:0:
309,329,30720,1,0,3:0:0:0:
382,259,30934,5,10,2:3:0:0:
313,196,31124,1,0,1:0:0:0:
358,112,31315,1,10,2:3:0:0:
432,124,31505,5,8,2:0:0:0:
358,112,31696,1,2,3:0:0:0:
285,100,31886,1,2,1:2:0:0:
119,140,32077,6,0,B|47:112|78:88|11:59,2,136,2|2|2,1:2|2:0|2:0,2:0:0:0:
63,293,33648,5,2,2:0:0:0:
75,309,33720,1,2,0:3:0:0:
87,325,33791,1,6,1:2:0:0:
300,368,35505,6,0,P|278:333|251:318,1,63.7500000000002,2|0,3:2|2:0,2:0:0:0:
183,314,35790,1,0,1:0:0:0:
255,321,35933,1,0,3:2:0:0:
305,375,36076,2,0,P|324:313|334:303,1,63.7500000000002,0|0,1:0|2:0,2:0:0:0:
392,280,36362,1,0,1:0:0:0:
327,313,36505,1,2,1:2:0:0:
302,381,36647,6,0,P|244:334|173:318,1,127.5,2|0,1:2|1:0,2:0:0:0:
109,374,37076,2,0,P|116:334|113:297,1,63.7500000000002,2|0,2:0|1:0,2:0:0:0:
138,244,37362,1,2,2:0:0:0:
204,220,37505,2,0,P|252:211|283:190,1,63.7500000000002,2|0,1:2|2:0,2:0:0:0:
276,134,37790,5,0,1:0:0:0:
275,203,37933,1,0,3:2:0:0:
199,209,38076,2,0,P|167:171|133:155,1,63.7500000000002,0|0,1:0|1:0,2:0:0:0:
88,189,38362,1,0,1:0:0:0:
148,156,38505,1,2,2:2:0:0:
208,210,38647,2,0,P|256:201|287:180,1,63.7500000000002,2|0,1:2|2:0,2:0:0:0:
335,171,38933,6,0,P|383:180|414:201,1,63.7500000000002,2|2,1:2|2:0,2:0:0:0:
438,252,39219,1,0,1:0:0:0:
409,187,39362,1,2,1:2:0:0:
329,163,39505,6,0,P|362:105|375:92,1,63.7500000000002,0|0,3:2|2:0,2:0:0:0:
451,85,39790,1,0,1:0:0:0:
370,103,39933,1,2,3:2:0:0:
317,169,40076,6,0,P|270:124|206:99,1,127.5,0|0,1:0|1:0,2:0:0:0:
144,65,40505,1,2,2:0:0:0:
86,120,40647,2,0,P|118:152|128:176,1,63.7500000000002,2|0,1:2|3:2,2:0:0:0:
61,206,40933,1,2,1:2:0:0:
124,250,41076,2,0,P|133:205|128:180,1,63.7500000000002,2|0,2:0|1:2,2:0:0:0:
52,209,41362,5,2,2:0:0:0:
72,312,41505,2,0,P|107:283|119:260,1,63.7500000000002,2|0,1:2|2:0,2:0:0:0:
194,253,41790,1,2,1:2:0:0:
68,317,41933,2,0,P|110:317|156:337,1,63.7500000000002,2|0,3:2|1:2,2:0:0:0:
206,370,42219,1,2,2:0:0:0:
149,326,42362,6,0,B|189:322|209:342|209:342|229:362|269:353,1,127.5,2|0,1:2|1:2,2:0:0:0:
363,367,42790,5,0,3:2:0:0:
388,281,42933,1,2,1:2:0:0:
397,301,43076,5,0,3:2:0:0:
422,215,43219,1,2,1:2:0:0:
431,235,43362,5,2,1:2:0:0:
456,149,43505,6,0,P|426:135|395:130,2,63.7500000000002,0|0|0,1:2|2:0|1:2,2:0:0:0:
477,169,43933,1,0,3:2:0:0:
377,129,44076,2,0,P|345:132|315:142,1,63.7500000000002,0|0,1:2|2:0,2:0:0:0:
253,175,44362,5,2,1:2:0:0:
239,106,44505,1,2,1:2:0:0:
247,182,44647,2,0,P|231:216|226:269,1,63.7500000000002,2|2,1:2|2:0,2:0:0:0:
247,308,44933,5,2,1:2:0:0:
208,249,45076,1,2,3:2:0:0:
140,230,45219,1,2,1:2:0:0:
71,243,45362,1,2,3:2:0:0:
27,298,45505,6,0,P|56:221|64:152,1,127.5,0|0,1:2|1:2,2:0:0:0:
74,101,45933,2,0,P|98:123|125:139,1,63.7500000000002,0|0,3:2|1:2,2:0:0:0:
193,126,46219,5,2,2:0:0:0:
262,118,46362,1,2,1:2:0:0:
331,110,46505,1,2,2:0:0:0:
400,99,46647,2,0,L|412:168,1,63.7500000000002,2|2,1:2|2:0,2:0:0:0:
396,262,46933,5,2,1:2:0:0:
479,281,47076,1,2,3:2:0:0:
386,268,47219,1,2,1:2:0:0:
488,274,47362,1,2,1:2:0:0:
377,278,47505,6,0,L|293:265,1,63.7500000000002,2|0,3:2|2:0,2:0:0:0:
238,340,47790,5,2,1:2:0:0:
182,287,47933,1,2,3:2:0:0:
109,260,48076,1,0,1:2:0:0:
109,260,48505,5,2,2:0:0:0:
182,287,48647,1,2,1:2:0:0:
238,340,48933,5,2,1:2:0:0:
182,287,49076,1,2,3:2:0:0:
109,260,49362,5,2,2:0:0:0:
182,287,49505,1,2,3:2:0:0:
238,340,49790,5,2,1:2:0:0:
182,287,49933,1,2,3:2:0:0:
25,94,50362,5,8,2:3:0:0:
25,94,50647,6,0,B|149:82|149:82|145:78|145:78|149:82|149:82|297:67,1,255.000000000001,6|0,2:3|2:0,2:0:0:0:
397,125,51362,5,0,1:0:0:0:
394,128,51433,1,0,1:1:0:0:
391,131,51505,6,0,B|414:301,1,170,6|0,2:0|2:0,2:0:0:0:
476,247,51933,1,0,3:0:0:0:
316,125,52076,6,0,B|348:380,1,255,8|0,2:0|2:0,2:0:0:0:
425,384,52505,6,0,B|414:300,1,85,0|0,3:0|2:0,2:0:0:0:
267,310,52790,1,8,2:0:0:0:
201,363,52933,1,0,3:0:0:0:
268,311,53076,1,0,3:0:0:0:
251,184,53219,6,0,B|267:310,1,127.5,10|0,2:0|2:0,2:0:0:0:
334,261,53505,6,0,B|322:176,1,85,0|0,3:0|2:0,2:0:0:0:
392,133,53933,1,0,3:0:0:0:
232,57,54076,6,0,B|267:310,1,255,8|0,2:0|2:0,2:0:0:0:
201,363,54505,6,0,B|189:278,1,85,0|0,3:0|2:0,2:0:0:0:
47,220,54790,1,8,2:0:0:0:
118,249,54933,1,0,3:0:0:0:
189,278,55076,1,0,3:0:0:0:
47,220,55219,6,0,B|28:84,1,127.5,8|0,2:0|2:0,2:0:0:0:
46,219,55505,6,0,B|58:304,1,85,6|0,1:2|2:0,2:0:0:0:
8,384,55933,1,0,3:0:0:0:
136,374,56076,6,0,B|100:122,1,255,8|0,2:0|2:0,2:0:0:0:
253,149,56505,5,0,3:0:0:0:
195,252,56647,2,0,B|180:148,1,85,2|8,2:0|2:0,2:0:0:0:
324,131,56933,1,0,3:0:0:0:
395,115,57076,1,2,3:2:0:0:
266,245,57219,2,0,B|251:141,1,97.75,8|2,2:0|2:0,0:0:0:0:
465,207,57505,6,0,B|476:97,1,110.5,2|0,3:2|2:0,2:0:0:0:
395,115,57790,1,2,2:0:0:0:
465,207,57933,2,0,B|455:304,1,97.75,2|8,3:2|2:0,2:0:0:0:
377,274,58219,1,2,2:0:0:0:
465,207,58362,6,0,B|269:186,1,170,2|0,2:0|2:0,2:0:0:0:
212,179,58790,5,8,2:0:0:0:
230,34,58933,1,6,2:2:0:0:
177,101,59076,1,0,3:0:0:0:
346,123,59219,1,8,2:0:0:0:
313,44,59362,1,0,1:0:0:0:
296,190,59505,6,0,L|126:221,1,170,6|0,2:0|2:0,2:0:0:0:
67,171,59933,1,0,3:0:0:0:
94,298,60076,6,0,L|219:275,1,127.5,8|0,2:0|2:0,2:0:0:0:
289,263,60362,1,0,2:0:0:0:
296,190,60505,2,0,L|379:174,1,85,0|0,3:0|2:0,2:0:0:0:
351,323,60790,5,8,2:0:0:0:
365,249,60933,1,0,2:3:0:0:
379,174,61076,1,0,3:2:0:0:
351,323,61219,2,0,L|225:345,1,127.5,8|0,2:0|2:0,2:0:0:0:
94,298,61505,6,0,L|177:282,1,85,2|0,3:2|2:0,2:0:0:0:
198,208,61933,1,0,3:0:0:0:
393,102,62076,6,0,L|123:151,1,255,8|0,2:0|2:0,2:0:0:0:
114,223,62505,6,0,L|197:207,1,85,0|0,3:0|2:0,2:0:0:0:
94,298,62790,1,8,2:0:0:0:
142,147,62933,6,0,L|229:130,1,85,6|8,1:2|2:0,2:0:0:0:
253,56,63362,1,2,2:0:0:0:
481,165,63505,6,0,L|365:141,1,85,6|0,2:0|2:0,2:0:0:0:
315,131,63790,1,2,2:0:0:0:
375,75,63933,1,0,3:0:0:0:
512,247,64076,6,0,L|227:188,1,255,8|0,2:0|2:0,2:0:0:0:
315,131,64505,2,0,L|398:148,1,85,0|0,3:0|2:0,2:0:0:0:
512,247,64790,5,8,2:0:0:0:
477,315,64933,1,0,3:0:0:0:
402,334,65076,1,0,3:0:0:0:
333,301,65219,1,8,2:0:0:0:
333,301,65505,6,0,L|145:329,1,170,2|0,3:2|2:0,2:0:0:0:
98,335,65933,1,0,3:0:0:0:
77,204,66076,2,0,L|49:16,1,170,8|0,2:0|2:0,2:0:0:0:
210,64,66505,2,0,L|125:76,2,85,0|0|0,3:0|2:0|2:0,2:0:0:0:
255,178,66933,5,8,1:2:0:0:
170,190,67076,1,8,2:0:0:0:
351,181,67219,1,8,1:2:0:0:
266,193,67362,1,8,1:2:0:0:
465,289,67505,6,0,B|476:208|377:216|407:148|412:86|412:86|408:104|408:104|341:151|349:221|349:221|309:221|256:244|261:301,1,510,12|8,3:2|2:0,2:0:0:0:
261,299,68647,5,2,2:0:0:0:
160,280,68790,1,2,2:0:0:0:
336,330,68933,2,0,P|211:353|225:226,1,297.5,6|0,2:0|2:0,2:0:0:0:
226,225,69505,2,0,P|210:138|170:192,1,170,10|2,2:0|2:3,2:0:0:0:
51,224,69933,5,2,2:0:0:0:
54,227,70005,1,2,2:0:0:0:
57,230,70076,2,0,L|500:203,1,425,6|0,2:0|2:0,2:0:0:0:
435,120,70933,6,0,P|408:196|409:292,1,165.75,10|0,2:0|2:0,2:0:0:0:
327,255,71505,2,0,P|328:190|345:130,1,110.5,2|8,3:2|2:0,2:0:0:0:
253,171,71933,2,0,P|247:198|248:225,1,55.25,2|2,2:0|2:0,2:0:0:0:
160,253,72219,1,0,3:2:0:0:
57,230,72362,1,8,2:0:0:0:
57,230,72647,54,0,B|53:336|161:387|266:335|266:233|266:233|264:125|370:73|477:124|479:230,1,663,12|8,2:0|2:0,2:0:0:0:
476,205,74076,6,0,P|478:276|364:303,1,191.25,2|0,3:2|2:0,2:0:0:0:
465,372,74647,2,0,P|408:368|385:282,1,127.5,10|0,2:0|3:0,2:0:0:0:
377,311,75219,2,0,P|319:269|234:317,1,159.375,2|0,3:2|2:0,2:0:0:0:
244,299,75647,2,0,P|298:261|302:165,1,159.375,2|0,3:2|2:0,2:0:0:0:
306,173,76076,2,0,P|252:211|252:365,1,223.125000000001,10|0,2:0|2:0,2:0:0:0:
245,356,76647,6,0,L|302:364,2,51.0000000000001,6|8|2,2:0|2:0|2:0,2:0:0:0:
175,384,77362,1,0,3:0:0:0:
32,353,77505,6,0,L|35:274,1,63.7500000000002,8|0,2:0|2:0,2:0:0:0:
88,207,77790,6,0,B|214:139|342:188|342:188|429:162|441:22|300:-23|228:60|246:133,1,605.625000000002,6|0,3:2|2:0,2:0:0:0:
243,116,79219,2,0,P|221:209|295:165,1,223.125000000001,2|0,3:2|2:0,2:0:0:0:
294,174,79790,2,0,L|271:308,1,127.5,10|0,2:0|2:0,2:0:0:0:
262,337,80076,5,2,3:0:0:0:
262,337,80362,6,0,B|218:295|201:237|210:182|210:182|256:109|183:4|60:44|41:139|86:192|86:192|84:230|84:230|109:209|141:206|141:206|144:135,1,680,6|0,3:2|2:0,2:0:0:0:
143,137,81790,6,0,L|137:313,1,146.625,0|0,3:2|2:0,2:0:0:0:
138,283,82076,2,0,P|124:338|197:332,1,146.625,10|0,2:0|2:0,2:0:0:0:
193,339,82362,6,0,P|238:293|272:348,1,146.625,2|0,2:0|2:0,2:0:0:0:
272,347,82647,6,0,L|277:200,1,146.625,10|0,2:0|2:0,2:0:0:0:
276,200,82933,6,0,B|251:153|283:119|345:128|371:152|381:196|374:259|321:282|264:275|264:275|198:263|162:174|200:91|283:72|283:72|406:51|511:188|451:341|307:382|208:330|208:330|121:283|90:171|117:90|172:20|287:-2,1,1564,6|0,2:0|2:0,2:0:0:0:
276,0,85505,5,2,0:0:0:0:
298,76,85933,5,2,0:0:0:0:
231,144,86362,5,2,0:0:0:0:
290,224,86790,5,2,0:0:0:0:
225,300,87219,5,2,0:0:0:0:
304,322,87576,5,2,0:0:0:0:
262,382,87862,5,2,0:0:0:0:
512,215,88076,6,0,P|391:109|295:192,1,297.500002837181,6|0,2:3|2:0,2:0:0:0:
406,197,88505,5,8,2:0:0:0:
512,215,88647,1,2,2:3:0:0:
300,175,88790,1,2,2:3:0:0:
512,215,88933,6,0,P|390:279|300:175,1,297.500002837181,4|0,2:3|2:0,2:0:0:0:
420,112,89362,5,8,2:0:0:0:
406,197,89505,1,2,2:3:0:0:
392,281,89647,1,2,2:3:0:0:
300,175,89790,6,0,B|156:209|156:209|150:206|150:206|5:239,1,297.5,6|0,2:3|2:0,2:0:0:0:
3,316,90219,5,2,3:2:0:0:
60,363,90362,1,10,2:0:0:0:
130,339,90505,1,2,2:3:0:0:
10,237,90647,6,0,L|43:58,1,148.75,4|0,2:3|2:0,2:0:0:0:
190,132,90933,6,0,B|204:140|204:140|217:156|217:156|199:146|199:146|190:132,1,74.375,8|0,2:0|2:0,2:0:0:0:
117,65,91076,2,0,B|103:57|103:57|90:40|90:40|108:51|108:51|117:65,1,74.375,8|0,2:0|2:0,2:0:0:0:
201,67,91219,2,0,P|258:24|191:61,1,223.125002127886,10|0,2:3|2:0,2:0:0:0:
101,141,91505,6,0,B|239:112|239:112|239:107|239:107|400:75,1,297.5,6|0,2:3|2:0,2:0:0:0:
432,200,91933,6,0,B|475:155|440:149|469:106|469:106|395:144|420:206,1,212.5,10|0,2:0|2:0,2:0:0:0:
512,220,92362,6,0,B|468:284|388:264|388:264|396:272|396:272|308:252|254:320,1,297.5,4|2,2:3|3:2,2:0:0:0:
86,371,92790,5,8,2:0:0:0:
45,308,92933,1,0,1:0:0:0:
117,290,93076,1,0,1:0:0:0:
86,371,93219,6,0,L|111:197,2,148.75,6|0|0,2:3|2:0|2:0,2:0:0:0:
193,299,93647,6,0,L|205:209,2,63.7500000000002,8|2|2,2:0|2:3|2:3,2:0:0:0:
272,380,94076,6,0,B|293:241|293:241|289:241|289:241|293:241|293:241|296:225|296:225|305:166|353:174|353:174|406:182,1,297.5,4|0,2:3|2:0,2:0:0:0:
333,89,94505,5,0,3:0:0:0:
241,134,94647,1,10,2:0:0:0:
185,48,94790,1,0,2:0:0:0:
33,143,94933,6,0,B|35:115|146:115|91:85|103:15|103:15|101:33|101:33|50:101|93:148|143:135|127:216,1,371.875,6|0,2:3|2:0,2:0:0:0:
57,222,95362,6,0,P|38:253|17:322,2,85,8|2|2,2:0|2:3|2:3,2:0:0:0:
241,301,95790,5,4,2:3:0:0:
197,215,95933,1,2,2:0:0:0:
129,200,96076,5,2,2:0:0:0:
273,165,96219,1,2,3:2:0:0:
341,150,96362,5,10,2:0:0:0:
226,78,96505,1,2,2:0:0:0:
432,24,96647,6,0,B|444:80|420:164|420:164|425:178|425:178|400:228|399:316,1,297.5,6|0,2:3|2:0,2:0:0:0:
242,323,97076,1,8,2:0:0:0:
305,356,97219,1,2,2:3:0:0:
177,342,97362,1,2,2:3:0:0:
399,315,97505,6,0,L|131:348,1,223.125,4|0,2:3|2:0,2:0:0:0:
122,384,97790,6,0,P|93:361|84:325,1,74.375,8|0,2:0|2:0,2:0:0:0:
25,362,97933,2,0,P|60:354|83:326,1,74.375,8|0,2:0|2:0,2:0:0:0:
102,253,98076,2,0,B|94:220|103:202|103:202|120:190|139:154|139:154|136:194|142:214|142:214|141:230|112:258,1,223.125002127886,8|0,2:3|2:0,2:0:0:0:
177,342,98362,6,0,B|294:236|294:236|302:236|302:236|398:146,1,297.5,6|0,2:3|2:0,2:0:0:0:
499,182,98790,6,0,B|514:207|489:235|489:235|490:250|490:250|482:237|482:237|445:227|447:196,1,148.75,8|2,2:0|2:3,2:0:0:0:
451,96,99076,1,8,2:0:0:0:
400,320,99219,6,0,B|285:329|276:250|284:249|277:170|164:176,2,297.5,4|8|8,2:3|2:0|2:3,2:0:0:0:
400,320,100076,6,0,B|301:260|258:328|265:332|224:400|125:346,1,297.5,6|0,2:3|2:0,2:0:0:0:
10,274,100505,2,0,P|79:273|89:198,1,148.75,8|2,2:0|2:3,2:0:0:0:
8,159,100790,1,8,2:0:0:0:
10,274,100933,6,0,L|72:34,1,223.125,6|0,2:3|2:0,2:0:0:0:
62,37,101219,6,0,B|61:9|110:40|148:36|148:36|115:52|92:109|92:35,1,170,10|0,2:0|2:0,2:0:0:0:
94,60,101362,2,0,B|121:59|90:108|94:146|94:146|78:113|21:90|95:90,1,170,10|0,2:0|2:0,2:0:0:0:
70,91,101505,2,0,B|70:118|21:87|-17:91|-17:91|16:75|39:18|39:92,1,170,14|0,2:0|2:0,2:0:0:0:
39,66,101647,2,0,B|11:66|42:17|38:-20|38:-20|54:12|111:35|37:35,1,170,10|0,2:0|2:0,2:0:0:0:
65,57,101790,6,0,B|111:98|179:103|179:103|185:111|185:111|241:115|348:176,1,297.5,6|0,2:3|2:0,2:0:0:0:
436,270,102219,5,8,2:0:0:0:
405,337,102362,1,2,2:3:0:0:
354,282,102505,1,2,2:3:0:0:
512,224,102647,6,0,B|433:253|433:253|427:261|427:261|379:279|379:279|330:298|330:298|321:297|321:297|236:330,1,297.5,4|0,2:3|2:0,2:0:0:0:
80,276,103076,6,0,B|47:254|12:274|12:274|-2:277|-2:277|6:289|6:289|16:328|52:334,1,170,8|2,2:0|2:3,2:0:0:0:
176,384,103505,6,0,B|145:323|189:259|189:259|181:247|181:247|237:171|185:107,1,297.5,6|0,2:3|2:0,2:0:0:0:
0,124,103933,5,2,3:2:0:0:
65,147,104076,1,10,2:0:0:0:
133,172,104219,1,2,2:3:0:0:
0,124,104362,6,0,B|86:180|86:180|88:189|88:189|182:247,1,223.125,4|0,2:3|2:0,2:0:0:0:
323,355,104647,6,0,P|292:374|256:366,1,74.375,8|0,2:0|2:0,2:0:0:0:
247,268,104790,2,0,P|279:250|315:257,1,74.375,8|0,2:0|2:0,2:0:0:0:
366,297,104933,2,0,B|393:273|414:275|414:275|431:284|471:287|471:287|434:300|419:315|419:315|404:321|368:309,1,223.125002127886,8|0,2:3|2:0,2:0:0:0:
198,322,105219,6,0,B|234:306|262:269|262:269|265:278|265:278|304:225|373:211|373:211|369:205|369:205|404:200|427:174,1,297.5,6|0,2:3|2:0,2:0:0:0:
512,80,105647,6,0,B|484:55|494:-6|494:-6|461:8|427:14|427:14|418:36|429:63,1,212.5,10|0,2:0|2:0,2:0:0:0:
429,63,106076,6,0,B|341:72|341:72|336:78|336:78|242:88|242:88|232:101|232:101|112:113,1,297.5,4|2,2:3|3:2,2:0:0:0:
21,217,106505,5,8,2:0:0:0:
77,147,106647,1,0,1:0:0:0:
35,67,106790,1,0,1:0:0:0:
21,217,106933,6,0,B|84:207|132:281|132:281|132:270|132:270|172:348|260:328,1,297.5,6|0,2:3|2:0,2:0:0:0:
444,362,107362,1,8,2:0:0:0:
493,237,107505,5,2,2:3:0:0:
473,216,107576,1,2,2:3:0:0:
493,197,107647,1,2,2:3:0:0:
512,217,107719,1,2,2:3:0:0:
492,217,107790,6,0,B|429:207|381:281|381:281|381:270|381:270|341:348|253:328,1,297.5,4|0,2:3|2:0,2:0:0:0:
138,384,108219,1,0,3:0:0:0:
197,256,108362,6,0,P|179:218|175:176,1,85,12|0,2:0|2:0,2:0:0:0:
156,45,108647,6,0,P|112:138|175:338,1,297.5,6|0,2:3|2:0,2:0:0:0:
299,254,109076,5,8,2:0:0:0:
319,183,109219,1,2,2:3:0:0:
247,204,109362,1,2,2:3:0:0:
354,320,109505,6,0,P|404:183|356:45,1,297.5,4|2,2:3|2:0,2:0:0:0:
204,101,109933,1,0,3:0:0:0:
319,182,110076,6,0,P|315:140|297:102,1,85,10|0,2:0|2:0,2:0:0:0:
356,45,110362,6,0,B|359:94|275:147|275:147|287:151|287:151|204:177|194:256,1,297.5,6|0,2:3|2:0,2:0:0:0:
112,340,110790,6,0,B|82:342|54:365|54:365|24:360|8:326|8:326|8:290|32:272|32:272|67:280|97:269,1,255,8|8,2:0|2:0,2:0:0:0:
284,351,111219,6,0,B|437:362|437:362|506:365|509:309|509:309|512:267,1,297.5,4|8,2:3|2:0,2:0:0:0:
267,206,111647,5,8,2:0:0:0:
194,255,111790,2,0,P|184:329|180:392,1,127.5,8|0,2:3|2:0,2:0:0:0:
23,376,112076,6,0,B|252:348|493:355|493:355|495:322|496:288|496:288|273:278|26:308|26:308|26:308|26:308|23:274|23:240|23:240|252:213|493:220|493:220|493:185|491:153|491:153|491:153|491:153|268:143|20:173|20:173|20:173|20:173|17:139|17:105|17:105|17:105|17:105|264:75|487:85|487:85|487:85|487:85|487:51|484:17|484:17|484:17|484:17|261:8|14:37,1,3151.8,4|2,2:0|2:0,2:0:0:0:
94,80,117362,5,0,3:0:0:0:
182,55,117647,5,0,3:0:0:0:
285,88,117933,5,0,3:0:0:0:
433,25,118076,6,0,L|428:69,1,43.775,8|0,2:0|2:0,2:0:0:0:
503,226,118362,1,2,2:3:0:0:
503,226,118505,2,0,L|418:218,1,63.7500000000002,2|2,2:0|2:3,2:0:0:0:
109,360,118933,5,2,2:3:0:0:
109,360,119219,1,0,2:3:0:0:
109,360,119505,1,2,2:3:0:0:
148,296,119790,5,2,2:0:0:0:
148,296,120076,1,2,2:3:0:0:
148,296,120362,1,0,2:3:0:0:
148,296,120647,1,2,2:3:0:0:
96,240,120933,5,2,2:0:0:0:
136,176,121219,5,2,2:3:0:0:
136,176,121505,1,0,2:3:0:0:
136,176,121790,1,2,2:3:0:0:
88,116,122076,5,2,2:0:0:0:
320,220,122362,6,0,P|353:194|392:176,1,85.0000000000002,8|0,2:3|1:0,2:0:0:0:
317,136,122647,1,2,2:0:0:0:
246,179,122742,1,0,1:0:0:0:
320,220,122933,6,0,P|280:203|246:179,1,85.0000000000002,10|2,2:0|2:3,2:0:0:0:
249,266,123219,1,2,2:0:0:0:
320,220,123314,1,0,2:0:0:0:
321,304,123504,6,0,P|325:261|319:219,1,85.0000000000002,8|0,2:3|1:0,2:0:0:0:
396,257,123790,1,2,2:0:0:0:
321,304,123885,1,0,2:0:0:0:
319,219,124076,6,0,P|349:191|386:170,1,85.0000000000002,8|2,2:0|2:3,2:0:0:0:
308,135,124362,1,2,2:0:0:0:
242,184,124457,1,0,2:0:0:0:
319,219,124647,6,0,P|278:206|242:184,1,85.0000000000002,8|2,2:3|2:3,2:0:0:0:
252,271,124933,1,2,2:0:0:0:
327,302,125028,6,0,P|327:259|318:218,2,85.0000000000002,8|8|10,2:3|2:0|2:3,2:0:0:0:
318,218,125504,6,0,P|346:186|381:162,1,85.0000000000002,2|0,2:0|2:0,2:0:0:0:
318,218,125790,6,0,P|276:209|238:190,1,85.0000000000002,8|0,2:3|2:0,2:0:0:0:
256,276,126076,1,2,2:0:0:0:
334,300,126171,1,0,2:0:0:0:
317,217,126362,6,0,P|330:257|334:300,1,85.0000000000002,8|0,2:0|2:0,2:0:0:0:
376,156,126647,6,0,P|343:182|317:216,1,85.0000000000002,2|0,2:3|2:0,2:0:0:0:
235,196,126933,6,0,P|274:211|316:216,1,85,6|0,2:0|3:0,2:0:0:0:
431,334,128646,5,8,2:0:0:0:
431,334,128933,6,0,P|379:333|342:344,2,85,6|0|8,2:0|1:0|2:0,2:0:0:0:
179,365,129790,6,0,P|196:327|228:296,1,85,2|0,2:3|2:0,2:0:0:0:
80,237,130361,1,0,3:0:0:0:
80,237,130647,1,8,2:0:0:0:
154,268,130790,1,0,3:0:0:0:
227,297,130933,6,0,P|197:326|179:365,1,85,0|2,3:0|2:3,2:0:0:0:
332,255,131504,1,8,2:0:0:0:
332,255,131790,6,0,P|291:243|256:219,1,85,2|0,2:3|2:0,2:0:0:0:
463,326,132360,1,0,3:0:0:0:
453,160,132647,6,0,P|423:124|409:123,1,49.5833333333334,8|0,1:2|2:0,2:0:0:0:
411,123,132742,2,0,P|394:146|400:175,1,49.5833333333334,8|0,1:2|2:0,2:0:0:0:
400,175,132837,2,0,P|444:166|451:154,1,49.5833333333334,8|0,1:2|2:0,2:0:0:0:
421,152,132933,6,0,B|376:153|355:130|363:131|346:109|305:106,1,127.5,6|0,3:2|2:0,2:0:0:0:
242,43,133361,1,0,3:0:0:0:
115,114,133504,6,0,B|74:117|57:139|65:138|44:161|0:160,1,127.5,8|2,2:0|2:3,2:0:0:0:
119,186,133933,1,0,3:0:0:0:
296,176,134075,1,2,2:0:0:0:
194,137,134218,2,0,P|182:89|190:61,2,63.7500000000002,8|0|0,2:0|3:0|3:0,2:0:0:0:
411,221,134647,6,0,B|366:222|345:199|353:200|336:178|295:175,2,127.5,8|2|0,2:0|3:2|2:0,2:0:0:0:
456,168,135361,1,0,3:0:0:0:
212,168,135504,6,0,B|171:171|154:193|161:192|141:215|96:213,1,127.5,8|2,2:0|2:3,2:0:0:0:
22,269,135933,1,0,3:0:0:0:
22,269,136075,2,0,P|14:299|0:327,1,63.7500000000002,2|8,2:0|2:0,2:0:0:0:
116,384,136361,5,2,3:2:0:0:
185,376,136504,1,2,3:2:0:0:
234,297,136647,5,10,2:0:0:0:
303,290,136790,1,2,1:2:0:0:
418,334,136933,6,0,B|373:336|353:313|360:314|343:292|302:289,1,127.5,2|0,3:2|2:0,2:0:0:0:
250,364,137361,1,0,3:0:0:0:
48,324,137504,6,0,B|93:326|113:303|106:304|123:282|164:279,1,127.5,8|2,2:0|2:3,2:0:0:0:
156,211,137933,1,0,3:0:0:0:
156,211,138075,2,0,P|141:173|101:146,1,63.7500000000002,2|8,2:0|2:0,2:0:0:0:
195,123,138361,5,0,3:0:0:0:
263,138,138504,1,0,3:0:0:0:
356,36,138647,6,0,P|339:63|331:93,1,63.7500000000002,8|0,2:0|2:0,2:0:0:0:
421,157,138933,1,2,3:2:0:0:
421,157,139218,1,0,2:0:0:0:
471,95,139361,1,2,3:0:0:0:
356,36,139504,6,0,P|339:63|331:93,2,63.7500000000002,8|2|2,2:0|2:0|2:3,2:0:0:0:
427,33,139933,1,0,3:0:0:0:
471,95,140075,1,0,2:0:0:0:
331,93,140218,6,0,P|339:63|356:36,2,63.7500000000002,8|0|0,2:0|3:0|3:0,2:0:0:0:
318,163,140647,1,8,2:0:0:0:
338,230,140790,1,0,2:0:0:0:
400,262,140933,6,0,B|439:254|453:290|453:290|432:268|410:288|398:258,1,127.5,8|0,3:0|2:0,2:0:0:0:
340,302,141361,1,0,3:0:0:0:
192,382,141504,6,0,B|194:337|171:317|172:324|150:307|147:266,1,127.5,8|2,2:0|2:3,2:0:0:0:
113,180,141933,2,0,P|99:209|81:235,1,63.7500000000002,0|0,3:0|2:0,2:0:0:0:
219,262,142218,5,8,2:0:0:0:
188,198,142361,1,0,3:0:0:0:
183,127,142504,1,0,3:0:0:0:
228,11,142647,6,0,B|225:52|203:69|204:62|181:82|183:127,2,127.5,8|0|0,2:0|3:0|2:0,2:0:0:0:
150,6,143361,1,0,3:0:0:0:
255,124,143504,1,8,2:0:0:0:
255,124,143647,5,2,2:0:0:0:
349,131,143790,2,0,P|328:106|316:77,1,63.7500000000002,2|0,2:3|3:0,2:0:0:0:
426,9,144075,2,0,P|414:38|394:63,1,63.7500000000002,2|8,2:0|2:0,2:0:0:0:
465,90,144361,5,0,3:0:0:0:
450,158,144504,1,0,3:0:0:0:
384,221,144647,5,10,2:0:0:0:
398,289,144790,1,0,2:0:0:0:
332,379,144933,5,2,3:2:0:0:
332,379,145218,5,2,2:0:0:0:
289,322,145361,1,2,3:2:0:0:
276,252,145504,1,10,2:0:0:0:
276,252,145933,5,2,3:2:0:0:
205,250,146075,1,2,2:0:0:0:
153,202,146218,1,8,2:0:0:0:
205,250,146361,5,2,3:2:0:0:
153,202,146504,1,2,3:2:0:0:
148,131,146647,1,8,2:0:0:0:
153,202,146790,5,2,2:0:0:0:
148,131,146933,1,2,3:2:0:0:
148,131,147218,5,2,2:0:0:0:
181,69,147361,1,2,3:2:0:0:
148,131,147504,6,0,P|77:138|12:159,1,127.5,10|0,2:0|3:0,2:0:0:0:
40,52,147933,2,0,P|62:48|123:26,1,63.7500000000002,0|0,3:0|2:0,2:0:0:0:
102,36,148361,5,8,1:2:0:0:
92,111,148504,1,2,1:2:0:0:
82,187,148647,1,8,1:2:0:0:
73,263,148790,1,8,1:2:0:0:
66,339,148933,1,6,1:2:0:0:
66,339,149361,5,0,3:0:0:0:
129,364,149504,1,8,2:0:0:0:
129,364,149790,1,2,2:3:0:0:
187,324,149933,2,0,L|232:337,1,34,0|0,3:0|2:0,2:0:0:0:
187,324,150361,5,0,3:0:0:0:
249,339,150504,1,0,3:0:0:0:
309,315,150647,1,8,2:0:0:0:
512,368,150933,6,0,L|445:381,1,68,0|0,3:0|2:0,2:0:0:0:
396,338,151361,1,0,3:0:0:0:
339,381,151504,1,8,2:0:0:0:
339,381,151790,5,2,2:3:0:0:
309,315,151933,2,0,L|264:302,1,34,0|0,3:0|2:0,2:0:0:0:
216,348,152218,1,8,2:0:0:0:
126,383,152361,5,2,3:2:0:0:
142,316,152504,1,0,3:0:0:0:
44,362,152647,5,8,2:0:0:0:
396,338,152933,5,2,3:1:0:0:
396,338,153218,1,2,2:0:0:0:
456,299,153361,1,0,3:0:0:0:
343,294,153504,2,0,L|268:306,1,68,8|0,2:0|2:0,2:0:0:0:
214,268,153933,2,0,L|146:257,1,68,0|0,3:0|2:0,2:0:0:0:
83,246,154361,5,0,3:0:0:0:
34,298,154504,1,0,3:0:0:0:
57,365,154647,1,8,2:0:0:0:
57,365,154933,2,0,L|137:355,1,68,0|0,3:0|2:0,2:0:0:0:
193,376,155361,1,0,3:0:0:0:
245,327,155504,2,0,L|325:317,1,68,8|2,2:0|2:3,2:0:0:0:
353,379,155933,2,0,L|394:385,1,34,0|0,3:0|2:0,2:0:0:0:
510,372,156218,5,8,2:0:0:0:
425,322,156361,5,2,3:2:0:0:
447,255,156504,1,0,3:0:0:0:
312,318,156647,5,8,2:0:0:0:
12,347,156933,6,0,B|-7:393,2,34,2|2|2,3:1|2:0|2:0,2:0:0:0:
47,282,157361,1,0,3:0:0:0:
91,337,157504,2,0,L|166:347,1,68,8|2,2:0|2:3,2:0:0:0:
231,342,157933,6,0,B|250:388,2,34,0|2|2,3:0|2:0|2:0,2:0:0:0:
193,281,158361,1,0,3:0:0:0:
258,252,158504,1,0,3:0:0:0:
320,287,158647,1,8,2:0:0:0:
320,287,158933,6,0,L|312:334,2,34,0|2|2,3:0|2:0|2:0,2:0:0:0:
381,253,159361,1,0,3:0:0:0:
433,307,159504,6,0,L|421:377,1,68,8|2,2:0|2:3,2:0:0:0:
345,384,159933,1,0,3:0:0:0:
345,384,160218,5,8,2:0:0:0:
262,368,160361,5,2,3:2:0:0:
249,298,160504,1,0,3:0:0:0:
180,384,160647,5,8,2:0:0:0:
256,88,160933,6,0,L|256:20,1,68,2|0,3:1|2:0,2:0:0:0:
188,33,161361,1,0,3:0:0:0:
320,48,161504,2,0,P|329:33|340:21,2,34,8|2|2,2:0|2:0|2:3,2:0:0:0:
256,156,161933,1,0,3:0:0:0:
195,128,162075,2,0,P|186:113|175:101,1,34,2|0,2:0|2:0,2:0:0:0:
256,156,162361,1,0,3:0:0:0:
320,128,162504,1,0,3:0:0:0:
256,156,162647,6,0,L|256:224,2,68,8|0|2,2:0|3:0|2:0,2:0:0:0:
195,128,163361,1,0,3:0:0:0:
256,156,163504,6,0,L|256:224,1,68,8|2,2:0|2:3,2:0:0:0:
198,261,163933,2,0,P|189:246|178:234,2,34,0|2|0,3:0|2:0|2:0,2:0:0:0:
256,224,164361,1,0,1:0:0:0:
314,261,164504,1,0,1:0:0:0:
273,380,164647,6,0,P|255:288|240:381,1,266.475008132172,10|2,0:0|3:1,0:0:0:0:
256,196,181217,5,0,2:0:0:0:
161,56,181503,6,0,L|173:29,2,25.5,8|2|2,2:0|2:3|2:0,2:0:0:0:
192,128,182360,5,2,3:1:0:0:
256,168,182646,1,8,2:0:0:0:
320,128,182932,1,0,3:0:0:0:
320,128,183217,1,0,2:0:0:0:
351,56,183503,6,0,L|339:29,2,25.5,8|2|2,2:0|2:3|2:0,2:0:0:0:
320,128,184360,5,0,3:0:0:0:
320,128,184646,1,8,2:0:0:0:
256,168,184789,1,0,2:0:0:0:
192,128,184932,1,2,3:1:0:0:
192,128,185217,1,0,2:0:0:0:
161,56,185503,6,0,L|173:29,2,25.5,8|2|2,2:0|2:3|2:0,2:0:0:0:
192,128,186360,5,2,3:1:0:0:
256,168,186646,1,8,2:0:0:0:
320,128,186932,1,0,3:0:0:0:
320,128,187217,1,0,2:0:0:0:
351,56,187503,6,0,L|339:29,2,25.5,8|2|2,2:0|2:3|2:0,2:0:0:0:
320,128,188360,5,0,3:0:0:0:
320,128,188646,1,8,2:0:0:0:
256,168,188789,1,0,2:0:0:0:
192,128,188932,1,2,3:1:0:0:
192,128,189217,1,0,2:0:0:0:
161,56,189503,6,0,L|173:29,2,25.5,8|2|2,2:0|2:3|2:0,2:0:0:0:
192,128,190360,5,2,3:1:0:0:
256,168,190646,1,8,2:0:0:0:
320,128,190932,1,0,3:0:0:0:
320,128,191217,1,0,2:0:0:0:
351,56,191503,6,0,L|339:29,2,25.5,8|2|2,2:0|2:3|2:0,2:0:0:0:
320,128,192360,5,0,3:0:0:0:
320,128,192646,1,8,2:0:0:0:
256,168,192789,1,0,2:0:0:0:
192,128,192932,1,2,3:1:0:0:
192,128,193217,1,0,2:0:0:0:
161,56,193503,6,0,L|173:29,2,25.5,8|2|2,2:0|2:3|2:0,2:0:0:0:
192,128,194360,5,2,3:1:0:0:
256,168,194646,1,8,2:0:0:0:
320,128,194932,1,0,3:0:0:0:
320,128,195217,1,0,2:0:0:0:
351,56,195503,6,0,L|339:29,2,25.5,8|2|2,2:0|2:3|2:0,2:0:0:0:
191,209,196360,5,8,2:0:0:0:
321,209,196503,1,8,2:0:0:0:
256,256,196646,1,2,2:3:0:0:
256,360,196789,1,8,2:0:0:0:
256,360,196932,5,2,2:0:0:0:
470,368,197789,5,2,2:0:0:0:
484,372,198074,5,0,2:0:0:0:
498,377,198360,5,0,2:0:0:0:
512,382,198646,5,2,2:0:0:0:
391,384,199503,5,2,2:0:0:0:
389,368,199789,6,0,L|387:352,2,12.75,2|2|2,2:0|2:0|2:0,2:0:0:0:
480,299,200360,5,2,2:0:0:0:
462,372,200932,6,0,L|460:384,2,12.75,2|2|2,2:0|2:0|2:0,2:0:0:0:
221,296,201646,6,0,P|218:304|215:317,2,17,2|0|0,2:0|2:0|2:0,2:0:0:0:
321,128,202074,6,0,P|326:121|332:109,2,21.25,2|0|0,2:0|2:0|2:0,2:0:0:0:
171,252,202503,6,0,P|162:257|151:266,2,25.5,2|0|0,2:0|2:0|2:0,2:0:0:0:
354,184,202932,6,0,P|365:181|383:175,2,29.75,2|0|0,2:0|2:0|2:0,2:0:0:0:
161,186,203360,6,0,P|147:183|126:183,2,34,2|0|0,2:0|2:0|2:0,2:0:0:0:
343,249,203789,6,0,P|361:259|391:270,2,42.5,2|2|2,1:0|2:0|2:0,2:0:0:0:
195,128,204217,6,0,P|176:107|144:80,2,63.7500000000002,2|2|2,1:0|2:0|2:0,2:0:0:0:
292,291,204646,6,0,P|307:331|340:388,2,85,2|2|2,1:0|2:0|2:0,2:0:0:0:
258,105,205074,6,0,P|256:55|243:-17,2,106.25,2|2|2,1:0|2:0|2:0,2:0:0:0:
256,201,205503,5,8,1:3:0:0:
256,201,205789,6,0,P|199:212|151:237,1,85,2|0,3:2|2:0,2:0:0:0:
361,264,206074,2,0,P|406:228|452:227,1,85,8|0,2:3|2:0,2:0:0:0:
174,222,206360,2,0,P|141:174|97:160,1,85,2|0,1:2|2:0,2:0:0:0:
361,264,206646,5,8,2:3:0:0:
374,247,206717,1,0,3:0:0:0:
391,234,206789,1,0,3:0:0:0:
410,226,206860,1,0,3:0:0:0:
431,224,206932,6,0,P|421:166|428:113,1,85,2|0,1:2|2:0,2:0:0:0:
216,133,207217,2,0,P|161:96|121:101,1,85,8|0,2:3|2:0,2:0:0:0:
423,140,207503,2,0,P|446:105|485:88,1,85,2|0,1:2|2:0,2:0:0:0:
348,149,207789,1,8,2:3:0:0:
285,98,207932,1,0,2:3:0:0:
192,214,208074,6,0,P|208:174|217:133,1,85,2|0,1:2|2:0,2:0:0:0:
62,165,208360,2,0,P|43:117|1:93,1,85,8|0,2:3|2:0,2:0:0:0:
192,214,208646,2,0,P|200:255|186:294,1,85,2|0,1:2|2:0,2:0:0:0:
38,247,208932,6,0,P|48:205|63:165,1,85,8|0,2:3|2:0,2:0:0:0:
185,294,209217,2,0,P|175:336|161:376,1,85,2|0,1:2|2:0,2:0:0:0:
38,247,209503,2,0,P|89:251|119:288,1,85,8|0,2:3|2:0,2:0:0:0:
309,255,209789,2,0,P|273:276|259:315,1,85,2|0,1:2|2:0,2:0:0:0:
112,273,210074,5,8,2:3:0:0:
98,257,210146,1,0,3:0:0:0:
79,246,210217,1,0,3:0:0:0:
58,243,210289,1,0,3:0:0:0:
38,247,210360,6,0,P|48:205|63:165,1,85,2|0,1:2|2:0,2:0:0:0:
181,124,210646,2,0,P|122:93|88:93,1,85,8|0,2:3|2:0,2:0:0:0:
324,29,210932,2,0,P|309:68|312:110,1,85,2|0,1:2|2:0,2:0:0:0:
181,124,211217,2,0,P|209:155|224:195,1,85,8|0,2:3|2:0,2:0:0:0:
358,180,211503,2,0,P|328:149|312:110,1,85,2|0,1:2|2:0,2:0:0:0:
224,195,211789,2,0,P|229:236|218:277,1,85,8|0,2:3|2:0,2:0:0:0:
150,327,212074,1,2,1:2:0:0:
150,327,212217,1,0,3:0:0:0:
217,277,212360,6,0,P|292:314|397:328,1,170,8|2,2:3|1:2,2:0:0:0:
479,266,212789,1,0,3:0:0:0:
440,208,212932,2,0,P|395:216|360:237,1,85,8|0,2:3|2:0,2:0:0:0:
268,174,213217,2,0,L|285:47,1,127.5,2|0,1:2|2:0,2:0:0:0:
285,49,213503,5,8,2:3:0:0:
280,80,213574,1,0,3:0:0:0:
276,111,213646,1,0,3:0:0:0:
272,141,213717,1,0,3:0:0:0:
268,172,213789,2,0,P|232:143|193:130,1,85,2|0,1:2|2:0,2:0:0:0:
15,148,214074,6,0,P|54:108|69:73,1,85,8|0,2:3|2:0,2:0:0:0:
195,130,214360,2,0,P|143:151|115:177,1,85,2|0,1:2|2:0,2:0:0:0:
55,302,214646,2,0,P|52:259|36:220,1,85,8|0,2:3|2:0,2:0:0:0:
212,363,214932,6,0,P|265:330|297:266,1,102,12|0,2:3|2:0,2:0:0:0:
438,341,215217,2,0,P|390:300|367:233,1,102,12|0,1:3|2:0,2:0:0:0:
165,227,215503,2,0,P|215:223|260:199,1,102,12|0,1:3|2:0,2:0:0:0:
438,341,215789,5,8,2:3:0:0:
416,327,215860,1,0,3:0:0:0:
397,310,215932,1,0,3:0:0:0:
382,289,216003,1,0,3:0:0:0:
372,266,216074,6,0,P|401:211|416:151,1,85,2|0,1:2|2:0,2:0:0:0:
298,124,216360,2,0,P|268:178|253:238,1,85,8|0,2:3|2:0,2:0:0:0:
414,86,216646,2,0,P|450:43|484:23,1,85,2|0,1:2|2:0,2:0:0:0:
298,124,216932,2,0,P|263:99|238:65,1,85,8|0,2:3|2:0,2:0:0:0:
30,159,217217,6,0,B|77:163|83:164|136:186,1,85,2|0,1:2|2:0,2:0:0:0:
201,296,217503,2,0,B|152:281|108:237,1,85,8|0,2:3|2:0,2:0:0:0:
37,247,217789,1,2,1:2:0:0:
37,247,217932,1,0,3:0:0:0:
18,365,218074,2,0,P|71:328|107:317,1,85,8|0,2:3|2:0,2:0:0:0:
273,340,218360,6,0,P|234:322|201:296,1,85,2|0,1:2|2:0,2:0:0:0:
255,153,218646,2,0,P|265:220|288:265,1,97.75,8|0,2:3|2:0,2:0:0:0:
344,153,218932,2,0,P|353:98|383:53,1,110.5,2|0,1:2|2:0,2:0:0:0:
453,95,219217,6,0,P|392:113|343:153,1,127.5,12|0,1:3|2:0,2:0:0:0:
183,142,219503,2,0,P|219:204|277:247,1,144.5,12|0,1:3|2:0,2:0:0:0:
119,380,219789,2,0,P|205:371|282:331,1,161.5,14|0,1:3|2:0,2:0:0:0:
390,240,220074,6,0,P|401:308|422:347,1,85,2|0,1:2|2:0,2:0:0:0:
272,339,220360,5,8,2:3:0:0:
253,328,220432,1,0,3:0:0:0:
233,320,220503,1,0,3:0:0:0:
213,314,220574,1,0,3:0:0:0:
194,310,220646,6,0,P|142:250|110:228,1,85,2|0,1:2|2:0,2:0:0:0:
142,78,220932,2,0,P|175:161|238:231,1,170,8|2,2:3|1:2,2:0:0:0:
104,188,221360,1,0,3:0:0:0:
296,123,221503,6,0,P|247:96|185:92,1,85,8|0,2:3|2:0,2:0:0:0:
398,199,221789,2,0,P|434:177|475:167,1,85,2|0,1:2|2:0,2:0:0:0:
412,282,222074,2,0,P|408:239|397:198,1,85,8|0,2:3|2:0,2:0:0:0:
280,319,222360,2,0,P|300:281|314:241,1,85,2|0,1:2|2:0,2:0:0:0:
136,127,222646,6,0,P|116:188|98:217,1,85,8|0,2:3|2:0,2:0:0:0:
276,116,222932,2,0,P|242:142|203:160,1,85,2|0,1:2|2:0,2:0:0:0:
137,285,223217,6,0,P|117:247|106:206,1,85,8|0,2:3|2:0,2:0:0:0:
207,321,223503,1,2,1:2:0:0:
50,278,223646,1,0,3:0:0:0:
106,206,223789,5,8,3:3:0:0:
111,226,223860,1,0,3:0:0:0:
117,247,223932,1,0,3:0:0:0:
126,266,224003,1,0,3:0:0:0:
138,284,224074,6,0,P|93:342|79:368,1,85,2|0,1:2|2:0,2:0:0:0:
266,270,224360,6,0,P|313:239|364:230,1,85,8|0,2:3|2:0,2:0:0:0:
264,143,224646,2,0,P|241:91|203:56,1,85,2|0,1:2|2:0,2:0:0:0:
340,231,224932,2,0,P|396:231|443:252,1,85,8|0,2:3|2:0,2:0:0:0:
411,133,225217,2,0,P|433:81|471:46,1,85,2|0,1:2|2:0,2:0:0:0:
422,240,225503,2,0,P|471:266|503:307,1,85,8|0,2:3|2:0,2:0:0:0:
418,371,225789,1,2,1:2:0:0:
418,371,225932,1,0,3:0:0:0:
227,367,226074,6,0,P|175:349|194:232,1,191.25,6|0,1:3|2:0,2:0:0:0:
258,246,226360,6,0,L|251:279,1,31.875,2|0,1:0|2:0,1:0:0:0:
189,235,226646,6,0,P|113:179|204:83,1,223.125,14|0,2:3|2:0,2:0:0:0:
222,131,226932,6,0,L|218:162,1,31.875,2|0,1:0|2:0,2:0:0:0:
166,83,227217,5,8,2:3:0:0:
202,50,227289,1,0,3:0:0:0:
252,45,227360,1,0,3:0:0:0:
293,73,227432,1,0,3:0:0:0:
303,120,227503,6,0,P|288:174|286:230,1,85,0|0,1:2|2:0,2:0:0:0:
479,314,227789,2,0,P|493:255|497:196,1,85,8|0,2:3|2:0,2:0:0:0:
408,193,228074,1,2,1:2:0:0:
376,292,228217,1,0,3:0:0:0:
376,292,228360,6,0,P|311:299|263:315,1,85,8|0,2:3|2:0,2:0:0:0:
166,368,228646,2,0,P|187:318|203:259,1,85,2|0,1:2|2:0,2:0:0:0:
112,301,228932,2,0,P|153:291|195:288,1,85,8|0,2:3|2:0,2:0:0:0:
322,224,229217,2,0,P|305:262|291:303,1,85,2|0,1:2|2:0,2:0:0:0:
149,24,229503,6,0,P|130:112|114:286,1,255,12|0,2:3|2:0,2:0:0:0:
408,273,230074,6,0,P|406:230|401:188,1,85,10|0,2:0|2:0,2:0:0:0:
363,24,230360,6,0,P|382:112|398:286,1,255,8|0,2:3|2:0,2:0:0:0:
132,230,230932,6,0,P|129:251|127:272,2,42.5,8|0|0,2:0|3:0|3:0,2:0:0:0:
138,24,231217,6,0,P|119:112|103:286,1,255,4|0,1:3|2:0,2:0:0:0:
240,363,231789,6,0,P|281:301|343:290,1,113.333333333333,8|0,2:3|2:0,2:0:0:0:
206,285,232146,2,0,P|225:315|240:400,1,85,8|0,2:3|2:0,2:0:0:0:
144,361,232360,5,8,1:0:0:0:
69,341,232503,1,8,1:0:0:0:
21,281,232646,1,8,1:0:0:0:
7,205,232789,1,8,1:0:0:0:
25,130,232932,5,2,2:3:0:0:
25,130,233217,6,0,L|80:139,1,42.5,2|0,2:3|2:0,2:0:0:0:
66,136,233503,2,0,L|107:129,1,42.5,0|0,1:0|2:0,2:0:0:0:
123,130,233789,2,0,L|164:136,1,42.5,8|0,2:3|2:0,2:0:0:0:
194,140,234074,2,0,L|237:129,1,42.5,8|0,2:3|2:0,2:0:0:0:
296,102,234360,5,8,2:0:0:0:
296,102,234503,1,2,2:0:0:0:
350,140,234646,2,0,L|402:150,1,42.5,8|0,1:3|2:0,2:0:0:0:
453,140,234932,5,8,1:3:0:0:
464,144,235074,1,8,2:0:0:0:
475,148,235217,1,8,2:0:0:0:
486,152,235360,1,8,2:0:0:0:
497,157,235503,5,6,2:0:0:0:
419,289,236360,5,0,2:0:0:0:
296,197,237217,5,0,2:0:0:0:
208,322,238074,5,0,2:0:0:0:
73,304,238503,6,0,L|77:285,1,17,2|0,2:0|2:0,2:0:0:0:
144,273,238932,6,0,P|138:245|126:221,1,51.0000000000001,2|0,2:0|2:0,2:0:0:0:
49,225,239360,6,0,P|66:192|113:155,1,85,2|0,2:0|2:0,2:0:0:0:
141,105,239789,6,0,L|137:87,2,17,2|0|0,2:0|2:0|2:0,2:0:0:0:
404,68,240646,6,0,L|344:70,1,42.5,2|0,2:1|2:0,2:0:0:0:
391,134,240932,1,0,2:0:0:0:
378,200,241074,1,0,2:0:0:0:
391,134,241217,1,0,2:0:0:0:
391,134,241503,6,0,L|348:135,1,42.5,2|0,2:1|2:0,2:0:0:0:
378,200,241789,1,0,2:0:0:0:
404,68,242074,1,0,2:0:0:0:
378,200,242360,6,0,L|335:201,1,42.5,2|0,2:1|2:0,2:0:0:0:
404,68,242646,5,0,2:0:0:0:
391,134,242789,1,0,2:0:0:0:
378,200,242932,1,0,2:0:0:0:
391,134,243217,6,0,L|348:135,1,42.5,2|0,2:1|2:0,2:0:0:0:
378,200,243503,5,0,2:0:0:0:
404,68,243789,1,0,2:0:0:0:
378,200,244074,6,0,L|335:201,1,42.5,2|0,2:1|2:0,2:0:0:0:
404,68,244503,1,0,2:0:0:0:
378,200,244932,6,0,L|335:201,1,42.5,2|0,2:1|2:0,2:0:0:0:
391,134,245360,1,0,2:0:0:0:
404,68,245503,1,0,2:0:0:0:
378,200,245789,6,0,L|335:201,1,42.5,2|0,2:1|2:0,2:0:0:0:
391,134,246074,2,0,L|348:135,1,42.5,0|0,2:0|2:0,2:0:0:0:
378,200,246646,6,0,L|335:201,1,42.5,2|0,2:1|2:0,2:0:0:0:
404,68,246932,1,0,2:0:0:0:
391,134,247217,1,0,2:0:0:0:
378,200,247360,1,0,2:0:0:0:
404,68,247503,6,0,L|361:69,1,42.5,2|0,2:1|2:0,2:0:0:0:
378,200,247789,1,0,2:0:0:0:
391,134,248074,1,0,2:0:0:0:
378,200,248360,6,0,L|335:201,1,42.5,2|0,2:1|2:0,2:0:0:0:
391,134,248646,6,0,L|348:135,1,42.5,0|0,2:0|2:0,2:0:0:0:
404,68,248932,2,0,L|361:69,1,42.5,0|0,2:0|2:0,2:0:0:0:
404,68,249217,6,0,L|379:202,1,136,2|0,2:1|2:0,2:0:0:0:
336,202,250074,6,0,L|361:68,1,136,2|0,2:1|2:0,2:0:0:0:
404,68,250932,6,0,L|379:202,1,136,2|0,2:1|2:0,2:0:0:0:
379,201,251789,6,0,L|336:202,1,42.5,2|0,2:1|2:0,2:0:0:0:
391,134,252074,1,0,2:0:0:0:
404,68,252360,1,0,2:0:0:0:
378,200,252646,6,0,L|335:201,1,42.5,2|0,2:1|2:0,2:0:0:0:
404,68,252932,1,0,2:0:0:0:
391,134,253217,1,0,2:0:0:0:
378,200,253503,6,0,L|335:201,1,42.5,2|0,2:1|2:0,2:0:0:0:
404,68,253789,1,0,2:0:0:0:
391,134,254074,1,0,2:0:0:0:
244,304,254360,6,0,P|196:249|138:230,1,127.5,10|0,3:0|2:0,2:0:0:0:
146,230,254789,1,0,2:0:0:0:
163,165,254932,2,0,L|181:92,1,63.7500000000002,2|0,3:0|2:0,2:0:0:0:
243,118,255217,2,0,L|225:191,1,63.7500000000002,2|0,2:2|2:0,2:0:0:0:
94,116,255503,1,0,3:0:0:0:
94,116,255646,2,0,P|62:116|31:107,2,63.7500000000002,0|2|0,2:0|2:0|2:0,2:0:0:0:
226,17,256074,6,0,P|248:75|301:108,1,127.5,2|0,3:2|2:0,2:0:0:0:
301,108,256503,1,0,2:0:0:0:
371,108,256646,2,0,L|380:42,1,63.7500000000002,0|0,3:0|2:0,2:0:0:0:
450,10,256932,2,0,L|441:73,1,63.7500000000002,2|0,2:2|2:0,2:0:0:0:
484,145,257217,1,0,3:0:0:0:
484,145,257360,2,0,P|447:170|435:207,1,63.7500000000002,2|0,3:0|2:0,2:0:0:0:
508,213,257646,1,2,2:0:0:0:
353,234,257789,6,0,L|374:78,1,127.5,2|0,3:2|2:0,2:0:0:0:
370,107,258217,1,0,2:0:0:0:
287,213,258360,2,0,P|244:172|221:163,1,63.7500000000002,0|0,3:0|2:0,2:0:0:0:
229,253,258646,2,0,P|186:212|163:203,1,63.7500000000002,2|0,2:2|2:0,2:0:0:0:
191,106,258932,2,0,L|275:88,2,63.7500000000002,0|2|2,3:0|2:3|2:3,2:0:0:0:
192,106,259503,5,2,3:2:0:0:
66,214,259789,5,2,2:0:0:0:
45,378,260074,5,0,3:0:0:0:
45,378,260360,6,0,P|22:311|22:290,1,63.7500000000002,2|0,2:2|2:0,2:0:0:0:
66,214,260646,2,0,P|89:281|89:302,1,63.7500000000002,2|0,3:2|2:0,2:0:0:0:
166,368,260932,5,0,3:2:0:0:
234,317,261074,1,0,2:0:0:0:
373,372,261217,6,0,L|382:286,1,63.7500000000002,2|0,3:2|2:0,2:0:0:0:
289,181,261503,1,8,2:0:0:0:
456,303,261646,1,0,3:0:0:0:
456,303,261789,6,0,L|465:217,1,63.7500000000002,2|0,2:2|2:0,2:0:0:0:
396,172,262074,2,0,L|387:258,1,63.7500000000002,0|0,3:2|2:0,2:0:0:0:
208,240,262360,1,8,2:0:0:0:
473,172,262503,1,0,3:0:0:0:
473,172,262646,2,0,L|479:108,1,63.7500000000002,2|0,2:2|2:0,2:0:0:0:
165,55,262932,6,0,L|154:141,1,85,2|0,3:2|2:0,2:0:0:0:
128,330,263217,1,8,2:0:0:0:
85,91,263360,1,0,3:0:0:0:
85,91,263503,6,0,L|74:177,1,85,2|0,2:2|2:0,2:0:0:0:
128,330,263789,2,0,L|139:244,1,85,2|0,3:2|2:0,2:0:0:0:
69,273,264074,5,8,1:2:0:0:
304,240,264217,1,8,1:2:0:0:
208,240,264360,1,10,1:2:0:0:
443,273,264503,1,8,1:2:0:0:
256,152,264646,5,6,2:0:0:0:
256,152,265503,5,2,2:0:0:0:
189,139,265789,1,2,2:0:0:0:
133,98,266074,1,2,2:0:0:0:
256,152,266360,5,2,2:0:0:0:
323,139,266932,1,2,2:0:0:0:
379,98,267503,1,2,2:0:0:0:
256,152,268074,5,0,2:0:0:0:
256,152,268932,5,0,2:3:0:0:
219,216,269217,5,2,2:0:0:0:
291,278,269789,5,2,2:0:0:0:
224,384,270360,5,2,2:0:0:0:
224,384,270646,5,0,2:0:0:0:
310,349,270932,5,2,2:0:0:0:
73,269,271503,5,2,2:0:0:0:
70,259,271551,1,2,2:0:0:0:
426,246,272074,5,2,2:0:0:0:
445,167,272360,5,0,2:0:0:0:
58,102,272646,5,2,2:0:0:0:
64,94,272693,2,0,B|72:84|97:88|97:88|114:102|135:96|135:96|153:99|160:113,1,107.666666666667,2|0,2:0|2:0,2:0:0:0:
196,173,273217,6,0,B|169:148|170:123|170:123|192:84|195:37|195:37|223:75|262:97|262:97|277:118|266:154,1,297.5,6|0,2:3|2:0,2:0:0:0:
226,284,273646,5,8,2:0:0:0:
246,217,273789,1,2,2:3:0:0:
296,266,273932,1,2,2:3:0:0:
111,301,274074,6,0,B|138:286|138:286|259:307|259:307|267:305|267:305|400:329,1,297.5,4|0,2:3|2:0,2:0:0:0:
474,182,274503,5,8,2:0:0:0:
399,187,274646,1,2,2:3:0:0:
367,254,274789,1,2,2:3:0:0:
474,182,274932,6,0,B|480:131|480:131|491:104|491:104|484:87|484:87|487:67|487:67|492:16|444:11|444:11|421:0|421:0|396:5|396:5|346:0,1,297.5,6|0,2:3|2:0,2:0:0:0:
227,122,275360,5,2,3:2:0:0:
153,108,275503,1,10,2:0:0:0:
79,94,275646,1,2,2:3:0:0:
237,28,275789,6,0,B|251:100|198:127|198:127|206:125|206:125|162:151|174:212,1,223.125,4|0,2:3|2:0,2:0:0:0:
137,344,276074,6,0,B|133:382|122:388|122:388|104:376|84:384,1,74.375,8|0,2:0|2:0,2:0:0:0:
124,251,276217,2,0,B|100:218|88:217|88:217|78:237|56:240,1,74.375,8|0,2:0|2:0,2:0:0:0:
76,299,276360,6,0,B|15:285|27:318|-25:315|-25:315|46:360|87:306,1,223.125,8|0,2:3|2:0,2:0:0:0:
185,287,276646,6,0,B|205:284|224:290|224:290|206:361|281:379|357:374|352:301|352:301|372:299|392:305,1,297.5,6|0,2:3|2:0,2:0:0:0:
467,285,277074,6,0,B|490:294|490:294|517:304|501:345|501:345|487:381|464:373|464:373|434:362,1,170,10|0,2:0|2:0,2:0:0:0:
284,356,277503,6,0,L|313:59,1,297.5,4|2,2:3|3:2,2:0:0:0:
472,145,277932,5,8,2:0:0:0:
401,122,278074,1,0,1:0:0:0:
383,49,278217,1,0,1:0:0:0:
432,214,278360,6,0,L|136:185,1,297.5,6|0,2:3|2:0,2:0:0:0:
72,316,278789,6,0,P|60:368|15:387,2,85,8|2|2,2:0|2:3|2:3,2:0:0:0:
76,122,279217,6,0,B|39:191|94:251|94:251|106:248|106:248|164:295|140:380,1,297.5,4|0,2:3|2:0,2:0:0:0:
318,344,279646,5,0,3:0:0:0:
311,254,279789,1,10,2:0:0:0:
306,165,279932,1,0,2:0:0:0:
479,310,280074,6,0,B|379:273|379:273|368:259|368:259|255:218|255:218|238:222|238:222|134:184,1,371.875,6|0,2:3|2:0,2:0:0:0:
57,187,280503,6,0,P|63:129|53:75,2,85,8|2|2,2:0|2:3|2:3,2:0:0:0:
140,47,280932,5,4,2:3:0:0:
207,108,281074,1,2,2:0:0:0:
260,56,281217,5,2,2:0:0:0:
256,176,281360,1,2,3:2:0:0:
327,157,281503,5,10,2:0:0:0:
270,265,281646,1,2,2:0:0:0:
426,168,281789,6,0,B|411:125|477:96|477:96|497:170|505:127|556:179|490:277,1,297.5,6|0,2:3|2:0,2:0:0:0:
372,370,282217,5,8,2:0:0:0:
311,328,282360,1,2,2:3:0:0:
444,352,282503,1,2,2:3:0:0:
248,377,282646,6,0,B|229:347|232:322|232:322|178:313|199:298|145:291|145:291|151:255|131:213,1,223.125,4|0,2:3|2:0,2:0:0:0:
56,158,282932,6,0,B|37:144|37:144|65:79,1,74.375,8|0,2:0|2:0,2:0:0:0:
191,131,283074,2,0,B|204:112|204:112|154:62,1,74.375,8|0,2:0|2:0,2:0:0:0:
126,128,283217,2,0,B|137:97|130:77|130:77|101:26|101:26|90:84|90:84|89:100|114:132,1,223.125002127886,8|0,2:3|2:0,2:0:0:0:
135,221,283503,6,0,B|262:173|262:173|273:174|273:174|441:106,1,297.5,6|0,2:3|2:0,2:0:0:0:
312,79,283932,2,0,P|269:82|231:65,1,85,8|2,2:0|2:3,2:0:0:0:
381,38,284217,1,8,2:0:0:0:
425,224,284360,6,0,B|352:220|297:177|297:177|286:179|286:179|228:128|124:112,2,297.5,4|8|8,2:3|2:0|2:3,2:0:0:0:
425,224,285217,2,0,B|349:235|291:285|291:285|280:283|280:283|225:326|153:330,1,297.5,6|0,2:3|2:0,2:0:0:0:
323,348,285646,6,0,P|413:292|475:284,1,148.75,8|2,2:0|2:3,2:0:0:0:
512,323,285932,1,8,2:0:0:0:
323,348,286074,2,0,P|327:217|342:117,1,223.125,4|0,2:3|2:0,2:0:0:0:
338,103,286360,6,0,B|356:73|368:78|368:78|415:70|415:70|341:95|372:165,1,170,10|0,2:0|2:0,2:0:0:0:
363,124,286503,2,0,B|392:142|387:154|387:154|395:201|395:201|370:127|300:158,1,170,10|0,2:0|2:0,2:0:0:0:
341,150,286646,2,0,B|322:179|310:174|310:174|263:182|263:182|337:157|306:87,1,170,14|0,2:0|2:0,2:0:0:0:
316,127,286789,2,0,B|286:108|291:96|291:96|283:49|283:49|308:123|378:92,1,170,10|0,2:0|2:0,2:0:0:0:
341,125,286932,6,0,B|302:131|265:160|265:160|264:150|264:150|213:192|143:187|143:187|145:194|145:194|110:190|81:209,1,297.5,6|0,2:3|2:0,2:0:0:0:
57,59,287360,5,8,2:0:0:0:
78,130,287503,1,2,2:3:0:0:
7,117,287646,1,2,2:3:0:0:
168,116,287789,6,0,B|192:108|208:52|208:52|180:308,1,297.5,4|0,2:3|2:0,2:0:0:0:
147,384,288217,2,0,P|69:347|105:284,1,170,8|2,2:0|2:3,2:0:0:0:
265,219,288646,6,0,B|284:63|284:63|291:4|339:10|339:10|392:16,1,297.5,6|0,2:3|2:0,2:0:0:0:
472,121,289074,5,2,3:2:0:0:
459,193,289217,1,10,2:0:0:0:
446,266,289360,1,2,2:3:0:0:
472,121,289503,6,0,B|426:132|415:197|415:197|412:189|412:189|407:254|341:266,1,223.125,4|0,2:3|2:0,2:0:0:0:
177,246,289789,6,0,P|186:213|216:190,1,74.375,8|0,2:0|2:0,2:0:0:0:
302,323,289932,2,0,P|331:301|342:266,1,74.375,8|0,2:0|2:0,2:0:0:0:
224,290,290074,2,0,B|173:323|203:342|168:377|168:377|238:372|240:295,1,223.125002127886,8|0,3:3|3:0,3:0:0:0:
90,317,290360,6,0,B|228:293|228:293|234:288|234:288|383:264,1,297.5,6|0,2:3|2:0,2:0:0:0:
217,189,290789,6,0,B|144:195|119:172|121:147|60:157|60:157|96:179|110:204,1,212.5,10|0,2:0|2:0,2:0:0:0:
97,186,291217,6,0,B|196:164|219:124|207:92|291:80|291:80|290:136|338:168,1,297.5,4|2,2:3|3:2,2:0:0:0:
475,232,291646,5,8,2:0:0:0:
498,153,291789,1,0,1:0:0:0:
486,72,291932,1,0,1:0:0:0:
475,232,292074,6,0,B|447:208|447:208|364:221|364:221|353:227|353:227|321:232|321:232|309:230|309:230|226:243|226:243|207:273,1,297.5,6|0,2:3|2:0,2:0:0:0:
256,356,292503,1,8,2:0:0:0:
13,233,292646,5,2,2:3:0:0:
37,208,292717,1,2,2:3:0:0:
61,232,292789,1,2,2:3:0:0:
37,259,292860,1,2,2:3:0:0:
37,232,292932,6,0,B|65:208|65:208|148:221|148:221|159:227|159:227|191:232|191:232|203:230|203:230|286:243|286:243|305:273,1,297.5,4|0,2:3|2:0,2:0:0:0:
156,318,293360,5,0,3:0:0:0:
168,152,293503,2,0,L|71:134,1,85,12|0,2:0|2:0,2:0:0:0:
0,48,293789,6,0,L|303:104,1,297.5,6|0,2:3|2:0,2:0:0:0:
437,206,294217,5,8,2:0:0:0:
356,190,294360,1,2,2:3:0:0:
409,130,294503,1,2,2:3:0:0:
512,336,294646,6,0,L|209:280,1,297.5,4|2,2:3|2:0,2:0:0:0:
172,353,295074,5,0,3:0:0:0:
77,256,295217,2,0,P|87:215|111:180,1,85,10|0,2:0|2:0,2:0:0:0:
0,99,295503,6,0,B|38:109|72:140|72:140|74:131|74:131|121:176|192:178|192:178|189:185|189:185|224:183|251:205,1,297.5,6|0,2:3|2:0,2:0:0:0:
406,144,295932,6,0,P|378:46|323:132,1,255,8|8,2:0|2:0,2:0:0:0:
300,283,296360,6,0,P|413:222|324:131,1,297.5,4|8,2:3|2:0,2:0:0:0:
235,320,296789,1,8,2:0:0:0:
220,249,296932,2,0,P|242:219|331:216,1,127.5,8|0,2:3|2:0,2:0:0:0:
468,334,297217,6,0,B|458:152|412:-16|412:-16|231:-7|61:37|61:37|70:219|116:387|116:387|257:381|390:348|390:348|382:189|350:74|350:74|350:74|350:74|250:80|155:101|155:101|155:101|155:101|160:202|183:298|183:298|243:294|300:282|300:282|296:222|284:165|284:165|249:167|216:176,1,2312.00000000001,4|0,2:0|2:0,2:0:0:0:
226,173,302074,5,0,2:0:0:0:
64,279,302360,5,2,2:0:0:0:
113,332,302503,2,0,L|177:322,1,63.7500000000002,0|0,3:0|2:0,2:0:0:0:
238,360,302789,1,0,3:0:0:0:
238,360,302932,2,0,L|300:369,1,63.7500000000002,0|0,3:0|2:0,2:0:0:0:
439,331,303217,5,8,2:0:0:0:
476,222,303646,5,2,2:0:0:0:
433,115,304074,6,0,L|453:65,2,51.0000000000001,2|0|0,2:0|2:0|2:0,2:0:0:0:
330,145,304932,2,0,L|331:91,2,51.0000000000001,2|0|0,2:0|2:0|2:0,2:0:0:0:
243,208,305789,2,0,L|226:156,2,51.0000000000001,2|0|0,2:0|2:0|2:0,2:0:0:0:
182,296,306646,2,0,L|148:253,2,51.0000000000001,2|0|0,2:0|2:0|2:0,2:0:0:0:
34,358,307503,5,2,2:0:0:0:
30,361,308360,1,2,2:0:0:0:
26,364,309217,1,2,2:0:0:0:
22,367,310074,1,2,2:0:0:0:
0,384,312646,5,4,0:0:0:0:
