osu file format v14

[General]
AudioFilename: audio.ogg
AudioLeadIn: 0
PreviewTime: 25300
Countdown: 0
SampleSet: Normal
StackLeniency: 0.7
Mode: 1
LetterboxInBreaks: 0
WidescreenStoryboard: 0

[Editor]
DistanceSpacing: 0.3
BeatDivisor: 6
GridSize: 32
TimelineZoom: 1.6

[Metadata]
Title:Howling
TitleUnicode:Howling
Artist:Lupus Nocte
ArtistUnicode:Lupus Nocte
Creator:Burak
Version:Good Times
Source:
Tags:instrumental electronic synth 1980s pop wave justburak hermitcraft synthpop synth-pop synthwave synth-wave
BeatmapID:3109439
BeatmapSetID:1519057

[Difficulty]
HPDrainRate:6
CircleSize:5
OverallDifficulty:5
ApproachRate:5
SliderMultiplier:1.4
SliderTickRate:1

[Events]
//Background and Video events
0,0,"related bg.jpg",0,85
//Break Periods
//Storyboard Layer 0 (Background)
//Storyboard Layer 1 (Fail)
//Storyboard Layer 2 (Pass)
//Storyboard Layer 3 (Foreground)
//Storyboard Layer 4 (Overlay)
//Storyboard Sound Samples

[TimingPoints]
-900,400,4,1,0,40,1,8
166,-142.857142857143,4,1,0,40,0,8
25200,-142.857142857143,4,1,0,65,0,8
25300,-125,4,1,0,65,0,8
25500,-111.111111111111,4,1,0,65,0,8
25700,-100,4,1,0,65,0,9
25900,-90.9090909090909,4,1,0,65,0,9
38100,-86.9565217391304,4,1,0,65,0,9
38200,-84.7457627118644,4,1,0,65,0,9
38300,-82.6446280991736,4,1,0,65,0,9
38500,-76.9230769230769,4,1,0,65,0,8
39000,-95.2380952380952,4,1,0,65,0,8
63300,-100,4,1,0,50,0,8
63500,-105.263157894737,4,1,0,50,0,8
63700,-111.111111111111,4,1,0,50,0,8
63900,-117.647058823529,4,1,0,50,0,8
64100,-125,4,1,0,50,0,8
64300,-133.333333333333,4,1,0,50,0,8
70300,-132.04039379727,4,1,0,50,0,8
70500,-130.772288828908,4,1,0,50,0,8
70900,-128.307774424668,4,1,0,50,0,8
71700,-123.647298553821,4,1,0,50,0,8
71900,-122.53475391958,4,1,0,50,0,8
72100,-121.441904014748,4,1,0,50,0,8
72700,-118.277267937043,4,1,0,50,0,8
73100,-116.257575634272,4,1,0,50,0,8
73500,-114.305701454083,4,1,0,50,0,8
73700,-113.354137596053,4,1,0,50,0,8
74300,-110.592187989025,4,1,0,50,0,8
74700,-108.824467222615,4,1,0,50,0,8
75100,-107.112368372288,4,1,0,50,0,8
75500,-105.45341806164,4,1,0,50,0,8
75700,-104.643010370122,4,1,0,50,0,8
75900,-103.844963623109,4,1,0,50,0,8
76100,-103.058997153511,4,1,0,50,0,8
76300,-102.284838727495,4,1,0,50,0,8
76500,-101.522224230106,4,1,0,50,0,8
76600,-101.145165564522,4,1,0,50,0,8
76700,-100.770897364841,4,1,0,50,0,8
76900,-100.030609366466,4,1,0,50,0,8
87100,-111.111111111111,4,1,0,65,0,0
87500,-117.647058823529,4,1,0,65,0,0
87900,-125,4,1,0,65,0,0
88300,-133.333333333333,4,1,0,65,0,0
88700,-142.857142857143,4,1,0,65,0,0
89100,-153.846153846154,4,1,0,65,0,0
89500,-166.666666666667,4,1,0,65,0,0
89700,-125,4,1,0,65,0,0
89800,-122.460475881409,4,1,0,65,0,0
89900,-120.022084063468,4,1,0,65,0,0
90100,-115.425591469587,4,1,0,65,0,0
90300,-111.168053858699,4,1,0,65,0,0
90500,-107.213426551834,4,1,0,65,0,0
90700,-103.53049335386,4,1,0,65,0,0
90900,-100.09228508685,4,1,0,65,0,0
91100,-96.8750060546879,4,1,0,65,0,0
91300,-93.8581128136973,4,1,0,65,0,1
91500,-91.0234494610501,4,1,0,65,0,1
103700,-86.9565217391304,4,1,0,65,0,1
103800,-84.7457627118644,4,1,0,65,0,1
103900,-82.6446280991736,4,1,0,65,0,1
104100,-76.9230769230769,4,1,0,65,0,0
104600,-95.2380952380952,4,1,0,65,0,0
128300,-100,4,1,0,65,0,0
128700,-101.112234580384,4,1,0,65,0,0
128900,-102.040816326531,4,1,0,65,0,0
129300,-103.092783505155,4,1,0,65,0,0
129500,-104.166666666667,4,1,0,65,0,0
129600,-105.263157894737,4,1,0,65,0,0
129700,-106.382978723404,4,1,0,65,0,0
129800,-107.52688172043,4,1,0,65,0,0
129900,-108.695652173913,4,1,0,65,0,0
130300,-111.111111111111,4,1,0,65,0,0
141500,-110.091783519921,4,1,0,65,0,0
141700,-109.090869421502,4,1,0,65,0,0
141900,-108.108108108108,4,1,0,65,0,0
142100,-107.142895408177,4,1,0,65,0,0
142300,-106.194652674459,4,1,0,65,0,0
142500,-105.263157894737,4,1,0,65,0,0
154900,-96.1538461538461,4,1,0,65,0,0
155000,-95.2380952380952,4,1,0,65,0,0
155100,-94.3396226415094,4,1,0,65,0,0
155300,-92.5925925925926,4,1,0,65,0,1
155500,-90.9090909090909,4,1,0,65,0,1
179500,-89.2857142857143,4,1,0,65,0,1
179700,-87.719298245614,4,1,0,65,0,1
179900,-86.2068965517241,4,1,0,65,0,1
180100,-84.7457627118644,4,1,0,65,0,1
180300,-83.3333333333333,4,1,0,65,0,1
180500,-80,4,1,0,65,0,1
180600,-76.9230769230769,4,1,0,65,0,1
180700,-74.0740740740741,4,1,0,65,0,1
180900,-66.6666666666667,4,1,0,65,0,0

[HitObjects]
170,229,200,5,0,0:0:0:0:
143,180,300,1,8,0:0:0:0:
139,221,933,1,8,0:0:0:0:
139,221,1566,1,0,0:0:0:0:
226,221,2900,1,0,0:0:0:0:
226,221,3100,1,0,0:0:0:0:
226,221,3300,1,8,0:0:0:0:
223,232,3500,1,0,0:0:0:0:
201,216,3900,1,8,0:0:0:0:
209,210,4500,1,8,0:0:0:0:
186,201,5100,1,0,0:0:0:0:
166,243,6633,1,0,0:0:0:0:
166,243,6700,1,8,0:0:0:0:
165,236,7100,1,0,0:0:0:0:
170,233,7700,1,8,0:0:0:0:
160,251,8366,1,0,0:0:0:0:
144,218,9300,1,0,0:0:0:0:
144,218,9500,1,0,0:0:0:0:
144,218,9700,1,8,0:0:0:0:
144,218,9900,1,0,0:0:0:0:
154,207,10300,1,0,0:0:0:0:
154,207,10700,1,0,0:0:0:0:
154,207,10900,1,8,0:0:0:0:
154,207,11500,1,0,0:0:0:0:
143,180,13000,1,0,0:0:0:0:
143,180,13100,1,8,0:0:0:0:
139,221,13733,1,8,0:0:0:0:
139,221,14366,1,0,0:0:0:0:
158,275,15700,1,8,0:0:0:0:
158,275,15900,1,8,0:0:0:0:
158,275,16100,1,0,0:0:0:0:
178,259,16300,1,8,0:0:0:0:
183,269,16366,1,8,0:0:0:0:
185,269,16900,1,8,0:0:0:0:
212,257,17533,1,0,0:0:0:0:
212,278,18900,1,0,0:0:0:0:
212,278,19100,1,0,0:0:0:0:
212,278,19300,1,8,0:0:0:0:
205,273,19500,1,0,0:0:0:0:
195,277,19900,1,8,0:0:0:0:
195,277,20100,1,0,0:0:0:0:
208,258,20500,1,0,0:0:0:0:
208,258,21100,1,8,0:0:0:0:
197,277,21900,1,0,0:0:0:0:
190,268,22700,1,4,0:0:0:0:
256,192,22900,12,8,24300,0:0:0:0:
170,251,25300,5,0,0:0:0:0:
170,251,25500,1,0,0:0:0:0:
166,258,25700,1,12,0:0:0:0:
180,271,25900,1,0,0:0:0:0:
197,263,26300,1,8,0:0:0:0:
199,267,26700,1,0,0:0:0:0:
199,267,27100,1,8,0:0:0:0:
199,267,27300,1,0,0:0:0:0:
199,267,27500,1,8,0:0:0:0:
199,258,27700,1,0,0:0:0:0:
199,262,27900,1,8,0:0:0:0:
205,253,28300,1,0,0:0:0:0:
205,253,28700,1,8,0:0:0:0:
192,61,28900,1,4,0:0:0:0:
104,242,29500,1,0,0:0:0:0:
108,241,29900,1,0,0:0:0:0:
104,242,30300,1,0,0:0:0:0:
104,242,30500,1,0,0:0:0:0:
108,241,30700,1,8,0:0:0:0:
133,238,30900,1,8,0:0:0:0:
131,238,31100,1,0,0:0:0:0:
131,238,31300,1,8,0:0:0:0:
130,237,31500,1,0,0:0:0:0:
128,237,31700,1,8,0:0:0:0:
133,238,31800,1,0,0:0:0:0:
121,235,31900,1,0,0:0:0:0:
131,238,32100,1,12,0:0:0:0:
190,258,32700,1,8,0:0:0:0:
179,238,33100,1,0,0:0:0:0:
179,238,33500,1,8,0:0:0:0:
179,238,33700,1,8,0:0:0:0:
179,238,33900,1,0,0:0:0:0:
179,238,34100,1,0,0:0:0:0:
157,254,34300,1,8,0:0:0:0:
157,254,34700,1,0,0:0:0:0:
166,256,35100,1,8,0:0:0:0:
166,256,35300,1,4,0:0:0:0:
165,242,35900,1,0,0:0:0:0:
145,257,36300,1,0,0:0:0:0:
159,258,36700,1,0,0:0:0:0:
159,258,36900,1,8,0:0:0:0:
161,260,37100,1,8,0:0:0:0:
161,260,37300,1,0,0:0:0:0:
171,279,37500,1,8,0:0:0:0:
175,277,37700,1,0,0:0:0:0:
170,278,37900,1,8,0:0:0:0:
165,282,38100,1,8,0:0:0:0:
165,282,38200,1,8,0:0:0:0:
165,282,38300,1,0,0:0:0:0:
160,286,38500,1,12,0:0:0:0:
199,220,39000,1,0,0:0:0:0:
203,228,39100,1,8,0:0:0:0:
218,255,39300,1,8,0:0:0:0:
218,255,39500,1,8,0:0:0:0:
218,255,39700,1,0,0:0:0:0:
218,255,39900,1,0,0:0:0:0:
218,255,40100,1,8,0:0:0:0:
218,255,40500,1,8,0:0:0:0:
178,197,40900,1,8,0:0:0:0:
189,264,41100,1,0,0:0:0:0:
189,264,41300,1,0,0:0:0:0:
189,264,41500,1,8,0:0:0:0:
198,291,41700,1,0,0:0:0:0:
205,194,42100,1,8,0:0:0:0:
152,278,42300,1,0,0:0:0:0:
156,289,42700,1,0,0:0:0:0:
143,287,43100,1,0,0:0:0:0:
143,288,43500,1,0,0:0:0:0:
146,300,43700,1,8,0:0:0:0:
143,287,43900,1,0,0:0:0:0:
147,290,44100,1,8,0:0:0:0:
141,294,44300,1,0,0:0:0:0:
143,297,44500,1,8,0:0:0:0:
137,297,44600,1,0,0:0:0:0:
146,300,44700,1,0,0:0:0:0:
175,239,44900,1,0,0:0:0:0:
199,220,45400,1,0,0:0:0:0:
203,228,45500,1,8,0:0:0:0:
218,255,45700,1,0,0:0:0:0:
218,255,45900,1,0,0:0:0:0:
218,255,46100,1,0,0:0:0:0:
218,255,46300,1,0,0:0:0:0:
218,255,46500,1,8,0:0:0:0:
218,255,46900,1,8,0:0:0:0:
155,228,47300,1,8,0:0:0:0:
189,264,47500,1,0,0:0:0:0:
189,264,47700,1,0,0:0:0:0:
189,264,47900,1,0,0:0:0:0:
198,291,48100,1,8,0:0:0:0:
205,194,48500,1,8,0:0:0:0:
152,278,48700,1,0,0:0:0:0:
156,289,49100,1,0,0:0:0:0:
143,287,49500,1,0,0:0:0:0:
143,288,49900,1,0,0:0:0:0:
146,300,50100,1,8,0:0:0:0:
143,287,50300,1,0,0:0:0:0:
147,290,50500,1,8,0:0:0:0:
141,294,50700,1,0,0:0:0:0:
143,297,50900,1,8,0:0:0:0:
137,297,51000,1,0,0:0:0:0:
146,300,51100,1,8,0:0:0:0:
203,228,51300,1,12,0:0:0:0:
218,255,51700,1,8,0:0:0:0:
218,255,51900,1,0,0:0:0:0:
218,255,52100,1,0,0:0:0:0:
218,255,52300,1,8,0:0:0:0:
177,193,52500,1,0,0:0:0:0:
218,255,52700,1,8,0:0:0:0:
178,197,52900,1,12,0:0:0:0:
189,264,53300,1,0,0:0:0:0:
189,264,53500,1,0,0:0:0:0:
189,264,53700,1,8,0:0:0:0:
198,291,53900,1,0,0:0:0:0:
205,194,54300,1,8,0:0:0:0:
152,278,54566,1,8,0:0:0:0:
129,286,54633,1,8,0:0:0:0:
134,266,54700,1,8,0:0:0:0:
156,289,54900,1,0,0:0:0:0:
177,233,55100,1,0,0:0:0:0:
143,287,55300,1,8,0:0:0:0:
177,233,55500,1,8,0:0:0:0:
143,288,55700,1,0,0:0:0:0:
146,300,55900,1,8,0:0:0:0:
143,287,56100,1,4,0:0:0:0:
84,266,56500,1,8,0:0:0:0:
93,262,56900,1,8,0:0:0:0:
244,228,57100,1,0,0:0:0:0:
213,204,57300,5,0,0:0:0:0:
213,204,57400,1,0,0:0:0:0:
213,204,57500,1,8,0:0:0:0:
213,204,57600,1,0,0:0:0:0:
213,204,57700,1,8,0:0:0:0:
221,208,57800,1,8,0:0:0:0:
135,201,58100,1,8,0:0:0:0:
135,201,58300,1,0,0:0:0:0:
135,201,58500,1,8,0:0:0:0:
135,201,58700,1,8,0:0:0:0:
183,203,58900,1,0,0:0:0:0:
185,262,59100,1,0,0:0:0:0:
185,262,59300,1,12,0:0:0:0:
185,298,59700,1,8,0:0:0:0:
199,296,59900,1,0,0:0:0:0:
212,289,60100,1,8,0:0:0:0:
208,291,60300,1,8,0:0:0:0:
206,291,60500,1,0,0:0:0:0:
200,226,60966,1,8,0:0:0:0:
197,226,61033,1,8,0:0:0:0:
199,227,61100,1,8,0:0:0:0:
206,281,61300,1,8,0:0:0:0:
214,269,61500,1,0,0:0:0:0:
210,270,61700,1,8,0:0:0:0:
181,273,61900,1,8,0:0:0:0:
196,273,62100,1,0,0:0:0:0:
201,271,62300,1,0,0:0:0:0:
208,269,62500,1,12,0:0:0:0:
195,250,62700,1,8,0:0:0:0:
195,250,62900,1,8,0:0:0:0:
195,250,63300,1,0,0:0:0:0:
175,254,63500,5,8,0:0:0:0:
175,254,63700,1,0,0:0:0:0:
175,254,63900,1,0,0:0:0:0:
172,263,64100,1,0,0:0:0:0:
234,267,64300,1,0,0:0:0:0:
228,260,64700,1,0,0:0:0:0:
228,260,65100,1,0,0:0:0:0:
228,260,65300,1,0,0:0:0:0:
228,260,65500,1,0,0:0:0:0:
228,260,65700,1,12,0:0:0:0:
206,267,66100,1,8,0:0:0:0:
206,267,66900,1,0,0:0:0:0:
206,267,67100,1,0,0:0:0:0:
206,267,67300,1,12,0:0:0:0:
197,233,67900,1,8,0:0:0:0:
197,233,68300,1,8,0:0:0:0:
190,246,68700,1,0,0:0:0:0:
197,247,68900,1,12,0:0:0:0:
186,245,69100,1,0,0:0:0:0:
112,236,70100,1,0,0:0:0:0:
112,236,70300,1,0,0:0:0:0:
112,236,70500,1,12,0:0:0:0:
185,266,70900,1,0,0:0:0:0:
166,198,71700,1,8,0:0:0:0:
166,198,71900,1,8,0:0:0:0:
166,198,72100,1,12,0:0:0:0:
158,200,72700,1,0,0:0:0:0:
157,202,73100,1,8,0:0:0:0:
177,211,73500,1,0,0:0:0:0:
182,209,73700,1,12,0:0:0:0:
181,197,74300,1,8,0:0:0:0:
203,233,74700,1,0,0:0:0:0:
194,244,75100,1,8,0:0:0:0:
191,248,75500,1,0,0:0:0:0:
191,248,75700,1,0,0:0:0:0:
194,244,75900,1,8,0:0:0:0:
194,244,76100,1,0,0:0:0:0:
191,248,76300,1,0,0:0:0:0:
191,248,76500,1,8,0:0:0:0:
191,248,76600,1,0,0:0:0:0:
191,248,76700,1,0,0:0:0:0:
198,251,76900,1,12,0:0:0:0:
167,242,77300,1,0,0:0:0:0:
154,268,77500,1,8,0:0:0:0:
173,268,77700,1,8,0:0:0:0:
165,252,77800,1,0,0:0:0:0:
154,268,77900,1,0,0:0:0:0:
177,282,78100,1,0,0:0:0:0:
177,282,78300,1,0,0:0:0:0:
185,282,78500,1,12,0:0:0:0:
186,277,78900,1,0,0:0:0:0:
181,273,79100,1,8,0:0:0:0:
177,269,79300,1,0,0:0:0:0:
175,269,79400,1,0,0:0:0:0:
173,269,79500,1,8,0:0:0:0:
174,272,79700,1,0,0:0:0:0:
175,273,79900,1,0,0:0:0:0:
175,274,80100,1,12,0:0:0:0:
162,240,80500,1,0,0:0:0:0:
166,241,80700,1,8,0:0:0:0:
151,264,81100,1,0,0:0:0:0:
155,264,81500,1,0,0:0:0:0:
96,292,81700,1,8,0:0:0:0:
96,292,81900,1,0,0:0:0:0:
123,300,82100,1,8,0:0:0:0:
139,259,82200,1,0,0:0:0:0:
138,295,82300,1,0,0:0:0:0:
141,294,82500,1,8,0:0:0:0:
96,292,82700,1,0,0:0:0:0:
96,292,82900,1,8,0:0:0:0:
107,292,83100,1,0,0:0:0:0:
83,282,83300,1,12,0:0:0:0:
87,266,83700,1,0,0:0:0:0:
87,266,83900,1,8,0:0:0:0:
87,266,84300,1,0,0:0:0:0:
72,284,84500,1,8,0:0:0:0:
117,260,84600,1,0,0:0:0:0:
65,289,84700,1,8,0:0:0:0:
68,304,84900,1,12,0:0:0:0:
74,296,85300,1,0,0:0:0:0:
74,296,85500,1,8,0:0:0:0:
74,296,85700,1,0,0:0:0:0:
74,296,85900,1,8,0:0:0:0:
74,296,86300,1,0,0:0:0:0:
74,296,86500,1,12,0:0:0:0:
108,297,87100,1,8,0:0:0:0:
108,297,87500,1,0,0:0:0:0:
108,297,87900,1,8,0:0:0:0:
108,297,88300,1,0,0:0:0:0:
108,297,88700,1,0,0:0:0:0:
97,293,89100,1,0,0:0:0:0:
97,294,89500,1,0,0:0:0:0:
110,284,89700,1,8,0:0:0:0:
109,284,89800,1,8,0:0:0:0:
115,284,89900,1,8,0:0:0:0:
112,278,90100,1,8,0:0:0:0:
112,294,90300,1,0,0:0:0:0:
110,294,90500,1,0,0:0:0:0:
117,292,90700,1,0,0:0:0:0:
115,292,90900,1,8,0:0:0:0:
116,297,91100,1,8,0:0:0:0:
112,300,91300,1,12,0:0:0:0:
117,300,91500,1,0,0:0:0:0:
197,263,91900,1,8,0:0:0:0:
199,267,92300,1,0,0:0:0:0:
199,267,92700,1,8,0:0:0:0:
199,267,92900,1,0,0:0:0:0:
199,267,93100,1,8,0:0:0:0:
199,258,93300,1,0,0:0:0:0:
199,262,93500,1,8,0:0:0:0:
205,253,93900,1,0,0:0:0:0:
205,253,94300,1,8,0:0:0:0:
192,61,94500,1,4,0:0:0:0:
104,242,95100,1,0,0:0:0:0:
108,241,95500,1,0,0:0:0:0:
104,242,95900,1,0,0:0:0:0:
104,242,96100,1,0,0:0:0:0:
108,241,96300,1,8,0:0:0:0:
133,238,96500,1,8,0:0:0:0:
131,238,96700,1,0,0:0:0:0:
131,238,96900,1,8,0:0:0:0:
130,237,97100,1,0,0:0:0:0:
128,237,97300,1,8,0:0:0:0:
133,238,97400,1,8,0:0:0:0:
121,235,97500,1,0,0:0:0:0:
131,238,97700,1,12,0:0:0:0:
190,258,98300,1,8,0:0:0:0:
179,238,98700,1,0,0:0:0:0:
179,238,99100,1,8,0:0:0:0:
179,238,99300,1,8,0:0:0:0:
179,238,99500,1,0,0:0:0:0:
179,238,99700,1,0,0:0:0:0:
157,254,99900,1,8,0:0:0:0:
157,254,100300,1,0,0:0:0:0:
166,256,100700,1,8,0:0:0:0:
166,256,100900,1,4,0:0:0:0:
165,242,101500,1,0,0:0:0:0:
145,257,101900,1,0,0:0:0:0:
159,258,102300,1,0,0:0:0:0:
159,258,102500,1,8,0:0:0:0:
161,260,102700,1,8,0:0:0:0:
161,260,102900,1,0,0:0:0:0:
171,279,103100,1,8,0:0:0:0:
175,277,103300,1,0,0:0:0:0:
170,278,103500,1,8,0:0:0:0:
165,282,103700,1,0,0:0:0:0:
165,282,103800,1,8,0:0:0:0:
165,282,103900,1,0,0:0:0:0:
160,286,104100,1,12,0:0:0:0:
199,220,104600,1,0,0:0:0:0:
203,228,104700,1,8,0:0:0:0:
218,255,104900,1,8,0:0:0:0:
218,255,105100,1,8,0:0:0:0:
218,255,105300,1,0,0:0:0:0:
218,255,105500,1,0,0:0:0:0:
218,255,105700,1,8,0:0:0:0:
218,255,106100,1,8,0:0:0:0:
178,197,106500,1,8,0:0:0:0:
189,264,106700,1,0,0:0:0:0:
189,264,106900,1,8,0:0:0:0:
189,264,107100,1,8,0:0:0:0:
198,291,107300,1,0,0:0:0:0:
205,194,107700,1,0,0:0:0:0:
152,278,107900,1,0,0:0:0:0:
156,289,108300,1,0,0:0:0:0:
143,287,108700,1,0,0:0:0:0:
154,285,108900,1,12,0:0:0:0:
179,292,109100,1,0,0:0:0:0:
146,300,109300,1,8,0:0:0:0:
143,287,109500,1,0,0:0:0:0:
147,290,109700,1,8,0:0:0:0:
141,294,109900,1,0,0:0:0:0:
143,297,110100,1,8,0:0:0:0:
137,297,110200,1,8,0:0:0:0:
146,300,110300,1,0,0:0:0:0:
175,239,110500,1,4,0:0:0:0:
199,220,111000,1,0,0:0:0:0:
203,228,111100,1,8,0:0:0:0:
218,255,111300,1,0,0:0:0:0:
218,255,111500,1,0,0:0:0:0:
218,255,111700,1,0,0:0:0:0:
218,255,111900,1,0,0:0:0:0:
218,255,112100,1,8,0:0:0:0:
218,255,112500,1,8,0:0:0:0:
155,228,112900,1,8,0:0:0:0:
189,264,113100,1,0,0:0:0:0:
189,264,113300,1,0,0:0:0:0:
189,264,113500,1,8,0:0:0:0:
198,291,113700,1,8,0:0:0:0:
205,194,114100,1,8,0:0:0:0:
152,278,114300,1,0,0:0:0:0:
156,289,114700,1,0,0:0:0:0:
143,287,115100,1,0,0:0:0:0:
188,275,115300,1,12,0:0:0:0:
146,300,115700,1,8,0:0:0:0:
143,287,115900,1,0,0:0:0:0:
147,290,116100,1,8,0:0:0:0:
141,294,116300,1,0,0:0:0:0:
143,297,116500,1,8,0:0:0:0:
137,297,116600,1,0,0:0:0:0:
146,300,116700,1,8,0:0:0:0:
203,228,116900,1,12,0:0:0:0:
218,255,117300,1,8,0:0:0:0:
218,255,117500,1,0,0:0:0:0:
218,255,117700,1,0,0:0:0:0:
218,255,117900,1,8,0:0:0:0:
177,193,118100,1,8,0:0:0:0:
218,255,118300,1,0,0:0:0:0:
178,197,118500,1,12,0:0:0:0:
189,264,118900,1,0,0:0:0:0:
189,264,119100,1,8,0:0:0:0:
189,264,119300,1,8,0:0:0:0:
198,291,119500,1,0,0:0:0:0:
205,194,119900,1,0,0:0:0:0:
152,278,120166,1,8,0:0:0:0:
129,286,120233,1,8,0:0:0:0:
134,266,120300,1,8,0:0:0:0:
156,289,120500,1,0,0:0:0:0:
177,233,120700,1,0,0:0:0:0:
143,287,120900,1,8,0:0:0:0:
177,233,121100,1,8,0:0:0:0:
143,288,121300,1,0,0:0:0:0:
146,300,121500,1,8,0:0:0:0:
143,287,121700,1,4,0:0:0:0:
84,266,122100,1,8,0:0:0:0:
93,262,122500,1,8,0:0:0:0:
244,228,122700,1,0,0:0:0:0:
213,204,122900,5,0,0:0:0:0:
213,204,123000,1,0,0:0:0:0:
213,204,123100,1,8,0:0:0:0:
213,204,123200,1,0,0:0:0:0:
213,204,123300,1,8,0:0:0:0:
221,208,123400,1,8,0:0:0:0:
135,201,123700,1,8,0:0:0:0:
135,201,123900,1,0,0:0:0:0:
135,201,124100,1,8,0:0:0:0:
135,201,124300,1,8,0:0:0:0:
183,203,124500,1,0,0:0:0:0:
185,262,124700,1,0,0:0:0:0:
185,262,124900,1,12,0:0:0:0:
185,298,125300,1,8,0:0:0:0:
199,296,125500,1,0,0:0:0:0:
212,289,125700,1,8,0:0:0:0:
208,291,125900,1,8,0:0:0:0:
206,291,126100,1,0,0:0:0:0:
200,226,126566,1,8,0:0:0:0:
197,226,126633,1,8,0:0:0:0:
199,227,126700,1,8,0:0:0:0:
206,281,126900,1,8,0:0:0:0:
214,269,127100,1,0,0:0:0:0:
210,270,127300,1,8,0:0:0:0:
181,273,127500,1,8,0:0:0:0:
196,273,127700,1,0,0:0:0:0:
201,271,127900,1,0,0:0:0:0:
208,269,128100,1,12,0:0:0:0:
195,250,128300,1,0,0:0:0:0:
195,250,128700,1,8,0:0:0:0:
263,321,128900,1,0,0:0:0:0:
195,250,129000,1,8,0:0:0:0:
213,277,129300,1,0,0:0:0:0:
205,270,129500,1,8,0:0:0:0:
201,269,129600,1,8,0:0:0:0:
201,269,129700,1,0,0:0:0:0:
199,269,129800,1,0,0:0:0:0:
203,269,129900,1,8,0:0:0:0:
183,252,130300,1,8,0:0:0:0:
182,252,130700,1,8,0:0:0:0:
185,253,131100,1,8,0:0:0:0:
183,252,131300,1,4,0:0:0:0:
177,247,131700,1,0,0:0:0:0:
175,265,131900,1,8,0:0:0:0:
181,298,132300,1,8,0:0:0:0:
143,293,132700,1,8,0:0:0:0:
143,293,132900,1,4,0:0:0:0:
159,262,133300,1,0,0:0:0:0:
159,262,133500,1,8,0:0:0:0:
173,257,133900,1,8,0:0:0:0:
151,251,134300,1,8,0:0:0:0:
159,262,134500,1,4,0:0:0:0:
122,284,134900,1,0,0:0:0:0:
122,284,135100,1,0,0:0:0:0:
122,284,135300,1,8,0:0:0:0:
140,295,135500,1,0,0:0:0:0:
144,298,135700,1,8,0:0:0:0:
144,302,135900,1,8,0:0:0:0:
144,302,136100,1,4,0:0:0:0:
185,253,136500,1,0,0:0:0:0:
183,252,136700,1,8,0:0:0:0:
182,252,137100,1,8,0:0:0:0:
185,253,137500,1,8,0:0:0:0:
183,252,137700,1,4,0:0:0:0:
177,247,138100,1,0,0:0:0:0:
175,265,138300,1,8,0:0:0:0:
133,244,138500,1,0,0:0:0:0:
181,298,138700,1,8,0:0:0:0:
143,293,139100,1,8,0:0:0:0:
143,293,139300,1,4,0:0:0:0:
159,262,139700,1,0,0:0:0:0:
159,262,139900,1,8,0:0:0:0:
173,257,140300,1,8,0:0:0:0:
151,251,140700,1,8,0:0:0:0:
159,262,140900,1,0,0:0:0:0:
122,284,141300,1,0,0:0:0:0:
122,284,141500,1,0,0:0:0:0:
122,284,141700,1,8,0:0:0:0:
140,295,141900,1,8,0:0:0:0:
144,298,142100,1,8,0:0:0:0:
144,302,142300,1,8,0:0:0:0:
144,302,142500,1,4,0:0:0:0:
185,253,142900,1,0,0:0:0:0:
183,252,143100,1,8,0:0:0:0:
182,252,143500,1,8,0:0:0:0:
185,253,143900,1,8,0:0:0:0:
183,252,144100,1,4,0:0:0:0:
177,247,144500,1,0,0:0:0:0:
175,265,144700,1,8,0:0:0:0:
181,298,145100,1,8,0:0:0:0:
143,293,145500,1,8,0:0:0:0:
143,293,145700,1,4,0:0:0:0:
159,262,146100,1,0,0:0:0:0:
159,262,146300,1,8,0:0:0:0:
173,257,146700,1,8,0:0:0:0:
151,251,147100,1,8,0:0:0:0:
159,262,147300,1,4,0:0:0:0:
122,284,147700,1,0,0:0:0:0:
122,284,147900,1,0,0:0:0:0:
122,284,148100,1,8,0:0:0:0:
140,295,148300,1,0,0:0:0:0:
144,298,148500,1,8,0:0:0:0:
144,302,148700,1,8,0:0:0:0:
144,302,148900,1,4,0:0:0:0:
185,253,149300,1,0,0:0:0:0:
183,252,149500,1,8,0:0:0:0:
182,252,149900,1,8,0:0:0:0:
185,253,150300,1,8,0:0:0:0:
183,252,150500,1,4,0:0:0:0:
177,247,150900,1,0,0:0:0:0:
175,265,151100,1,8,0:0:0:0:
168,227,151300,1,0,0:0:0:0:
181,298,151500,1,8,0:0:0:0:
143,293,151900,1,8,0:0:0:0:
143,293,152100,1,4,0:0:0:0:
159,262,152500,1,0,0:0:0:0:
159,262,152700,1,8,0:0:0:0:
173,257,153100,1,8,0:0:0:0:
151,251,153500,1,8,0:0:0:0:
159,262,153700,1,0,0:0:0:0:
122,284,154300,1,8,0:0:0:0:
219,290,154500,1,8,0:0:0:0:
154,277,154900,1,8,0:0:0:0:
124,289,155000,1,0,0:0:0:0:
145,269,155100,1,0,0:0:0:0:
153,271,155300,1,12,0:0:0:0:
112,304,155500,1,0,0:0:0:0:
197,263,155900,1,8,0:0:0:0:
199,267,156300,1,0,0:0:0:0:
199,267,156700,1,8,0:0:0:0:
199,267,156900,1,0,0:0:0:0:
199,267,157100,1,8,0:0:0:0:
199,258,157300,1,0,0:0:0:0:
199,262,157500,1,8,0:0:0:0:
205,253,157900,1,0,0:0:0:0:
205,253,158300,1,8,0:0:0:0:
192,61,158500,1,4,0:0:0:0:
104,242,159100,1,0,0:0:0:0:
108,241,159500,1,0,0:0:0:0:
104,242,159900,1,0,0:0:0:0:
104,242,160100,1,0,0:0:0:0:
108,241,160300,1,8,0:0:0:0:
133,238,160500,1,8,0:0:0:0:
131,238,160700,1,0,0:0:0:0:
131,238,160900,1,8,0:0:0:0:
130,237,161100,1,0,0:0:0:0:
128,237,161300,1,8,0:0:0:0:
133,238,161400,1,0,0:0:0:0:
121,235,161500,1,0,0:0:0:0:
131,238,161700,1,12,0:0:0:0:
190,258,162300,1,8,0:0:0:0:
179,238,162700,1,0,0:0:0:0:
179,238,163100,1,8,0:0:0:0:
179,238,163300,1,8,0:0:0:0:
179,238,163500,1,0,0:0:0:0:
179,238,163700,1,0,0:0:0:0:
157,254,163900,1,8,0:0:0:0:
157,254,164300,1,0,0:0:0:0:
166,256,164700,1,8,0:0:0:0:
166,256,164900,1,4,0:0:0:0:
165,242,165500,1,0,0:0:0:0:
145,257,165900,1,0,0:0:0:0:
159,258,166300,1,0,0:0:0:0:
159,258,166500,1,8,0:0:0:0:
177,249,166600,1,8,0:0:0:0:
161,260,166700,1,0,0:0:0:0:
161,260,166900,1,0,0:0:0:0:
171,279,167100,1,8,0:0:0:0:
175,277,167300,1,0,0:0:0:0:
170,278,167500,1,8,0:0:0:0:
165,282,167700,1,8,0:0:0:0:
165,282,167800,1,0,0:0:0:0:
165,282,167900,1,0,0:0:0:0:
160,286,168100,1,12,0:0:0:0:
197,263,168700,1,8,0:0:0:0:
199,267,169100,1,0,0:0:0:0:
199,267,169500,1,8,0:0:0:0:
199,267,169700,1,0,0:0:0:0:
199,267,169900,1,8,0:0:0:0:
199,258,170100,1,0,0:0:0:0:
199,262,170300,1,8,0:0:0:0:
205,253,170700,1,0,0:0:0:0:
205,253,171100,1,8,0:0:0:0:
192,61,171300,1,4,0:0:0:0:
104,242,171900,1,0,0:0:0:0:
108,241,172300,1,0,0:0:0:0:
104,242,172700,1,0,0:0:0:0:
104,242,172900,1,0,0:0:0:0:
108,241,173100,1,8,0:0:0:0:
133,238,173300,1,8,0:0:0:0:
131,238,173500,1,0,0:0:0:0:
131,238,173700,1,8,0:0:0:0:
130,237,173900,1,0,0:0:0:0:
128,237,174100,1,8,0:0:0:0:
133,238,174200,1,0,0:0:0:0:
121,235,174300,1,0,0:0:0:0:
131,238,174500,1,12,0:0:0:0:
190,258,175100,1,8,0:0:0:0:
179,238,175500,1,0,0:0:0:0:
179,238,175900,1,8,0:0:0:0:
179,238,176100,1,8,0:0:0:0:
179,238,176300,1,0,0:0:0:0:
179,238,176500,1,0,0:0:0:0:
157,254,176700,1,8,0:0:0:0:
157,254,177100,1,0,0:0:0:0:
166,256,177500,1,8,0:0:0:0:
166,256,177700,1,4,0:0:0:0:
165,242,178300,1,0,0:0:0:0:
145,257,178700,1,0,0:0:0:0:
159,258,179100,1,0,0:0:0:0:
159,258,179300,1,8,0:0:0:0:
161,260,179500,1,8,0:0:0:0:
161,260,179700,1,0,0:0:0:0:
171,279,179900,1,8,0:0:0:0:
175,277,180100,1,0,0:0:0:0:
170,278,180300,1,8,0:0:0:0:
165,282,180500,1,8,0:0:0:0:
165,282,180600,1,8,0:0:0:0:
165,282,180700,1,0,0:0:0:0:
160,286,180900,1,12,0:0:0:0:
