osu file format v14

[General]
AudioFilename: audio.mp3
AudioLeadIn: 0
PreviewTime: 1999
Countdown: 0
SampleSet: None
StackLeniency: 0.7
Mode: 1
LetterboxInBreaks: 0
WidescreenStoryboard: 1

[Editor]
DistanceSpacing: 1
BeatDivisor: 1
GridSize: 8
TimelineZoom: 2.2

[Metadata]
Title:Gan Mao Yongsusu
TitleUnicode:Gan Mao Yongsusu
Artist:Luo-She-Fong
ArtistUnicode:Luo-She-Fong
Creator:monkeydluffy3u4
Version:SpeedTest 02
Source:
Tags:
BeatmapID:1267172
BeatmapSetID:593362

[Difficulty]
HPDrainRate:6
CircleSize:4
OverallDifficulty:7
ApproachRate:4
SliderMultiplier:2.00000000596046
SliderTickRate:1

[Events]
//Background and Video events
0,0,"Image_99cf87c.jpg",0,0
//Break Periods
//Storyboard Layer 0 (Background)
//Storyboard Layer 1 (Fail)
//Storyboard Layer 2 (Pass)
//Storyboard Layer 3 (Foreground)
//Storyboard Sound Samples

[TimingPoints]
49,521.739130434783,4,1,0,100,1,0

[HitObjects]
256,192,2135,5,0,0:0:0:0:
256,192,2201,1,0,0:0:0:0:
256,192,2266,1,0,0:0:0:0:
256,192,2331,1,0,0:0:0:0:
256,192,2396,1,0,0:0:0:0:
256,192,2462,1,0,0:0:0:0:
256,192,2527,1,0,0:0:0:0:
256,192,2592,1,0,0:0:0:0:
256,192,2657,1,0,0:0:0:0:
256,192,2722,1,0,0:0:0:0:
256,192,2788,1,0,0:0:0:0:
256,192,2853,1,0,0:0:0:0:
256,192,2918,1,0,0:0:0:0:
256,192,2983,1,0,0:0:0:0:
256,192,3049,1,0,0:0:0:0:
256,192,3114,1,0,0:0:0:0:
256,192,3179,1,0,0:0:0:0:
256,192,3245,1,0,0:0:0:0:
256,192,3310,1,0,0:0:0:0:
256,192,3375,1,0,0:0:0:0:
256,192,3440,1,0,0:0:0:0:
256,192,3506,1,0,0:0:0:0:
256,192,3571,1,0,0:0:0:0:
256,192,3636,1,0,0:0:0:0:
256,192,3701,1,0,0:0:0:0:
256,192,3766,1,0,0:0:0:0:
256,192,3832,1,0,0:0:0:0:
256,192,3897,1,0,0:0:0:0:
256,192,3962,1,0,0:0:0:0:
256,192,4027,1,0,0:0:0:0:
256,192,4093,1,0,0:0:0:0:
256,192,4158,1,0,0:0:0:0:
256,192,4222,1,0,0:0:0:0:
256,192,4288,1,0,0:0:0:0:
256,192,4353,1,0,0:0:0:0:
256,192,4418,1,0,0:0:0:0:
256,192,4483,1,0,0:0:0:0:
256,192,4549,1,0,0:0:0:0:
256,192,4614,1,0,0:0:0:0:
256,192,4679,1,0,0:0:0:0:
256,192,4744,1,0,0:0:0:0:
256,192,4809,1,0,0:0:0:0:
256,192,4875,1,0,0:0:0:0:
256,192,4940,1,0,0:0:0:0:
256,192,5005,1,0,0:0:0:0:
256,192,5070,1,0,0:0:0:0:
256,192,5136,1,0,0:0:0:0:
256,192,5201,1,0,0:0:0:0:
256,192,5266,1,0,0:0:0:0:
256,192,5332,1,0,0:0:0:0:
256,192,5397,1,0,0:0:0:0:
256,192,5462,1,0,0:0:0:0:
256,192,5527,1,0,0:0:0:0:
256,192,5593,1,0,0:0:0:0:
256,192,5658,1,0,0:0:0:0:
256,192,5723,1,0,0:0:0:0:
256,192,5788,1,0,0:0:0:0:
256,192,5853,1,0,0:0:0:0:
256,192,5919,1,0,0:0:0:0:
256,192,5984,1,0,0:0:0:0:
256,192,6049,1,0,0:0:0:0:
256,192,6114,1,0,0:0:0:0:
256,192,6180,1,0,0:0:0:0:
256,192,6245,1,0,0:0:0:0:
256,192,6309,1,0,0:0:0:0:
256,192,6375,1,0,0:0:0:0:
256,192,6440,1,0,0:0:0:0:
256,192,6505,1,0,0:0:0:0:
256,192,6570,1,0,0:0:0:0:
256,192,6636,1,0,0:0:0:0:
256,192,6701,1,0,0:0:0:0:
256,192,6766,1,0,0:0:0:0:
256,192,6831,1,0,0:0:0:0:
256,192,6896,1,0,0:0:0:0:
256,192,6962,1,0,0:0:0:0:
256,192,7027,1,0,0:0:0:0:
256,192,7092,1,0,0:0:0:0:
256,192,7157,1,0,0:0:0:0:
256,192,7223,1,0,0:0:0:0:
256,192,7288,1,0,0:0:0:0:
256,192,7353,1,0,0:0:0:0:
256,192,7419,1,0,0:0:0:0:
256,192,7484,1,0,0:0:0:0:
256,192,7549,1,0,0:0:0:0:
256,192,7614,1,0,0:0:0:0:
256,192,7680,1,0,0:0:0:0:
256,192,7745,1,0,0:0:0:0:
256,192,7810,1,0,0:0:0:0:
256,192,7875,1,0,0:0:0:0:
256,192,7940,1,0,0:0:0:0:
256,192,8006,1,0,0:0:0:0:
256,192,8071,1,0,0:0:0:0:
256,192,8136,1,0,0:0:0:0:
256,192,8201,1,0,0:0:0:0:
256,192,8267,1,0,0:0:0:0:
256,192,8332,1,0,0:0:0:0:
256,192,8396,1,0,0:0:0:0:
256,192,8462,1,0,0:0:0:0:
256,192,8527,1,0,0:0:0:0:
256,192,8592,1,0,0:0:0:0:
256,192,8657,1,0,0:0:0:0:
256,192,8723,1,0,0:0:0:0:
256,192,8788,1,0,0:0:0:0:
256,192,8853,1,0,0:0:0:0:
256,192,8918,1,0,0:0:0:0:
256,192,8983,1,0,0:0:0:0:
256,192,9049,1,0,0:0:0:0:
256,192,9114,1,0,0:0:0:0:
256,192,9179,1,0,0:0:0:0:
256,192,9244,1,0,0:0:0:0:
256,192,9310,1,0,0:0:0:0:
256,192,9375,1,0,0:0:0:0:
256,192,9440,1,0,0:0:0:0:
256,192,9506,1,0,0:0:0:0:
256,192,9571,1,0,0:0:0:0:
256,192,9636,1,0,0:0:0:0:
256,192,9701,1,0,0:0:0:0:
256,192,9767,1,0,0:0:0:0:
256,192,9832,1,0,0:0:0:0:
256,192,9897,1,0,0:0:0:0:
256,192,9962,1,0,0:0:0:0:
256,192,10027,1,0,0:0:0:0:
256,192,10093,1,0,0:0:0:0:
256,192,10158,1,0,0:0:0:0:
256,192,10223,1,0,0:0:0:0:
256,192,10288,1,0,0:0:0:0:
256,192,10354,1,0,0:0:0:0:
256,192,10419,1,0,0:0:0:0:
256,192,10483,1,0,0:0:0:0:
256,192,10549,1,0,0:0:0:0:
256,192,10614,1,0,0:0:0:0:
256,192,10679,1,0,0:0:0:0:
256,192,10744,1,0,0:0:0:0:
256,192,10810,1,0,0:0:0:0:
256,192,10875,1,0,0:0:0:0:
256,192,10940,1,0,0:0:0:0:
256,192,11005,1,0,0:0:0:0:
256,192,11070,1,0,0:0:0:0:
256,192,11136,1,0,0:0:0:0:
256,192,11201,1,0,0:0:0:0:
256,192,11266,1,0,0:0:0:0:
256,192,11331,1,0,0:0:0:0:
256,192,11397,1,0,0:0:0:0:
256,192,11462,1,0,0:0:0:0:
256,192,11527,1,0,0:0:0:0:
256,192,11593,1,0,0:0:0:0:
256,192,11658,1,0,0:0:0:0:
256,192,11723,1,0,0:0:0:0:
256,192,11788,1,0,0:0:0:0:
256,192,11854,1,0,0:0:0:0:
256,192,11919,1,0,0:0:0:0:
256,192,11984,1,0,0:0:0:0:
256,192,12049,1,0,0:0:0:0:
256,192,12114,1,0,0:0:0:0:
256,192,12180,1,0,0:0:0:0:
256,192,12245,1,0,0:0:0:0:
256,192,12310,1,0,0:0:0:0:
256,192,12375,1,0,0:0:0:0:
256,192,12441,1,0,0:0:0:0:
256,192,12506,1,0,0:0:0:0:
256,192,12570,1,0,0:0:0:0:
256,192,12636,1,0,0:0:0:0:
256,192,12701,1,0,0:0:0:0:
256,192,12766,1,0,0:0:0:0:
256,192,12831,1,0,0:0:0:0:
256,192,12897,1,0,0:0:0:0:
256,192,12962,1,0,0:0:0:0:
256,192,13027,1,0,0:0:0:0:
256,192,13092,1,0,0:0:0:0:
256,192,13157,1,0,0:0:0:0:
256,192,13223,1,0,0:0:0:0:
256,192,13288,1,0,0:0:0:0:
256,192,13353,1,0,0:0:0:0:
256,192,13418,1,0,0:0:0:0:
256,192,13484,1,0,0:0:0:0:
256,192,13549,1,0,0:0:0:0:
256,192,13614,1,0,0:0:0:0:
256,192,13680,1,0,0:0:0:0:
256,192,13745,1,0,0:0:0:0:
256,192,13810,1,0,0:0:0:0:
256,192,13875,1,0,0:0:0:0:
256,192,13941,1,0,0:0:0:0:
256,192,14006,1,0,0:0:0:0:
256,192,14071,1,0,0:0:0:0:
256,192,14136,1,0,0:0:0:0:
256,192,14201,1,0,0:0:0:0:
256,192,14267,1,0,0:0:0:0:
256,192,14332,1,0,0:0:0:0:
256,192,14397,1,0,0:0:0:0:
256,192,14462,1,0,0:0:0:0:
256,192,14528,1,0,0:0:0:0:
256,192,14593,1,0,0:0:0:0:
256,192,14657,1,0,0:0:0:0:
256,192,14723,1,0,0:0:0:0:
256,192,14788,1,0,0:0:0:0:
256,192,14853,1,0,0:0:0:0:
256,192,14918,1,0,0:0:0:0:
256,192,14984,1,0,0:0:0:0:
256,192,15049,1,0,0:0:0:0:
256,192,15114,1,0,0:0:0:0:
256,192,15179,1,0,0:0:0:0:
256,192,15244,1,0,0:0:0:0:
256,192,15310,1,0,0:0:0:0:
256,192,15375,1,0,0:0:0:0:
256,192,15440,1,0,0:0:0:0:
256,192,15505,1,0,0:0:0:0:
256,192,15571,1,0,0:0:0:0:
256,192,15636,1,0,0:0:0:0:
256,192,15701,1,0,0:0:0:0:
256,192,15767,1,0,0:0:0:0:
256,192,15832,1,0,0:0:0:0:
256,192,15897,1,0,0:0:0:0:
256,192,15962,1,0,0:0:0:0:
256,192,16028,1,0,0:0:0:0:
256,192,16093,1,0,0:0:0:0:
256,192,16158,1,0,0:0:0:0:
256,192,16223,1,0,0:0:0:0:
256,192,16288,1,0,0:0:0:0:
256,192,16354,1,0,0:0:0:0:
256,192,16419,1,0,0:0:0:0:
256,192,16484,1,0,0:0:0:0:
256,192,16549,1,0,0:0:0:0:
256,192,16615,1,0,0:0:0:0:
256,192,16680,1,0,0:0:0:0:
256,192,16744,1,0,0:0:0:0:
256,192,16810,1,0,0:0:0:0:
256,192,16875,1,0,0:0:0:0:
256,192,16940,1,0,0:0:0:0:
256,192,17005,1,0,0:0:0:0:
256,192,17071,1,0,0:0:0:0:
256,192,17136,1,0,0:0:0:0:
256,192,17201,1,0,0:0:0:0:
256,192,17266,1,0,0:0:0:0:
256,192,17331,1,0,0:0:0:0:
256,192,17397,1,0,0:0:0:0:
256,192,17462,1,0,0:0:0:0:
256,192,17527,1,0,0:0:0:0:
256,192,17592,1,0,0:0:0:0:
256,192,17658,1,0,0:0:0:0:
256,192,17723,1,0,0:0:0:0:
256,192,17788,1,0,0:0:0:0:
256,192,17854,1,0,0:0:0:0:
256,192,17919,1,0,0:0:0:0:
256,192,17984,1,0,0:0:0:0:
256,192,18049,1,0,0:0:0:0:
256,192,18115,1,0,0:0:0:0:
256,192,18180,1,0,0:0:0:0:
256,192,18245,1,0,0:0:0:0:
256,192,18310,1,0,0:0:0:0:
256,192,18375,1,0,0:0:0:0:
256,192,18441,1,0,0:0:0:0:
256,192,18506,1,0,0:0:0:0:
256,192,18571,1,0,0:0:0:0:
256,192,18636,1,0,0:0:0:0:
256,192,18702,1,0,0:0:0:0:
256,192,18767,1,0,0:0:0:0:
256,192,18831,1,0,0:0:0:0:
256,192,18897,1,0,0:0:0:0:
256,192,18962,1,0,0:0:0:0:
256,192,19027,1,0,0:0:0:0:
256,192,19092,1,0,0:0:0:0:
256,192,19158,1,0,0:0:0:0:
256,192,19223,1,0,0:0:0:0:
256,192,19288,1,0,0:0:0:0:
256,192,19353,1,0,0:0:0:0:
256,192,19418,1,0,0:0:0:0:
256,192,19484,1,0,0:0:0:0:
256,192,19549,1,0,0:0:0:0:
256,192,19614,1,0,0:0:0:0:
256,192,19679,1,0,0:0:0:0:
256,192,19745,1,0,0:0:0:0:
256,192,19810,1,0,0:0:0:0:
256,192,19875,1,0,0:0:0:0:
256,192,20918,1,8,0:0:0:0:
256,192,20984,1,8,0:0:0:0:
256,192,21049,1,8,0:0:0:0:
256,192,21114,1,8,0:0:0:0:
256,192,21179,1,8,0:0:0:0:
256,192,21245,1,8,0:0:0:0:
256,192,21310,1,8,0:0:0:0:
256,192,21375,1,8,0:0:0:0:
256,192,21440,1,8,0:0:0:0:
256,192,21505,1,8,0:0:0:0:
256,192,21571,1,8,0:0:0:0:
256,192,21636,1,8,0:0:0:0:
256,192,21701,1,8,0:0:0:0:
256,192,21766,1,8,0:0:0:0:
256,192,21832,1,8,0:0:0:0:
256,192,21897,1,8,0:0:0:0:
256,192,21962,1,8,0:0:0:0:
256,192,22028,1,8,0:0:0:0:
256,192,22093,1,8,0:0:0:0:
256,192,22158,1,8,0:0:0:0:
256,192,22223,1,8,0:0:0:0:
256,192,22289,1,8,0:0:0:0:
256,192,22354,1,8,0:0:0:0:
256,192,22419,1,8,0:0:0:0:
256,192,22484,1,8,0:0:0:0:
256,192,22549,1,8,0:0:0:0:
256,192,22615,1,8,0:0:0:0:
256,192,22680,1,8,0:0:0:0:
256,192,22745,1,8,0:0:0:0:
256,192,22810,1,8,0:0:0:0:
256,192,22876,1,8,0:0:0:0:
256,192,22941,1,8,0:0:0:0:
256,192,23005,1,8,0:0:0:0:
256,192,23071,1,8,0:0:0:0:
256,192,23136,1,8,0:0:0:0:
256,192,23201,1,8,0:0:0:0:
256,192,23266,1,8,0:0:0:0:
256,192,23332,1,8,0:0:0:0:
256,192,23397,1,8,0:0:0:0:
256,192,23462,1,8,0:0:0:0:
256,192,23527,1,8,0:0:0:0:
256,192,23592,1,8,0:0:0:0:
256,192,23658,1,8,0:0:0:0:
256,192,23723,1,8,0:0:0:0:
256,192,23788,1,8,0:0:0:0:
256,192,23853,1,8,0:0:0:0:
256,192,23919,1,8,0:0:0:0:
256,192,23984,1,8,0:0:0:0:
256,192,24049,1,8,0:0:0:0:
256,192,24115,1,8,0:0:0:0:
256,192,24180,1,8,0:0:0:0:
256,192,24245,1,8,0:0:0:0:
256,192,24310,1,8,0:0:0:0:
256,192,24376,1,8,0:0:0:0:
256,192,24441,1,8,0:0:0:0:
256,192,24506,1,8,0:0:0:0:
256,192,24571,1,8,0:0:0:0:
256,192,24636,1,8,0:0:0:0:
256,192,24702,1,8,0:0:0:0:
256,192,24767,1,8,0:0:0:0:
256,192,24832,1,8,0:0:0:0:
256,192,24897,1,8,0:0:0:0:
256,192,24963,1,8,0:0:0:0:
256,192,25028,1,8,0:0:0:0:
256,192,25092,1,8,0:0:0:0:
256,192,25158,1,8,0:0:0:0:
256,192,25223,1,8,0:0:0:0:
256,192,25288,1,8,0:0:0:0:
256,192,25353,1,8,0:0:0:0:
256,192,25419,1,8,0:0:0:0:
256,192,25484,1,8,0:0:0:0:
256,192,25549,1,8,0:0:0:0:
256,192,25614,1,8,0:0:0:0:
256,192,25679,1,8,0:0:0:0:
256,192,25745,1,8,0:0:0:0:
256,192,25810,1,8,0:0:0:0:
256,192,25875,1,8,0:0:0:0:
256,192,25940,1,8,0:0:0:0:
256,192,26006,1,8,0:0:0:0:
256,192,26071,1,8,0:0:0:0:
256,192,26136,1,8,0:0:0:0:
256,192,26202,1,8,0:0:0:0:
256,192,26267,1,8,0:0:0:0:
256,192,26332,1,8,0:0:0:0:
256,192,26397,1,8,0:0:0:0:
256,192,26463,1,8,0:0:0:0:
256,192,26528,1,8,0:0:0:0:
256,192,26593,1,8,0:0:0:0:
256,192,26658,1,8,0:0:0:0:
256,192,26723,1,8,0:0:0:0:
256,192,26789,1,8,0:0:0:0:
256,192,26854,1,8,0:0:0:0:
256,192,26919,1,8,0:0:0:0:
256,192,26984,1,8,0:0:0:0:
256,192,27050,1,8,0:0:0:0:
256,192,27115,1,8,0:0:0:0:
256,192,27179,1,8,0:0:0:0:
256,192,27245,1,8,0:0:0:0:
256,192,27310,1,8,0:0:0:0:
256,192,27375,1,8,0:0:0:0:
256,192,27440,1,8,0:0:0:0:
256,192,27506,1,8,0:0:0:0:
256,192,27571,1,8,0:0:0:0:
256,192,27636,1,8,0:0:0:0:
256,192,27701,1,8,0:0:0:0:
256,192,27766,1,8,0:0:0:0:
256,192,27832,1,8,0:0:0:0:
256,192,27897,1,8,0:0:0:0:
256,192,27962,1,8,0:0:0:0:
256,192,28027,1,8,0:0:0:0:
256,192,28093,1,8,0:0:0:0:
256,192,28158,1,8,0:0:0:0:
256,192,28223,1,8,0:0:0:0:
256,192,28289,1,8,0:0:0:0:
256,192,28354,1,8,0:0:0:0:
256,192,28419,1,8,0:0:0:0:
256,192,28484,1,8,0:0:0:0:
256,192,28550,1,8,0:0:0:0:
256,192,28615,1,8,0:0:0:0:
256,192,28680,1,8,0:0:0:0:
256,192,28745,1,8,0:0:0:0:
256,192,28810,1,8,0:0:0:0:
256,192,28876,1,8,0:0:0:0:
256,192,28941,1,8,0:0:0:0:
256,192,29006,1,8,0:0:0:0:
256,192,29071,1,8,0:0:0:0:
256,192,29137,1,8,0:0:0:0:
256,192,29202,1,8,0:0:0:0:
256,192,29266,1,8,0:0:0:0:
256,192,29332,1,8,0:0:0:0:
256,192,29397,1,8,0:0:0:0:
256,192,29462,1,8,0:0:0:0:
256,192,29527,1,8,0:0:0:0:
256,192,29593,1,8,0:0:0:0:
256,192,29658,1,8,0:0:0:0:
256,192,29723,1,8,0:0:0:0:
256,192,29788,1,8,0:0:0:0:
256,192,29853,1,8,0:0:0:0:
256,192,29919,1,8,0:0:0:0:
256,192,29984,1,8,0:0:0:0:
256,192,30049,1,8,0:0:0:0:
256,192,30114,1,8,0:0:0:0:
256,192,30180,1,8,0:0:0:0:
256,192,30245,1,8,0:0:0:0:
256,192,30310,1,8,0:0:0:0:
256,192,30376,1,8,0:0:0:0:
256,192,30441,1,8,0:0:0:0:
256,192,30506,1,8,0:0:0:0:
256,192,30571,1,8,0:0:0:0:
256,192,30637,1,8,0:0:0:0:
256,192,30702,1,8,0:0:0:0:
256,192,30767,1,8,0:0:0:0:
256,192,30832,1,8,0:0:0:0:
256,192,30897,1,8,0:0:0:0:
256,192,30963,1,8,0:0:0:0:
256,192,31028,1,8,0:0:0:0:
256,192,31093,1,8,0:0:0:0:
256,192,31158,1,8,0:0:0:0:
256,192,31224,1,8,0:0:0:0:
256,192,31289,1,8,0:0:0:0:
256,192,31353,1,8,0:0:0:0:
256,192,31419,1,8,0:0:0:0:
256,192,31484,1,8,0:0:0:0:
256,192,31549,1,8,0:0:0:0:
256,192,31614,1,8,0:0:0:0:
256,192,31680,1,8,0:0:0:0:
256,192,31745,1,8,0:0:0:0:
256,192,31810,1,8,0:0:0:0:
256,192,31875,1,8,0:0:0:0:
256,192,31940,1,8,0:0:0:0:
256,192,32006,1,8,0:0:0:0:
256,192,32071,1,8,0:0:0:0:
256,192,32136,1,8,0:0:0:0:
256,192,32201,1,8,0:0:0:0:
256,192,32267,1,8,0:0:0:0:
256,192,32332,1,8,0:0:0:0:
256,192,32397,1,8,0:0:0:0:
256,192,32463,1,8,0:0:0:0:
256,192,32528,1,8,0:0:0:0:
256,192,32593,1,8,0:0:0:0:
256,192,32658,1,8,0:0:0:0:
256,192,32724,1,8,0:0:0:0:
256,192,32789,1,8,0:0:0:0:
256,192,32854,1,8,0:0:0:0:
256,192,32919,1,8,0:0:0:0:
256,192,32984,1,8,0:0:0:0:
256,192,33050,1,8,0:0:0:0:
256,192,33115,1,8,0:0:0:0:
256,192,33180,1,8,0:0:0:0:
256,192,33245,1,8,0:0:0:0:
256,192,33311,1,8,0:0:0:0:
256,192,33376,1,8,0:0:0:0:
256,192,33440,1,8,0:0:0:0:
256,192,33506,1,8,0:0:0:0:
256,192,33571,1,8,0:0:0:0:
256,192,33636,1,8,0:0:0:0:
256,192,33701,1,8,0:0:0:0:
256,192,33767,1,8,0:0:0:0:
256,192,33832,1,8,0:0:0:0:
256,192,33897,1,8,0:0:0:0:
256,192,33962,1,8,0:0:0:0:
256,192,34027,1,8,0:0:0:0:
256,192,34093,1,8,0:0:0:0:
256,192,34158,1,8,0:0:0:0:
256,192,34223,1,8,0:0:0:0:
256,192,34288,1,8,0:0:0:0:
256,192,34354,1,8,0:0:0:0:
256,192,34419,1,8,0:0:0:0:
256,192,34484,1,8,0:0:0:0:
256,192,34550,1,8,0:0:0:0:
256,192,34615,1,8,0:0:0:0:
256,192,34680,1,8,0:0:0:0:
256,192,34745,1,8,0:0:0:0:
256,192,34811,1,8,0:0:0:0:
256,192,34876,1,8,0:0:0:0:
256,192,34941,1,8,0:0:0:0:
256,192,35006,1,8,0:0:0:0:
256,192,35071,1,8,0:0:0:0:
256,192,35137,1,8,0:0:0:0:
256,192,35202,1,8,0:0:0:0:
256,192,35267,1,8,0:0:0:0:
256,192,35332,1,8,0:0:0:0:
256,192,35398,1,8,0:0:0:0:
256,192,35463,1,8,0:0:0:0:
256,192,35527,1,8,0:0:0:0:
256,192,35593,1,8,0:0:0:0:
256,192,35658,1,8,0:0:0:0:
256,192,35723,1,8,0:0:0:0:
256,192,35788,1,8,0:0:0:0:
256,192,35854,1,8,0:0:0:0:
256,192,35919,1,8,0:0:0:0:
256,192,35984,1,8,0:0:0:0:
256,192,36049,1,8,0:0:0:0:
256,192,36114,1,8,0:0:0:0:
256,192,36180,1,8,0:0:0:0:
256,192,36245,1,8,0:0:0:0:
256,192,36310,1,8,0:0:0:0:
256,192,36375,1,8,0:0:0:0:
256,192,36441,1,8,0:0:0:0:
256,192,36506,1,8,0:0:0:0:
256,192,36571,1,8,0:0:0:0:
256,192,36637,1,8,0:0:0:0:
256,192,36702,1,8,0:0:0:0:
256,192,36767,1,8,0:0:0:0:
256,192,36832,1,8,0:0:0:0:
256,192,36898,1,8,0:0:0:0:
256,192,36963,1,8,0:0:0:0:
256,192,37028,1,8,0:0:0:0:
256,192,37093,1,8,0:0:0:0:
256,192,37158,1,8,0:0:0:0:
256,192,37224,1,8,0:0:0:0:
256,192,37289,1,8,0:0:0:0:
256,192,37354,1,8,0:0:0:0:
256,192,37419,1,8,0:0:0:0:
256,192,37485,1,8,0:0:0:0:
256,192,37550,1,8,0:0:0:0:
256,192,37614,1,8,0:0:0:0:
256,192,37680,1,8,0:0:0:0:
256,192,37745,1,8,0:0:0:0:
256,192,37810,1,8,0:0:0:0:
256,192,37875,1,8,0:0:0:0:
256,192,37941,1,8,0:0:0:0:
256,192,38006,1,8,0:0:0:0:
256,192,38071,1,8,0:0:0:0:
256,192,38136,1,8,0:0:0:0:
256,192,38201,1,8,0:0:0:0:
256,192,38267,1,8,0:0:0:0:
256,192,38332,1,8,0:0:0:0:
256,192,38397,1,8,0:0:0:0:
256,192,38462,1,8,0:0:0:0:
256,192,38528,1,8,0:0:0:0:
256,192,38593,1,8,0:0:0:0:
256,192,38658,1,8,0:0:0:0:
256,192,39701,1,0,0:0:0:0:
256,192,39766,1,8,0:0:0:0:
256,192,39831,1,0,0:0:0:0:
256,192,39896,1,8,0:0:0:0:
256,192,39962,1,0,0:0:0:0:
256,192,40027,1,8,0:0:0:0:
256,192,40092,1,0,0:0:0:0:
256,192,40157,1,8,0:0:0:0:
256,192,40222,1,0,0:0:0:0:
256,192,40287,1,8,0:0:0:0:
256,192,40352,1,0,0:0:0:0:
256,192,40417,1,8,0:0:0:0:
256,192,40483,1,0,0:0:0:0:
256,192,40548,1,8,0:0:0:0:
256,192,40613,1,0,0:0:0:0:
256,192,40678,1,8,0:0:0:0:
256,192,40744,1,0,0:0:0:0:
256,192,40809,1,8,0:0:0:0:
256,192,40874,1,0,0:0:0:0:
256,192,40939,1,8,0:0:0:0:
256,192,41005,1,0,0:0:0:0:
256,192,41070,1,8,0:0:0:0:
256,192,41135,1,0,0:0:0:0:
256,192,41200,1,8,0:0:0:0:
256,192,41266,1,0,0:0:0:0:
256,192,41331,1,8,0:0:0:0:
256,192,41396,1,0,0:0:0:0:
256,192,41461,1,8,0:0:0:0:
256,192,41527,1,0,0:0:0:0:
256,192,41592,1,8,0:0:0:0:
256,192,41657,1,0,0:0:0:0:
256,192,41722,1,8,0:0:0:0:
256,192,41788,1,0,0:0:0:0:
256,192,41853,1,8,0:0:0:0:
256,192,41918,1,0,0:0:0:0:
256,192,41983,1,8,0:0:0:0:
256,192,42049,1,0,0:0:0:0:
256,192,42114,1,8,0:0:0:0:
256,192,42179,1,0,0:0:0:0:
256,192,42244,1,8,0:0:0:0:
256,192,42309,1,0,0:0:0:0:
256,192,42374,1,8,0:0:0:0:
256,192,42439,1,0,0:0:0:0:
256,192,42504,1,8,0:0:0:0:
256,192,42570,1,0,0:0:0:0:
256,192,42635,1,8,0:0:0:0:
256,192,42700,1,0,0:0:0:0:
256,192,42765,1,8,0:0:0:0:
256,192,42831,1,0,0:0:0:0:
256,192,42896,1,8,0:0:0:0:
256,192,42961,1,0,0:0:0:0:
256,192,43026,1,8,0:0:0:0:
256,192,43092,1,0,0:0:0:0:
256,192,43157,1,8,0:0:0:0:
256,192,43222,1,0,0:0:0:0:
256,192,43287,1,8,0:0:0:0:
256,192,43353,1,0,0:0:0:0:
256,192,43418,1,8,0:0:0:0:
256,192,43483,1,0,0:0:0:0:
256,192,43548,1,8,0:0:0:0:
256,192,43614,1,0,0:0:0:0:
256,192,43679,1,8,0:0:0:0:
256,192,43744,1,0,0:0:0:0:
256,192,43809,1,8,0:0:0:0:
256,192,43875,1,0,0:0:0:0:
256,192,43940,1,8,0:0:0:0:
256,192,44005,1,0,0:0:0:0:
256,192,44070,1,8,0:0:0:0:
256,192,44136,1,0,0:0:0:0:
256,192,44201,1,8,0:0:0:0:
256,192,44266,1,0,0:0:0:0:
256,192,44331,1,8,0:0:0:0:
256,192,44396,1,0,0:0:0:0:
256,192,44461,1,8,0:0:0:0:
256,192,44526,1,0,0:0:0:0:
256,192,44591,1,8,0:0:0:0:
256,192,44657,1,0,0:0:0:0:
256,192,44722,1,8,0:0:0:0:
256,192,44787,1,0,0:0:0:0:
256,192,44852,1,8,0:0:0:0:
256,192,44918,1,0,0:0:0:0:
256,192,44983,1,8,0:0:0:0:
256,192,45048,1,0,0:0:0:0:
256,192,45113,1,8,0:0:0:0:
256,192,45179,1,0,0:0:0:0:
256,192,45244,1,8,0:0:0:0:
256,192,45309,1,0,0:0:0:0:
256,192,45374,1,8,0:0:0:0:
256,192,45440,1,0,0:0:0:0:
256,192,45505,1,8,0:0:0:0:
256,192,45570,1,0,0:0:0:0:
256,192,45635,1,8,0:0:0:0:
256,192,45701,1,0,0:0:0:0:
256,192,45766,1,8,0:0:0:0:
256,192,45831,1,0,0:0:0:0:
256,192,45896,1,8,0:0:0:0:
256,192,45962,1,0,0:0:0:0:
256,192,46027,1,8,0:0:0:0:
256,192,46092,1,0,0:0:0:0:
256,192,46157,1,8,0:0:0:0:
256,192,46223,1,0,0:0:0:0:
256,192,46288,1,8,0:0:0:0:
256,192,46353,1,0,0:0:0:0:
256,192,46418,1,8,0:0:0:0:
256,192,46483,1,0,0:0:0:0:
256,192,46548,1,8,0:0:0:0:
256,192,46613,1,0,0:0:0:0:
256,192,46678,1,8,0:0:0:0:
256,192,46744,1,0,0:0:0:0:
256,192,46809,1,8,0:0:0:0:
256,192,46874,1,0,0:0:0:0:
256,192,46939,1,8,0:0:0:0:
256,192,47005,1,0,0:0:0:0:
256,192,47070,1,8,0:0:0:0:
256,192,47135,1,0,0:0:0:0:
256,192,47200,1,8,0:0:0:0:
256,192,47266,1,0,0:0:0:0:
256,192,47331,1,8,0:0:0:0:
256,192,47396,1,0,0:0:0:0:
256,192,47461,1,8,0:0:0:0:
256,192,47527,1,0,0:0:0:0:
256,192,47592,1,8,0:0:0:0:
256,192,47657,1,0,0:0:0:0:
256,192,47722,1,8,0:0:0:0:
256,192,47788,1,0,0:0:0:0:
256,192,47853,1,8,0:0:0:0:
256,192,47918,1,0,0:0:0:0:
256,192,47983,1,8,0:0:0:0:
256,192,48049,1,0,0:0:0:0:
256,192,48114,1,8,0:0:0:0:
256,192,48179,1,0,0:0:0:0:
256,192,48244,1,8,0:0:0:0:
256,192,48310,1,0,0:0:0:0:
256,192,48375,1,8,0:0:0:0:
256,192,48440,1,0,0:0:0:0:
256,192,48505,1,8,0:0:0:0:
256,192,48570,1,0,0:0:0:0:
256,192,48635,1,8,0:0:0:0:
256,192,48700,1,0,0:0:0:0:
256,192,48765,1,8,0:0:0:0:
256,192,48831,1,0,0:0:0:0:
256,192,48896,1,8,0:0:0:0:
256,192,48961,1,0,0:0:0:0:
256,192,49026,1,8,0:0:0:0:
256,192,49092,1,0,0:0:0:0:
256,192,49157,1,8,0:0:0:0:
256,192,49222,1,0,0:0:0:0:
256,192,49287,1,8,0:0:0:0:
256,192,49353,1,0,0:0:0:0:
256,192,49418,1,8,0:0:0:0:
256,192,49483,1,0,0:0:0:0:
256,192,49548,1,8,0:0:0:0:
256,192,49614,1,0,0:0:0:0:
256,192,49679,1,8,0:0:0:0:
256,192,49744,1,0,0:0:0:0:
256,192,49809,1,8,0:0:0:0:
256,192,49875,1,0,0:0:0:0:
256,192,49940,1,8,0:0:0:0:
256,192,50005,1,0,0:0:0:0:
256,192,50070,1,8,0:0:0:0:
256,192,50135,1,0,0:0:0:0:
256,192,50200,1,8,0:0:0:0:
256,192,50265,1,0,0:0:0:0:
256,192,50330,1,8,0:0:0:0:
256,192,50396,1,0,0:0:0:0:
256,192,50461,1,8,0:0:0:0:
256,192,50526,1,0,0:0:0:0:
256,192,50591,1,8,0:0:0:0:
256,192,50656,1,0,0:0:0:0:
256,192,50721,1,8,0:0:0:0:
256,192,50786,1,0,0:0:0:0:
256,192,50851,1,8,0:0:0:0:
256,192,50917,1,0,0:0:0:0:
256,192,50982,1,8,0:0:0:0:
256,192,51047,1,0,0:0:0:0:
256,192,51112,1,8,0:0:0:0:
256,192,51178,1,0,0:0:0:0:
256,192,51243,1,8,0:0:0:0:
256,192,51308,1,0,0:0:0:0:
256,192,51373,1,8,0:0:0:0:
256,192,51439,1,0,0:0:0:0:
256,192,51504,1,8,0:0:0:0:
256,192,51569,1,0,0:0:0:0:
256,192,51634,1,8,0:0:0:0:
256,192,51700,1,0,0:0:0:0:
256,192,51765,1,8,0:0:0:0:
256,192,51830,1,0,0:0:0:0:
256,192,51895,1,8,0:0:0:0:
256,192,51961,1,0,0:0:0:0:
256,192,52026,1,8,0:0:0:0:
256,192,52091,1,0,0:0:0:0:
256,192,52156,1,8,0:0:0:0:
256,192,52222,1,0,0:0:0:0:
256,192,52287,1,8,0:0:0:0:
256,192,52352,1,0,0:0:0:0:
256,192,52417,1,8,0:0:0:0:
256,192,52483,1,0,0:0:0:0:
256,192,52548,1,8,0:0:0:0:
256,192,52613,1,0,0:0:0:0:
256,192,52678,1,8,0:0:0:0:
256,192,52743,1,0,0:0:0:0:
256,192,52808,1,8,0:0:0:0:
256,192,52873,1,0,0:0:0:0:
256,192,52938,1,8,0:0:0:0:
256,192,53004,1,0,0:0:0:0:
256,192,53069,1,8,0:0:0:0:
256,192,53134,1,0,0:0:0:0:
256,192,53199,1,8,0:0:0:0:
256,192,53265,1,0,0:0:0:0:
256,192,53330,1,8,0:0:0:0:
256,192,53395,1,0,0:0:0:0:
256,192,53460,1,8,0:0:0:0:
256,192,53526,1,0,0:0:0:0:
256,192,53591,1,8,0:0:0:0:
256,192,53656,1,0,0:0:0:0:
256,192,53721,1,8,0:0:0:0:
256,192,53787,1,0,0:0:0:0:
256,192,53852,1,8,0:0:0:0:
256,192,53917,1,0,0:0:0:0:
256,192,53982,1,8,0:0:0:0:
256,192,54048,1,0,0:0:0:0:
256,192,54113,1,8,0:0:0:0:
256,192,54178,1,0,0:0:0:0:
256,192,54243,1,8,0:0:0:0:
256,192,54309,1,0,0:0:0:0:
256,192,54374,1,8,0:0:0:0:
256,192,54439,1,0,0:0:0:0:
256,192,54504,1,8,0:0:0:0:
256,192,54570,1,0,0:0:0:0:
256,192,54635,1,8,0:0:0:0:
256,192,54700,1,0,0:0:0:0:
256,192,54765,1,8,0:0:0:0:
256,192,54830,1,0,0:0:0:0:
256,192,54895,1,8,0:0:0:0:
256,192,54960,1,0,0:0:0:0:
256,192,55025,1,8,0:0:0:0:
256,192,55091,1,0,0:0:0:0:
256,192,55156,1,8,0:0:0:0:
256,192,55221,1,0,0:0:0:0:
256,192,55286,1,8,0:0:0:0:
256,192,55352,1,0,0:0:0:0:
256,192,55417,1,8,0:0:0:0:
256,192,55482,1,0,0:0:0:0:
256,192,55547,1,8,0:0:0:0:
256,192,55613,1,0,0:0:0:0:
256,192,55678,1,8,0:0:0:0:
256,192,55743,1,0,0:0:0:0:
256,192,55808,1,8,0:0:0:0:
256,192,55874,1,0,0:0:0:0:
256,192,55939,1,8,0:0:0:0:
256,192,56004,1,0,0:0:0:0:
256,192,56069,1,8,0:0:0:0:
256,192,56135,1,0,0:0:0:0:
256,192,56200,1,8,0:0:0:0:
256,192,56265,1,0,0:0:0:0:
256,192,56330,1,8,0:0:0:0:
256,192,56396,1,0,0:0:0:0:
256,192,56461,1,8,0:0:0:0:
256,192,56526,1,0,0:0:0:0:
256,192,56591,1,8,0:0:0:0:
256,192,56657,1,0,0:0:0:0:
256,192,56722,1,8,0:0:0:0:
256,192,56787,1,0,0:0:0:0:
256,192,56852,1,8,0:0:0:0:
256,192,56917,1,0,0:0:0:0:
256,192,56982,1,8,0:0:0:0:
256,192,57047,1,0,0:0:0:0:
256,192,57112,1,8,0:0:0:0:
256,192,57178,1,0,0:0:0:0:
256,192,57243,1,8,0:0:0:0:
256,192,57308,1,0,0:0:0:0:
256,192,57373,1,8,0:0:0:0:
256,192,57439,1,0,0:0:0:0:
256,192,57504,1,8,0:0:0:0:
256,192,57569,1,0,0:0:0:0:
256,192,57634,1,8,0:0:0:0:
256,192,57700,1,0,0:0:0:0:
256,192,57765,1,8,0:0:0:0:
256,192,57830,1,0,0:0:0:0:
256,192,57895,1,8,0:0:0:0:
256,192,57961,1,0,0:0:0:0:
256,192,58483,1,0,0:0:0:0:
256,192,58527,1,0,0:0:0:0:
256,192,58570,1,8,0:0:0:0:
256,192,58614,1,8,0:0:0:0:
256,192,58657,1,0,0:0:0:0:
256,192,58701,1,0,0:0:0:0:
280,176,58744,1,8,0:0:0:0:
280,176,58788,1,8,0:0:0:0:
280,176,58831,1,0,0:0:0:0:
280,176,58875,1,0,0:0:0:0:
280,176,58918,1,8,0:0:0:0:
280,176,58962,1,8,0:0:0:0:
256,192,59005,1,0,0:0:0:0:
256,192,59049,1,0,0:0:0:0:
256,192,59092,1,8,0:0:0:0:
256,192,59136,1,8,0:0:0:0:
256,192,59179,1,0,0:0:0:0:
256,192,59223,1,0,0:0:0:0:
280,176,59266,1,8,0:0:0:0:
280,176,59310,1,8,0:0:0:0:
280,176,59353,1,0,0:0:0:0:
280,176,59397,1,0,0:0:0:0:
280,176,59440,1,8,0:0:0:0:
280,176,59484,1,8,0:0:0:0:
256,192,59527,1,0,0:0:0:0:
256,192,59571,1,0,0:0:0:0:
256,192,59614,1,8,0:0:0:0:
256,192,59658,1,8,0:0:0:0:
256,192,59701,1,0,0:0:0:0:
256,192,59745,1,0,0:0:0:0:
280,176,59788,1,8,0:0:0:0:
280,176,59832,1,8,0:0:0:0:
280,176,59875,1,0,0:0:0:0:
280,176,59919,1,0,0:0:0:0:
280,176,59962,1,8,0:0:0:0:
280,176,60006,1,8,0:0:0:0:
256,192,60049,1,0,0:0:0:0:
256,192,60093,1,0,0:0:0:0:
256,192,60136,1,8,0:0:0:0:
256,192,60180,1,8,0:0:0:0:
256,192,60223,1,0,0:0:0:0:
256,192,60267,1,0,0:0:0:0:
280,176,60310,1,8,0:0:0:0:
280,176,60354,1,8,0:0:0:0:
280,176,60397,1,0,0:0:0:0:
280,176,60441,1,0,0:0:0:0:
280,176,60484,1,8,0:0:0:0:
280,176,60528,1,8,0:0:0:0:
256,192,60570,1,0,0:0:0:0:
256,192,60614,1,0,0:0:0:0:
256,192,60657,1,8,0:0:0:0:
256,192,60701,1,8,0:0:0:0:
256,192,60744,1,0,0:0:0:0:
256,192,60788,1,0,0:0:0:0:
280,176,60831,1,8,0:0:0:0:
280,176,60875,1,8,0:0:0:0:
280,176,60918,1,0,0:0:0:0:
280,176,60962,1,0,0:0:0:0:
280,176,61005,1,8,0:0:0:0:
280,176,61049,1,8,0:0:0:0:
256,192,61092,1,0,0:0:0:0:
256,192,61136,1,0,0:0:0:0:
256,192,61179,1,8,0:0:0:0:
256,192,61223,1,8,0:0:0:0:
256,192,61266,1,0,0:0:0:0:
256,192,61310,1,0,0:0:0:0:
280,176,61353,1,8,0:0:0:0:
280,176,61397,1,8,0:0:0:0:
280,176,61440,1,0,0:0:0:0:
280,176,61484,1,0,0:0:0:0:
280,176,61527,1,8,0:0:0:0:
280,176,61571,1,8,0:0:0:0:
256,192,61614,1,0,0:0:0:0:
256,192,61658,1,0,0:0:0:0:
256,192,61701,1,8,0:0:0:0:
256,192,61745,1,8,0:0:0:0:
256,192,61788,1,0,0:0:0:0:
256,192,61832,1,0,0:0:0:0:
280,176,61875,1,8,0:0:0:0:
280,176,61919,1,8,0:0:0:0:
280,176,61962,1,0,0:0:0:0:
280,176,62006,1,0,0:0:0:0:
280,176,62049,1,8,0:0:0:0:
280,176,62093,1,8,0:0:0:0:
256,192,62136,1,0,0:0:0:0:
256,192,62180,1,0,0:0:0:0:
256,192,62223,1,8,0:0:0:0:
256,192,62267,1,8,0:0:0:0:
256,192,62310,1,0,0:0:0:0:
256,192,62354,1,0,0:0:0:0:
280,176,62397,1,8,0:0:0:0:
280,176,62441,1,8,0:0:0:0:
280,176,62484,1,0,0:0:0:0:
280,176,62528,1,0,0:0:0:0:
280,176,62571,1,8,0:0:0:0:
280,176,62615,1,8,0:0:0:0:
256,192,62657,1,0,0:0:0:0:
256,192,62701,1,0,0:0:0:0:
256,192,62744,1,8,0:0:0:0:
256,192,62788,1,8,0:0:0:0:
256,192,62831,1,0,0:0:0:0:
256,192,62875,1,0,0:0:0:0:
280,176,62918,1,8,0:0:0:0:
280,176,62962,1,8,0:0:0:0:
280,176,63005,1,0,0:0:0:0:
280,176,63049,1,0,0:0:0:0:
280,176,63092,1,8,0:0:0:0:
280,176,63136,1,8,0:0:0:0:
256,192,63179,1,0,0:0:0:0:
256,192,63223,1,0,0:0:0:0:
256,192,63266,1,8,0:0:0:0:
256,192,63310,1,8,0:0:0:0:
256,192,63353,1,0,0:0:0:0:
256,192,63397,1,0,0:0:0:0:
280,176,63440,1,8,0:0:0:0:
280,176,63484,1,8,0:0:0:0:
280,176,63527,1,0,0:0:0:0:
280,176,63571,1,0,0:0:0:0:
280,176,63614,1,8,0:0:0:0:
280,176,63658,1,8,0:0:0:0:
256,192,63701,1,0,0:0:0:0:
256,192,63745,1,0,0:0:0:0:
256,192,63788,1,8,0:0:0:0:
256,192,63832,1,8,0:0:0:0:
256,192,63875,1,0,0:0:0:0:
256,192,63919,1,0,0:0:0:0:
280,176,63962,1,8,0:0:0:0:
280,176,64006,1,8,0:0:0:0:
280,176,64049,1,0,0:0:0:0:
280,176,64093,1,0,0:0:0:0:
280,176,64136,1,8,0:0:0:0:
280,176,64180,1,8,0:0:0:0:
256,192,64223,1,0,0:0:0:0:
256,192,64267,1,0,0:0:0:0:
256,192,64310,1,8,0:0:0:0:
256,192,64354,1,8,0:0:0:0:
256,192,64397,1,0,0:0:0:0:
256,192,64441,1,0,0:0:0:0:
280,176,64484,1,8,0:0:0:0:
280,176,64528,1,8,0:0:0:0:
280,176,64571,1,0,0:0:0:0:
280,176,64615,1,0,0:0:0:0:
280,176,64658,1,8,0:0:0:0:
280,176,64702,1,8,0:0:0:0:
256,192,64744,1,0,0:0:0:0:
256,192,64788,1,0,0:0:0:0:
256,192,64831,1,8,0:0:0:0:
256,192,64875,1,8,0:0:0:0:
256,192,64918,1,0,0:0:0:0:
256,192,64962,1,0,0:0:0:0:
280,176,65005,1,8,0:0:0:0:
280,176,65049,1,8,0:0:0:0:
280,176,65092,1,0,0:0:0:0:
280,176,65136,1,0,0:0:0:0:
280,176,65179,1,8,0:0:0:0:
280,176,65223,1,8,0:0:0:0:
256,192,65266,1,0,0:0:0:0:
256,192,65310,1,0,0:0:0:0:
256,192,65353,1,8,0:0:0:0:
256,192,65397,1,8,0:0:0:0:
256,192,65440,1,0,0:0:0:0:
256,192,65484,1,0,0:0:0:0:
280,176,65527,1,8,0:0:0:0:
280,176,65571,1,8,0:0:0:0:
280,176,65614,1,0,0:0:0:0:
280,176,65658,1,0,0:0:0:0:
280,176,65701,1,8,0:0:0:0:
280,176,65745,1,8,0:0:0:0:
256,192,65788,1,0,0:0:0:0:
256,192,65832,1,0,0:0:0:0:
256,192,65875,1,8,0:0:0:0:
256,192,65919,1,8,0:0:0:0:
256,192,65962,1,0,0:0:0:0:
256,192,66006,1,0,0:0:0:0:
280,176,66049,1,8,0:0:0:0:
280,176,66093,1,8,0:0:0:0:
280,176,66136,1,0,0:0:0:0:
280,176,66180,1,0,0:0:0:0:
280,176,66223,1,8,0:0:0:0:
280,176,66267,1,8,0:0:0:0:
256,192,66310,1,0,0:0:0:0:
256,192,66354,1,0,0:0:0:0:
256,192,66397,1,8,0:0:0:0:
256,192,66441,1,8,0:0:0:0:
256,192,66484,1,0,0:0:0:0:
256,192,66528,1,0,0:0:0:0:
280,176,66571,1,8,0:0:0:0:
280,176,66615,1,8,0:0:0:0:
280,176,66658,1,0,0:0:0:0:
280,176,66702,1,0,0:0:0:0:
280,176,66745,1,8,0:0:0:0:
280,176,66789,1,8,0:0:0:0:
256,192,66831,1,0,0:0:0:0:
256,192,66875,1,0,0:0:0:0:
256,192,66918,1,8,0:0:0:0:
256,192,66962,1,8,0:0:0:0:
256,192,67005,1,0,0:0:0:0:
256,192,67049,1,0,0:0:0:0:
280,176,67092,1,8,0:0:0:0:
280,176,67136,1,8,0:0:0:0:
280,176,67179,1,0,0:0:0:0:
280,176,67223,1,0,0:0:0:0:
280,176,67266,1,8,0:0:0:0:
280,176,67310,1,8,0:0:0:0:
256,192,67353,1,0,0:0:0:0:
256,192,67397,1,0,0:0:0:0:
256,192,67440,1,8,0:0:0:0:
256,192,67484,1,8,0:0:0:0:
256,192,67527,1,0,0:0:0:0:
256,192,67571,1,0,0:0:0:0:
280,176,67614,1,8,0:0:0:0:
280,176,67658,1,8,0:0:0:0:
280,176,67701,1,0,0:0:0:0:
280,176,67745,1,0,0:0:0:0:
280,176,67788,1,8,0:0:0:0:
280,176,67832,1,8,0:0:0:0:
256,192,67875,1,0,0:0:0:0:
256,192,67919,1,0,0:0:0:0:
256,192,67962,1,8,0:0:0:0:
256,192,68006,1,8,0:0:0:0:
256,192,68049,1,0,0:0:0:0:
256,192,68093,1,0,0:0:0:0:
280,176,68136,1,8,0:0:0:0:
280,176,68180,1,8,0:0:0:0:
280,176,68223,1,0,0:0:0:0:
280,176,68267,1,0,0:0:0:0:
280,176,68310,1,8,0:0:0:0:
280,176,68354,1,8,0:0:0:0:
256,192,68397,1,0,0:0:0:0:
256,192,68441,1,0,0:0:0:0:
256,192,68484,1,8,0:0:0:0:
256,192,68528,1,8,0:0:0:0:
256,192,68571,1,0,0:0:0:0:
256,192,68615,1,0,0:0:0:0:
280,176,68658,1,8,0:0:0:0:
280,176,68702,1,8,0:0:0:0:
280,176,68745,1,0,0:0:0:0:
280,176,68789,1,0,0:0:0:0:
280,176,68832,1,8,0:0:0:0:
280,176,68876,1,8,0:0:0:0:
256,192,68918,1,0,0:0:0:0:
256,192,68962,1,0,0:0:0:0:
256,192,69005,1,8,0:0:0:0:
256,192,69049,1,8,0:0:0:0:
256,192,69092,1,0,0:0:0:0:
256,192,69136,1,0,0:0:0:0:
280,176,69179,1,8,0:0:0:0:
280,176,69223,1,8,0:0:0:0:
280,176,69266,1,0,0:0:0:0:
280,176,69310,1,0,0:0:0:0:
280,176,69353,1,8,0:0:0:0:
280,176,69397,1,8,0:0:0:0:
256,192,69440,1,0,0:0:0:0:
256,192,69484,1,0,0:0:0:0:
256,192,69527,1,8,0:0:0:0:
256,192,69571,1,8,0:0:0:0:
256,192,69614,1,0,0:0:0:0:
256,192,69658,1,0,0:0:0:0:
280,176,69701,1,8,0:0:0:0:
280,176,69745,1,8,0:0:0:0:
280,176,69788,1,0,0:0:0:0:
280,176,69832,1,0,0:0:0:0:
280,176,69875,1,8,0:0:0:0:
280,176,69919,1,8,0:0:0:0:
256,192,69962,1,0,0:0:0:0:
256,192,70006,1,0,0:0:0:0:
256,192,70049,1,8,0:0:0:0:
256,192,70093,1,8,0:0:0:0:
256,192,70136,1,0,0:0:0:0:
256,192,70180,1,0,0:0:0:0:
280,176,70223,1,8,0:0:0:0:
280,176,70267,1,8,0:0:0:0:
280,176,70310,1,0,0:0:0:0:
280,176,70354,1,0,0:0:0:0:
280,176,70397,1,8,0:0:0:0:
280,176,70441,1,8,0:0:0:0:
256,192,70484,1,0,0:0:0:0:
256,192,70528,1,0,0:0:0:0:
256,192,70571,1,8,0:0:0:0:
256,192,70615,1,8,0:0:0:0:
256,192,70658,1,0,0:0:0:0:
256,192,70702,1,0,0:0:0:0:
280,176,70745,1,8,0:0:0:0:
280,176,70789,1,8,0:0:0:0:
280,176,70832,1,0,0:0:0:0:
280,176,70876,1,0,0:0:0:0:
280,176,70919,1,8,0:0:0:0:
280,176,70963,1,8,0:0:0:0:
256,192,71005,1,0,0:0:0:0:
256,192,71049,1,0,0:0:0:0:
256,192,71092,1,8,0:0:0:0:
256,192,71136,1,8,0:0:0:0:
256,192,71179,1,0,0:0:0:0:
256,192,71223,1,0,0:0:0:0:
280,176,71266,1,8,0:0:0:0:
280,176,71310,1,8,0:0:0:0:
280,176,71353,1,0,0:0:0:0:
280,176,71397,1,0,0:0:0:0:
280,176,71440,1,8,0:0:0:0:
280,176,71484,1,8,0:0:0:0:
256,192,71527,1,0,0:0:0:0:
256,192,71571,1,0,0:0:0:0:
256,192,71614,1,8,0:0:0:0:
256,192,71658,1,8,0:0:0:0:
256,192,71701,1,0,0:0:0:0:
256,192,71745,1,0,0:0:0:0:
280,176,71788,1,8,0:0:0:0:
280,176,71832,1,8,0:0:0:0:
280,176,71875,1,0,0:0:0:0:
280,176,71919,1,0,0:0:0:0:
280,176,71962,1,8,0:0:0:0:
280,176,72006,1,8,0:0:0:0:
256,192,72049,1,0,0:0:0:0:
256,192,72093,1,0,0:0:0:0:
256,192,72136,1,8,0:0:0:0:
256,192,72180,1,8,0:0:0:0:
256,192,72223,1,0,0:0:0:0:
256,192,72267,1,0,0:0:0:0:
280,176,72310,1,8,0:0:0:0:
280,176,72354,1,8,0:0:0:0:
280,176,72397,1,0,0:0:0:0:
280,176,72441,1,0,0:0:0:0:
280,176,72484,1,8,0:0:0:0:
280,176,72528,1,8,0:0:0:0:
256,192,72571,1,0,0:0:0:0:
256,192,72615,1,0,0:0:0:0:
256,192,72658,1,8,0:0:0:0:
256,192,72702,1,8,0:0:0:0:
256,192,72745,1,0,0:0:0:0:
256,192,72789,1,0,0:0:0:0:
280,176,72832,1,8,0:0:0:0:
280,176,72876,1,8,0:0:0:0:
280,176,72919,1,0,0:0:0:0:
280,176,72963,1,0,0:0:0:0:
280,176,73006,1,8,0:0:0:0:
280,176,73050,1,8,0:0:0:0:
256,192,73092,1,0,0:0:0:0:
256,192,73136,1,0,0:0:0:0:
256,192,73179,1,8,0:0:0:0:
256,192,73223,1,8,0:0:0:0:
256,192,73266,1,0,0:0:0:0:
256,192,73310,1,0,0:0:0:0:
280,176,73353,1,8,0:0:0:0:
280,176,73397,1,8,0:0:0:0:
280,176,73440,1,0,0:0:0:0:
280,176,73484,1,0,0:0:0:0:
280,176,73527,1,8,0:0:0:0:
280,176,73571,1,8,0:0:0:0:
256,192,73614,1,0,0:0:0:0:
256,192,73658,1,0,0:0:0:0:
256,192,73701,1,8,0:0:0:0:
256,192,73745,1,8,0:0:0:0:
256,192,73788,1,0,0:0:0:0:
256,192,73832,1,0,0:0:0:0:
280,176,73875,1,8,0:0:0:0:
280,176,73919,1,8,0:0:0:0:
280,176,73962,1,0,0:0:0:0:
280,176,74006,1,0,0:0:0:0:
280,176,74049,1,8,0:0:0:0:
280,176,74093,1,8,0:0:0:0:
256,192,74136,1,0,0:0:0:0:
256,192,74180,1,0,0:0:0:0:
256,192,74223,1,8,0:0:0:0:
256,192,74267,1,8,0:0:0:0:
256,192,74310,1,0,0:0:0:0:
256,192,74354,1,0,0:0:0:0:
280,176,74397,1,8,0:0:0:0:
280,176,74441,1,8,0:0:0:0:
280,176,74484,1,0,0:0:0:0:
280,176,74528,1,0,0:0:0:0:
280,176,74571,1,8,0:0:0:0:
280,176,74615,1,8,0:0:0:0:
256,192,74658,1,0,0:0:0:0:
256,192,74702,1,0,0:0:0:0:
256,192,74745,1,8,0:0:0:0:
256,192,74789,1,8,0:0:0:0:
256,192,74832,1,0,0:0:0:0:
256,192,74876,1,0,0:0:0:0:
280,176,74919,1,8,0:0:0:0:
280,176,74963,1,8,0:0:0:0:
280,176,75006,1,0,0:0:0:0:
280,176,75050,1,0,0:0:0:0:
280,176,75093,1,8,0:0:0:0:
280,176,75137,1,8,0:0:0:0:
256,192,75179,1,0,0:0:0:0:
256,192,75223,1,0,0:0:0:0:
256,192,75266,1,8,0:0:0:0:
256,192,75310,1,8,0:0:0:0:
256,192,75353,1,0,0:0:0:0:
256,192,75397,1,0,0:0:0:0:
280,176,75440,1,8,0:0:0:0:
280,176,75484,1,8,0:0:0:0:
280,176,75527,1,0,0:0:0:0:
280,176,75571,1,0,0:0:0:0:
280,176,75614,1,8,0:0:0:0:
280,176,75658,1,8,0:0:0:0:
256,192,75701,1,0,0:0:0:0:
256,192,75745,1,0,0:0:0:0:
256,192,75788,1,8,0:0:0:0:
256,192,75832,1,8,0:0:0:0:
256,192,75875,1,0,0:0:0:0:
256,192,75919,1,0,0:0:0:0:
280,176,75962,1,8,0:0:0:0:
280,176,76006,1,8,0:0:0:0:
280,176,76049,1,0,0:0:0:0:
280,176,76093,1,0,0:0:0:0:
280,176,76136,1,8,0:0:0:0:
280,176,76180,1,8,0:0:0:0:
256,192,76223,1,0,0:0:0:0:
