osu file format v14

[General]
AudioFilename: audio.mp3
AudioLeadIn: 0
PreviewTime: -1
Countdown: 1
SampleSet: Soft
StackLeniency: 0.7
Mode: 0
LetterboxInBreaks: 0
WidescreenStoryboard: 0

[Editor]
Bookmarks: 41195,64320
DistanceSpacing: 1
BeatDivisor: 3
GridSize: 4
TimelineZoom: 2.1

[Metadata]
Title:Dang Ran Shi Xuan Ze Yuan Liang Ta A
TitleUnicode:Dang Ran Shi Xuan Ze Yuan Liang Ta A
Artist:Luo Tian Yi
ArtistUnicode:Luo Tian Yi
Creator:gxytcgxytc
Version:Sorry.Please forgive me.
Source:
Tags:Oblivion Poker
BeatmapID:1501456
BeatmapSetID:710264

[Difficulty]
HPDrainRate:6.8
CircleSize:4.3
OverallDifficulty:7
ApproachRate:9.2
SliderMultiplier:1.8
SliderTickRate:1

[Events]
//Background and Video events
0,0,"green.png",0,0
Video,0,"of course green.mp4"
//Break Periods
//Storyboard Layer 0 (Background)
//Storyboard Layer 1 (Fail)
//Storyboard Layer 2 (Pass)
//Storyboard Layer 3 (Foreground)
//Storyboard Sound Samples

[TimingPoints]
556,312.5,4,2,1,100,1,0
5556,-200,4,2,1,100,0,0
15556,-200,4,2,5,50,0,0
25243,-133.333333333333,4,2,1,50,0,0
25556,-133.333333333333,4,2,5,60,0,0
35556,-133.333333333333,4,2,5,70,0,0
38056,-133.333333333333,4,2,5,80,0,0
39306,-133.333333333333,4,2,5,90,0,0
41962,-100,4,2,1,50,0,0
43056,-100,4,2,5,100,0,1
63056,-100,4,2,5,100,0,0
67743,-200,4,2,5,50,0,0
78056,-200,4,2,6,50,0,0
88056,-133.333333333333,4,2,5,60,0,0
96806,-133.333333333333,4,2,5,70,0,0
99306,-133.333333333333,4,2,5,80,0,0
100556,-133.333333333333,4,2,5,90,0,0
104462,-100,4,2,1,50,0,0
105556,-100,4,2,5,100,0,1
124306,-100,4,2,5,100,0,0

[Colours]
Combo1 : 60,52,152
Combo2 : 35,167,167
Combo3 : 18,124,255
Combo4 : 242,24,57

[HitObjects]
97,236,556,5,0,0:0:0:0:
121,148,868,1,2,0:0:0:0:
138,238,1181,1,0,0:0:0:0:
162,150,1493,1,2,0:0:0:0:
170,239,1806,5,0,0:0:0:0:
194,151,2118,1,2,0:0:0:0:
207,240,2431,1,0,0:0:0:0:
231,152,2743,1,2,0:0:0:0:
239,241,3056,5,0,0:0:0:0:
263,153,3368,1,2,0:0:0:0:
277,242,3681,1,0,0:0:0:0:
301,154,3993,1,2,0:0:0:0:
320,242,4306,5,0,0:0:0:0:
344,154,4618,1,2,0:0:0:0:
344,154,4931,1,2,0:0:0:0:
298,76,5243,1,0,0:0:0:0:
431,142,5556,6,0,P|377:156|342:153,1,90,2|0,0:0|0:0,0:0:0:0:
469,73,6181,2,0,P|503:108|510:152,1,90,2|0,0:0|0:0,0:0:0:0:
398,284,6806,5,2,0:0:0:0:
431,142,7118,1,2,0:0:0:0:
431,142,7743,1,0,0:0:0:0:
428,354,8056,6,0,P|379:358|338:328,1,90,2|0,0:0|0:0,0:0:0:0:
190,299,8681,2,0,P|228:277|272:282,1,90,2|0,0:0|0:0,0:0:0:0:
247,369,9306,1,2,0:0:0:0:
398,284,9618,1,2,0:0:0:0:
398,284,10243,5,0,0:0:0:0:
238,196,10556,2,0,P|190:200|140:229,1,90,2|0,0:0|0:0,0:0:0:0:
88,281,11181,1,2,0:0:0:0:
169,318,11493,1,0,0:0:0:0:
248,114,11806,5,2,0:0:0:0:
237,203,12118,1,2,0:0:0:0:
237,203,12743,1,0,0:0:0:0:
298,268,13056,6,0,L|388:249,1,90,2|0,0:0|0:0,0:0:0:0:
491,147,13681,2,0,P|445:147|400:166,1,90,2|0,0:0|0:0,0:0:0:0:
496,360,14306,2,0,P|495:305|462:221,1,135,0|2,0:0|0:0,0:0:0:0:
467,230,14931,1,2,0:0:0:0:
405,164,15243,1,0,0:0:0:0:
298,268,15556,6,0,P|209:278|140:220,1,180,8|8,0:0|0:0,0:0:0:0:
108,140,16493,1,0,0:0:0:0:
96,329,16806,1,8,0:0:0:0:
18,251,17118,1,0,0:0:0:0:
179,298,17431,1,8,0:0:0:0:
179,298,17743,1,0,0:0:0:0:
246,197,18056,6,0,P|275:226|300:273,1,90,8|0,0:0|0:0,0:0:0:0:
288,358,18681,2,0,P|333:345|374:315,1,90,8|0,0:0|0:0,0:0:0:0:
425,251,19306,1,8,0:0:0:0:
425,251,19618,1,0,0:0:0:0:
337,136,19931,6,0,P|366:83|402:49,2,90,8|0|8,0:0|0:0|0:0,0:0:0:0:
282,252,21178,1,8,0:0:0:0:
282,252,21493,1,0,0:0:0:0:
251,97,21806,2,0,P|191:115|160:130,1,90,8|0,0:0|0:0,0:0:0:0:
110,197,22431,6,0,P|118:246|145:295,2,90,8|0|8,0:0|0:0|0:0,0:0:0:0:
84,110,23368,1,0,0:0:0:0:
205,45,23681,1,8,0:0:0:0:
117,26,23993,1,0,0:0:0:0:
166,126,24306,5,8,0:0:0:0:
166,126,24514,1,0,1:0:0:0:
346,258,24826,5,8,0:0:0:0:
346,258,24931,1,0,1:0:0:0:
8,220,25243,6,0,L|98:198,1,90.0000034332277,0|0,1:0|1:0,0:0:0:0:
251,97,25556,2,0,P|283:142|282:240,1,135.000005149842,10|0,0:0|0:0,0:0:0:0:
255,308,26181,1,8,3:0:0:0:
255,308,26806,1,8,0:0:0:0:
255,308,27118,1,8,0:0:0:0:
167,184,27431,1,8,0:3:0:0:
167,184,28056,6,0,P|159:237|79:281,1,135.000005149842,8|0,0:0|0:0,0:0:0:0:
14,230,28524,1,8,3:0:0:0:
189,275,28837,2,8,L|204:326,2,33.7500012874604
162,115,29306,2,0,P|261:95|370:88,1,202.500007724762,10|0,0:0|1:0,0:0:0:0:
480,172,30087,1,8,0:0:0:0:
480,172,30243,5,8,0:0:0:0:
348,235,30556,2,0,P|272:210|222:177,1,135.000005149842,8|2,0:0|0:0,0:0:0:0:
162,115,31181,1,8,3:0:0:0:
190,347,31649,1,0,0:0:0:0:
214,256,31806,6,0,L|347:234,1,135.000005149842,10|0,0:0|0:0,0:0:0:0:
380,364,32274,1,8,3:0:0:0:
363,359,32352,1,8,3:0:0:0:
346,354,32431,1,0,1:0:0:0:
424,224,32587,1,8,0:0:0:0:
214,256,32743,2,0,L|296:244,1,67.5000025749208,8|8,1:3|0:0,0:0:0:0:
123,323,33056,6,0,P|98:262|121:200,1,135.000005149842,10|8,0:0|0:0,0:0:0:0:
393,82,33681,2,0,P|406:147|373:204,1,135.000005149842,8|8,0:0|0:0,0:0:0:0:
124,59,34306,2,0,P|185:34|248:57,1,135.000005149842,8|8,0:0|0:0,0:0:0:0:
364,329,34931,2,0,P|300:342|243:308,1,135.000005149842,8|8,0:0|0:0,0:0:0:0:
109,188,35556,6,0,L|124:332,1,135.000005149842,8|8,0:0|0:0,0:0:0:0:
389,61,36181,2,0,L|403:196,1,135.000005149842,8|8,0:0|0:0,0:0:0:0:
78,201,36806,2,0,L|91:344,1,135.000005149842,8|8,0:0|0:0,0:0:0:0:
419,47,37431,2,0,L|437:211,1,135.000005149842,8|8,0:0|0:0,0:0:0:0:
130,335,38056,5,12,0:0:0:0:
122,322,38368,5,0,1:0:0:0:
34,223,38524,1,8,0:0:0:0:
162,251,38681,1,8,0:0:0:0:
42,304,38837,1,8,0:0:0:0:
109,191,38993,1,0,1:0:0:0:
295,241,39306,5,8,0:0:0:0:
448,274,39462,1,8,0:0:0:0:
342,155,39618,1,0,1:0:0:0:
358,312,39775,1,8,0:0:0:0:
438,177,39931,1,8,0:0:0:0:
268,329,40087,5,8,0:0:0:0:
254,157,40243,1,0,1:0:0:0:
254,157,40556,5,4,0:0:0:0:
254,171,40868,1,4,0:0:0:0:
255,184,41181,1,4,0:0:0:0:
190,229,41337,1,2,0:0:0:0:
42,59,41649,1,4,1:2:0:0:
49,308,41962,5,0,1:0:0:0:
128,266,42118,1,0,1:0:0:0:
211,299,42274,1,0,1:0:0:0:
431,221,42431,1,0,1:0:0:0:
352,263,42587,1,0,1:0:0:0:
269,230,42743,1,0,1:0:0:0:
263,222,42821,1,0,1:0:0:0:
257,214,42899,1,0,1:0:0:0:
251,206,42977,1,0,1:0:0:0:
231,174,43056,6,0,P|171:222|73:204,1,180,12|0,0:0|1:0,0:0:0:0:
10,142,43524,1,0,0:0:0:0:
155,24,43681,1,8,0:0:0:0:
142,112,43837,1,0,0:0:0:0:
231,174,43993,2,0,L|331:156,1,90,0|0,1:0|0:0,0:0:0:0:
492,104,44306,5,8,0:0:0:0:
344,72,44462,1,0,0:0:0:0:
319,158,44618,1,0,1:0:0:0:
381,222,44774,1,8,0:0:0:0:
298,329,44931,2,0,L|205:314,1,90,0|8,0:0|0:0,0:0:0:0:
416,298,45243,2,0,P|449:269|460:222,1,90,0|0,1:0|0:0,0:0:0:0:
443,160,45477,1,0,0:0:0:0:
443,160,45556,6,0,P|372:105|405:27,2,180,12|0|8,0:0|1:0|0:0,0:0:0:0:
482,78,46337,1,0,0:0:0:0:
329,117,46493,2,0,P|284:123|231:143,1,90,0|0,1:0|0:0,0:0:0:0:
123,292,46806,5,12,0:0:0:0:
206,325,46962,1,0,0:0:0:0:
206,325,47118,1,0,1:0:0:0:
204,161,47274,2,0,P|263:128|333:116,1,135,8|0,0:0|0:0,0:0:0:0:
368,123,47587,1,0,0:0:0:0:
450,332,47743,1,0,1:0:0:0:
369,251,47899,6,0,P|411:227|468:222,2,90,0|8|0,0:0|0:0|0:0,0:0:0:0:
217,348,48368,2,0,P|170:333|126:310,1,90,0|0,1:0|0:0,0:0:0:0:
77,267,48602,1,0,0:0:0:0:
77,267,48681,2,0,L|182:251,1,90,2|8,0:0|0:0,0:0:0:0:
336,158,48993,1,0,1:0:0:0:
149,106,49149,6,0,P|115:191|172:255,1,180,8|2,0:0|0:0,0:0:0:0:
326,302,49618,1,0,1:0:0:0:
202,175,49774,2,0,P|245:176|305:164,1,90
407,17,50087,2,0,P|354:20|311:37,1,90,8|0,0:0|1:0,0:0:0:0:
244,81,50399,1,0,0:0:0:0:
324,263,50556,6,0,P|391:200|381:117,2,180,12|0|8,0:0|1:0|0:0,0:0:0:0:
233,266,51337,1,8,0:0:0:0:
299,369,51493,2,0,P|348:373|390:380,2,90,0|0|8,1:0|0:0|0:0,0:0:0:0:
90,331,51962,5,0,0:0:0:0:
137,254,52118,1,8,3:0:0:0:
102,170,52274,1,8,0:0:0:0:
180,9,52431,1,0,0:0:0:0:
145,93,52587,1,8,0:0:0:0:
192,170,52743,2,0,L|305:155,1,90,0|0,1:0|0:0,0:0:0:0:
416,252,53056,6,0,P|361:176|269:160,1,180,12|0,0:0|1:0,0:0:0:0:
235,235,53524,1,0,0:0:0:0:
118,120,53681,2,8,P|107:165|106:222,1,90
338,363,53993,2,0,P|335:318|324:274,1,90,0|0,1:0|0:0,0:0:0:0:
280,158,54306,5,12,0:0:0:0:
280,158,54462,1,0,0:0:0:0:
159,274,54618,1,0,1:0:0:0:
48,85,54774,2,0,P|134:65|188:64,1,135,8|0,0:0|0:0,0:0:0:0:
225,70,55087,1,8,0:0:0:0:
368,170,55243,2,0,P|322:168|279:157,1,90,0|0,1:0|0:0,0:0:0:0:
55,264,55556,6,0,P|47:174|47:84,2,180,12|0|8,0:0|1:0|0:0,0:0:0:0:
130,312,56337,1,8,0:0:0:0:
195,170,56493,1,0,1:0:0:0:
195,170,56649,1,0,0:0:0:0:
425,384,56806,6,0,L|312:357,1,90,4|0,0:0|0:0,0:0:0:0:
482,200,57118,1,0,1:0:0:0:
456,286,57274,2,0,P|363:262|272:246,1,180,2|8,0:0|0:0,0:0:0:0:
180,81,57743,2,0,L|196:179,1,90,0|0,1:0|0:0,0:0:0:0:
227,341,58056,5,12,0:0:0:0:
227,341,58212,1,0,0:0:0:0:
270,161,58368,2,0,P|322:120|350:108,1,90,0|0,1:0|0:0,0:0:0:0:
454,207,58681,2,0,P|408:202|359:187,1,90,8|0,0:0|0:0,0:0:0:0:
166,244,58993,1,0,1:0:0:0:
42,71,59149,6,0,P|129:43|226:42,1,180,12|8,0:0|0:0,0:0:0:0:
307,43,59618,1,0,1:0:0:0:
270,161,59774,2,0,P|318:140|348:104,2,90,0|8|0,0:0|0:0|0:0,0:0:0:0:
174,38,60243,1,8,3:0:0:0:
174,38,60399,1,0,0:0:0:0:
97,192,60556,6,0,P|176:160|283:164,2,180,12|0|8,0:0|1:0|0:0,0:0:0:0:
30,299,61337,1,8,0:0:0:0:
30,299,61493,1,0,1:0:0:0:
30,299,61649,1,2,0:0:0:0:
182,351,61806,6,0,L|289:362,1,90,8|0,0:0|0:0,0:0:0:0:
352,320,62118,2,0,L|464:308,1,90,0|8,1:0|0:0,0:0:0:0:
271,336,62431,2,0,L|181:326,1,90,0|8,0:0|0:0,0:0:0:0:
449,295,62743,1,0,1:0:0:0:
344,303,62899,1,0,0:0:0:0:
511,229,63056,5,12,0:0:0:0:
297,198,63369,1,8,0:0:0:0:
430,27,63681,1,8,0:0:0:0:
1,229,64306,5,8,0:0:0:0:
215,198,64619,1,8,0:0:0:0:
82,27,64931,1,8,0:0:0:0:
245,357,65556,5,8,0:0:0:0:
378,186,65868,1,8,0:0:0:0:
164,155,66181,1,8,0:0:0:0:
256,312,66493,1,8,0:0:0:0:
256,312,66649,1,2,0:0:0:0:
76,300,67014,1,0,1:0:0:0:
392,260,67326,1,8,0:0:0:0:
370,347,67431,1,0,1:0:0:0:
298,182,67743,6,0,P|273:154|256:120,1,60,0|0,1:0|1:0,1:0:0:0:
116,214,68056,2,0,L|213:203,1,90,10|0,0:0|0:0,0:0:0:0:
437,83,68681,1,8,0:0:0:0:
353,116,68993,1,0,0:0:0:0:
354,237,69306,1,8,0:0:0:0:
269,147,69618,1,0,0:0:0:0:
210,326,69931,1,8,0:0:0:0:
210,326,70243,1,0,0:0:0:0:
125,214,70556,6,0,P|66:218|34:241,1,90,8|0,0:0|0:0,0:0:0:0:
91,376,71181,2,0,L|98:281,1,90,8|0,0:0|0:0,0:0:0:0:
104,131,71806,1,8,0:0:0:0:
104,131,72118,1,0,0:0:0:0:
215,240,72431,1,8,0:0:0:0:
215,240,72743,1,0,0:0:0:0:
336,139,73056,6,0,P|381:135|426:154,1,90,8|0,0:0|0:0,0:0:0:0:
395,344,73681,2,0,P|350:348|305:329,1,90,8|0,0:0|0:0,0:0:0:0:
460,165,74306,2,0,L|446:272,1,90,8|0,0:0|0:0,0:0:0:0:
378,60,74931,1,8,0:0:0:0:
336,139,75243,1,0,0:0:0:0:
250,109,75556,6,0,P|185:114|147:111,1,90,8|0,0:0|0:0,0:0:0:0:
81,69,76181,1,8,0:0:0:0:
81,69,76493,1,2,0:0:0:0:
81,69,76806,2,0,P|75:128|123:189,1,135,8|0,0:0|0:0,0:0:0:0:
118,186,77431,1,8,0:0:0:0:
50,311,77743,1,8,0:0:0:0:
50,311,78056,6,0,P|115:295|152:290,1,90,8|2,0:0|0:0,0:0:0:0:
310,335,78681,2,0,P|265:331|221:324,1,90,8|2,0:0|0:0,0:0:0:0:
355,267,79306,2,0,P|420:251|457:246,2,90,8|2|8,0:0|0:0|0:0,0:0:0:0:
448,359,80243,1,2,0:0:0:0:
467,177,80556,6,0,P|377:186|289:220,1,180,8|8,0:0|0:0,0:0:0:0:
212,256,81493,1,2,0:0:0:0:
166,333,81806,1,8,0:0:0:0:
84,294,82118,1,2,0:0:0:0:
110,133,82431,2,0,L|128:207,1,67.5,8|0,0:0|1:0,0:0:0:0:
132,220,82743,1,2,0:0:0:0:
45,78,83056,6,0,P|85:60|135:56,1,90,8|2,0:0|0:0,0:0:0:0:
214,142,83681,2,0,P|258:137|299:119,1,90,8|2,0:0|0:0,0:0:0:0:
369,62,84306,1,8,0:0:0:0:
369,62,84618,1,2,0:0:0:0:
364,180,84931,2,0,L|361:289,1,90,8|2,0:0|0:0,0:0:0:0:
457,48,85556,6,0,P|390:56|352:66,1,90,8|2,0:0|0:0,0:0:0:0:
214,142,86181,2,0,P|169:151|125:155,1,90,8|2,0:0|0:0,0:0:0:0:
157,70,86806,1,8,0:0:0:0:
157,70,86962,1,0,1:0:0:0:
184,230,87274,1,8,0:0:0:0:
184,230,87430,1,0,1:0:0:0:
326,187,87743,2,0,P|352:181|386:176,1,45,0|0,1:0|1:0,0:0:0:0:
435,246,88056,6,0,P|379:264|300:276,1,135.000005149842,8|0,0:0|0:0,0:0:0:0:
209,279,88681,1,8,3:0:0:0:
98,125,89306,1,8,0:0:0:0:
98,125,89618,1,8,0:0:0:0:
35,239,89931,1,8,3:0:0:0:
35,239,90556,6,0,L|177:219,1,135.000005149842,8|0,0:0|0:0,0:0:0:0:
256,204,91024,1,8,3:0:0:0:
171,347,91337,1,8,0:0:0:0:
159,334,91415,1,8,0:0:0:0:
147,322,91493,1,8,0:0:0:0:
199,148,91806,6,0,P|300:133|337:215,1,202.500007724762,10|8,0:0|3:0,0:0:0:0:
309,301,92587,1,8,0:0:0:0:
309,301,92743,1,10,0:3:0:0:
369,89,93056,1,8,0:0:0:0:
369,89,93368,2,0,L|267:79,1,101.250003862381,0|8,0:0|3:0,0:0:0:0:
234,75,93681,1,8,3:0:0:0:
47,178,94306,5,10,0:0:0:0:
47,178,94618,2,0,L|125:169,1,67.5000025749208,0|8,0:0|3:0,0:0:0:0:
147,166,94852,1,8,3:0:0:0:
147,166,94931,1,8,3:0:0:0:
108,270,95087,1,8,0:0:0:0:
187,340,95243,2,0,L|262:331,1,67.5000025749208,0|8,1:0|0:0,0:0:0:0:
310,291,95477,1,0,0:0:0:0:
310,291,95556,6,0,P|348:244|422:248,1,135.000005149842,10|8,0:0|0:0,0:0:0:0:
203,83,96181,2,0,P|165:36|91:40,1,135.000005149842,8|8,0:0|0:0,0:0:0:0:
279,178,96806,2,0,B|372:164|424:154|424:154,2,135.000005149842,8|8|8,0:0|0:0|0:0,0:0:0:0:
32,212,97743,1,8,0:0:0:0:
155,241,98056,6,0,L|132:99,1,135.000005149842,8|8,0:0|0:0,0:0:0:0:
357,143,98681,2,0,L|380:285,1,135.000005149842,8|8,0:0|0:0,0:0:0:0:
336,352,99149,1,0,0:0:0:0:
203,299,99306,6,0,L|271:292,1,67.5000025749208,8|8,0:0|0:0,0:0:0:0:
461,266,99618,1,8,0:0:0:0:
417,342,99774,1,8,0:0:0:0:
424,135,99931,2,0,L|329:145,1,67.5000025749208,8|0,0:0|1:0,0:0:0:0:
179,105,100243,2,0,L|246:97,1,67.5000025749208,8|0,0:0|1:0,0:0:0:0:
478,208,100556,5,12,0:0:0:0:
503,124,100712,1,8,0:0:0:0:
454,50,100868,1,0,1:0:0:0:
366,50,101024,1,8,0:0:0:0:
470,215,101181,5,8,0:0:0:0:
462,100,101337,1,8,0:0:0:0:
462,100,101415,1,8,0:0:0:0:
462,100,101493,1,0,1:0:0:0:
358,57,101649,1,8,0:0:0:0:
246,125,101806,6,0,P|245:168|257:197,1,67.5000025749208,8|8,0:0|0:0,0:0:0:0:
395,321,102118,2,0,P|396:278|384:249,1,67.5000025749208,0|8,1:0|0:0,0:0:0:0:
331,153,102431,1,8,0:0:0:0:
249,311,102587,1,8,0:0:0:0:
282,307,102665,1,8,0:0:0:0:
315,303,102743,1,0,1:0:0:0:
194,239,102899,2,0,L|136:244,1,33.7500012874604,0|0,1:0|1:0,1:0:0:0:
116,246,103056,6,0,P|135:175|92:134,1,135.000005149842,14|8,0:0|0:0,0:0:0:0:
15,102,103524,1,0,0:0:0:0:
0,207,103681,2,0,L|77:197,1,67.5000025749208,12|8,0:0|3:0,0:0:0:0:
138,187,103915,1,8,3:0:0:0:
138,187,103993,1,12,0:0:0:0:
64,339,104149,1,4,1:0:0:0:
429,239,104462,5,0,1:0:0:0:
350,283,104618,1,0,1:0:0:0:
261,268,104774,1,0,1:0:0:0:
32,233,104931,1,0,1:0:0:0:
111,189,105087,1,0,1:0:0:0:
200,204,105243,1,0,1:0:0:0:
205,196,105321,1,0,1:0:0:0:
210,188,105399,1,0,1:0:0:0:
215,180,105477,1,0,1:0:0:0:
200,136,105556,6,0,B|315:157|277:122|383:139,2,180,10|0|8,0:0|1:0|0:0,0:0:0:0:
118,97,106337,1,8,0:0:0:0:
329,214,106493,2,0,P|331:267|327:319,1,90,0|0,1:0|0:0,0:0:0:0:
256,68,106806,2,0,P|310:59|356:62,2,90,12|0|0,0:0|0:0|1:0,0:0:0:0:
200,136,107274,1,8,0:0:0:0:
445,191,107431,2,0,P|458:145|445:94,1,90,0|8,0:0|0:0,0:0:0:0:
417,20,107743,1,0,1:0:0:0:
417,20,107899,1,0,0:0:0:0:
277,156,108056,6,0,P|189:125|170:42,2,180,12|0|8,0:0|1:0|0:0,0:0:0:0:
378,142,108837,1,8,0:0:0:0:
247,245,108993,2,0,P|194:235|148:212,1,90,0|2,1:0|0:0,0:0:0:0:
34,103,109306,1,12,0:0:0:0:
13,190,109462,2,0,L|112:169,1,90,0|0,0:0|1:0,0:0:0:0:
247,245,109774,2,0,P|161:220|116:299,1,180,10|8,0:0|0:0,0:0:0:0:
259,350,110243,2,0,P|310:334|338:302,1,90,0|0,1:0|0:0,0:0:0:0:
326,97,110556,5,8,0:0:0:0:
326,97,110712,1,0,0:0:0:0:
247,245,110868,2,0,L|228:151,1,90,0|0,1:0|0:0,0:0:0:0:
294,20,111181,2,0,P|340:18|391:47,1,90,0|8,0:0|0:0,0:0:0:0:
434,107,111493,1,0,1:0:0:0:
425,271,111649,6,0,L|232:242,1,180,10|8,0:0|0:0,0:0:0:0:
51,324,112118,1,0,1:0:0:0:
135,355,112274,2,0,L|232:340,1,90,0|8,0:0|0:0,0:0:0:0:
338,257,112587,1,8,0:0:0:0:
338,257,112743,1,0,1:0:0:0:
322,345,112899,1,0,0:0:0:0:
246,244,113056,6,0,P|256:148|260:60,2,180,12|0|8,0:0|1:0|0:0,0:0:0:0:
223,341,113837,1,8,0:0:0:0:
85,138,113993,2,0,P|132:136|180:143,1,90,0|0,1:0|0:0,0:0:0:0:
322,345,114306,2,0,P|366:350|411:348,1,90,8|0,0:0|0:0,0:0:0:0:
453,331,114540,1,0,0:0:0:0:
453,331,114618,1,0,1:0:0:0:
368,232,114774,1,8,0:0:0:0:
433,169,114931,1,0,0:0:0:0:
407,82,115087,1,8,0:0:0:0:
277,186,115243,1,0,1:0:0:0:
368,232,115399,1,0,0:0:0:0:
289,85,115556,6,0,P|201:107|174:193,1,180,12|0,0:0|1:0,0:0:0:0:
188,272,116024,1,0,0:0:0:0:
176,75,116181,1,8,0:0:0:0:
75,179,116337,1,8,0:0:0:0:
277,186,116493,2,0,P|319:200|360:227,1,90,0|0,1:0|0:0,0:0:0:0:
479,356,116806,5,12,0:0:0:0:
390,368,116962,1,0,0:0:0:0:
501,255,117118,1,0,1:0:0:0:
433,99,117274,2,0,P|339:142|268:192,1,180,8|8,0:0|0:0,0:0:0:0:
211,249,117743,2,0,B|149:243|109:227,1,90,0|0,1:0|0:0,0:0:0:0:
275,186,118056,6,0,P|368:174|468:168,2,180,14|0|8,0:0|1:0|0:0,0:0:0:0:
211,249,118837,1,8,0:0:0:0:
363,346,118993,1,0,1:0:0:0:
363,346,119149,1,0,0:0:0:0:
211,249,119306,6,0,P|121:260|87:295,1,135,10|0,0:0|0:0,0:0:0:0:
61,321,119618,1,0,1:0:0:0:
43,232,119774,2,0,L|24:40,1,180,2|8,0:0|0:0,0:0:0:0:
138,133,120243,2,0,P|186:128|248:120,1,90,0|0,1:0|0:0,0:0:0:0:
371,57,120556,1,12,0:0:0:0:
371,57,120712,1,0,0:0:0:0:
376,195,120868,2,0,P|326:185|273:160,2,90,0|0|8,1:0|0:0|0:0,0:0:0:0:
465,180,121337,1,0,0:0:0:0:
404,113,121493,1,0,1:0:0:0:
402,283,121649,6,0,P|306:272|223:238,1,180,10|8,0:0|0:0,0:0:0:0:
100,117,122118,1,0,1:0:0:0:
105,206,122274,2,0,B|109:250|109:250|102:273|102:273|105:313,2,90,0|8|0,0:0|0:0|0:0,0:0:0:0:
95,37,122743,1,0,1:0:0:0:
19,156,122899,1,0,0:0:0:0:
19,156,123056,6,0,B|59:130|98:116|98:116|149:127|184:149,2,180,10|0|8,0:0|1:0|0:0,0:0:0:0:
63,280,123837,2,0,B|108:294|108:294|154:273,2,90,8|0|0,0:0|1:0|0:0,0:0:0:0:
197,198,124306,2,0,P|226:233|241:278,1,90,12|0,0:0|0:0,0:0:0:0:
281,354,124618,1,0,1:0:0:0:
370,359,124774,1,8,0:0:0:0:
453,323,124931,1,0,0:0:0:0:
494,243,125087,1,8,0:0:0:0:
494,243,125165,1,8,0:0:0:0:
494,243,125243,1,0,1:0:0:0:
156,76,125556,5,4,0:0:0:0:
103,247,125868,1,4,0:0:0:0:
161,61,126181,1,4,0:0:0:0:
315,116,126806,5,4,0:0:0:0:
373,302,127119,1,4,0:0:0:0:
320,131,127431,1,4,0:0:0:0:
255,191,128056,5,4,0:0:0:0:
255,191,128368,1,4,0:0:0:0:
255,191,128681,1,4,0:0:0:0:
255,191,128993,1,4,0:0:0:0:
86,316,129306,5,4,0:0:0:0:
255,376,129618,1,4,0:0:0:0:
426,316,129931,1,4,0:0:0:0:
426,68,130556,5,4,0:0:0:0:
255,8,130869,1,4,0:0:0:0:
86,68,131181,1,4,0:0:0:0:
255,376,131806,5,4,0:0:0:0:
255,191,132118,1,4,0:0:0:0:
254,21,132431,1,4,0:0:0:0:
255,191,133056,5,4,0:0:0:0:
255,191,133368,1,4,0:0:0:0:
255,191,133681,1,4,0:0:0:0:
255,191,133993,1,4,0:0:0:0:
74,190,134306,5,4,0:0:0:0:
255,191,134618,1,4,0:0:0:0:
438,190,134931,1,4,0:0:0:0:
