osu file format v14

[General]
AudioFilename: Jian Ge Xing.mp3
AudioLeadIn: 0
PreviewTime: 10534
Countdown: 0
SampleSet: Soft
StackLeniency: 0.7
Mode: 0
LetterboxInBreaks: 0
WidescreenStoryboard: 0

[Editor]
DistanceSpacing: 1
BeatDivisor: 4
GridSize: 4
TimelineZoom: 1.2

[Metadata]
Title:Jian Ge Xing
TitleUnicode:剑歌行
Artist:Luo Jiyi
ArtistUnicode:骆集益
Creator:XiaofengTiger
Version:Hard
Source:古剑奇谭
Tags:GuJian 百里屠苏 风晴雪 红玉 剑灵 方兰生 风阡陌 尹千觞 欧阳少恭 战斗 battle Kanor
BeatmapID:821411
BeatmapSetID:357112

[Difficulty]
HPDrainRate:5
CircleSize:4
OverallDifficulty:6
ApproachRate:7.5
SliderMultiplier:1.7
SliderTickRate:2

[Events]
//Background and Video events
0,0,"Susu&Weather_Lady.jpg",0,0
//Break Periods
2,71401,77487
//Storyboard Layer 0 (Background)
//Storyboard Layer 1 (Fail)
//Storyboard Layer 2 (Pass)
//Storyboard Layer 3 (Foreground)
//Storyboard Sound Samples

[TimingPoints]
90,444.444444444444,4,2,1,60,1,0
16089,-100,4,2,2,60,0,0
17867,-100,4,2,1,60,0,0
24978,-100,4,3,1,60,0,0
28534,-100,4,2,1,60,0,0
30312,-100,4,3,1,60,0,0
33867,-100,4,2,1,60,0,0
39201,-100,4,3,1,60,0,0
42089,-100,4,2,0,60,0,0
42756,-100,4,2,1,60,0,1
56089,-100,4,2,2,60,0,1
56978,-100,4,2,1,60,0,0
57423,-100,4,3,1,60,0,0
58312,-100,4,3,0,20,0,0
58756,-100,4,3,0,30,0,0
59201,-100,4,3,0,40,0,0
59645,-100,4,3,0,50,0,0
60089,-100,4,3,0,60,0,0
60534,-100,4,2,1,60,0,0
60978,-100,4,3,1,60,0,0
61867,-100,4,3,0,20,0,0
62312,-100,4,3,0,30,0,0
62756,-100,4,3,0,40,0,0
63201,-100,4,3,0,50,0,0
63645,-100,4,3,0,60,0,0
64089,-100,4,2,1,60,0,0
71201,-100,4,2,2,60,0,0
78312,-100,4,2,1,60,0,1
83645,-100,4,2,2,60,0,1
85423,-100,4,2,1,60,0,1
92534,-100,4,2,2,60,0,0

[Colours]
Combo1 : 255,255,193
Combo2 : 255,0,0
Combo3 : 51,157,236
Combo4 : 255,128,0

[HitObjects]
127,128,3645,6,0,P|153:94|194:85,1,85,4|0,0:0|0:0,0:0:0:0:
200,168,4089,1,8,0:0:0:0:
120,204,4312,2,0,P|94:238|53:247,1,85,4|0,0:0|0:0,0:0:0:0:
47,164,4756,1,8,0:0:0:0:
87,91,4978,2,0,L|123:47,3,42.5,8|0|0|0,0:0|0:0|0:0|0:0,0:0:0:0:
144,88,5423,6,0,P|212:96|236:116,1,85,4|0,0:0|0:0,0:0:0:0:
296,152,5867,1,8,0:0:0:0:
369,112,6089,2,0,P|343:78|302:69,1,85,4|0,0:0|0:0,0:0:0:0:
296,152,6533,1,8,0:0:0:0:
256,228,6756,2,0,L|232:280,3,42.5,8|0|0|0,0:0|0:0|0:0|0:0,0:0:0:0:
260,308,7201,5,4,0:0:0:0:
344,308,7423,2,0,P|364:267|364:223,1,85
260,308,7867,1,4,0:0:0:0:
280,224,8089,2,0,P|260:183|226:156,1,85
260,308,8534,2,4,P|224:284|184:271,1,85,4|0,0:0|0:0,0:0:0:0:
136,204,8978,5,4,0:0:0:0:
124,120,9200,2,0,P|156:89|198:77,1,85
230,158,9644,1,4,0:0:0:0:
300,108,9867,1,0,0:0:0:0:
384,96,10089,2,0,P|411:130|419:173,1,85,8|8,0:0|0:0,0:0:0:0:
464,244,10534,1,0,0:0:0:0:
400,300,10756,5,4,0:0:0:0:
228,292,11201,2,0,P|180:312|128:296,1,85,8|4,0:0|0:0,0:0:0:0:
92,244,11645,2,0,P|88:224|92:200,4,28.3333333333333
176,228,12089,1,8,0:0:0:0:
176,228,12312,1,0,0:0:0:0:
176,143,12534,6,0,P|212:122|254:125,1,85,4|0,0:0|0:0,0:0:0:0:
329,168,12978,2,0,P|370:159|400:130,1,85,8|4,0:0|0:0,0:0:0:0:
333,88,13423,1,0,0:0:0:0:
188,168,13867,1,8,0:0:0:0:
188,168,14089,1,0,0:0:0:0:
172,84,14312,6,0,P|124:108|106:142,1,85,4|0,0:0|0:0,0:0:0:0:
27,108,14756,2,0,P|24:148|48:196,1,85,8|4,2:0|2:0,2:0:0:0:
65,270,15201,1,0,0:0:0:0:
228,304,15645,1,8,0:0:0:0:
228,304,15867,1,0,0:0:0:0:
312,312,16089,6,0,L|370:312,3,42.5,4|0|0|0,0:0|0:0|0:0|0:0,0:0:0:0:
352,268,16534,2,0,L|396:268,3,42.5
388,224,16978,2,0,L|432:224,3,42.5
424,180,17423,2,0,L|472:180,3,42.5
480,140,17867,5,4,0:0:0:0:
443,309,18312,6,0,P|391:293|341:294,1,85,8|4,0:0|0:0,0:0:0:0:
280,263,18756,2,0,L|247:303,2,42.5
282,177,19201,2,0,P|300:139|296:97,1,85,8|0,0:0|0:0,0:0:0:0:
212,50,19645,1,4,0:0:0:0:
42,44,20089,1,8,0:0:0:0:
13,124,20312,1,4,0:0:0:0:
66,189,20534,2,0,P|98:214|108:255,1,85
192,270,20978,2,0,B|207:224|249:209,1,85,8|0,0:0|0:0,0:0:0:0:
331,214,21423,6,0,P|372:225|413:213,1,85,4|0,2:2|2:2,2:2:0:0:
371,141,21867,2,0,P|376:100|358:61,1,85,8|4,0:0|0:0,0:0:0:0:
282,113,22312,1,0,0:0:0:0:
126,44,22756,2,0,P|156:72|200:81,1,85,8|0,0:0|0:0,0:0:0:0:
282,113,23201,5,4,0:0:0:0:
116,148,23645,2,0,L|72:240,1,85,8|4,0:0|0:0,0:0:0:0:
48,56,24312,2,0,P|96:36|142:37,1,85,8|4,0:0|0:0,0:0:0:0:
200,79,24756,1,4,0:0:0:0:
211,168,24978,6,4,P|172:178|141:215,1,85
214,250,25423,2,4,P|253:240|284:203,1,85
279,125,25867,2,4,P|264:85|274:44,1,85,8|4,0:0|0:0,0:0:0:0:
346,82,26312,2,4,P|383:67|409:26,1,85,8|4,0:0|0:0,0:0:0:0:
492,38,26756,6,0,L|502:126,1,85,8|4,0:0|0:0,0:0:0:0:
418,140,27201,2,0,L|415:230,1,85,4|4,0:0|0:0,0:0:0:0:
332,205,27645,2,0,L|345:305,1,85,4|4,0:0|0:0,0:0:0:0:
259,275,28089,2,0,L|249:359,1,85,4|4,0:0|0:0,0:0:0:0:
334,364,28534,6,0,P|374:374|413:359,1,85,4|0,0:0|0:0,0:0:0:0:
444,280,28978,1,0,0:0:0:0:
375,229,29201,2,0,P|338:209|297:213,1,85,4|0,0:0|0:0,0:0:0:0:
226,262,29645,1,0,0:0:0:0:
228,347,29867,2,0,P|188:360|148:347,1,85,4|0,0:0|0:0,0:0:0:0:
70,313,30312,6,4,P|39:284|30:243,1,85
110,244,30756,2,8,P|100:204|69:175,1,85,4|4,0:0|0:0,0:0:0:0:
112,100,31201,1,8,0:0:0:0:
72,24,31423,1,4,0:0:0:0:
148,60,31645,1,8,0:0:0:0:
224,24,31867,1,4,0:0:0:0:
184,100,32089,5,8,0:0:0:0:
220,176,32312,1,4,0:0:0:0:
251,254,32534,2,4,P|285:228|302:189,1,85
278,107,32978,2,4,P|320:105|357:125,1,85
439,147,33423,2,4,P|420:184|384:205,1,85
273,227,33867,6,0,P|231:223|194:243,1,85,4|0,0:0|0:0,0:0:0:0:
337,254,34312,1,0,0:0:0:0:
361,319,34534,2,0,P|380:357|416:378,1,85,4|0,0:0|0:0,0:0:0:0:
337,254,34978,1,0,0:0:0:0:
384,201,35201,2,0,P|416:172|432:133,1,85,4|0,0:0|0:0,0:0:0:0:
351,126,35645,6,0,B|327:70|247:58|203:110|203:110|159:90|131:102|127:104,2,255
351,211,37201,1,0,0:0:0:0:
275,162,37423,2,0,B|224:187|216:268|270:309|270:309|253:354|307:365,2,255
359,157,38978,1,0,0:0:0:0:
335,238,39201,5,4,0:0:0:0:
400,289,39423,1,4,0:0:0:0:
470,242,39645,1,4,0:0:0:0:
447,160,39867,1,4,0:0:0:0:
387,0,40312,1,4,0:0:0:0:
335,160,40756,1,4,0:0:0:0:
475,64,41201,1,4,0:0:0:0:
307,64,41645,1,4,0:0:0:0:
447,160,42089,1,4,0:0:0:0:
447,160,42312,1,4,0:0:0:0:
447,160,42534,1,4,0:0:0:0:
264,155,42756,5,4,0:0:0:0:
140,42,43201,2,0,B|156:72|156:100|136:136|136:136|156:160|137:203|150:202,1,170
32,84,44089,1,4,0:0:0:0:
56,164,44312,1,0,0:0:0:0:
12,236,44534,1,0,0:0:0:0:
44,316,44756,1,0,0:0:0:0:
100,251,44978,2,0,B|128:275|132:311|128:335|128:335|144:359|144:359|192:352,1,170
253,193,45867,5,0,0:0:0:0:
316,252,46089,1,0,0:0:0:0:
396,284,46312,2,0,B|414:227|381:182|343:171|343:171|326:144,1,170,4|0,0:0|0:0,0:0:0:0:
250,106,46978,1,4,0:0:0:0:
214,30,47201,2,0,B|159:47|145:131|192:169,1,170
128,224,47867,1,0,0:0:0:0:
60,272,48089,5,0,0:0:0:0:
136,308,48312,1,0,0:0:0:0:
204,258,48534,2,0,B|224:204|200:156|148:132|112:144|112:144|112:115|112:115|40:85|41:41|45:6,1,340
128,28,49645,1,0,0:0:0:0:
202,72,49867,5,4,0:0:0:0:
374,64,50312,2,0,B|290:60|290:60|292:113|260:137,1,170
424,179,51201,2,0,P|460:202|476:240,1,85,4|0,0:0|0:0,0:0:0:0:
393,252,51645,2,0,P|356:231|336:194,1,85
377,120,52089,2,0,B|323:91|251:130|254:190,1,170
127,308,52978,6,0,P|137:267|126:226,1,85
51,269,53423,1,4,0:0:0:0:
216,227,53867,2,0,P|205:268|217:309,1,85,0|4,0:0|0:0,0:0:0:0:
293,267,54312,1,0,0:0:0:0:
116,208,54756,1,0,0:0:0:0:
256,112,55201,1,0,0:0:0:0:
396,208,55645,1,0,0:0:0:0:
256,304,56089,1,4,0:0:0:0:
256,304,56312,1,0,0:0:0:0:
256,304,56534,1,0,0:0:0:0:
148,172,56978,5,4,0:0:0:0:
255,39,57423,2,0,P|263:81|262:124,1,85,4|0,0:0|0:0,0:0:0:0:
242,205,57867,1,4,0:0:0:0:
408,240,58312,6,0,P|419:281|408:322,1,85
333,281,58756,2,0,P|322:240|332:199,1,85
261,153,59201,2,0,P|220:163|179:153,1,85
221,81,59645,2,0,P|261:70|302:80,1,85
373,129,60089,2,0,P|362:88|372:47,1,85
449,89,60534,5,4,0:0:0:0:
392,264,60978,2,0,P|349:261|311:243,1,85,4|0,0:0|0:0,0:0:0:0:
274,166,61423,1,4,0:0:0:0:
124,88,61867,6,0,P|81:89|42:105,1,85
96,171,62312,2,0,P|64:199|44:237,1,85
128,263,62756,2,0,P|121:305|130:347,1,85
207,311,63201,2,0,P|230:347|263:373,1,85
303,299,63645,2,0,P|344:312|386:310,1,85
396,224,64089,6,4,B|395:175|383:140,1,85
464,116,64534,2,0,B|425:115|383:140,1,85,0|4,0:0|0:0,0:0:0:0:
308,100,64978,1,4,0:0:0:0:
308,100,65423,1,4,0:0:0:0:
140,128,65867,5,4,0:0:0:0:
140,212,66089,2,4,P|160:209|183:197,2,42.5
140,128,66534,1,4,0:0:0:0:
224,140,66756,1,4,0:0:0:0:
284,80,66978,2,4,P|265:66|248:59,2,42.5
412,192,67645,5,4,0:0:0:0:
256,264,68089,2,4,B|287:300|333:281,1,85
313,198,68534,1,4,0:0:0:0:
313,198,68978,1,4,0:0:0:0:
256,192,69423,12,4,71201,0:0:0:0:
135,124,78312,6,0,P|166:95|207:86,1,85,4|0,0:0|0:0,0:0:0:0:
279,133,78756,2,0,P|248:163|207:171,1,85,8|4,0:0|0:0,0:0:0:0:
135,124,79201,2,0,P|128:205|192:256,1,170,0|4,0:0|0:0,0:0:0:0:
207,171,79867,1,0,0:0:0:0:
276,219,80089,6,0,P|286:139|222:88,1,170,4|8,0:0|0:0,0:0:0:0:
137,71,80756,1,4,0:0:0:0:
64,114,80978,2,0,P|21:184|57:257,1,170,0|4,0:0|0:0,0:0:0:0:
104,188,81645,1,0,0:0:0:0:
57,256,81867,6,0,P|138:262|185:196,1,170,4|8,0:0|0:0,0:0:0:0:
272,200,82534,1,4,0:0:0:0:
186,195,82756,2,0,P|228:125|308:123,1,170,0|4,0:0|0:0,0:0:0:0:
272,200,83423,1,0,0:0:0:0:
256,284,83645,6,0,L|240:336,3,42.5,4|0|0|0,0:0|0:0|0:0|0:0,0:0:0:0:
208,300,84089,2,0,L|168:337,3,42.5
156,292,84534,2,0,L|102:304,3,42.5
116,260,84978,2,0,L|64:243,3,42.5
64,204,85423,6,0,P|32:176|19:135,1,85,4|0,0:0|0:0,0:0:0:0:
104,129,85867,1,8,0:0:0:0:
174,81,86089,1,4,0:0:0:0:
246,33,86312,2,0,P|255:113|192:165,1,170,0|4,0:0|0:0,0:0:0:0:
166,247,86979,1,0,0:0:0:0:
94,202,87202,6,0,P|90:283|155:331,1,170,4|8,0:0|0:0,0:0:0:0:
241,336,87868,1,4,0:0:0:0:
302,277,88090,2,0,P|382:265|418:191,1,170,0|4,0:0|0:0,0:0:0:0:
330,195,88757,1,0,0:0:0:0:
244,199,88979,2,0,P|278:124|358:111,1,170,4|8,0:0|0:0,0:0:0:0:
418,191,89646,1,4,0:0:0:0:
330,195,89868,2,0,P|295:269|215:281,1,170,0|4,0:0|0:0,0:0:0:0:
244,199,90535,1,0,0:0:0:0:
256,192,90756,12,0,92089,0:0:0:0:
256,112,92534,5,4,0:0:0:0:
