osu file format v14

[General]
AudioFilename: Jian Ge Xing.mp3
AudioLeadIn: 0
PreviewTime: 10534
Countdown: 0
SampleSet: Soft
StackLeniency: 0.7
Mode: 0
LetterboxInBreaks: 0
WidescreenStoryboard: 0

[Editor]
DistanceSpacing: 1
BeatDivisor: 4
GridSize: 4
TimelineZoom: 0.6999997

[Metadata]
Title:Jian Ge Xing
TitleUnicode:剑歌行
Artist:Luo Jiyi
ArtistUnicode:骆集益
Creator:XiaofengTiger
Version:Easy
Source:古剑奇谭
Tags:GuJian 百里屠苏 风晴雪 红玉 剑灵 方兰生 风阡陌 尹千觞 欧阳少恭 战斗 battle Kanor
BeatmapID:785665
BeatmapSetID:357112

[Difficulty]
HPDrainRate:2
CircleSize:3
OverallDifficulty:2
ApproachRate:3
SliderMultiplier:0.999999999999999
SliderTickRate:2

[Events]
//Background and Video events
0,0,"Susu&Weather_Lady.jpg",0,0
//Break Periods
2,39401,41316
2,57177,62649
2,71401,76872
//Storyboard Layer 0 (Background)
//Storyboard Layer 1 (Fail)
//Storyboard Layer 2 (Pass)
//Storyboard Layer 3 (Foreground)
//Storyboard Sound Samples

[TimingPoints]
90,444.444444444444,4,2,1,60,1,0
12089,-100,4,2,3,60,0,0
12312,-100,4,2,1,60,0,0
13867,-100,4,2,3,60,0,0
14089,-100,4,2,1,60,0,0
24978,-100,4,3,1,60,0,0
42756,-100,4,2,1,60,0,1
56089,-100,4,2,2,60,0,1
56978,-100,4,2,1,60,0,0
64089,-100,4,2,1,60,0,0
64312,-100,4,2,4,60,0,0
64534,-100,4,2,1,60,0,0
64756,-100,4,2,4,60,0,0
65201,-100,4,2,1,60,0,0
66089,-100,4,2,4,60,0,0
67201,-100,4,2,1,60,0,0
68089,-100,4,2,4,60,0,0
68756,-100,4,2,1,60,0,0
71201,-100,4,2,2,60,0,0
78312,-100,4,2,1,60,0,1
92534,-100,4,2,2,60,0,0

[Colours]
Combo1 : 255,255,193
Combo2 : 255,0,0
Combo3 : 51,157,236
Combo4 : 255,128,0

[HitObjects]
112,84,3645,6,0,P|160:75|201:46,1,99.9999999999999,4|8,0:0|0:0,0:0:0:0:
288,95,4534,2,0,P|327:66|376:59,1,99.9999999999999,0|8,0:0|0:0,0:0:0:0:
365,158,5423,6,0,P|379:205|368:253,1,99.9999999999999,4|8,0:0|0:0,0:0:0:0:
321,334,6312,2,0,P|272:321|223:328,1,99.9999999999999,0|8,0:0|0:0,0:0:0:0:
159,250,7201,6,0,P|119:180|48:138,2,150,4|4|4,0:0|0:0|0:0,0:0:0:0:
258,250,8978,6,0,P|298:180|369:138,2,150,4|4|4,0:0|0:0|0:0,0:0:0:0:
181,184,10756,5,4,0:0:0:0:
106,250,11201,1,0,0:0:0:0:
181,314,11645,2,0,P|269:350|347:294,1,200,0|4,0:0|0:0,0:0:0:0:
384,201,12978,1,0,0:0:0:0:
364,102,13423,2,4,B|291:108|222:72|163:81,1,200,0|4,0:0|0:0,0:0:0:0:
72,117,14756,5,0,0:0:0:0:
61,216,15201,1,0,0:0:0:0:
125,292,15645,1,0,0:0:0:0:
208,348,16089,2,0,B|368:292|352:376|508:340,1,300,4|0,0:0|0:0,0:0:0:0:
480,244,17867,5,4,0:0:0:0:
444,152,18312,1,0,0:0:0:0:
372,84,18756,2,0,P|323:74|273:75,1,99.9999999999999
232,168,19645,1,4,0:0:0:0:
318,218,20089,1,0,0:0:0:0:
417,205,20534,2,0,P|409:259|379:297,2,99.9999999999999,0|8|4,0:0|0:0|0:0,0:0:0:0:
354,126,21867,5,0,0:0:0:0:
380,29,22312,2,0,P|330:29|285:54,1,99.9999999999999,0|8,0:0|0:0,0:0:0:0:
222,128,23201,1,4,0:0:0:0:
128,100,23645,2,0,P|78:100|33:125,2,99.9999999999999,0|8|0,0:0|0:0|0:0,0:0:0:0:
222,128,24978,6,4,P|225:224|272:264,2,150
312,172,26756,2,4,P|364:133|406:128,1,99.9999999999999
395,229,27645,1,4,0:0:0:0:
305,273,28089,1,4,0:0:0:0:
219,221,28534,6,4,P|158:178|121:113,2,150
310,261,30312,6,4,P|437:261|481:275,2,150
212,283,32089,2,4,P|157:278|100:248,1,99.9999999999999
103,160,32978,1,4,0:0:0:0:
119,61,33423,1,4,0:0:0:0:
218,48,33867,6,4,B|225:107|225:107|237:139|237:139|245:194,2,150
256,192,35645,12,4,39201,0:0:0:0:
88,96,42756,6,4,B|120:202|82:292,1,200,4|0,0:0|0:0,0:0:0:0:
180,316,44089,1,0,0:0:0:0:
276,292,44534,2,4,B|244:186|282:96,1,200,4|0,0:0|0:0,0:0:0:0:
380,76,45867,1,0,0:0:0:0:
356,172,46312,6,4,B|250:204|160:166,1,200,4|0,0:0|0:0,0:0:0:0:
68,180,47645,1,0,0:0:0:0:
132,256,48089,2,4,B|242:264|312:331,1,200,4|0,0:0|0:0,0:0:0:0:
406,368,49423,1,0,0:0:0:0:
478,299,49867,6,0,P|511:210|450:136,1,200,4|0,0:0|0:0,0:0:0:0:
358,94,51201,1,0,0:0:0:0:
259,80,51645,2,4,P|151:112|119:192,1,200,4|0,0:0|0:0,0:0:0:0:
94,283,52978,1,0,0:0:0:0:
188,316,53423,6,0,L|294:329,1,99.9999999999999,4|0,0:0|0:0,0:0:0:0:
384,356,54312,2,0,L|479:327,1,99.9999999999999,4|0,0:0|0:0,0:0:0:0:
484,228,55201,1,4,0:0:0:0:
444,136,55645,1,4,0:0:0:0:
376,64,56089,2,4,B|303:70|234:34|175:43,1,200
38,328,64089,6,0,B|138:328|138:328|206:256|206:256|206:156,1,300,4|4,0:0|0:0,0:0:0:0:
306,156,65867,2,0,B|306:256|306:256|374:328|374:328|474:328,1,300,4|4,0:0|0:0,0:0:0:0:
474,228,67645,6,0,B|474:128|474:128|406:56|406:56|306:56,1,300,4|4,0:0|0:0,0:0:0:0:
206,56,69423,2,0,B|106:56|106:56|38:128|38:128|38:228,1,300,4|0,0:0|0:0,0:0:0:0:
88,316,71201,5,4,0:0:0:0:
435,80,78312,6,4,P|336:90|239:70,1,200
144,40,79645,1,4,0:0:0:0:
60,92,80089,6,4,P|78:190|80:289,1,200
160,352,81423,1,4,0:0:0:0:
192,255,81867,6,4,P|277:210|364:251,1,200
416,336,83201,1,4,0:0:0:0:
472,252,83645,2,0,P|457:189|422:157,1,99.9999999999999
333,166,84534,2,0,P|302:127|294:78,1,99.9999999999999
199,47,85423,6,0,P|103:69|39:144,1,200,4|4,0:0|0:0,0:0:0:0:
81,235,86756,1,4,0:0:0:0:
149,307,87201,6,0,P|243:280|292:196,1,200,4|4,0:0|0:0,0:0:0:0:
246,108,88534,1,4,0:0:0:0:
178,34,88978,6,0,P|81:53|28:136,1,200,4|4,0:0|0:0,0:0:0:0:
62,227,90311,1,4,0:0:0:0:
256,192,90756,12,4,92534,0:0:0:0:
