osu file format v14

[General]
AudioFilename: audio.mp3
AudioLeadIn: 0
PreviewTime: 89451
Countdown: 0
SampleSet: Drum
StackLeniency: 0.7
Mode: 2
LetterboxInBreaks: 0
WidescreenStoryboard: 0

[Editor]
DistanceSpacing: 1.8
BeatDivisor: 4
GridSize: 4
TimelineZoom: 2.7

[Metadata]
Title:Undersky
TitleUnicode:Undersky
Artist:Lundy
ArtistUnicode:Lundy
Creator:4rcheR-
Version:Vivid
Source:
Tags:archer AJamez Jemzuu Verti electronic instrumental fa featured artist mappers' guild mg mpg edm & house artcore drum future bass dnb d'n'b D&B melodic Florida Priority Quests
BeatmapID:4470580
BeatmapSetID:2126685

[Difficulty]
HPDrainRate:5
CircleSize:4.5
OverallDifficulty:9.5
ApproachRate:9.5
SliderMultiplier:2.06
SliderTickRate:2

[Events]
//Background and Video events
0,0,"bg.jpg",0,0
//Break Periods
2,57826,65493
//Storyboard Layer 0 (Background)
//Storyboard Layer 1 (Fail)
//Storyboard Layer 2 (Pass)
//Storyboard Layer 3 (Foreground)
//Storyboard Layer 4 (Overlay)
//Storyboard Sound Samples

[TimingPoints]
160,333.333333333333,4,3,21,40,1,0
1493,-100,4,3,21,50,0,0
12159,-100,4,2,21,60,0,0
14826,-100,4,2,21,70,0,0
17493,-100,4,2,21,60,0,0
18826,-100,4,2,21,65,0,0
21493,-100,4,2,21,60,0,0
22826,-100,4,2,21,50,0,0
24159,-100,4,2,21,55,0,0
25493,-100,4,3,22,60,0,0
25576,-100,4,1,23,60,0,0
26826,-100,4,1,23,65,0,0
28159,-100,4,1,23,60,0,0
29493,-100,4,1,23,65,0,0
30826,-100,4,1,23,60,0,0
32159,-100,4,1,23,65,0,0
33493,-100,4,1,23,60,0,0
34159,-100,4,1,23,65,0,0
34826,-100,4,1,23,70,0,0
35493,-100,4,3,22,75,0,0
36159,-100,4,2,23,50,0,0
41493,-100,4,3,22,55,0,0
46826,-100,4,2,23,60,0,0
52159,-100,4,2,23,65,0,0
54826,-100,4,2,23,70,0,0
56159,-100,4,2,23,75,0,0
57493,-100,4,2,23,40,0,0
66826,-100,4,2,21,50,0,0
68159,-100,4,2,22,60,0,0
68326,-100,4,3,21,60,0,0
76159,-100,4,3,21,65,0,0
77493,-100,4,3,23,70,0,0
78159,-100,4,2,23,75,0,0
78826,-100,4,3,23,80,0,1
89493,-100,4,3,23,85,0,1
98826,-100,4,3,23,80,0,1
99159,-38.4615384615385,4,3,23,80,0,1
99326,-100,4,3,23,80,0,1
100159,-100,4,3,21,75,0,0
102826,-100,4,3,21,70,0,0
104159,-100,4,3,21,65,0,0
105493,-100,4,3,21,60,0,0
106826,-100,4,3,21,55,0,0
108159,-100,4,3,22,50,0,0
108826,-100,4,3,21,40,0,0
109493,-100,4,3,21,30,0,0
110159,-100,4,3,21,20,0,0
110826,-100,4,3,21,10,0,0

[Colours]
Combo1 : 240,205,129
Combo2 : 128,128,128
Combo3 : 3,148,209
Combo4 : 192,192,192
Combo5 : 208,178,186

[HitObjects]
256,256,1159,6,0,L|368:256,1,103,2|2,0:0|0:3,0:0:0:0:
48,272,1493,6,0,L|40:128,1,103,6|2,1:3|0:0,0:0:0:0:
76,168,1701,1,2,0:0:0:0:
108,164,1743,1,2,0:0:0:0:
140,160,1784,1,2,0:0:0:0:
172,156,1826,2,0,L|180:52,1,103,2|2,0:0|0:0,0:0:0:0:
16,60,2159,2,0,L|128:52,2,103,2|2|2,0:2|0:2|0:2,0:0:0:0:
304,68,2659,6,0,P|364:112|288:192,1,206,2|0,1:2|0:0,0:0:0:0:
132,196,3159,2,0,L|248:196,1,103,2|0,0:2|0:0,0:0:0:0:
400,200,3493,2,0,L|400:72,1,103,2|0,0:2|0:0,0:0:0:0:
236,100,3826,2,0,L|120:100,1,103,2|0,0:2|1:0,0:0:0:0:
420,104,4159,6,0,L|420:0,1,103,2|0,0:2|0:0,0:0:0:0:
240,16,4409,2,0,L|136:16,1,103,2|0,0:2|0:0,0:0:0:0:
320,20,4659,2,0,P|392:88|312:128,1,206,2|0,0:2|0:0,0:0:0:0:
192,148,5159,1,2,0:0:0:0:
328,144,5326,1,2,0:3:0:0:
40,144,5493,5,2,1:2:0:0:
172,136,5659,1,2,0:2:0:0:
432,136,5826,2,0,L|432:264,1,103,2|0,0:2|0:0,0:0:0:0:
328,244,6076,2,0,L|328:136,1,103,2|0,0:0|0:0,0:0:0:0:
432,136,6326,2,0,L|432:80,1,51.5,2|0,0:3|0:0,0:0:0:0:
252,80,6493,2,0,L|124:80,1,103,2|2,0:2|0:2,0:0:0:0:
460,92,6826,6,0,P|464:184|348:220,1,206,2|0,1:3|0:0,0:0:0:0:
208,224,7326,2,0,L|200:12,1,206,2|2,0:2|0:2,0:0:0:0:
332,32,7826,1,2,0:2:0:0:
264,32,7909,1,2,0:2:0:0:
196,32,7993,1,2,0:2:0:0:
128,32,8076,1,2,0:2:0:0:
324,32,8159,6,0,L|452:32,1,103,2|0,1:3|0:0,0:0:0:0:
324,32,8409,2,0,L|324:144,1,103,2|0,0:3|0:0,0:0:0:0:
428,136,8659,2,0,L|428:200,1,51.5,2|0,0:2|0:0,0:0:0:0:
248,192,8826,2,0,L|116:192,1,103,2|2,1:3|0:2,0:0:0:0:
312,196,9159,2,0,L|312:72,1,103,2|2,0:3|0:3,0:0:0:0:
20,96,9493,6,0,P|17:168|132:216,1,206,2|0,1:3|0:0,0:0:0:0:
332,224,10159,2,0,L|336:104,1,103,2|0,0:0|0:0,0:0:0:0:
168,120,10493,2,0,L|52:108,1,103,2|0,0:0|0:0,0:0:0:0:
356,100,10826,6,0,P|464:156|348:248,1,309,2|2,1:2|0:2,0:0:0:0:
196,248,11493,1,2,0:2:0:0:
128,248,11576,1,2,0:2:0:0:
196,248,11659,1,2,0:2:0:0:
264,248,11743,1,2,0:2:0:0:
444,248,11826,1,2,0:2:0:0:
376,244,11909,1,2,0:2:0:0:
444,248,11993,1,2,0:2:0:0:
376,244,12076,1,2,0:2:0:0:
172,244,12159,6,0,L|168:104,1,103,6|2,1:3|0:3,0:0:0:0:
204,144,12368,1,2,0:3:0:0:
236,144,12409,1,2,0:3:0:0:
268,144,12451,1,2,0:3:0:0:
396,144,12493,2,0,L|400:24,1,103,2|2,0:3|0:3,0:0:0:0:
236,40,12826,2,0,L|232:152,1,103,2|0,0:0|0:0,0:0:0:0:
492,152,13159,2,0,L|376:152,1,103,2|2,0:0|0:0,0:0:0:0:
100,144,13493,6,0,L|96:256,1,103,2|2,0:0|0:0,0:0:0:0:
128,244,13701,1,2,0:0:0:0:
160,244,13743,1,2,0:0:0:0:
192,244,13784,1,2,0:0:0:0:
224,244,13826,1,2,0:2:0:0:
484,244,13993,1,2,0:0:0:0:
228,216,14159,1,2,0:0:0:0:
360,208,14326,1,2,0:3:0:0:
228,192,14493,2,0,L|116:184,1,103,2|2,0:0|0:3,0:0:0:0:
436,196,14826,6,0,L|440:84,1,103,6|0,1:0|0:0,0:0:0:0:
260,76,15076,2,0,L|256:192,1,103,6|0,1:0|0:0,0:0:0:0:
76,184,15326,2,0,L|72:68,1,103,6|0,1:0|0:0,0:0:0:0:
256,76,15576,2,0,L|256:200,1,103,6|0,1:0|0:0,0:0:0:0:
436,208,15826,2,0,P|480:168|416:100,1,154.5,6|0,1:0|0:0,0:0:0:0:
232,84,16159,6,0,L|108:84,1,103,6|0,1:0|0:0,0:0:0:0:
312,84,16409,2,0,L|420:84,1,103,6|0,1:0|0:0,0:0:0:0:
232,88,16659,2,0,L|232:204,1,103,6|0,1:0|0:0,0:0:0:0:
412,196,16909,2,0,L|416:316,1,103,6|0,1:0|0:0,0:0:0:0:
232,296,17159,1,6,1:0:0:0:
96,292,17326,1,0,1:0:0:0:
404,288,17493,6,0,P|452:248|388:192,1,154.5,4|0,1:3|0:0,0:0:0:0:
336,184,17826,1,10,0:1:0:0:
404,180,17909,1,2,0:1:0:0:
472,176,17993,1,2,0:1:0:0:
216,160,18159,1,10,0:1:0:0:
352,156,18326,1,0,0:0:0:0:
284,152,18409,1,2,0:1:0:0:
216,160,18493,1,10,0:1:0:0:
472,144,18659,1,2,0:1:0:0:
184,132,18826,5,8,0:1:0:0:
52,120,18993,1,8,0:1:0:0:
184,120,19159,1,10,0:1:0:0:
52,104,19326,1,10,0:1:0:0:
308,96,19493,1,10,0:2:0:0:
240,92,19576,1,2,0:3:0:0:
172,88,19659,1,2,0:3:0:0:
104,84,19743,1,2,0:3:0:0:
284,84,19826,1,2,1:0:0:0:
352,80,19909,1,2,0:3:0:0:
420,76,19993,1,2,0:3:0:0:
488,72,20076,1,2,0:3:0:0:
296,48,20159,5,12,1:2:0:0:
160,44,20326,1,8,0:1:0:0:
228,44,20409,1,0,0:0:0:0:
296,40,20493,1,10,0:1:0:0:
164,32,20659,1,10,0:1:0:0:
432,36,20826,1,10,0:1:0:0:
296,40,20993,1,8,0:1:0:0:
364,40,21076,1,2,0:1:0:0:
432,36,21159,1,10,0:1:0:0:
176,32,21326,1,10,0:1:0:0:
464,40,21493,5,2,1:3:0:0:
332,32,21659,1,2,0:1:0:0:
400,32,21743,1,2,0:1:0:0:
468,32,21826,1,2,0:1:0:0:
400,32,21909,1,0,0:0:0:0:
332,32,21993,1,2,0:1:0:0:
76,36,22159,2,0,P|40:84|100:236,1,206,10|0,0:1|1:0,0:0:0:0:
484,204,22826,6,0,L|492:136,3,51.5,6|2|2|2,1:3|0:3|0:3|0:3,0:0:0:0:
388,152,23159,2,0,L|376:88,3,51.5,2|2|2|2,0:3|0:3|0:3|0:3,0:0:0:0:
196,112,23493,2,0,L|204:44,3,51.5,2|2|2|2,1:3|1:3|1:3|1:3,0:0:0:0:
20,76,23826,2,0,L|8:8,3,51.5,2|2|2|2,1:3|1:3|1:3|1:3,0:0:0:0:
208,20,24159,5,2,1:2:0:0:
258,20,24242,1,2,1:2:0:0:
302,46,24325,1,2,1:2:0:0:
326,91,24408,1,2,1:2:0:0:
128,100,24493,1,2,1:2:0:0:
60,100,24576,1,2,1:2:0:0:
128,100,24659,1,2,1:2:0:0:
60,100,24743,1,2,1:2:0:0:
240,96,24826,2,0,L|324:96,1,51.5,2|2,0:2|0:2,0:0:0:0:
108,100,24993,2,0,L|108:168,1,51.5,2|2,0:2|0:2,0:0:0:0:
288,164,25159,2,0,L|352:164,1,51.5,2|2,0:2|0:2,0:0:0:0:
156,168,25326,2,0,L|156:236,1,51.5,2|2,0:2|0:2,0:0:0:0:
364,220,25493,6,0,L|436:220,1,51.5,6|0,1:2|0:0,0:0:0:0:
324,216,25659,2,0,L|260:216,2,51.5,2|0|8,0:0|0:0|0:0,0:0:0:0:
416,220,25909,2,0,L|416:148,1,51.5,2|0,0:0|0:0,0:0:0:0:
364,156,26076,1,0,0:0:0:0:
184,156,26159,6,0,L|104:156,2,51.5,2|0|0,0:0|0:0|1:0,0:0:0:0:
364,156,26409,2,0,L|432:156,2,51.5,2|8|0,0:0|0:0|0:0,0:0:0:0:
184,152,26659,1,2,0:0:0:0:
152,152,26701,1,0,0:0:0:0:
120,152,26743,1,0,0:0:0:0:
88,152,26784,1,0,0:0:0:0:
216,152,26826,5,2,1:2:0:0:
284,152,26909,1,0,0:0:0:0:
464,148,26993,1,8,0:0:0:0:
396,148,27076,1,0,0:0:0:0:
216,128,27159,2,0,L|216:72,1,51.5,2|0,0:0|0:0,0:0:0:0:
396,84,27326,2,0,L|396:28,1,51.5,10|2,0:0|0:0,0:0:0:0:
240,36,27493,1,2,0:0:0:0:
88,36,27576,1,2,0:0:0:0:
240,36,27659,1,2,1:0:0:0:
396,36,27743,1,0,0:0:0:0:
244,36,27826,2,0,L|184:36,1,51.5,10|2,0:0|0:0,0:0:0:0:
376,32,27993,2,0,L|436:32,1,51.5,2|2,0:0|0:0,0:0:0:0:
224,44,28159,6,0,L|224:104,1,51.5,2|0,0:0|0:0,0:0:0:0:
300,92,28326,2,0,L|300:144,1,51.5,2|0,0:0|0:0,0:0:0:0:
120,148,28493,1,10,0:0:0:0:
52,144,28576,1,2,0:0:0:0:
120,148,28659,1,2,0:0:0:0:
52,144,28743,1,0,0:0:0:0:
232,156,28826,6,0,L|292:156,2,51.5,2|0|0,0:0|0:0|1:0,0:0:0:0:
52,152,29076,2,0,L|68:80,1,51.5,2|8,0:0|0:0,0:0:0:0:
116,100,29243,1,0,0:0:0:0:
296,100,29326,1,2,0:0:0:0:
328,100,29368,1,0,0:0:0:0:
360,100,29409,1,0,0:0:0:0:
392,100,29451,1,0,0:0:0:0:
264,100,29493,5,2,1:2:0:0:
196,96,29576,1,0,0:0:0:0:
16,88,29659,1,8,0:0:0:0:
84,84,29743,1,0,0:0:0:0:
264,76,29826,2,0,L|264:12,1,51.5,10|0,0:0|0:0,0:0:0:0:
84,28,29993,2,0,L|84:96,1,51.5,2|2,0:0|0:0,0:0:0:0:
264,96,30159,2,0,L|332:96,1,51.5,2|0,0:0|0:0,0:0:0:0:
132,92,30326,2,0,L|132:152,1,51.5,2|0,1:3|0:0,0:0:0:0:
312,156,30493,2,0,L|248:156,1,51.5,10|0,0:0|0:0,0:0:0:0:
440,156,30659,2,0,L|372:156,1,51.5,2|0,0:0|0:0,0:0:0:0:
180,148,30826,6,0,L|120:148,1,51.5,2|0,0:0|0:0,0:0:0:0:
220,148,30993,2,0,L|276:148,2,51.5,2|0|8,0:0|0:0|0:0,0:0:0:0:
128,144,31243,2,0,L|128:76,1,51.5,2|0,0:0|0:0,0:0:0:0:
180,88,31409,1,0,0:0:0:0:
360,80,31493,6,0,L|428:80,2,51.5,2|0|0,0:0|0:0|1:0,0:0:0:0:
180,76,31743,2,0,L|124:76,2,51.5,2|8|0,0:0|0:0|0:0,0:0:0:0:
360,80,31993,1,2,0:0:0:0:
392,64,32034,1,0,0:0:0:0:
391,38,32076,1,0,0:0:0:0:
357,21,32118,1,0,0:0:0:0:
232,24,32159,5,2,1:2:0:0:
164,24,32243,1,0,0:0:0:0:
344,24,32326,1,8,0:0:0:0:
412,24,32409,1,0,0:0:0:0:
232,28,32493,2,0,L|232:96,1,51.5,10|0,0:0|1:0,0:0:0:0:
52,84,32659,2,0,L|52:152,1,51.5,2|0,0:0|1:0,0:0:0:0:
208,128,32826,1,2,0:0:0:0:
360,128,32909,1,2,0:0:0:0:
204,128,32993,1,2,1:3:0:0:
52,128,33076,1,2,0:0:0:0:
204,128,33159,2,0,L|280:128,1,51.5,2|2,1:3|1:3,0:0:0:0:
72,120,33326,2,0,L|136:120,1,51.5,2|2,1:3|1:3,0:0:0:0:
332,124,33493,5,10,0:3:0:0:
464,124,33659,1,2,0:0:0:0:
332,124,33826,1,2,0:0:0:0:
400,124,33909,1,2,0:0:0:0:
220,120,33993,1,10,0:3:0:0:
88,116,34159,1,2,0:0:0:0:
224,120,34326,1,2,0:0:0:0:
292,120,34409,1,0,0:0:0:0:
112,116,34493,1,10,0:3:0:0:
368,108,34659,1,2,0:0:0:0:
400,96,34700,1,0,0:0:0:0:
400,71,34742,1,0,0:0:0:0:
368,56,34783,1,0,0:0:0:0:
236,52,34826,5,2,1:2:0:0:
168,52,34909,1,0,0:0:0:0:
352,52,34993,1,8,0:0:0:0:
420,52,35076,1,0,0:0:0:0:
240,60,35159,2,0,L|240:112,1,51.5,2|0,1:3|1:0,0:0:0:0:
420,120,35326,2,0,L|420:184,1,51.5,2|0,1:3|1:0,0:0:0:0:
264,184,35493,5,2,1:3:0:0:
112,184,35576,1,2,1:3:0:0:
264,184,35659,1,2,1:3:0:0:
420,188,35743,1,2,1:3:0:0:
268,184,35826,1,0,1:0:0:0:
236,184,35868,1,0,1:0:0:0:
108,184,35909,1,0,1:0:0:0:
140,184,35951,1,0,1:0:0:0:
268,184,35993,1,0,1:0:0:0:
300,184,36035,1,0,1:0:0:0:
428,188,36076,1,0,1:0:0:0:
396,188,36118,1,0,1:0:0:0:
268,184,36159,5,6,1:2:0:0:
200,180,36271,2,0,L|200:100,1,68.6666666666667
324,104,36493,2,0,P|368:64|312:28,1,137.333333333333,10|0,0:0|0:0,0:0:0:0:
196,84,36826,2,0,L|144:36,2,68.6666666666667,2|0|0,0:0|0:0|0:0,0:0:0:0:
320,84,37159,2,0,L|388:56,2,68.6666666666667,10|0|0,0:0|0:0|0:0,0:0:0:0:
132,84,37493,6,0,L|56:80,2,68.6666666666667,2|0|0,1:2|0:0|0:0,0:0:0:0:
316,80,37826,1,10,0:0:0:0:
228,76,37937,1,0,0:0:0:0:
140,72,38048,1,0,0:0:0:0:
324,64,38159,2,0,L|412:60,2,68.6666666666667,2|0|0,0:0|0:0|0:0,0:0:0:0:
136,52,38493,2,0,L|84:104,2,68.6666666666667,10|0|0,0:0|0:0|0:0,0:0:0:0:
328,48,38826,6,0,L|352:128,2,68.6666666666667,2|0|0,1:2|0:0|0:0,0:0:0:0:
204,48,39159,2,0,L|148:104,2,68.6666666666667,10|0|0,0:0|0:0|0:0,0:0:0:0:
392,40,39493,2,0,L|472:40,2,68.6666666666667,2|0|0,0:0|0:0|0:0,0:0:0:0:
208,44,39826,1,10,0:0:0:0:
296,40,39937,1,0,0:0:0:0:
384,40,40048,1,0,0:0:0:0:
200,40,40159,5,2,1:2:0:0:
384,40,40271,1,0,0:0:0:0:
200,40,40382,1,0,0:0:0:0:
384,40,40493,1,10,0:0:0:0:
472,40,40604,1,0,0:0:0:0:
384,40,40715,1,0,0:0:0:0:
200,40,40826,2,0,L|128:40,2,68.6666666666667,2|0|0,0:0|0:0|0:0,0:0:0:0:
384,40,41159,2,0,L|384:128,1,68.6666666666667,10|0,1:2|0:0,0:0:0:0:
316,108,41382,1,0,0:0:0:0:
124,120,41493,6,0,L|56:120,2,68.6666666666667,6|0|0,1:3|0:0|0:0,0:0:0:0:
308,124,41826,1,2,0:1:0:0:
240,124,41937,1,0,0:0:0:0:
172,124,42048,1,0,0:0:0:0:
356,124,42159,2,0,L|424:124,2,68.6666666666667,10|0|0,0:2|0:0|0:0,0:0:0:0:
172,124,42493,1,2,0:1:0:0:
240,124,42604,1,0,0:0:0:0:
308,124,42715,1,0,0:0:0:0:
124,124,42826,6,0,L|48:124,2,68.6666666666667,2|0|0,1:3|0:0|0:0,0:0:0:0:
308,124,43159,1,2,0:1:0:0:
220,124,43271,1,0,0:0:0:0:
132,124,43382,1,0,0:0:0:0:
316,116,43493,2,0,L|392:112,2,68.6666666666667,10|0|0,0:2|0:0|0:0,0:0:0:0:
132,116,43826,2,0,L|132:44,1,68.6666666666667,2|0,0:1|0:0,0:0:0:0:
204,44,44048,1,0,0:0:0:0:
396,44,44159,6,0,L|464:40,2,68.6666666666667,2|0|0,1:3|0:0|0:0,0:0:0:0:
212,44,44493,2,0,L|212:112,1,68.6666666666667,2|0,0:1|0:0,0:0:0:0:
280,108,44715,1,0,0:0:0:0:
96,108,44826,2,0,L|28:108,2,68.6666666666667,10|0|0,0:2|0:0|0:0,0:0:0:0:
280,108,45159,1,2,0:1:0:0:
368,108,45271,1,0,0:0:0:0:
456,108,45382,1,0,0:0:0:0:
272,100,45493,5,2,1:3:0:0:
88,100,45604,1,0,0:0:0:0:
272,100,45715,1,0,0:0:0:0:
88,100,45826,2,0,L|76:28,1,68.6666666666667,2|0,0:1|0:0,0:0:0:0:
144,32,46048,1,0,0:0:0:0:
328,20,46159,2,0,L|244:20,2,68.6666666666667,10|0|0,0:2|0:0|0:0,0:0:0:0:
140,28,46493,2,0,L|136:104,1,68.6666666666667,2|0,0:0|0:0,0:0:0:0:
204,100,46715,1,0,0:0:0:0:
396,100,46826,6,0,L|416:176,2,68.6666666666667,14|0|0,1:0|0:0|0:0,0:0:0:0:
212,112,47159,2,0,L|168:180,2,68.6666666666667,10|0|0,1:0|0:0|0:0,0:0:0:0:
400,104,47493,2,0,L|488:128,2,68.6666666666667,10|0|0,1:0|0:0|0:0,0:0:0:0:
216,96,47826,2,0,L|136:92,2,68.6666666666667,10|0|0,1:0|0:0|0:0,0:0:0:0:
400,92,48159,5,10,1:0:0:0:
312,88,48271,1,0,0:0:0:0:
224,80,48382,1,0,0:0:0:0:
408,80,48493,1,10,1:0:0:0:
320,72,48604,1,0,0:0:0:0:
408,64,48715,1,0,0:0:0:0:
224,68,48826,1,10,1:0:0:0:
136,76,48937,1,0,0:0:0:0:
224,84,49048,1,0,0:0:0:0:
408,68,49159,2,0,L|484:68,2,68.6666666666667,10|0|0,1:0|0:0|0:0,0:0:0:0:
216,56,49493,6,0,L|140:52,2,68.6666666666667,10|0|0,1:0|0:0|0:0,0:0:0:0:
400,52,49826,1,10,1:0:0:0:
488,52,49937,1,0,0:0:0:0:
400,52,50048,1,0,0:0:0:0:
216,48,50159,1,10,1:0:0:0:
128,48,50271,1,0,0:0:0:0:
40,48,50382,1,0,0:0:0:0:
224,48,50493,1,10,1:0:0:0:
312,48,50604,1,0,0:0:0:0:
224,48,50715,1,0,0:0:0:0:
32,48,50826,5,10,1:0:0:0:
204,48,50937,1,0,0:0:0:0:
376,48,51048,1,0,0:0:0:0:
192,48,51159,1,10,1:0:0:0:
280,48,51271,1,0,0:0:0:0:
368,48,51382,1,0,0:0:0:0:
184,48,51493,1,10,1:0:0:0:
96,44,51604,1,0,0:0:0:0:
184,44,51715,1,0,0:0:0:0:
368,84,51826,2,0,L|392:84,1,17.1666666666667,10|0,1:0|0:0,0:0:0:0:
196,80,51937,2,0,L|176:80,1,17.1666666666667,2|0,0:0|0:0,0:0:0:0:
368,84,52048,2,0,L|392:84,1,17.1666666666667,2|0,0:0|0:0,0:0:0:0:
196,80,52159,6,0,L|112:80,1,68.6666666666667,14|0,1:0|0:0,0:0:0:0:
252,80,52382,2,0,L|336:80,1,68.6666666666667,10|0,1:0|0:0,0:0:0:0:
196,80,52604,2,0,L|112:80,1,68.6666666666667,10|0,1:0|0:0,0:0:0:0:
312,80,52826,2,0,L|312:156,1,68.6666666666667,10|0,1:0|0:0,0:0:0:0:
128,160,53048,2,0,L|128:240,1,68.6666666666667,10|0,1:0|0:0,0:0:0:0:
300,232,53271,1,10,1:0:0:0:
128,220,53382,1,0,0:0:0:0:
320,236,53493,6,0,L|392:236,1,68.6666666666667,10|0,1:0|0:0,0:0:0:0:
204,236,53715,2,0,L|112:236,1,68.6666666666667,10|0,1:0|0:0,0:0:0:0:
320,232,53937,2,0,L|400:232,1,68.6666666666667,10|0,1:0|0:0,0:0:0:0:
204,232,54159,2,0,L|200:144,1,68.6666666666667,10|0,1:0|0:0,0:0:0:0:
388,156,54382,2,0,L|396:72,1,68.6666666666667,10|0,1:0|0:0,0:0:0:0:
208,88,54604,2,0,L|320:76,1,68.6666666666667,10|0,1:0|0:0,0:0:0:0:
84,80,54826,6,0,L|60:80,1,17.1666666666667,14|0,1:0|0:0,0:0:0:0:
256,76,54937,2,0,L|276:76,1,17.1666666666667,10|0,1:0|0:0,0:0:0:0:
84,80,55048,2,0,L|60:80,1,17.1666666666667,10|0,1:0|0:0,0:0:0:0:
256,76,55159,2,0,L|280:76,1,17.1666666666667,10|0,1:0|0:0,0:0:0:0:
460,76,55270,2,0,L|480:76,1,17.1666666666667,10|0,1:0|0:0,0:0:0:0:
290,76,55381,2,0,L|266:76,1,17.1666666666667,10|0,1:0|0:0,0:0:0:0:
84,80,55493,6,0,L|56:80,1,17.1666666666667,10|0,1:0|0:0,0:0:0:0:
144,80,55604,2,0,L|168:80,1,17.1666666666667,8|0,1:0|0:0,0:0:0:0:
84,80,55715,2,0,L|52:80,1,17.1666666666667,8|0,1:0|0:0,0:0:0:0:
252,76,55826,2,0,L|280:76,1,17.1666666666667,10|0,1:0|0:0,0:0:0:0:
348,76,55937,2,0,L|316:76,1,17.1666666666667,10|0,1:0|0:0,0:0:0:0:
252,76,56048,2,0,L|280:76,1,17.1666666666667,10|0,1:0|0:0,0:0:0:0:
468,24,56159,6,0,L|500:24,1,17.1666666666667,14|0,1:0|0:0,0:0:0:0:
416,24,56271,2,0,L|396:24,1,17.1666666666667,10|0,1:0|0:0,0:0:0:0:
464,28,56382,2,0,L|492:28,1,17.1666666666667,10|0,1:0|0:0,0:0:0:0:
296,28,56493,2,0,L|280:28,1,12.875,10|0,1:0|0:0,0:0:0:0:
80,28,56604,2,0,L|52:28,1,17.1666666666667,10|0,1:0|0:0,0:0:0:0:
248,28,56715,2,0,L|276:28,1,17.1666666666667,10|0,1:0|0:0,0:0:0:0:
80,36,56826,6,0,L|80:80,1,34.3333333333333,10|0,1:0|1:0,0:0:0:0:
220,76,56937,1,10,1:0:0:0:
264,76,56993,1,0,1:0:0:0:
400,76,57048,2,0,L|400:120,1,34.3333333333333,10|0,1:0|1:0,0:0:0:0:
260,112,57159,1,10,1:0:0:0:
216,112,57215,1,0,1:0:0:0:
372,112,57271,1,10,1:0:0:0:
416,112,57327,1,0,1:0:0:0:
244,108,57382,1,10,1:0:0:0:
200,108,57438,1,0,1:0:0:0:
388,112,57493,5,4,1:0:0:0:
256,192,66826,12,0,67993,0:0:0:0:
48,248,68159,6,0,L|40:128,1,103,14|2,1:2|0:0,0:0:0:0:
76,140,68368,1,2,0:0:0:0:
108,136,68409,1,2,0:0:0:0:
140,132,68451,1,2,0:0:0:0:
172,132,68493,1,2,0:0:0:0:
40,112,68659,1,2,0:1:0:0:
172,96,68826,2,0,L|176:40,1,51.5,2|0,0:0|0:0,0:0:0:0:
84,44,68993,2,0,L|80:100,1,51.5,2|0,0:0|0:0,0:0:0:0:
260,100,69159,2,0,L|332:100,1,51.5,8|0,0:0|0:0,0:0:0:0:
128,100,69326,2,0,L|64:100,1,51.5,2|0,0:1|0:0,0:0:0:0:
272,100,69493,6,0,L|376:100,1,103,2|2,1:0|0:0,0:0:0:0:
408,100,69701,1,2,0:0:0:0:
440,100,69743,1,2,0:0:0:0:
408,100,69784,1,2,0:0:0:0:
375,100,69826,1,2,0:0:0:0:
240,96,69993,1,2,0:1:0:0:
108,96,70159,2,0,L|104:160,1,51.5,2|0,0:0|0:0,0:0:0:0:
196,160,70326,2,0,L|268:164,1,51.5,2|0,0:1|0:0,0:0:0:0:
428,160,70493,2,0,L|428:220,1,51.5,8|0,0:0|0:0,0:0:0:0:
248,228,70659,2,0,L|248:288,1,51.5,2|0,0:1|0:0,0:0:0:0:
456,288,70826,5,2,1:0:0:0:
486,248,70909,1,0,0:0:0:0:
478,198,70992,1,0,0:0:0:0:
438,169,71075,1,0,0:0:0:0:
256,152,71159,2,0,L|196:144,1,51.5,8|0,0:0|0:0,0:0:0:0:
388,152,71326,1,2,0:1:0:0:
428,122,71409,1,0,0:0:0:0:
440,73,71492,1,0,0:0:0:0:
418,28,71575,1,0,0:0:0:0:
371,9,71659,1,0,0:0:0:0:
320,8,71742,1,0,0:0:0:0:
140,20,71826,2,0,L|136:76,1,51.5,8|0,0:0|0:0,0:0:0:0:
316,84,71993,2,0,L|376:84,1,51.5,2|0,0:1|0:0,0:0:0:0:
172,88,72159,5,2,1:0:0:0:
124,96,72242,1,0,0:0:0:0:
120,144,72325,1,0,0:0:0:0:
165,160,72408,1,0,0:0:0:0:
348,172,72493,2,0,L|348:240,1,51.5,8|0,0:0|0:0,0:0:0:0:
168,224,72659,1,2,0:1:0:0:
116,224,72743,1,0,0:0:0:0:
168,224,72826,1,0,0:0:0:0:
220,224,72909,1,0,0:0:0:0:
168,224,72993,1,0,0:0:0:0:
116,224,73076,1,0,0:0:0:0:
296,216,73159,2,0,L|368:216,1,51.5,8|0,0:0|0:0,0:0:0:0:
164,208,73326,2,0,L|104:208,1,51.5,2|0,0:1|0:0,0:0:0:0:
320,196,73493,6,0,L|384:196,3,51.5,2|0|0|0,1:0|0:0|0:0|0:0,0:0:0:0:
192,176,73826,2,0,L|188:116,1,51.5,8|0,0:0|0:0,0:0:0:0:
368,108,73993,1,2,0:1:0:0:
418,109,74076,1,0,0:0:0:0:
454,145,74159,1,0,0:0:0:0:
456,195,74242,1,0,0:0:0:0:
424,234,74326,1,0,0:0:0:0:
374,241,74409,1,0,0:0:0:0:
192,248,74493,2,0,L|128:248,1,51.5,8|0,0:0|0:0,0:0:0:0:
320,248,74659,2,0,L|320:180,1,51.5,2|0,0:1|0:0,0:0:0:0:
124,188,74826,5,2,1:0:0:0:
72,188,74909,1,0,0:0:0:0:
32,157,74992,1,0,0:0:0:0:
22,107,75075,1,0,0:0:0:0:
204,100,75159,2,0,L|264:100,1,51.5,8|0,0:0|0:0,0:0:0:0:
72,100,75326,2,0,L|68:40,1,51.5,2|0,0:1|0:0,0:0:0:0:
252,48,75493,1,2,0:3:0:0:
320,48,75576,1,2,0:3:0:0:
388,48,75659,1,2,0:3:0:0:
456,48,75743,1,2,0:3:0:0:
276,48,75826,1,10,0:3:0:0:
344,48,75909,1,2,0:3:0:0:
412,48,75993,1,2,0:3:0:0:
480,48,76076,1,2,0:3:0:0:
276,52,76159,5,2,1:0:0:0:
229,65,76242,1,0,0:0:0:0:
226,113,76325,1,0,0:0:0:0:
270,133,76408,1,0,0:0:0:0:
452,140,76493,2,0,L|452:200,1,51.5,8|0,0:0|0:0,0:0:0:0:
272,196,76659,1,2,0:1:0:0:
221,188,76742,1,0,0:0:0:0:
171,201,76825,1,0,0:0:0:0:
130,231,76908,1,0,0:0:0:0:
103,274,76992,1,0,0:0:0:0:
94,324,77075,1,0,0:0:0:0:
276,328,77159,2,0,L|392:328,1,103,8|0,0:0|0:0,0:0:0:0:
88,324,77493,5,2,1:0:0:0:
256,192,77659,12,2,78493,1:0:0:0:
440,192,78826,5,6,1:3:0:0:
440,192,78993,2,0,L|368:192,1,51.5,0|0,0:0|0:0,0:0:0:0:
204,200,79159,2,0,L|204:136,1,51.5,8|0,0:0|0:0,0:0:0:0:
280,144,79326,2,0,L|280:84,1,51.5,0|0,1:0|0:0,0:0:0:0:
204,88,79493,1,0,0:0:0:0:
472,80,79659,2,0,L|400:80,1,51.5,8|0,0:0|0:0,0:0:0:0:
232,88,79826,2,0,L|232:144,1,51.5,2|0,0:0|0:0,0:0:0:0:
44,136,79993,2,0,L|40:192,1,51.5,2|0,0:0|0:0,0:0:0:0:
244,192,80159,5,0,1:0:0:0:
380,192,80326,2,0,L|416:192,2,25.75,0|0|0,0:0|0:0|0:0,0:0:0:0:
192,188,80493,2,0,L|204:124,1,51.5,8|0,0:0|0:0,0:0:0:0:
280,132,80659,2,0,L|292:76,1,51.5,0|0,1:0|0:0,0:0:0:0:
368,76,80826,1,0,0:0:0:0:
100,64,80993,2,0,L|40:64,1,51.5,8|0,0:0|0:0,0:0:0:0:
232,64,81159,2,0,L|232:124,1,51.5,2|0,0:0|0:0,0:0:0:0:
420,128,81326,2,0,L|420:192,1,51.5,2|0,0:0|0:0,0:0:0:0:
212,184,81493,5,0,1:0:0:0:
212,184,81659,2,0,L|268:184,1,51.5,0|0,0:0|0:0,0:0:0:0:
452,188,81826,2,0,L|452:124,1,51.5,8|0,0:0|0:0,0:0:0:0:
376,132,81993,2,0,L|376:64,1,51.5,0|0,1:0|0:0,0:0:0:0:
452,80,82159,1,0,0:0:0:0:
184,76,82326,2,0,L|184:144,1,51.5,8|0,0:0|0:0,0:0:0:0:
340,124,82493,1,2,0:0:0:0:
492,132,82576,1,2,0:0:0:0:
340,124,82659,1,2,0:0:0:0:
184,120,82743,1,2,0:0:0:0:
32,116,82826,5,0,1:0:0:0:
168,112,82993,1,2,0:0:0:0:
200,112,83034,1,0,0:0:0:0:
232,112,83076,1,0,0:0:0:0:
416,96,83159,2,0,L|344:96,1,51.5,8|0,0:0|1:0,0:0:0:0:
176,96,83326,2,0,L|172:160,1,51.5,0|0,1:0|1:0,0:0:0:0:
96,148,83493,2,0,L|92:204,1,51.5,2|0,1:0|1:0,0:0:0:0:
276,96,83659,2,0,L|280:160,1,51.5,8|0,1:3|1:0,0:0:0:0:
356,148,83826,2,0,L|360:204,1,51.5,2|0,1:0|1:0,0:0:0:0:
172,216,83993,2,0,L|104:216,1,51.5,0|0,1:0|1:0,0:0:0:0:
336,216,84159,5,2,1:0:0:0:
336,216,84326,2,0,L|280:216,1,51.5,0|0,0:0|0:0,0:0:0:0:
96,224,84493,2,0,L|28:224,1,51.5,10|2,0:0|0:0,0:0:0:0:
120,224,84659,2,0,L|180:224,1,51.5,2|0,1:0|0:0,0:0:0:0:
96,224,84826,1,2,0:0:0:0:
364,216,84993,2,0,L|364:140,1,51.5,8|0,0:0|0:0,0:0:0:0:
180,144,85159,2,0,L|252:140,1,51.5,2|2,0:0|0:0,0:0:0:0:
44,136,85326,2,0,L|100:132,1,51.5,2|0,0:0|0:0,0:0:0:0:
304,124,85493,5,0,1:0:0:0:
304,124,85659,2,0,L|244:124,1,51.5,0|0,0:0|0:0,0:0:0:0:
64,132,85826,2,0,L|64:200,1,51.5,8|0,0:0|0:0,0:0:0:0:
252,200,85993,2,0,L|252:264,1,51.5,0|2,1:0|0:0,0:0:0:0:
68,256,86159,2,0,L|136:256,1,51.5,2|0,0:0|0:0,0:0:0:0:
308,268,86326,2,0,L|364:268,1,51.5,10|0,0:0|0:0,0:0:0:0:
172,252,86493,2,0,L|236:256,1,51.5,2|0,1:0|0:0,0:0:0:0:
408,252,86659,2,0,L|464:252,1,51.5,2|0,0:0|0:0,0:0:0:0:
252,244,86826,5,2,1:0:0:0:
252,244,86993,2,0,L|308:244,1,51.5,0|0,0:0|0:0,0:0:0:0:
120,240,87159,2,0,L|116:180,1,51.5,8|0,0:0|0:0,0:0:0:0:
272,180,87326,1,2,0:0:0:0:
424,168,87409,1,2,0:0:0:0:
268,160,87493,2,0,L|200:160,1,51.5,0|0,1:0|0:0,0:0:0:0:
400,148,87659,2,0,L|340:148,1,51.5,8|0,0:0|0:0,0:0:0:0:
160,152,87826,2,0,L|160:96,1,51.5,0|0,1:0|0:0,0:0:0:0:
344,76,87993,2,0,L|344:144,1,51.5,2|0,0:0|0:0,0:0:0:0:
140,132,88159,6,0,L|72:132,1,51.5,2|0,1:0|0:0,0:0:0:0:
168,124,88326,2,0,L|108:124,1,51.5,2|0,0:0|0:0,0:0:0:0:
304,108,88493,2,0,L|372:108,2,51.5,10|0|2,0:0|0:0|0:0,0:0:0:0:
148,108,88743,1,0,0:0:0:0:
304,108,88826,2,0,L|304:176,1,51.5,2|2,1:0|0:0,0:0:0:0:
116,164,88993,2,0,L|116:232,1,51.5,10|0,0:0|0:0,0:0:0:0:
268,208,89159,1,2,1:0:0:0:
424,208,89243,1,2,0:0:0:0:
272,208,89326,1,2,0:0:0:0:
204,208,89409,1,0,0:0:0:0:
424,204,89493,5,4,1:0:0:0:
464,172,89576,1,0,0:0:0:0:
456,120,89659,1,2,0:0:0:0:
412,93,89742,1,2,0:0:0:0:
256,92,89826,1,10,0:0:0:0:
104,92,89909,1,2,0:0:0:0:
256,92,89993,2,0,L|256:156,1,51.5,2|0,1:0|0:0,0:0:0:0:
72,152,90159,2,0,L|72:224,1,51.5,2|0,0:0|0:0,0:0:0:0:
260,208,90326,2,0,L|204:244,1,51.5,8|2,0:0|0:0,0:0:0:0:
404,240,90493,2,0,L|404:308,1,51.5,2|0,0:0|0:0,0:0:0:0:
220,296,90659,2,0,L|156:296,1,51.5,2|0,0:0|0:0,0:0:0:0:
376,296,90826,5,0,1:0:0:0:
408,260,90909,1,0,0:0:0:0:
396,212,90992,1,0,0:0:0:0:
356,188,91075,1,0,0:0:0:0:
167,176,91159,2,0,L|239:176,1,51.5,10|2,0:0|0:0,0:0:0:0:
35,144,91326,2,0,L|87:144,1,51.5,2|0,1:0|0:0,0:0:0:0:
275,144,91493,1,2,0:0:0:0:
343,144,91576,1,2,0:0:0:0:
411,144,91659,1,2,1:0:0:0:
479,144,91743,1,2,0:0:0:0:
327,140,91826,1,10,0:0:0:0:
175,140,91909,1,2,0:0:0:0:
19,140,91993,1,2,0:0:0:0:
171,140,92076,1,2,0:0:0:0:
388,148,92159,5,2,1:0:0:0:
404,195,92242,1,0,0:0:0:0:
382,239,92325,1,2,0:0:0:0:
334,253,92408,1,2,0:0:0:0:
176,252,92493,1,8,0:0:0:0:
328,256,92576,1,2,0:0:0:0:
480,260,92659,2,0,L|480:192,1,51.5,2|0,1:0|0:0,0:0:0:0:
292,192,92826,2,0,L|224:192,1,51.5,2|0,0:0|0:0,0:0:0:0:
428,172,92993,2,0,L|352:172,1,51.5,10|2,0:0|0:0,0:0:0:0:
192,152,93159,2,0,L|192:88,1,51.5,2|0,1:0|0:0,0:0:0:0:
380,100,93326,2,0,L|316:100,1,51.5,2|0,0:0|0:0,0:0:0:0:
120,104,93493,6,0,L|104:48,3,51.5,2|0|8|0,1:0|0:0|0:0|0:0,0:0:0:0:
292,40,93826,2,0,L|352:32,1,51.5,2|2,0:0|0:0,0:0:0:0:
156,40,93993,2,0,L|88:32,1,51.5,2|0,1:0|0:0,0:0:0:0:
288,44,94159,5,2,0:0:0:0:
312,51,94200,1,0,2:0:0:0:
330,69,94242,1,0,2:0:0:0:
336,94,94284,1,0,2:0:0:0:
329,118,94325,1,8,0:0:0:0:
286,142,94409,1,0,0:0:0:0:
100,152,94493,2,0,L|160:152,1,51.5,0|0,1:0|0:0,0:0:0:0:
336,160,94659,2,0,L|396:160,1,51.5,2|0,0:0|0:0,0:0:0:0:
168,156,94826,6,0,L|168:224,1,51.5,6|0,1:0|0:0,0:0:0:0:
356,216,94993,2,0,L|416:216,2,51.5,2|0|8,0:0|0:0|0:1,0:0:0:0:
168,220,95243,2,0,L|100:220,2,51.5,2|0|0,0:0|0:0|0:0,0:0:0:0:
356,224,95493,2,0,L|360:152,1,51.5,2|0,0:0|0:0,0:0:0:0:
292,168,95659,1,0,0:0:0:0:
104,168,95743,2,0,L|100:96,1,51.5,2|8,0:0|0:1,0:0:0:0:
168,112,95909,1,0,0:0:0:0:
356,104,95993,2,0,L|424:104,1,51.5,2|0,0:0|0:0,0:0:0:0:
204,92,96159,6,0,L|200:148,1,51.5,2|0,0:0|0:0,0:0:0:0:
388,160,96326,2,0,L|384:232,1,51.5,2|0,0:0|0:0,0:0:0:0:
200,220,96493,2,0,L|180:220,1,12.875,10|0,0:1|0:0,0:0:0:0:
244,220,96576,2,0,L|268:220,1,12.875,2|0,0:0|0:0,0:0:0:0:
200,220,96659,2,0,L|180:220,1,12.875,2|0,0:0|0:0,0:0:0:0:
244,220,96743,2,0,L|260:220,1,12.875,2|0,0:0|0:0,0:0:0:0:
400,220,96826,6,0,L|472:216,2,51.5,2|0|0,0:0|0:0|0:0,0:0:0:0:
212,212,97076,2,0,L|284:208,2,51.5,2|8|0,0:0|0:1|0:0,0:0:0:0:
24,200,97326,1,2,0:0:0:0:
56,200,97368,1,0,0:0:0:0:
88,200,97409,1,0,0:0:0:0:
120,200,97451,1,0,0:0:0:0:
276,196,97493,6,0,L|280:132,1,51.5,2|0,0:0|0:0,0:0:0:0:
96,120,97659,2,0,L|96:56,1,51.5,2|0,0:0|0:0,0:0:0:0:
284,68,97826,2,0,L|304:68,1,12.875,8|0,0:1|0:0,0:0:0:0:
356,64,97909,2,0,L|376:64,1,12.875,2|0,0:0|0:0,0:0:0:0:
308,64,97993,2,0,L|288:64,1,12.875,0|0,0:0|0:0,0:0:0:0:
236,64,98076,2,0,L|216:64,1,12.875,0|0,0:0|0:0,0:0:0:0:
364,64,98159,6,0,L|428:64,2,51.5,2|0|0,0:0|0:0|0:0,0:0:0:0:
176,64,98409,1,2,0:0:0:0:
244,64,98493,1,8,0:1:0:0:
312,64,98576,1,0,0:0:0:0:
128,60,98659,1,2,0:0:0:0:
104,80,98700,1,0,0:0:0:0:
104,105,98742,1,0,0:0:0:0:
128,127,98784,1,0,0:0:0:0:
284,124,98826,5,2,0:0:0:0:
420,124,98993,1,2,0:0:0:0:
152,124,99159,2,0,L|420:124,1,267.799987741089,10|2,0:1|0:0,0:0:0:0:
420,124,99409,1,0,0:0:0:0:
232,116,99493,1,2,0:0:0:0:
188,138,99576,1,0,1:0:0:0:
187,187,99659,1,2,0:0:0:0:
229,212,99742,1,0,0:0:0:0:
416,212,99826,2,0,L|440:212,1,12.875,2|0,1:3|0:0,0:0:0:0:
280,212,99909,2,0,L|264:212,1,12.875,0|0,1:0|0:0,0:0:0:0:
116,212,99993,2,0,L|100:212,1,12.875,2|0,1:3|0:0,0:0:0:0:
254,212,100076,2,0,L|270:212,1,12.875,0|0,1:0|0:0,0:0:0:0:
428,212,100159,5,2,1:0:0:0:
448,192,100201,1,0,0:0:0:0:
456,168,100243,1,0,0:0:0:0:
444,144,100284,1,0,0:0:0:0:
424,128,100326,1,0,0:0:0:0:
220,120,100659,2,0,P|92:140|24:292,1,309,2|2,0:1|0:1,0:0:0:0:
332,304,101493,6,0,P|420:280|316:160,1,309,2|2,0:1|0:1,0:0:0:0:
164,152,102159,2,0,L|160:88,1,51.5,2|2,0:1|0:1,0:0:0:0:
240,96,102326,2,0,L|244:24,1,51.5,2|2,0:1|0:1,0:0:0:0:
60,44,102493,2,0,L|132:40,1,51.5,2|2,0:1|0:1,0:0:0:0:
292,48,102659,2,0,L|364:48,1,51.5,2|2,0:1|0:1,0:0:0:0:
160,48,102826,5,2,1:0:0:0:
127,56,102881,1,0,0:0:0:0:
113,86,102937,1,0,0:0:0:0:
126,116,102993,1,0,0:0:0:0:
157,126,103048,1,0,0:0:0:0:
328,132,103326,2,0,P|168:184|96:328,1,309,2|2,0:1|0:1,0:0:0:0:
408,308,104159,6,0,P|448:252|404:120,1,206,2|0,1:0|0:0,0:0:0:0:
248,124,104659,2,0,P|256:200|448:312,1,309,2|0,0:1|0:0,0:0:0:0:
24,320,105493,5,2,1:0:0:0:
68,316,105548,1,0,0:0:0:0:
112,312,105604,1,0,0:0:0:0:
156,308,105659,1,0,0:0:0:0:
200,304,105715,2,0,P|272:216|32:92,1,480.666666666667,0|0,0:0|0:0,0:0:0:0:
348,56,106826,6,0,L|132:40,1,206,2|0,1:0|0:0,0:0:0:0:
348,40,107493,2,0,P|456:72|472:184,1,206,2|0,0:1|0:0,0:0:0:0:
68,160,108159,5,6,3:0:0:0:
256,192,108326,12,0,110826,0:0:0:0:
