osu file format v14

[General]
AudioFilename: audio.mp3
AudioLeadIn: 0
PreviewTime: 89451
Countdown: 0
SampleSet: Soft
StackLeniency: 0.7
Mode: 2
LetterboxInBreaks: 0
WidescreenStoryboard: 0

[Editor]
DistanceSpacing: 1
BeatDivisor: 6
GridSize: 4
TimelineZoom: 2.7

[Metadata]
Title:Undersky
TitleUnicode:Undersky
Artist:Lundy
ArtistUnicode:Lundy
Creator:4rcheR-
Version:Rain
Source:
Tags:archer AJamez Jemzuu Verti electronic instrumental fa featured artist mappers' guild mg mpg edm & house artcore drum future bass dnb d'n'b D&B melodic Florida Priority Quests
BeatmapID:4497540
BeatmapSetID:2126685

[Difficulty]
HPDrainRate:5
CircleSize:3.7
OverallDifficulty:8.8
ApproachRate:8.8
SliderMultiplier:1.76
SliderTickRate:2

[Events]
//Background and Video events
0,0,"bg.jpg",0,0
//Break Periods
2,57826,65493
//Storyboard Layer 0 (Background)
//Storyboard Layer 1 (Fail)
//Storyboard Layer 2 (Pass)
//Storyboard Layer 3 (Foreground)
//Storyboard Layer 4 (Overlay)
//Storyboard Sound Samples

[TimingPoints]
160,333.333333333333,4,3,21,40,1,0
1493,-100,4,3,21,50,0,0
12159,-100,4,2,21,60,0,0
14826,-100,4,2,21,70,0,0
17493,-100,4,2,21,60,0,0
18826,-100,4,2,21,65,0,0
21493,-100,4,2,21,60,0,0
22826,-100,4,2,21,50,0,0
24159,-100,4,2,21,55,0,0
25493,-100,4,3,22,60,0,0
25576,-100,4,1,23,60,0,0
26826,-100,4,1,23,65,0,0
28159,-100,4,1,23,60,0,0
29493,-100,4,1,23,65,0,0
30826,-100,4,1,23,60,0,0
32159,-100,4,1,23,65,0,0
33493,-100,4,1,23,60,0,0
34159,-100,4,1,23,65,0,0
34826,-100,4,1,23,70,0,0
35493,-100,4,3,22,75,0,0
36159,-100,4,2,23,50,0,0
41493,-100,4,3,22,55,0,0
46826,-100,4,2,23,60,0,0
52159,-100,4,2,23,65,0,0
54826,-100,4,2,23,70,0,0
56159,-100,4,2,23,75,0,0
57493,-100,4,2,23,40,0,0
66826,-100,4,2,21,50,0,0
68159,-100,4,2,22,60,0,0
68326,-100,4,3,21,60,0,0
76159,-100,4,3,21,65,0,0
77493,-100,4,3,23,70,0,0
78159,-100,4,2,23,75,0,0
78826,-100,4,3,23,80,0,1
89493,-100,4,3,23,85,0,1
98826,-100,4,3,23,80,0,1
99159,-100,4,3,23,80,0,1
99326,-100,4,3,23,80,0,1
100159,-100,4,3,21,75,0,0
102826,-100,4,3,21,70,0,0
104159,-100,4,3,21,65,0,0
105493,-100,4,3,21,60,0,0
106826,-100,4,3,21,55,0,0
108159,-100,4,3,22,50,0,0
108826,-100,4,3,21,40,0,0
109493,-100,4,3,21,30,0,0
110159,-100,4,3,21,20,0,0
110826,-100,4,3,21,10,0,0

[Colours]
Combo1 : 240,205,129
Combo2 : 128,128,128
Combo3 : 3,148,209
Combo4 : 192,192,192
Combo5 : 208,178,186

[HitObjects]
360,192,1159,6,0,L|456:192,1,88,2|2,0:0|0:3,0:0:0:0:
200,196,1493,5,6,1:3:0:0:
112,196,1659,1,2,0:0:0:0:
96,184,1701,1,2,0:0:0:0:
88,160,1743,1,2,0:0:0:0:
96,140,1784,1,2,0:0:0:0:
120,124,1826,1,2,0:0:0:0:
208,120,1992,1,2,0:0:0:0:
368,112,2159,2,0,L|480:112,2,88,2|2|2,0:2|0:2|0:2,0:0:0:0:
192,128,2659,6,0,P|132:184|202:229,1,176,2|0,1:2|0:0,0:0:0:0:
276,232,3159,1,2,0:2:0:0:
100,236,3493,2,0,P|52:168|124:84,1,176,2|2,0:2|0:2,0:0:0:0:
392,76,4159,6,0,L|392:192,1,88,2|0,0:2|0:0,0:0:0:0:
292,160,4409,2,0,L|168:160,1,88,2|0,0:2|0:0,0:0:0:0:
304,160,4659,2,0,P|364:208|293:251,1,176,2|0,0:2|0:0,0:0:0:0:
216,252,5159,2,0,L|328:252,1,88,2|2,0:0|0:3,0:0:0:0:
128,252,5493,6,0,L|20:252,2,88,2|2|2,1:2|0:2|0:2,0:0:0:0:
260,244,6076,2,0,L|260:376,1,132,2|2,0:0|0:3,0:0:0:0:
84,364,6493,2,0,L|188:364,1,88,2|2,0:2|0:2,0:0:0:0:
420,360,6826,6,0,L|420:176,1,176,2|0,1:3|0:0,0:0:0:0:
244,184,7326,2,0,L|64:180,1,176,2|2,0:2|0:2,0:0:0:0:
228,180,7826,1,2,0:2:0:0:
266,195,7909,1,2,0:2:0:0:
269,237,7992,1,2,0:2:0:0:
232,256,8075,1,2,0:2:0:0:
132,256,8159,6,0,L|16:256,1,88,2|0,1:3|0:0,0:0:0:0:
88,256,8409,2,0,L|196:256,1,88,2|0,0:3|0:0,0:0:0:0:
132,256,8659,1,2,0:2:0:0:
308,260,8826,2,0,L|308:360,1,88,2|2,1:3|0:2,0:0:0:0:
220,348,9159,2,0,L|120:348,1,88,2|2,0:3|0:3,0:0:0:0:
308,348,9493,6,0,L|488:348,1,176,2|0,1:3|0:0,0:0:0:0:
308,348,10159,2,0,L|308:244,1,88,2|0,0:0|0:0,0:0:0:0:
396,264,10493,2,0,L|488:264,1,88,2|0,0:0|0:0,0:0:0:0:
308,268,10826,6,0,P|228:236|320:132,1,264,2|2,1:2|0:2,0:0:0:0:
484,124,11493,1,2,0:2:0:0:
489,166,11576,1,2,0:2:0:0:
463,200,11659,1,2,0:2:0:0:
420,205,11743,1,2,0:2:0:0:
252,200,11826,2,0,L|188:200,1,44,2|2,0:2|0:2,0:0:0:0:
252,200,11993,2,0,L|320:200,1,44,2|2,0:2|0:2,0:0:0:0:
128,196,12159,5,6,1:3:0:0:
40,196,12325,1,2,0:3:0:0:
24,212,12368,1,2,0:3:0:0:
20,232,12409,1,2,0:3:0:0:
28,252,12451,1,2,0:3:0:0:
48,260,12493,1,2,0:3:0:0:
136,264,12659,1,2,0:3:0:0:
312,260,12826,2,0,P|344:220|296:156,1,132,2|2,0:0|0:0,0:0:0:0:
208,160,13159,2,0,L|88:160,1,88,2|2,0:0|0:0,0:0:0:0:
296,188,13493,5,2,0:0:0:0:
384,188,13659,1,2,0:0:0:0:
404,176,13701,1,2,0:0:0:0:
412,156,13743,1,2,0:0:0:0:
404,136,13784,1,2,0:0:0:0:
384,124,13826,1,2,0:2:0:0:
208,124,13993,1,2,0:0:0:0:
296,128,14159,2,0,L|296:220,1,88,2|2,0:0|0:3,0:0:0:0:
120,216,14493,2,0,L|28:216,1,88,2|2,0:0|0:3,0:0:0:0:
280,212,14826,6,0,L|384:212,1,88,6|0,1:0|0:0,0:0:0:0:
268,216,15076,2,0,L|168:216,1,88,6|0,1:0|0:0,0:0:0:0:
280,212,15326,2,0,L|384:212,1,88,6|0,1:0|0:0,0:0:0:0:
268,216,15576,2,0,L|168:216,1,88,6|0,1:0|0:0,0:0:0:0:
368,212,15826,2,0,P|408:168|356:120,1,132,6|0,1:0|0:0,0:0:0:0:
204,120,16159,6,0,L|108:120,1,88,6|0,1:0|0:0,0:0:0:0:
220,120,16409,2,0,L|220:220,1,88,6|0,1:0|0:0,0:0:0:0:
120,212,16659,2,0,L|120:320,1,88,6|0,1:0|0:0,0:0:0:0:
220,296,16909,2,0,L|116:296,1,88,6|0,1:0|0:0,0:0:0:0:
300,296,17159,2,0,L|400:296,1,88,6|0,1:0|1:0,0:0:0:0:
140,320,17493,6,0,P|72:288|124:208,1,176,4|10,1:3|0:1,0:0:0:0:
148,204,17909,1,2,0:1:0:0:
104,207,17993,1,2,0:1:0:0:
280,204,18159,2,0,P|320:152|268:120,1,132,10|2,0:1|0:1,0:0:0:0:
176,116,18493,2,0,L|176:24,1,88,10|2,0:1|0:1,0:0:0:0:
352,28,18826,5,8,0:1:0:0:
440,28,18992,1,8,0:1:0:0:
484,28,19076,1,0,0:0:0:0:
440,28,19159,1,10,0:1:0:0:
352,28,19326,1,10,0:1:0:0:
104,28,19493,1,10,0:2:0:0:
69,52,19576,1,2,0:3:0:0:
69,95,19659,1,2,0:3:0:0:
103,120,19742,1,2,0:3:0:0:
272,128,19826,2,0,L|332:128,1,44,2|2,1:0|0:3,0:0:0:0:
272,128,19993,2,0,L|212:124,1,44,2|2,0:3|0:3,0:0:0:0:
380,128,20159,5,12,1:2:0:0:
468,128,20326,1,8,0:1:0:0:
424,128,20409,1,0,0:0:0:0:
380,128,20493,1,10,0:1:0:0:
292,128,20659,1,10,0:1:0:0:
116,128,20826,2,0,L|116:220,1,88,10|8,0:1|0:1,0:0:0:0:
160,216,21076,1,2,0:1:0:0:
204,216,21159,2,0,L|100:216,1,88,10|10,0:1|0:1,0:0:0:0:
292,220,21493,6,0,L|292:312,1,88,2|2,1:3|0:1,0:0:0:0:
204,312,21826,1,2,0:1:0:0:
264,312,21909,1,0,0:0:0:0:
328,312,21993,1,2,0:1:0:0:
204,312,22159,2,0,L|28:312,1,176,10|0,0:1|1:0,0:0:0:0:
452,284,22826,5,6,1:3:0:0:
468,244,22909,1,2,0:3:0:0:
452,204,22992,1,2,0:3:0:0:
408,196,23076,1,2,0:3:0:0:
364,192,23159,1,2,0:3:0:0:
320,188,23243,1,2,0:3:0:0:
364,184,23326,1,2,0:3:0:0:
408,180,23409,1,2,0:3:0:0:
240,168,23493,1,2,1:3:0:0:
204,145,23576,1,2,1:3:0:0:
202,103,23659,1,2,1:3:0:0:
235,76,23742,1,2,1:3:0:0:
404,76,23826,2,0,L|468:76,1,44,2|2,1:3|1:3,0:0:0:0:
404,76,23993,2,0,L|348:76,1,44,2|2,1:3|1:3,0:0:0:0:
192,84,24159,5,2,1:2:0:0:
154,103,24242,1,2,1:2:0:0:
151,145,24325,1,2,1:2:0:0:
185,169,24408,1,2,1:2:0:0:
356,164,24493,1,2,1:2:0:0:
359,206,24576,1,2,1:2:0:0:
332,240,24659,1,2,1:2:0:0:
290,249,24742,1,2,1:2:0:0:
124,252,24826,2,0,L|68:252,1,44,2|2,0:2|0:2,0:0:0:0:
124,252,24993,2,0,L|184:252,1,44,2|2,0:2|0:2,0:0:0:0:
336,256,25159,2,0,L|336:192,1,44,2|2,0:2|0:2,0:0:0:0:
168,204,25326,2,0,L|104:204,1,44,2|2,0:2|0:2,0:0:0:0:
292,200,25493,5,6,1:2:0:0:
380,200,25659,2,0,L|384:60,1,132,2|2,0:0|0:0,0:0:0:0:
172,80,26159,2,0,L|172:192,1,88,2|0,0:0|1:0,0:0:0:0:
272,176,26409,2,0,L|272:280,1,88,2|0,0:0|0:0,0:0:0:0:
172,264,26659,1,2,0:0:0:0:
420,268,26826,5,2,1:2:0:0:
484,208,26993,1,8,0:0:0:0:
464,128,27159,1,2,0:0:0:0:
380,108,27326,1,10,0:0:0:0:
204,112,27493,2,0,L|136:112,1,44,2|2,0:0|0:0,0:0:0:0:
204,112,27659,2,0,L|264:112,1,44,2|0,1:0|0:0,0:0:0:0:
80,112,27826,1,10,0:0:0:0:
45,136,27909,1,2,0:0:0:0:
43,179,27992,1,2,0:0:0:0:
75,206,28075,1,2,0:0:0:0:
244,204,28159,6,0,L|360:204,1,88,2|2,0:0|0:0,0:0:0:0:
244,200,28493,1,10,0:0:0:0:
200,204,28576,1,2,0:0:0:0:
244,204,28659,1,2,0:0:0:0:
420,200,28826,2,0,L|420:96,1,88,2|0,0:0|1:0,0:0:0:0:
316,112,29076,2,0,L|316:204,1,88,2|0,0:0|0:0,0:0:0:0:
420,200,29326,1,2,0:0:0:0:
172,196,29493,5,2,1:2:0:0:
92,232,29659,1,8,0:0:0:0:
92,320,29826,1,10,0:0:0:0:
176,352,29993,1,2,0:0:0:0:
352,348,30159,2,0,L|404:348,2,44,2|0|2,0:0|0:0|1:3,0:0:0:0:
176,336,30493,2,0,L|112:336,1,44,10|0,0:0|0:0,0:0:0:0:
176,336,30659,2,0,L|232:336,1,44,2|0,0:0|0:0,0:0:0:0:
388,332,30826,5,2,0:0:0:0:
476,336,30993,2,0,L|476:192,1,132,2|2,0:0|0:0,0:0:0:0:
264,192,31493,2,0,L|268:300,1,88,2|0,0:0|1:0,0:0:0:0:
368,280,31743,2,0,L|368:176,1,88,2|0,0:0|0:0,0:0:0:0:
264,192,31993,1,2,0:0:0:0:
20,176,32159,6,0,L|20:80,1,88,2|8,1:2|0:0,0:0:0:0:
108,84,32493,1,10,0:0:0:0:
64,82,32576,1,0,1:0:0:0:
20,80,32659,1,2,0:0:0:0:
268,84,32826,2,0,L|328:88,1,44,2|2,0:0|0:0,0:0:0:0:
268,84,32993,2,0,L|204:84,1,44,2|2,1:3|0:0,0:0:0:0:
392,96,33159,1,2,1:3:0:0:
424,124,33242,1,2,1:3:0:0:
412,168,33325,1,2,1:3:0:0:
372,184,33409,1,2,1:3:0:0:
204,188,33493,6,0,L|112:184,2,88,10|2|2,0:3|0:0|0:0,0:0:0:0:
380,184,33993,2,0,L|496:184,2,88,10|2|2,0:3|0:0|0:0,0:0:0:0:
204,188,34493,2,0,L|88:188,1,88,10|2,0:3|0:0,0:0:0:0:
160,188,34743,1,0,0:0:0:0:
328,200,34826,5,2,1:2:0:0:
380,272,34992,1,8,0:0:0:0:
324,340,35159,1,2,1:3:0:0:
280,340,35243,1,0,1:0:0:0:
236,340,35325,1,2,1:3:0:0:
412,260,35493,1,2,1:3:0:0:
456,224,35576,1,2,1:3:0:0:
415,182,35659,1,2,1:3:0:0:
168,192,35826,2,0,L|100:192,1,44,2|0,1:3|1:3,0:0:0:0:
168,192,35993,2,0,L|220:192,1,44,0|0,1:3|1:3,0:0:0:0:
380,196,36159,6,0,L|460:196,2,58.6666666666667,6|0|0,1:2|0:0|0:0,0:0:0:0:
256,196,36493,1,10,0:0:0:0:
80,200,36826,2,0,L|8:200,2,58.6666666666667,2|0|0,0:0|0:0|0:0,0:0:0:0:
140,200,37159,1,10,0:0:0:0:
80,200,37271,1,0,0:0:0:0:
20,200,37382,1,0,0:0:0:0:
144,200,37493,5,2,1:2:0:0:
204,200,37604,1,0,0:0:0:0:
264,200,37715,1,0,0:0:0:0:
388,196,37826,1,10,0:0:0:0:
392,136,37937,1,0,0:0:0:0:
332,128,38048,1,0,0:0:0:0:
208,132,38159,1,2,0:0:0:0:
202,188,38270,1,0,0:0:0:0:
239,231,38381,1,0,0:0:0:0:
296,233,38492,1,10,0:0:0:0:
336,192,38603,1,0,0:0:0:0:
334,135,38714,1,0,0:0:0:0:
132,140,38826,6,0,L|60:140,2,58.6666666666667,2|0|0,1:2|0:0|0:0,0:0:0:0:
192,140,39159,2,0,L|256:140,2,58.6666666666667,10|0|0,0:0|0:0|0:0,0:0:0:0:
68,144,39493,2,0,L|68:220,1,58.6666666666667,2|0,0:0|0:0,0:0:0:0:
128,208,39715,1,0,0:0:0:0:
252,208,39826,1,10,0:0:0:0:
312,208,39937,2,0,L|312:280,1,58.6666666666667,0|0,0:0|0:0,0:0:0:0:
112,260,40159,5,2,1:2:0:0:
52,256,40270,1,0,0:0:0:0:
112,260,40381,1,0,0:0:0:0:
236,260,40492,1,10,0:0:0:0:
240,200,40604,1,0,0:0:0:0:
180,196,40715,1,0,0:0:0:0:
304,192,40826,1,2,0:0:0:0:
364,188,40937,1,0,0:0:0:0:
304,192,41048,1,0,0:0:0:0:
180,196,41159,1,10,1:2:0:0:
168,140,41271,1,0,0:0:0:0:
228,136,41382,1,0,0:0:0:0:
428,128,41493,6,0,L|488:128,2,58.6666666666667,6|0|0,1:3|0:0|0:0,0:0:0:0:
304,124,41826,1,2,0:1:0:0:
244,124,41937,2,0,L|240:212,1,58.6666666666667,0|0,0:0|0:0,0:0:0:0:
440,196,42159,1,10,0:2:0:0:
496,208,42270,2,0,L|496:296,1,58.6666666666667,0|0,0:0|0:0,0:0:0:0:
372,268,42493,1,2,0:1:0:0:
312,268,42604,1,0,0:0:0:0:
252,268,42715,1,0,0:0:0:0:
128,268,42826,6,0,L|124:184,1,58.6666666666667,2|0,1:3|0:0,0:0:0:0:
184,196,43048,1,0,0:0:0:0:
308,184,43159,2,0,L|384:180,2,58.6666666666667,2|0|0,0:1|0:0|0:0,0:0:0:0:
108,164,43493,1,10,0:2:0:0:
48,164,43604,2,0,L|44:92,1,58.6666666666667,0|0,0:0|0:0,0:0:0:0:
168,100,43826,1,2,0:1:0:0:
228,100,43937,1,0,0:0:0:0:
288,96,44048,1,0,0:0:0:0:
88,116,44159,6,0,L|88:192,1,58.6666666666667,2|0,1:3|0:0,0:0:0:0:
148,176,44382,1,0,0:0:0:0:
272,180,44493,2,0,L|352:176,2,58.6666666666667,2|0|0,0:1|0:0|0:0,0:0:0:0:
72,180,44826,2,0,L|72:256,1,58.6666666666667,10|0,0:2|0:0,0:0:0:0:
132,240,45048,1,0,0:0:0:0:
332,240,45159,1,2,0:1:0:0:
392,236,45271,1,0,0:0:0:0:
452,232,45382,1,0,0:0:0:0:
252,224,45493,6,0,L|172:224,2,58.6666666666667,2|0|0,1:3|0:0|0:0,0:0:0:0:
372,204,45826,2,0,L|376:116,1,58.6666666666667,2|0,0:1|0:0,0:0:0:0:
316,132,46048,1,0,0:0:0:0:
116,128,46159,1,10,0:2:0:0:
116,128,46270,1,0,0:0:0:0:
176,128,46382,1,0,0:0:0:0:
376,128,46493,2,0,L|464:128,2,58.6666666666667,2|0|0,0:0|0:0|0:0,0:0:0:0:
176,144,46826,6,0,P|124:188|200:268,1,176,14|10,1:0|1:0,0:0:0:0:
228,264,47271,1,0,0:0:0:0:
168,256,47382,1,0,0:0:0:0:
292,252,47493,1,10,1:0:0:0:
352,260,47604,1,0,0:0:0:0:
292,252,47715,1,0,0:0:0:0:
412,248,47826,1,10,1:0:0:0:
472,256,47937,1,0,0:0:0:0:
412,248,48048,1,0,0:0:0:0:
212,236,48159,6,0,L|120:236,2,58.6666666666667,10|0|0,1:0|0:0|0:0,0:0:0:0:
412,220,48493,2,0,L|416:132,1,58.6666666666667,10|0,1:0|0:0,0:0:0:0:
356,152,48715,1,0,0:0:0:0:
232,140,48826,1,10,1:0:0:0:
172,140,48937,2,0,L|168:68,1,58.6666666666667,0|0,0:0|0:0,0:0:0:0:
292,140,49159,1,10,1:0:0:0:
352,140,49270,2,0,L|356:68,1,58.6666666666667,0|0,0:0|0:0,0:0:0:0:
156,100,49493,5,10,1:0:0:0:
96,100,49604,2,0,L|92:184,1,58.6666666666667,0|0,0:0|0:0,0:0:0:0:
216,160,49826,1,10,1:0:0:0:
156,160,49937,2,0,L|152:244,1,58.6666666666667,0|0,0:0|0:0,0:0:0:0:
276,224,50159,1,10,1:0:0:0:
216,224,50271,2,0,L|212:308,1,58.6666666666667,0|0,0:0|0:0,0:0:0:0:
412,276,50493,1,10,1:0:0:0:
472,272,50604,1,0,0:0:0:0:
412,276,50715,1,0,0:0:0:0:
213,282,50826,5,10,1:0:0:0:
156,280,50937,2,0,L|152:220,1,58.6666666666667,0|0,0:0|0:0,0:0:0:0:
276,208,51159,2,0,L|360:208,2,58.6666666666667,10|0|0,1:0|0:0|0:0,0:0:0:0:
152,196,51493,2,0,L|112:132,2,58.6666666666667,10|0|0,1:0|0:0|0:0,0:0:0:0:
276,192,51826,1,10,1:0:0:0:
334,192,51937,1,2,0:0:0:0:
393,192,52048,1,2,0:0:0:0:
196,168,52159,6,0,L|196:96,1,58.6666666666667,14|0,1:0|0:0,0:0:0:0:
137,168,52382,2,0,L|136:96,1,58.6666666666667,10|0,1:0|0:0,0:0:0:0:
260,168,52604,2,0,L|264:80,1,58.6666666666667,10|0,1:0|0:0,0:0:0:0:
140,104,52826,2,0,L|52:100,1,58.6666666666667,10|0,1:0|0:0,0:0:0:0:
280,92,53048,2,0,L|360:92,1,58.6666666666667,10|0,1:0|0:0,0:0:0:0:
140,72,53271,2,0,L|60:68,1,58.6666666666667,10|0,1:0|0:0,0:0:0:0:
280,216,53493,6,0,L|280:280,1,58.6666666666667,10|0,1:0|0:0,0:0:0:0:
340,276,53716,2,0,L|340:348,1,58.6666666666667,10|0,1:0|0:0,0:0:0:0:
216,216,53937,2,0,L|212:304,1,58.6666666666667,10|0,1:0|0:0,0:0:0:0:
336,280,54160,2,0,L|424:284,1,58.6666666666667,10|0,1:0|0:0,0:0:0:0:
196,292,54382,2,0,L|116:292,1,58.6666666666667,10|0,1:0|0:0,0:0:0:0:
336,312,54605,2,0,L|416:316,1,58.6666666666667,10|0,1:0|0:0,0:0:0:0:
196,304,54826,5,14,1:0:0:0:
137,302,54937,1,10,1:0:0:0:
78,300,55048,1,10,1:0:0:0:
276,304,55159,1,10,1:0:0:0:
334,302,55271,1,10,1:0:0:0:
393,300,55382,1,10,1:0:0:0:
196,264,55493,2,0,L|124:260,2,58.6666666666667,10|8|8,1:0|1:0|1:0,0:0:0:0:
320,256,55826,2,0,L|408:252,2,58.6666666666667,10|10|10,1:0|1:0|1:0,0:0:0:0:
120,256,56159,6,0,L|112:168,1,58.6666666666667,14|10,1:0|1:0,0:0:0:0:
172,180,56382,1,10,1:0:0:0:
296,168,56493,1,10,1:0:0:0:
356,168,56604,2,0,L|360:80,1,58.6666666666667,10|10,1:0|1:0,0:0:0:0:
160,96,56826,1,10,1:0:0:0:
101,92,56937,1,10,1:0:0:0:
42,88,57048,1,10,1:0:0:0:
244,96,57159,1,10,1:0:0:0:
302,92,57270,1,10,1:0:0:0:
361,88,57381,1,10,1:0:0:0:
160,96,57493,5,4,1:0:0:0:
256,192,66826,12,0,67826,0:0:0:0:
256,192,68159,6,0,L|368:192,1,88,14|2,1:2|0:0,0:0:0:0:
321,192,68368,1,2,0:0:0:0:
299,192,68409,1,2,0:0:0:0:
278,192,68451,1,2,0:0:0:0:
256,192,68493,1,2,0:0:0:0:
168,192,68659,2,0,L|376:192,1,176,2|2,0:1|0:0,0:0:0:0:
168,192,69159,2,0,L|56:192,1,88,8|2,0:0|0:1,0:0:0:0:
256,184,69493,5,2,1:0:0:0:
344,192,69659,1,2,0:0:0:0:
364,196,69701,1,2,0:0:0:0:
376,212,69743,1,2,0:0:0:0:
364,228,69784,1,2,0:0:0:0:
344,236,69826,1,2,0:0:0:0:
256,224,69993,1,2,0:1:0:0:
344,224,70159,2,0,L|344:320,1,88,2|2,0:0|0:1,0:0:0:0:
168,308,70493,2,0,L|168:212,1,88,8|2,0:0|0:1,0:0:0:0:
416,212,70826,6,0,P|472:172|400:104,1,176,2|8,1:0|0:0,0:0:0:0:
332,100,71326,2,0,L|144:100,1,176,2|0,0:1|0:0,0:0:0:0:
331,100,71826,2,0,L|439:100,1,88,8|2,0:0|0:1,0:0:0:0:
244,104,72159,6,0,P|196:160|268:236,1,176,2|8,1:0|0:0,0:0:0:0:
336,232,72659,2,0,L|152:232,1,176,2|0,0:1|0:0,0:0:0:0:
344,232,73159,2,0,L|444:232,1,88,8|2,0:0|0:1,0:0:0:0:
184,228,73493,6,0,P|132:180|196:104,1,176,2|8,1:0|0:0,0:0:0:0:
272,104,73993,2,0,P|332:64|268:16,1,176,2|0,0:1|0:0,0:0:0:0:
96,36,74493,2,0,L|4:36,1,88,8|2,0:0|0:1,0:0:0:0:
184,40,74826,6,0,L|364:40,1,176,2|8,1:0|0:0,0:0:0:0:
272,36,75326,1,2,0:1:0:0:
120,28,75493,1,2,0:3:0:0:
84,51,75576,1,2,0:3:0:0:
84,93,75659,1,2,0:3:0:0:
119,117,75742,1,2,0:3:0:0:
288,112,75826,2,0,L|352:112,1,44,10|2,0:3|0:3,0:0:0:0:
288,112,75993,2,0,L|220:112,1,44,2|2,0:3|0:3,0:0:0:0:
76,120,76159,6,0,L|76:208,1,88,2|0,1:0|0:0,0:0:0:0:
164,212,76493,1,8,0:0:0:0:
340,224,76659,2,0,P|400:272|332:304,1,176,2|0,0:1|0:0,0:0:0:0:
160,316,77159,2,0,L|56:312,1,88,8|0,0:0|0:0,0:0:0:0:
320,228,77493,5,2,1:0:0:0:
256,192,77659,12,2,78493,1:0:0:0:
256,192,78826,6,0,L|456:192,1,176,6|8,1:3|0:0,0:0:0:0:
256,200,79326,2,0,P|204:124|268:64,1,176,0|8,1:0|0:0,0:0:0:0:
424,52,79826,2,0,L|312:52,1,88,2|2,0:0|0:0,0:0:0:0:
80,64,80159,6,0,P|24:132|96:168,1,176,0|8,1:0|0:0,0:0:0:0:
252,184,80659,2,0,P|336:200|352:292,1,176,0|8,1:0|0:0,0:0:0:0:
184,280,81159,2,0,L|68:284,1,88,2|2,0:0|0:0,0:0:0:0:
352,268,81493,6,0,L|160:268,1,176,0|8,1:0|0:0,0:0:0:0:
352,264,81993,2,0,P|408:232|340:160,1,176,0|8,1:0|0:0,0:0:0:0:
184,136,82493,2,0,L|112:136,1,44,2|2,0:0|0:0,0:0:0:0:
308,120,82659,2,0,L|368:120,1,44,2|2,0:0|0:0,0:0:0:0:
180,116,82826,6,0,L|64:116,1,88,0|2,1:0|0:0,0:0:0:0:
264,112,83159,2,0,L|264:213,1,88,8|0,0:0|1:0,0:0:0:0:
88,188,83493,1,2,1:0:0:0:
60,220,83576,1,0,1:0:0:0:
72,260,83659,1,8,1:3:0:0:
113,274,83742,1,0,1:0:0:0:
284,272,83826,2,0,L|332:272,1,44,2|0,1:0|1:0,0:0:0:0:
284,272,83993,2,0,L|224:272,1,44,0|0,1:0|1:0,0:0:0:0:
412,280,84159,6,0,P|464:232|396:184,1,176,2|10,1:0|0:0,0:0:0:0:
220,180,84659,2,0,P|220:132|324:76,1,176,2|8,1:0|0:0,0:0:0:0:
144,76,85159,2,0,L|40:76,1,88,2|2,0:0|0:0,0:0:0:0:
312,80,85493,6,0,P|364:120|288:176,1,176,0|8,1:0|0:0,0:0:0:0:
212,184,85993,2,0,L|212:124,1,44,0|2,1:0|0:0,0:0:0:0:
312,140,86159,2,0,L|416:140,1,88,2|10,0:0|0:0,0:0:0:0:
144,140,86493,2,0,L|56:140,1,88,2|2,1:0|0:0,0:0:0:0:
312,140,86826,6,0,P|372:196|288:232,1,176,2|8,1:0|0:0,0:0:0:0:
140,244,87326,2,0,L|140:176,1,44,2|2,0:0|0:0,0:0:0:0:
312,200,87493,2,0,L|420:200,1,88,0|8,1:0|0:0,0:0:0:0:
224,192,87826,2,0,L|120:192,1,88,0|2,1:0|0:0,0:0:0:0:
392,160,88159,6,0,L|392:68,1,88,2|2,1:0|0:0,0:0:0:0:
216,72,88493,1,10,0:0:0:0:
304,72,88659,1,2,0:0:0:0:
128,68,88826,2,0,L|76:68,2,44,2|2|10,1:0|0:0|0:0,0:0:0:0:
384,60,89159,1,2,1:0:0:0:
428,60,89242,1,2,0:0:0:0:
472,60,89325,1,2,0:0:0:0:
216,60,89493,5,4,1:0:0:0:
304,60,89659,1,2,0:0:0:0:
348,64,89743,1,2,0:0:0:0:
348,108,89826,1,10,0:0:0:0:
304,108,89909,1,2,0:0:0:0:
260,108,89993,1,2,1:0:0:0:
436,112,90159,2,0,L|436:204,1,88,2|8,0:0|0:0,0:0:0:0:
392,200,90409,1,2,0:0:0:0:
348,200,90493,2,0,L|452:200,1,88,2|2,0:0|0:0,0:0:0:0:
180,212,90826,6,0,P|124:276|196:316,1,176,0|10,1:0|0:0,0:0:0:0:
340,324,91326,1,2,1:0:0:0:
180,320,91493,1,2,0:0:0:0:
143,299,91576,1,2,0:0:0:0:
143,257,91659,1,2,1:0:0:0:
179,236,91742,1,2,0:0:0:0:
352,220,91826,2,0,L|352:152,1,44,10|2,0:0|0:0,0:0:0:0:
180,148,91993,2,0,L|108:148,1,44,2|2,0:0|0:0,0:0:0:0:
308,144,92159,5,2,1:0:0:0:
396,144,92326,1,2,0:0:0:0:
416,184,92409,1,2,0:0:0:0:
396,224,92493,1,8,0:0:0:0:
356,240,92576,1,2,0:0:0:0:
308,240,92659,1,2,1:0:0:0:
132,244,92826,2,0,L|132:340,1,88,2|10,0:0|0:0,0:0:0:0:
176,332,93076,1,2,0:0:0:0:
220,332,93159,2,0,L|112:332,1,88,2|2,1:0|0:0,0:0:0:0:
388,332,93493,5,2,1:0:0:0:
232,332,93659,2,0,L|232:220,1,88,8|2,0:0|0:0,0:0:0:0:
276,248,93909,1,2,0:0:0:0:
320,248,93993,1,2,1:0:0:0:
144,240,94159,2,0,L|92:240,1,44,2|0,0:0|2:0,0:0:0:0:
144,240,94326,2,0,L|196:240,1,44,8|0,0:0|0:0,0:0:0:0:
360,244,94493,2,0,L|360:124,1,88,0|2,1:0|0:0,0:0:0:0:
104,144,94826,5,6,1:0:0:0:
264,144,94993,2,0,L|264:252,1,88,2|8,0:0|0:1,0:0:0:0:
164,224,95243,2,0,L|164:124,1,88,2|0,0:0|0:0,0:0:0:0:
336,140,95493,2,0,L|336:24,1,88,2|0,0:0|0:0,0:0:0:0:
236,56,95743,2,0,L|236:168,1,88,2|0,0:0|0:0,0:0:0:0:
340,144,95993,2,0,L|400:144,1,44,2|0,0:0|0:0,0:0:0:0:
212,144,96159,6,0,L|104:144,1,88,2|2,0:0|0:0,0:0:0:0:
296,144,96493,1,10,0:1:0:0:
340,144,96576,1,2,0:0:0:0:
296,144,96659,1,2,0:0:0:0:
112,136,96826,2,0,L|112:232,1,88,2|0,0:0|0:0,0:0:0:0:
204,224,97076,2,0,L|316:224,1,88,2|0,0:0|0:0,0:0:0:0:
204,224,97326,2,0,L|144:224,1,44,2|0,0:0|0:0,0:0:0:0:
332,220,97493,5,2,0:0:0:0:
420,224,97659,2,0,L|420:124,1,88,2|8,0:0|0:1,0:0:0:0:
376,132,97909,2,0,L|276:132,1,88,2|0,0:0|0:0,0:0:0:0:
460,132,98159,2,0,L|460:20,1,88,2|0,0:0|0:0,0:0:0:0:
416,44,98409,2,0,L|308:44,1,88,2|0,0:0|0:0,0:0:0:0:
372,44,98659,2,0,L|432:44,1,44,2|0,0:0|0:0,0:0:0:0:
244,44,98826,6,0,L|124:44,1,88,2|2,0:0|0:0,0:0:0:0:
332,52,99159,2,0,L|332:124,1,44,10|0,0:1|1:0,0:0:0:0:
288,100,99326,1,2,0:0:0:0:
112,104,99493,2,0,L|36:104,2,44,2|0|2,0:0|1:0|0:0,0:0:0:0:
368,120,99826,1,2,1:3:0:0:
405,100,99909,1,0,1:0:0:0:
406,58,99992,1,2,1:3:0:0:
370,37,100075,1,0,1:0:0:0:
204,284,100159,6,0,P|100:272|36:112,2,264,2|2|2,1:0|0:1|0:1,0:0:0:0:
380,288,101493,6,0,P|444:268|352:168,1,264,2|2,0:1|0:1,0:0:0:0:
184,152,102159,1,2,0:1:0:0:
147,130,102242,1,2,0:1:0:0:
144,88,102325,1,2,0:1:0:0:
177,62,102408,1,2,0:1:0:0:
284,56,102493,1,2,0:1:0:0:
327,49,102576,1,2,0:1:0:0:
372,56,102659,1,2,0:1:0:0:
328,49,102742,1,2,0:1:0:0:
160,64,102826,6,0,P|80:68|24:232,2,264,2|2|2,1:0|0:1|0:1,0:0:0:0:
440,60,104159,6,0,P|439:130|336:168,1,176,2|0,1:0|0:0,0:0:0:0:
264,164,104659,2,0,P|300:280|456:296,1,264,2|0,0:1|0:0,0:0:0:0:
16,328,105493,6,0,P|184:292|8:112,1,528,2|0,1:0|0:0,0:0:0:0:
300,140,106826,2,0,P|392:140|456:368,1,352,2|2,1:0|0:1,0:0:0:0:
44,352,108159,5,6,3:0:0:0:
256,192,108326,12,0,110826,0:0:0:0:
