osu file format v14

[General]
AudioFilename: audio.mp3
AudioLeadIn: 0
PreviewTime: 89451
Countdown: 0
SampleSet: Soft
StackLeniency: 0.7
Mode: 2
LetterboxInBreaks: 0
WidescreenStoryboard: 0

[Editor]
DistanceSpacing: 1
BeatDivisor: 4
GridSize: 4
TimelineZoom: 2.7

[Metadata]
Title:Undersky
TitleUnicode:Undersky
Artist:Lundy
ArtistUnicode:Lundy
Creator:4rcheR-
Version:Platter
Source:
Tags:archer AJamez Jemzuu Verti electronic instrumental fa featured artist mappers' guild mg mpg edm & house artcore drum future bass dnb d'n'b D&B melodic Florida Priority Quests
BeatmapID:4472506
BeatmapSetID:2126685

[Difficulty]
HPDrainRate:4
CircleSize:3.2
OverallDifficulty:7.8
ApproachRate:7.8
SliderMultiplier:1.56
SliderTickRate:1

[Events]
//Background and Video events
0,0,"bg.jpg",0,0
//Break Periods
2,57826,65493
//Storyboard Layer 0 (Background)
//Storyboard Layer 1 (Fail)
//Storyboard Layer 2 (Pass)
//Storyboard Layer 3 (Foreground)
//Storyboard Layer 4 (Overlay)
//Storyboard Sound Samples

[TimingPoints]
160,333.333333333333,4,3,21,40,1,0
1493,-100,4,3,21,50,0,0
12159,-100,4,2,21,60,0,0
14826,-100,4,2,21,70,0,0
17493,-100,4,2,21,60,0,0
18826,-100,4,2,21,65,0,0
21493,-100,4,2,21,60,0,0
22826,-100,4,2,21,50,0,0
24159,-100,4,2,21,55,0,0
25493,-100,4,3,22,60,0,0
25576,-100,4,1,23,60,0,0
26826,-100,4,1,23,65,0,0
28159,-100,4,1,23,60,0,0
29493,-100,4,1,23,65,0,0
30826,-100,4,1,23,60,0,0
32159,-100,4,1,23,65,0,0
33493,-100,4,1,23,60,0,0
34159,-100,4,1,23,65,0,0
34826,-100,4,1,23,70,0,0
35493,-100,4,3,22,75,0,0
36159,-100,4,2,23,50,0,0
41493,-100,4,3,22,55,0,0
46826,-100,4,2,23,60,0,0
52159,-100,4,2,23,65,0,0
54826,-100,4,2,23,70,0,0
56159,-100,4,2,23,75,0,0
57493,-100,4,2,23,40,0,0
66826,-100,4,2,21,50,0,0
68159,-100,4,2,22,60,0,0
68326,-100,4,3,21,60,0,0
76159,-100,4,3,21,65,0,0
77493,-100,4,3,23,70,0,0
78159,-100,4,2,23,75,0,0
78826,-100,4,3,23,80,0,1
89493,-100,4,3,23,85,0,1
98826,-100,4,3,23,80,0,1
99159,-100,4,3,23,80,0,1
99326,-100,4,3,23,80,0,1
100159,-100,4,3,21,75,0,0
102826,-100,4,3,21,70,0,0
104159,-100,4,3,21,65,0,0
105493,-100,4,3,21,60,0,0
106826,-100,4,3,21,55,0,0
108159,-100,4,3,22,50,0,0
108826,-100,4,3,21,40,0,0
109493,-100,4,3,21,30,0,0
110159,-100,4,3,21,20,0,0
110826,-100,4,3,21,10,0,0

[Colours]
Combo1 : 240,205,129
Combo2 : 128,128,128
Combo3 : 3,148,209
Combo4 : 192,192,192
Combo5 : 208,178,186

[HitObjects]
200,192,1159,6,0,L|88:192,1,78,2|2,0:0|0:3,0:0:0:0:
372,192,1493,5,6,1:3:0:0:
443,178,1659,1,2,0:0:0:0:
440,104,1826,1,2,0:0:0:0:
370,83,1992,1,2,0:0:0:0:
204,80,2159,2,0,L|116:80,2,78,2|2|2,0:2|0:2|0:2,0:0:0:0:
370,83,2659,6,0,P|424:136|360:184,1,156,2|0,1:2|0:0,0:0:0:0:
304,192,3159,1,2,0:2:0:0:
460,192,3493,2,0,L|468:12,1,156,2|2,0:2|0:2,0:0:0:0:
172,36,4159,6,0,L|52:32,2,117,2|2|2,0:2|0:2|0:2,0:0:0:0:
404,36,5159,2,0,L|404:128,1,78,2|2,0:0|0:3,0:0:0:0:
240,112,5493,6,0,L|144:112,2,78,2|2|2,1:2|0:2|0:2,0:0:0:0:
356,116,6076,2,0,L|356:256,1,117,2|2,0:0|0:3,0:0:0:0:
276,232,6493,2,0,L|184:232,1,78,2|2,0:2|0:2,0:0:0:0:
448,228,6826,6,0,L|448:64,1,156,2|0,1:3|0:0,0:0:0:0:
284,64,7326,2,0,L|112:60,1,156,2|2,0:2|0:2,0:0:0:0:
208,60,7826,1,2,0:2:0:0:
246,61,7909,1,2,0:2:0:0:
285,63,7992,1,2,0:2:0:0:
120,56,8159,6,0,L|0:56,2,117,2|2|2,1:3|0:3|0:2,0:0:0:0:
200,52,8826,2,0,L|200:140,1,78,2|2,1:3|0:2,0:0:0:0:
124,124,9159,2,0,L|28:124,1,78,2|2,0:3|0:3,0:0:0:0:
212,120,9493,6,0,L|384:120,1,156,2|0,1:3|0:0,0:0:0:0:
212,120,10159,2,0,P|136:128|100:204,1,156,2|2,0:0|0:0,0:0:0:0:
396,216,10826,6,0,P|456:176|384:64,1,234,2|2,1:2|0:2,0:0:0:0:
308,64,11493,1,2,0:2:0:0:
268,64,11576,1,2,0:2:0:0:
228,64,11659,1,2,0:2:0:0:
392,60,11826,2,0,L|448:60,2,39,2|2|2,0:2|0:2|0:2,0:0:0:0:
144,52,12159,5,6,1:3:0:0:
75,76,12325,1,2,0:3:0:0:
76,149,12492,1,2,0:3:0:0:
145,172,12658,1,2,0:3:0:0:
312,176,12826,2,0,P|340:128|296:72,1,117,2|2,0:0|0:0,0:0:0:0:
272,76,13159,2,0,L|160:76,1,78,2|2,0:0|0:0,0:0:0:0:
360,72,13493,5,2,0:0:0:0:
436,72,13659,1,2,0:0:0:0:
360,72,13826,1,2,0:2:0:0:
280,72,13993,1,2,0:0:0:0:
116,76,14159,2,0,L|116:184,1,78,2|2,0:0|0:3,0:0:0:0:
36,164,14493,2,0,L|36:260,1,78,2|2,0:0|0:3,0:0:0:0:
284,232,14826,6,0,L|404:232,3,117,6|6|6|6,1:0|1:0|1:0|1:0,0:0:0:0:
180,244,15826,1,6,1:0:0:0:
444,244,16159,6,0,L|320:244,3,117,6|6|6|6,1:0|1:0|1:0|1:0,0:0:0:0:
104,256,17159,2,0,L|104:156,1,78,6|0,1:0|1:0,0:0:0:0:
356,160,17493,6,0,P|404:136|384:44,1,156,4|10,1:3|0:1,0:0:0:0:
312,48,17993,1,2,0:1:0:0:
236,60,18159,2,0,L|400:56,1,156,10|10,0:1|0:1,0:0:0:0:
316,44,18659,1,2,0:1:0:0:
152,48,18826,5,8,0:1:0:0:
80,59,18992,1,8,0:1:0:0:
73,131,19159,1,10,0:1:0:0:
142,156,19326,1,10,0:1:0:0:
304,164,19493,2,0,L|368:164,2,39,10|2|2,0:2|0:3|0:3,0:0:0:0:
224,164,19826,1,2,1:0:0:0:
219,202,19909,1,2,0:3:0:0:
214,241,19992,1,2,0:3:0:0:
464,244,20159,5,12,1:2:0:0:
459,167,20325,1,8,0:1:0:0:
405,114,20492,1,10,0:1:0:0:
328,110,20659,1,10,0:1:0:0:
252,112,20826,2,0,L|364:112,1,78,10|8,0:1|0:1,0:0:0:0:
368,108,21076,1,2,0:1:0:0:
328,110,21159,2,0,L|236:112,1,78,10|10,0:1|0:1,0:0:0:0:
84,104,21493,6,0,L|84:184,1,78,2|2,1:3|0:1,0:0:0:0:
164,180,21826,1,2,0:1:0:0:
244,180,21993,1,2,0:1:0:0:
164,180,22159,2,0,P|80:196|44:276,1,156,10|0,0:1|1:0,0:0:0:0:
452,284,22826,5,6,1:3:0:0:
454,245,22909,1,2,0:3:0:0:
457,206,22992,1,2,0:3:0:0:
380,188,23159,1,2,0:3:0:0:
340,184,23243,1,2,0:3:0:0:
300,180,23326,1,2,0:3:0:0:
464,168,23493,5,2,1:3:0:0:
469,129,23576,1,2,1:3:0:0:
461,91,23659,1,2,1:3:0:0:
440,59,23742,1,2,1:3:0:0:
409,36,23826,1,2,1:3:0:0:
372,25,23909,1,2,1:3:0:0:
333,29,23992,1,2,1:3:0:0:
168,32,24159,6,0,L|112:32,2,39,2|2|2,1:2|1:2|1:2,0:0:0:0:
248,32,24493,2,0,L|296:32,2,39,2|2|2,1:2|1:2|1:2,0:0:0:0:
84,44,24826,1,2,0:2:0:0:
81,82,24909,1,2,0:2:0:0:
78,121,24992,1,2,0:2:0:0:
244,124,25159,1,2,0:2:0:0:
282,122,25242,1,2,0:2:0:0:
321,120,25325,1,2,0:2:0:0:
72,124,25493,5,6,1:2:0:0:
72,124,25659,2,0,L|188:128,1,117,2|2,0:0|0:0,0:0:0:0:
308,132,26159,2,0,L|440:136,2,117,2|2|2,0:0|0:0|0:0,0:0:0:0:
144,124,26826,5,2,1:2:0:0:
75,149,26992,1,8,0:0:0:0:
78,222,27159,1,2,0:0:0:0:
148,243,27326,1,10,0:0:0:0:
312,244,27493,1,2,0:0:0:0:
313,205,27576,1,2,0:0:0:0:
315,166,27659,1,2,1:0:0:0:
236,156,27826,1,10,0:0:0:0:
197,154,27909,1,2,0:0:0:0:
158,152,27992,1,2,0:0:0:0:
408,148,28159,6,0,L|412:60,1,78,2|2,0:0|0:0,0:0:0:0:
332,60,28493,1,10,0:0:0:0:
256,52,28659,1,2,0:0:0:0:
336,52,28826,2,0,L|464:52,2,117,2|2|2,0:0|0:0|0:0,0:0:0:0:
172,48,29493,5,2,1:2:0:0:
103,75,29659,1,8,0:0:0:0:
100,149,29826,1,10,0:0:0:0:
166,182,29993,1,2,0:0:0:0:
328,180,30159,2,0,L|328:276,1,78,2|2,0:0|1:3,0:0:0:0:
408,252,30493,2,0,L|408:340,1,78,10|2,0:0|0:0,0:0:0:0:
156,332,30826,5,2,0:0:0:0:
76,336,30993,2,0,L|76:212,1,117,2|2,0:0|0:0,0:0:0:0:
192,200,31493,2,0,L|60:200,2,117,2|2|2,0:0|0:0|0:0,0:0:0:0:
356,204,32159,6,0,L|360:100,1,78,2|8,1:2|0:0,0:0:0:0:
436,136,32493,2,0,L|444:40,1,78,10|2,0:0|0:0,0:0:0:0:
276,56,32827,1,2,0:0:0:0:
237,54,32910,1,2,0:0:0:0:
198,53,32993,1,2,1:3:0:0:
276,56,33159,1,2,1:3:0:0:
316,56,33243,1,2,1:3:0:0:
356,56,33326,1,2,1:3:0:0:
104,60,33493,6,0,L|24:56,2,78,10|2|2,0:3|0:0|0:0,0:0:0:0:
268,68,33993,2,0,L|368:68,2,78,10|2|2,0:3|0:0|0:0,0:0:0:0:
104,68,34493,2,0,L|104:160,1,78,10|2,0:3|0:0,0:0:0:0:
268,144,34826,5,2,1:2:0:0:
337,164,34992,1,8,0:0:0:0:
340,237,35159,1,2,1:3:0:0:
271,262,35325,1,2,1:3:0:0:
108,260,35493,2,0,L|104:156,1,78,2|2,1:3|1:3,0:0:0:0:
184,176,35826,2,0,L|96:176,1,78,2|0,1:3|1:3,0:0:0:0:
356,176,36159,6,0,L|356:12,1,156,6|10,1:2|0:0,0:0:0:0:
200,32,36826,2,0,L|32:32,1,156,2|10,0:0|0:0,0:0:0:0:
200,32,37493,6,0,L|200:192,1,156,2|10,1:2|0:0,0:0:0:0:
356,180,38159,2,0,L|356:344,1,156,2|10,0:0|0:0,0:0:0:0:
60,332,38826,6,0,L|236:332,1,156,2|10,1:2|0:0,0:0:0:0:
372,332,39493,2,0,L|372:164,1,156,2|10,0:0|0:0,0:0:0:0:
216,172,40159,6,0,L|44:172,1,156,2|10,1:2|0:0,0:0:0:0:
216,172,40826,2,0,L|48:172,1,156,2|10,0:0|1:2,0:0:0:0:
468,176,41493,6,0,L|496:120,2,52,6|0|0,1:3|0:0|0:0,0:0:0:0:
416,176,41826,1,2,0:1:0:0:
260,180,42159,1,10,0:2:0:0:
208,180,42271,1,0,0:0:0:0:
156,180,42382,1,0,0:0:0:0:
104,180,42493,1,2,0:1:0:0:
400,184,42826,6,0,L|464:184,1,52,2|0,1:3|0:0,0:0:0:0:
448,132,43048,1,0,0:0:0:0:
396,132,43159,1,2,0:1:0:0:
240,124,43493,1,10,0:2:0:0:
292,124,43604,1,0,0:0:0:0:
344,124,43715,1,0,0:0:0:0:
396,124,43826,1,2,0:1:0:0:
100,128,44159,6,0,L|100:44,1,52,2|0,1:3|0:0,0:0:0:0:
152,76,44382,1,0,0:0:0:0:
204,76,44493,1,2,0:1:0:0:
360,76,44826,1,10,0:2:0:0:
412,76,44937,1,0,0:0:0:0:
464,76,45048,1,0,0:0:0:0:
412,76,45159,1,2,0:1:0:0:
120,68,45493,5,2,1:3:0:0:
68,68,45604,1,0,0:0:0:0:
16,68,45715,2,0,L|16:144,1,52,0|2,0:0|0:1,0:0:0:0:
172,128,46159,1,10,0:2:0:0:
120,128,46270,1,0,0:0:0:0:
68,128,46381,1,0,0:0:0:0:
16,128,46492,1,2,0:0:0:0:
424,128,46826,6,0,P|420:208|360:256,1,156,14|10,1:0|1:0,0:0:0:0:
208,312,47493,2,0,L|368:312,1,156,10|10,1:0|1:0,0:0:0:0:
68,312,48159,6,0,L|228:312,1,156,10|10,1:0|1:0,0:0:0:0:
68,304,48826,2,0,L|64:140,1,156,10|10,1:0|1:0,0:0:0:0:
472,156,49493,6,0,L|308:156,1,156,10|10,1:0|1:0,0:0:0:0:
160,152,50159,2,0,L|160:320,1,156,10|10,1:0|1:0,0:0:0:0:
456,312,50826,6,0,L|284:312,1,156,10|10,1:0|1:0,0:0:0:0:
144,324,51493,2,0,P|88:296|68:180,1,156,10|10,1:0|1:0,0:0:0:0:
460,152,52159,5,14,1:0:0:0:
460,48,52382,1,10,1:0:0:0:
356,40,52604,1,10,1:0:0:0:
252,32,52826,1,10,1:0:0:0:
356,28,53048,1,10,1:0:0:0:
252,32,53271,1,10,1:0:0:0:
56,36,53493,5,10,1:0:0:0:
56,140,53715,1,10,1:0:0:0:
160,140,53937,1,10,1:0:0:0:
264,140,54159,1,10,1:0:0:0:
160,140,54382,1,10,1:0:0:0:
56,140,54604,1,10,1:0:0:0:
368,136,54826,6,0,L|372:64,1,52,14|10,1:0|1:0,0:0:0:0:
320,80,55048,1,10,1:0:0:0:
204,80,55159,1,10,1:0:0:0:
152,80,55271,2,0,L|216:80,1,52,10|10,1:0|1:0,0:0:0:0:
320,80,55493,1,10,1:0:0:0:
372,80,55604,1,8,1:0:0:0:
424,80,55715,1,8,1:0:0:0:
476,80,55826,1,10,1:0:0:0:
424,80,55937,1,10,1:0:0:0:
372,80,56048,1,10,1:0:0:0:
256,80,56159,5,14,1:0:0:0:
204,80,56271,1,10,1:0:0:0:
152,80,56382,1,10,1:0:0:0:
204,80,56493,2,0,L|280:80,2,52,10|10|10,1:0|1:0|1:0,0:0:0:0:
88,80,56826,1,10,1:0:0:0:
60,124,56937,1,10,1:0:0:0:
56,176,57048,1,10,1:0:0:0:
92,216,57159,1,10,1:0:0:0:
144,228,57271,1,10,1:0:0:0:
456,220,57493,5,4,1:0:0:0:
256,192,66826,12,0,67826,0:0:0:0:
262,84,68159,6,0,L|164:84,1,78,14|2,1:2|0:0,0:0:0:0:
108,88,68493,1,2,0:0:0:0:
184,84,68659,2,0,P|224:160|180:200,1,156,2|2,0:1|0:0,0:0:0:0:
104,200,69159,1,8,0:0:0:0:
400,76,69493,5,2,1:0:0:0:
471,86,69659,1,2,0:0:0:0:
471,157,69826,1,2,0:0:0:0:
400,167,69993,1,2,0:1:0:0:
320,168,70159,2,0,L|320:260,1,78,2|2,0:0|0:1,0:0:0:0:
484,252,70493,2,0,L|484:160,1,78,8|2,0:0|0:1,0:0:0:0:
232,180,70826,6,0,P|180:140|236:88,1,156,2|8,1:0|0:0,0:0:0:0:
296,180,71326,2,0,L|124:180,1,156,2|0,0:1|0:0,0:0:0:0:
60,180,71826,1,8,0:0:0:0:
356,168,72159,6,0,P|392:224|332:300,1,156,2|8,1:0|0:0,0:0:0:0:
272,296,72659,2,0,L|448:296,1,156,2|0,0:1|0:0,0:0:0:0:
352,300,73159,1,8,0:0:0:0:
52,296,73493,6,0,P|8:244|80:172,1,156,2|8,1:0|0:0,0:0:0:0:
124,176,73993,2,0,P|176:132|108:76,1,156,2|0,0:1|0:0,0:0:0:0:
52,72,74493,1,8,0:0:0:0:
348,164,74826,6,0,P|392:128|340:56,1,156,2|8,1:0|0:0,0:0:0:0:
268,52,75326,1,2,0:1:0:0:
192,56,75493,1,2,0:3:0:0:
190,94,75576,1,2,0:3:0:0:
188,133,75659,1,2,0:3:0:0:
352,136,75826,1,10,0:3:0:0:
391,136,75909,1,2,0:3:0:0:
430,136,75992,1,2,0:3:0:0:
180,144,76159,6,0,P|136:180|192:256,1,156,2|8,1:0|0:0,0:0:0:0:
256,252,76659,2,0,P|312:300|248:332,1,156,2|0,0:1|0:0,0:0:0:0:
100,336,77159,2,0,L|100:256,1,78,8|0,0:0|0:0,0:0:0:0:
352,256,77493,5,2,1:0:0:0:
256,192,77659,12,2,78493,1:0:0:0:
256,192,78826,6,0,L|80:192,1,156,6|8,1:3|0:0,0:0:0:0:
20,196,79326,2,0,L|20:36,1,156,0|8,1:0|0:0,0:0:0:0:
192,32,79826,2,0,L|284:32,1,78,2|2,0:0|0:0,0:0:0:0:
12,36,80159,6,0,P|16:104|108:132,1,156,0|8,1:0|0:0,0:0:0:0:
168,140,80659,2,0,P|260:152|280:228,1,156,0|8,1:0|0:0,0:0:0:0:
112,208,81159,2,0,L|112:292,1,78,2|2,0:0|0:0,0:0:0:0:
372,288,81493,6,0,P|416:288|464:188,1,156,0|8,1:0|0:0,0:0:0:0:
388,200,81993,2,0,P|312:196|272:104,1,156,0|8,1:0|0:0,0:0:0:0:
444,124,82493,1,2,0:0:0:0:
440,84,82576,1,2,0:0:0:0:
404,72,82659,1,2,0:0:0:0:
148,64,82826,6,0,L|148:144,1,78,0|2,1:0|0:0,0:0:0:0:
320,144,83159,2,0,L|320:236,1,78,8|0,0:0|1:0,0:0:0:0:
240,224,83493,1,2,1:0:0:0:
201,224,83576,1,0,1:0:0:0:
162,224,83659,1,8,1:3:0:0:
332,220,83826,1,2,1:0:0:0:
371,220,83909,1,0,1:0:0:0:
410,220,83992,1,0,1:0:0:0:
152,228,84159,6,0,P|92:192|144:136,1,156,2|10,1:0|0:0,0:0:0:0:
212,136,84659,2,0,P|280:124|300:32,1,156,2|8,1:0|0:0,0:0:0:0:
136,44,85159,2,0,L|56:44,1,78,2|2,0:0|0:0,0:0:0:0:
316,44,85493,6,0,P|368:80|308:140,1,156,0|8,1:0|0:0,0:0:0:0:
244,140,85993,1,0,1:0:0:0:
328,140,86159,2,0,L|424:140,1,78,2|10,0:0|0:0,0:0:0:0:
232,140,86493,2,0,L|148:140,1,78,2|2,1:0|0:0,0:0:0:0:
412,136,86826,6,0,P|452:168|404:260,1,156,2|8,1:0|0:0,0:0:0:0:
344,260,87326,1,2,0:0:0:0:
172,256,87493,2,0,L|172:168,1,78,0|8,1:0|0:0,0:0:0:0:
248,160,87826,2,0,L|344:160,1,78,0|2,1:0|0:0,0:0:0:0:
68,160,88159,6,0,L|68:80,1,78,2|2,1:0|0:0,0:0:0:0:
148,76,88493,1,10,0:0:0:0:
304,76,88826,1,2,1:0:0:0:
224,76,88993,1,10,0:0:0:0:
396,80,89159,2,0,L|396:168,1,78,2|2,1:0|0:0,0:0:0:0:
136,152,89493,6,0,P|84:192|152:232,1,156,4|10,1:0|0:0,0:0:0:0:
176,240,89909,1,2,0:0:0:0:
216,240,89993,1,2,1:0:0:0:
388,240,90159,2,0,L|388:136,1,78,2|8,0:0|0:0,0:0:0:0:
308,168,90493,2,0,L|400:168,1,78,2|2,0:0|0:0,0:0:0:0:
128,168,90826,6,0,P|80:236|144:272,1,156,0|10,1:0|0:0,0:0:0:0:
200,272,91326,1,2,1:0:0:0:
372,268,91493,1,2,0:0:0:0:
410,263,91576,1,2,0:0:0:0:
438,237,91659,1,2,1:0:0:0:
448,200,91742,1,2,0:0:0:0:
435,164,91826,1,10,0:0:0:0:
404,141,91909,1,2,0:0:0:0:
365,140,91992,1,2,0:0:0:0:
116,180,92159,6,0,L|108:8,1,156,2|8,1:0|0:0,0:0:0:0:
148,24,92576,1,2,0:0:0:0:
188,24,92659,1,2,1:0:0:0:
360,28,92826,2,0,L|364:108,1,78,2|10,0:0|0:0,0:0:0:0:
284,112,93159,2,0,L|192:112,1,78,2|2,1:0|0:0,0:0:0:0:
464,112,93493,5,2,1:0:0:0:
464,112,93659,2,0,L|296:112,1,156,8|2,0:0|1:0,0:0:0:0:
232,120,94159,2,0,L|232:204,1,78,2|8,0:0|0:0,0:0:0:0:
404,200,94493,2,0,L|404:112,1,78,0|2,1:0|0:0,0:0:0:0:
148,116,94826,5,6,1:0:0:0:
68,112,94993,2,0,L|64:236,1,117,2|2,0:0|0:0,0:0:0:0:
180,240,95493,2,0,L|48:240,2,117,2|2|2,0:0|0:0|0:0,0:0:0:0:
436,240,96159,6,0,L|440:160,1,78,2|2,0:0|0:0,0:0:0:0:
360,160,96493,1,10,0:1:0:0:
321,158,96576,1,2,0:0:0:0:
282,157,96659,1,2,0:0:0:0:
112,156,96826,2,0,L|244:156,2,117,2|2|2,0:0|0:0|0:0,0:0:0:0:
368,148,97493,5,2,0:0:0:0:
444,144,97659,2,0,L|444:24,1,117,2|2,0:0|0:0,0:0:0:0:
220,36,98159,2,0,L|88:36,2,117,2|2|2,0:0|0:0|0:0,0:0:0:0:
476,48,98826,5,2,0:0:0:0:
474,124,98992,1,2,0:0:0:0:
422,180,99159,1,10,0:1:0:0:
346,188,99326,1,2,0:0:0:0:
176,188,99493,1,2,0:0:0:0:
176,227,99576,1,0,1:0:0:0:
176,266,99659,1,2,0:0:0:0:
348,284,99826,2,0,L|404:280,2,39,2|0|2,1:3|1:0|1:3,0:0:0:0:
96,284,100159,6,0,P|96:212|248:140,2,234,2|2|2,1:0|0:1|0:1,0:0:0:0:
252,280,101493,6,0,P|304:268|224:160,1,234,2|2,0:1|0:1,0:0:0:0:
176,144,102159,1,2,0:1:0:0:
176,105,102242,1,2,0:1:0:0:
176,66,102325,1,2,0:1:0:0:
340,64,102493,1,2,0:1:0:0:
379,64,102576,1,2,0:1:0:0:
340,64,102659,1,2,0:1:0:0:
176,60,102826,6,0,P|96:64|24:208,2,234,2|2|2,1:0|0:1|0:1,0:0:0:0:
472,60,104159,6,0,P|471:130|384:168,1,156,2|0,1:0|0:0,0:0:0:0:
324,172,104659,2,0,P|320:240|460:312,1,234,2|0,0:1|0:0,0:0:0:0:
44,328,105493,6,0,P|136:320|376:40,1,468,2|0,1:0|0:0,0:0:0:0:
76,48,106826,6,0,L|48:368,1,312,2|2,1:0|0:1,0:0:0:0:
488,352,108159,5,6,3:0:0:0:
256,192,108326,12,0,110826,0:0:0:0:
