osu file format v14

[General]
AudioFilename: audio.mp3
AudioLeadIn: 0
PreviewTime: 121937
Countdown: 0
SampleSet: Soft
StackLeniency: 0.7
Mode: 0
LetterboxInBreaks: 0
WidescreenStoryboard: 1

[Editor]
Bookmarks: 531,14031,26031,38031,38124,62031,86406,98031,110031,122031,146031,162531
DistanceSpacing: 1
BeatDivisor: 4
GridSize: 32
TimelineZoom: 1.6

[Metadata]
Title:Septima
TitleUnicode:Septima
Artist:Lundy
ArtistUnicode:Lundy
Creator:Cytusine
Version:Normal
Source:vivid/stasis
Tags:vivid stasis featured artist fa edm future flamenco electronic instrumental video game mappers' guild mpg ajmosca ajmeowsca
BeatmapID:4482770
BeatmapSetID:2122231

[Difficulty]
HPDrainRate:3
CircleSize:3.3
OverallDifficulty:4
ApproachRate:5.5
SliderMultiplier:1.1
SliderTickRate:1

[Events]
//Background and Video events
0,0,"diamond.jpg",0,0
//Break Periods
2,2231,3906
2,5231,6718
2,26231,30906
2,86606,96906
2,110231,111906
//Storyboard Layer 0 (Background)
//Storyboard Layer 1 (Fail)
//Storyboard Layer 2 (Pass)
//Storyboard Layer 3 (Foreground)
//Storyboard Layer 4 (Overlay)
//Storyboard Sound Samples

[TimingPoints]
531,375,4,2,1,60,1,0
12531,-100,4,2,2,60,0,0
12906,-100,4,2,1,60,0,0
14031,-100,4,2,1,70,0,0
23031,-100,4,2,1,70,0,0
23781,-100,4,2,1,70,0,0
24531,-100,4,2,1,50,0,0
26031,-100,4,2,1,40,0,0
32031,-100,4,2,1,50,0,0
38031,-100,4,2,1,60,0,0
50031,-100,4,2,1,50,0,0
56031,-100,4,2,1,60,0,0
61281,-100,4,2,1,70,0,0
61656,-100,4,2,2,70,0,0
62031,-100,4,2,1,85,0,1
62968,-100,4,2,2,85,0,1
65031,-100,4,2,1,85,0,1
65406,-100,4,2,1,85,0,1
67656,-100,4,2,1,85,0,1
68031,-100,4,2,1,85,0,1
68874,-100,4,2,1,60,0,1
69718,-100,4,2,1,75,0,1
69906,-100,4,2,1,85,0,1
70656,-100,4,2,1,85,0,1
71031,-100,4,2,1,85,0,1
71406,-100,4,2,1,85,0,1
72531,-100,4,2,1,60,0,0
74031,-100,4,2,1,85,0,1
74593,-100,4,2,2,85,0,1
74781,-100,4,2,1,85,0,1
75343,-100,4,2,1,85,0,1
75906,-100,4,2,1,85,0,1
76093,-100,4,2,1,85,0,1
76656,-100,4,2,1,85,0,1
77031,-100,4,2,1,85,0,1
77406,-100,4,2,2,85,0,1
77781,-100,4,2,1,85,0,1
78156,-100,4,2,1,85,0,1
78531,-100,4,2,1,60,0,0
80031,-100,4,2,1,60,0,1
82656,-100,4,2,1,60,0,1
83031,-100,4,2,1,60,0,1
85468,-100,4,2,2,69,0,1
86031,-100,4,2,1,45,0,0
91281,-100,4,2,1,45,0,0
92781,-100,4,2,1,45,0,0
95031,-100,4,2,1,45,0,0
96531,-100,4,2,1,45,0,0
98031,-100,4,2,1,60,0,0
108531,-100,4,2,2,70,0,0
108906,-100,4,2,2,70,0,0
109281,-100,4,2,2,70,0,0
109656,-100,4,2,2,70,0,0
110031,-100,4,2,1,60,0,0
113031,-100,4,2,1,75,0,0
121656,-100,4,2,1,75,0,0
121843,-100,4,2,1,75,0,0
122031,-100,4,2,1,85,0,1
126156,-100,4,2,1,85,0,1
126531,-100,4,2,1,85,0,1
132156,-100,4,2,2,85,0,1
132531,-100,4,2,1,60,0,0
134406,-100,4,2,2,60,0,0
135718,-100,4,2,2,60,0,0
136281,-100,4,2,2,60,0,0
137031,-100,4,2,1,85,0,1
138531,-100,4,2,1,85,0,1
144531,-100,4,2,1,60,0,0
146593,-100,4,2,2,80,0,0
146781,-100,4,2,1,80,0,0
149031,-100,4,2,1,80,0,0
149781,-100,4,2,1,80,0,0
150531,-100,4,2,1,80,0,0
152031,-100,4,2,1,80,0,0
152218,-100,4,2,1,60,0,0
152406,-100,4,2,1,60,0,0
152781,-100,4,2,1,40,0,0
155031,-100,4,2,1,60,0,0
156531,-100,4,2,1,70,0,0
158031,-100,4,2,1,80,0,0
160281,-100,4,2,1,80,0,0

[Colours]
Combo1 : 128,255,255
Combo2 : 255,0,128
Combo3 : 254,186,46

[HitObjects]
167,69,531,6,0,P|86:84|4:95,2,165
255,3,2031,1,6,0:0:0:0:
255,381,5031,5,6,0:0:0:0:
256,192,7843,5,8,0:1:0:0:
256,192,8031,2,0,P|297:157|351:148,1,110,12|8,0:1|0:0,0:0:0:0:
402,167,8593,2,0,L|411:221,1,55,0|8,0:0|0:1,0:0:0:0:
389,329,9156,2,0,P|348:294|294:285,1,110,8|8,0:0|0:1,0:0:0:0:
243,304,9718,2,0,L|234:358,1,55,0|8,0:0|0:0,0:0:0:0:
140,323,10281,5,10,0:1:0:0:
140,323,10468,1,2,0:0:0:0:
140,323,10656,1,10,0:0:0:0:
43,270,11031,6,0,P|8:229|-1:175,1,110,12|8,0:1|0:0,0:0:0:0:
18,124,11593,2,0,L|72:115,1,55,0|8,0:0|0:1,0:0:0:0:
134,206,12156,1,8,0:0:0:0:
232,156,12531,2,0,L|241:102,2,55,2|2|12,0:1|0:0|0:0,0:0:0:0:
244,265,13281,2,0,L|298:274,1,55,2|8,0:0|0:1,0:0:0:0:
352,263,13656,1,8,0:0:0:0:
392,160,14030,5,14,0:1:0:0:
433,58,14406,2,0,P|473:58|506:34,2,82.5,8|10|8,0:0|0:1|0:1,0:0:0:0:
390,24,15156,1,10,0:0:0:0:
286,59,15531,5,8,0:1:0:0:
203,131,15906,2,0,P|162:130|129:154,2,82.5,8|8|10,0:0|0:1|0:1,0:0:0:0:
248,164,16655,1,10,0:0:0:0:
282,268,17031,5,6,0:0:0:0:
368,335,17406,2,0,P|400:310|441:310,2,82.5,8|10|8,0:0|0:1|0:1,0:0:0:0:
338,381,18156,1,10,0:0:0:0:
231,354,18531,5,8,0:1:0:0:
128,313,18906,2,0,L|20:330,1,110,8|10,0:0|0:0,0:0:0:0:
70,233,19656,2,0,L|123:224,1,55,10|10,0:0|0:1,0:0:0:0:
158,180,20031,5,14,0:1:0:0:
176,71,20406,1,8,0:1:0:0:
285,89,20781,1,8,0:1:0:0:
267,198,21156,1,8,0:0:0:0:
372,168,21531,6,0,L|380:221,1,55,8|0,0:0|0:0,0:0:0:0:
425,256,21906,1,14,0:1:0:0:
452,362,22281,2,0,L|505:370,2,55,10|2|10,0:1|0:0|0:0,0:0:0:0:
345,334,23031,6,0,P|303:369|249:377,1,110,10|8,0:1|0:0,0:0:0:0:
204,359,23592,1,10,0:1:0:0:
204,359,23781,1,8,0:1:0:0:
186,255,24156,1,10,0:0:0:0:
186,255,24343,1,10,0:1:0:0:
512,201,26031,1,2,0:0:0:0:
79,93,32031,6,0,B|36:59|36:59|55:5,2,110,8|0|2,0:1|0:0|0:0,0:0:0:0:
201,275,33531,2,0,L|218:383,2,110,8|0|2,0:1|0:0|0:0,0:0:0:0:
393,169,35031,2,0,B|426:126|426:126|480:145,2,110,8|0|2,0:1|0:0|0:0,0:0:0:0:
179,115,36531,2,0,L|71:98,2,110,8|0|2,0:1|0:0|0:0,0:0:0:0:
386,43,38031,5,10,0:1:0:0:
437,140,38406,2,0,P|477:140|510:164,2,82.5,10|10|8,0:0|0:1|0:1,0:0:0:0:
398,179,39156,2,0,L|390:233,1,55,8|2,0:0|0:0,0:0:0:0:
382,288,39531,5,10,0:1:0:0:
271,281,39906,2,0,P|291:315|286:356,2,82.5,8|8|8,0:0|0:1|0:1,0:0:0:0:
234,240,40656,1,10,0:0:0:0:
177,334,41031,5,2,0:0:0:0:
74,293,41406,2,0,L|82:239,1,55,10|2,0:0|0:0,0:0:0:0:
128,209,41781,2,0,L|120:155,2,55,2|10|10,0:0|0:1|0:0,0:0:0:0:
234,240,42531,5,10,0:1:0:0:
288,144,42906,1,10,0:0:0:0:
232,49,43281,2,0,P|197:69|156:64,2,82.5,2|10|10,0:0|0:1|0:1,0:0:0:0:
272,11,44031,5,10,0:1:0:0:
369,61,44406,2,0,L|377:115,1,55,8|2,0:0|0:0,0:0:0:0:
412,158,44781,2,0,L|466:166,2,55,8|0|10,0:1|0:0|0:0,0:0:0:0:
326,226,45531,5,10,0:1:0:0:
251,306,45906,2,0,L|197:298,1,55,8|2,0:0|0:0,0:0:0:0:
150,328,46281,2,0,L|158:382,2,55,8|0|10,0:1|0:0|0:0,0:0:0:0:
128,220,47031,6,0,P|162:200|179:162,2,82.5,10|2|2,0:1|0:0|0:0,0:0:0:0:
35,172,47967,1,2,0:0:0:0:
35,172,48156,2,0,L|27:118,1,55,10|2,0:0|0:0,0:0:0:0:
42,64,48531,6,0,L|150:48,1,110,10|10,0:1|0:0,0:0:0:0:
252,88,49281,2,0,P|279:59|320:53,2,82.5,10|2|2,0:1|0:0|0:0,0:0:0:0:
215,129,50031,5,12,0:0:0:0:
459,308,51531,1,12,0:0:0:0:
156,254,53031,1,12,0:0:0:0:
415,86,54531,1,12,0:0:0:0:
287,364,56031,5,8,0:1:0:0:
396,346,56406,1,8,0:1:0:0:
504,328,56781,2,0,L|512:274,1,55,8|8,0:1|0:0,0:0:0:0:
489,223,57156,1,8,0:1:0:0:
473,110,57531,5,8,0:1:0:0:
434,6,57906,1,8,0:1:0:0:
356,83,58280,2,0,B|334:100|334:100|343:126,1,55,8|8,0:1|0:0,0:0:0:0:
325,178,58656,1,8,0:1:0:0:
221,210,59031,6,0,L|167:218,1,55,10|8,0:1|0:0,0:0:0:0:
128,257,59406,2,0,L|74:249,1,55,8|10,0:1|0:0,0:0:0:0:
32,212,59781,1,8,0:1:0:0:
59,105,60156,1,10,0:1:0:0:
166,80,60531,6,0,P|186:44|223:28,2,82.5,14|4|4,0:1|0:0|0:0,0:0:0:0:
200,123,61281,1,12,0:0:0:0:
299,169,61656,2,0,L|314:277,1,110,10|12,0:1|0:1,0:0:0:0:
378,367,62406,6,0,L|432:359,1,55,10|2,0:1|0:0,0:0:0:0:
504,275,62968,1,2,0:1:0:0:
504,275,63156,2,0,L|512:221,1,55,10|2,0:1|0:1,0:0:0:0:
483,173,63531,5,8,0:1:0:0:
374,191,63906,1,8,0:1:0:0:
304,106,64280,2,0,L|250:98,1,55,10|0,0:1|0:1,0:0:0:0:
214,55,64656,2,0,L|160:63,1,55,10|0,0:1|0:0,0:0:0:0:
113,32,65031,5,12,0:1:0:0:
75,135,65406,2,0,P|39:113|-1:118,2,82.5,10|2|2,0:1|0:0|0:0,0:0:0:0:
113,173,66156,1,10,0:1:0:0:
129,281,66531,5,10,0:1:0:0:
238,299,66905,2,0,L|230:353,2,55,10|2|2,0:1|0:0|0:0,0:0:0:0:
281,264,67468,1,10,0:1:0:0:
334,284,67656,1,10,0:0:0:0:
388,188,68031,6,0,L|334:196,1,55,8|8,0:1|0:1,0:0:0:0:
281,177,68406,2,0,L|289:123,1,55,8|8,0:1|0:1,0:0:0:0:
166,11,69156,6,0,B|113:-7|113:-7|79:35,1,110,10|10,0:1|0:0,0:0:0:0:
46,78,69718,1,8,0:1:0:0:
46,78,69906,2,0,P|40:131|61:181,2,110,8|8|8,0:1|0:1|0:1,0:0:0:0:
149,115,71031,5,12,0:1:0:0:
215,202,71406,2,0,L|207:256,1,55,8|8,0:1|0:0,0:0:0:0:
164,289,71781,1,8,0:1:0:0:
164,289,71968,2,0,L|110:297,1,55,8|10,0:1|0:0,0:0:0:0:
25,226,72531,6,0,P|10:145|-1:63,2,165,10|2|10,0:1|0:0|0:1,0:0:0:0:
9,334,74031,1,12,0:1:0:0:
227,359,74781,5,10,0:0:0:0:
308,284,75156,2,0,B|326:231|326:231|283:197,1,110,12|2,0:1|0:0,0:0:0:0:
239,165,75718,1,2,0:0:0:0:
193,133,75906,2,0,B|149:167|149:167|168:219,2,110,10|10|2,0:1|0:1|0:0,0:0:0:0:
286,74,77031,1,8,0:1:0:0:
378,15,77406,6,0,L|432:23,1,55,2|0,0:1|0:0,0:0:0:0:
477,54,77781,1,8,0:0:0:0:
402,134,78156,1,10,0:1:0:0:
479,212,78531,6,0,P|490:293|505:374,2,165,10|2|2,0:1|0:0|0:0,0:0:0:0:
378,255,80031,6,0,L|324:263,1,55,10|0,0:1|0:0,0:0:0:0:
269,274,80406,2,0,P|252:310|216:329,2,82.5,8|2|10,0:0|0:0|0:1,0:0:0:0:
232,232,81156,1,10,0:0:0:0:
133,183,81531,5,0,0:0:0:0:
32,225,81905,2,0,L|24:279,1,55,10|2,0:0|0:0,0:0:0:0:
0,330,82281,2,0,L|8:384,2,55,2|10|10,0:0|0:1|0:0,0:0:0:0:
108,346,83031,5,8,0:1:0:0:
202,289,83406,2,0,P|241:292|276:270,2,82.5,8|2|10,0:0|0:0|0:1,0:0:0:0:
160,252,84156,1,8,0:0:0:0:
192,147,84531,5,0,0:0:0:0:
85,118,84906,2,0,L|77:64,1,55,10|2,0:0|0:0,0:0:0:0:
54,13,85281,2,0,L|0:5,2,55,8|10|8,0:0|0:1|0:0,0:0:0:0:
162,32,86031,5,8,0:1:0:0:
268,4,86406,1,4,0:0:0:0:
512,84,98031,5,12,0:1:0:0:
410,126,98406,2,0,L|427:18,2,110,10|0|8,0:0|0:0|0:0,0:0:0:0:
393,234,99531,2,0,B|360:277|360:277|306:258,1,110,10|10,0:1|0:0,0:0:0:0:
247,165,100281,1,2,0:0:0:0:
143,127,100656,1,10,0:0:0:0:
85,220,101031,6,0,L|102:328,2,110,10|8|0,0:1|0:0|0:0,0:0:0:0:
11,138,102156,1,8,0:0:0:0:
80,52,102531,2,0,P|133:43|175:8,2,110,10|10|2,0:1|0:0|0:0,0:0:0:0:
163,125,103656,1,10,0:0:0:0:
262,77,104031,6,0,P|315:85|357:120,1,110,10|8,0:1|0:0,0:0:0:0:
439,130,104687,2,0,L|451:211,1,82.5,8|8,0:1|0:1,0:0:0:0:
489,250,105156,1,8,0:0:0:0:
439,347,105531,1,0,0:0:0:0:
342,297,105906,2,0,L|354:216,2,82.5,8|8|10,0:0|0:1|0:1,0:0:0:0:
296,327,106656,1,10,0:0:0:0:
255,226,107031,6,0,B|204:246|204:246|167:203,2,110,10|8|8,0:1|0:1|0:1,0:0:0:0:
318,135,108156,1,10,0:1:0:0:
376,42,108531,2,0,P|322:33|280:-1,2,110,10|10|10,0:1|0:1|0:1,0:0:0:0:
446,128,109656,1,10,0:1:0:0:
485,25,110031,1,12,0:1:0:0:
485,25,113031,5,8,0:1:0:0:
446,128,113406,1,8,0:1:0:0:
343,89,113781,1,8,0:1:0:0:
304,192,114156,1,8,0:1:0:0:
201,153,114531,6,0,B|148:171|148:171|114:128,1,110,8|8,0:1|0:1,0:0:0:0:
105,18,115281,2,0,P|145:18|178:42,2,82.5,8|8|8,0:1|0:1|0:1,0:0:0:0:
59,49,116031,5,8,0:1:0:0:
20,152,116406,1,8,0:1:0:0:
105,220,116781,1,8,0:1:0:0:
196,160,117156,1,8,0:1:0:0:
281,228,117531,6,0,B|238:264|238:264|259:315,1,110,8|8,0:1|0:1,0:0:0:0:
352,372,118281,2,0,L|460:355,1,110,8|8,0:1|0:1,0:0:0:0:
501,318,118843,1,8,0:1:0:0:
501,318,119031,6,0,L|509:264,2,55,8|8|8,0:1|0:1|0:1,0:0:0:0:
419,244,119781,2,0,L|398:193,2,55,8|8|8,0:1|0:1|0:1,0:0:0:0:
310,220,120531,2,0,L|266:186,1,55,8|8,0:1|0:1,0:0:0:0:
232,143,120906,1,8,0:0:0:0:
212,258,121281,1,8,0:1:0:0:
212,258,121468,1,8,0:1:0:0:
212,258,121656,1,8,0:0:0:0:
284,340,122031,6,0,L|176:355,1,110,14|10,0:1|0:1,0:0:0:0:
126,330,122593,1,2,0:0:0:0:
126,330,122781,2,0,L|72:322,1,55,10|2,0:1|0:0,0:0:0:0:
24,351,123156,1,10,0:1:0:0:
12,241,123531,6,0,B|-8:191|-8:191|34:155,1,110,10|10,0:1|0:1,0:0:0:0:
57,107,124093,1,2,0:0:0:0:
57,107,124281,2,0,L|49:53,1,55,10|2,0:1|0:0,0:0:0:0:
25,2,124656,1,10,0:1:0:0:
134,9,125031,6,0,P|187:17|229:52,1,110,10|10,0:1|0:1,0:0:0:0:
242,110,125593,1,2,0:0:0:0:
242,110,125781,2,0,L|234:164,2,55,10|2|8,0:1|0:0|0:1,0:0:0:0:
317,29,126531,6,0,L|425:13,1,110,10|10,0:1|0:1,0:0:0:0:
478,41,127093,1,2,0:0:0:0:
478,41,127281,2,0,L|470:95,1,55,10|2,0:1|0:0,0:0:0:0:
428,131,127656,2,0,L|436:185,1,55,2|10,0:0|0:1,0:0:0:0:
485,210,128031,5,10,0:1:0:0:
418,297,128406,2,0,B|382:338|382:338|331:318,1,110,10|10,0:0|0:1,0:0:0:0:
302,279,128967,1,2,0:0:0:0:
302,279,129156,1,10,0:0:0:0:
352,181,129531,5,10,0:1:0:0:
396,81,129906,2,0,P|354:45|300:37,1,110,10|10,0:0|0:1,0:0:0:0:
264,4,130468,1,2,0:0:0:0:
264,4,130656,1,10,0:0:0:0:
161,42,131031,5,10,0:1:0:0:
216,137,131406,2,0,L|200:245,1,110,10|10,0:0|0:1,0:0:0:0:
94,277,132156,2,0,L|102:331,1,55,10|0,0:1|0:0,0:0:0:0:
137,373,132531,1,0,0:0:0:0:
137,373,134031,5,8,0:1:0:0:
32,337,134406,2,0,L|16:229,1,110,10|8,0:1|0:1,0:0:0:0:
36,177,134968,1,8,0:1:0:0:
36,177,135156,2,0,L|90:185,1,55,10|0,0:1|0:0,0:0:0:0:
127,144,135531,6,0,L|181:136,2,55,2|8|2,0:0|0:1|0:1,0:0:0:0:
156,37,136281,1,8,0:0:0:0:
257,80,136656,2,0,L|311:88,1,55,10|0,0:1|0:0,0:0:0:0:
348,47,137031,6,0,P|389:11|443:3,2,110,12|8|8,0:1|0:1|0:1,0:0:0:0:
439,109,138156,1,8,0:1:0:0:
358,183,138531,2,0,B|369:255|369:255|417:312|417:312|427:384,2,220,12|8|14,0:1|0:1|0:1,0:0:0:0:
263,239,140406,5,10,0:0:0:0:
173,298,140781,1,10,0:1:0:0:
173,298,140968,1,2,0:0:0:0:
173,298,141156,2,0,L|119:306,1,55,10|2,0:0|0:0,0:0:0:0:
75,272,141531,6,0,P|35:281|9:312,2,82.5,10|2|2,0:1|0:0|0:0,0:0:0:0:
50,169,142468,1,2,0:0:0:0:
50,169,142656,2,0,L|58:115,1,55,10|2,0:0|0:0,0:0:0:0:
104,85,143031,6,0,B|137:42|137:42|191:61,2,110,14|0|0,0:1|0:0|0:0,0:0:0:0:
169,174,144156,1,0,0:0:0:0:
249,248,144531,2,0,P|264:167|275:85,2,165,10|10|10,0:1|0:1|0:1,0:0:0:0:
266,356,146031,5,8,0:1:0:0:
373,379,146406,2,0,L|427:371,1,55,8|2,0:0|0:1,0:0:0:0:
481,360,146781,6,0,P|486:319|494:278,1,82.5,12|8,0:1|0:1,0:0:0:0:
417,247,147343,2,0,P|411:206|403:165,1,82.5,8|8,0:1|0:1,0:0:0:0:
466,112,147906,1,8,0:1:0:0:
432,7,148281,2,0,L|486:-1,2,55,8|0|2,0:0|0:0|0:0,0:0:0:0:
324,30,149031,5,8,0:1:0:0:
260,119,149405,2,0,L|252:173,1,55,8|0,0:0|0:0,0:0:0:0:
283,218,149781,2,0,P|323:218|356:242,2,82.5,8|8|8,0:1|0:1|0:1,0:0:0:0:
243,256,150531,6,0,P|202:261|161:269,1,82.5,2|2,0:0|0:0,0:0:0:0:
131,192,151093,2,0,P|90:187|49:179,1,82.5,2|2,0:0|0:0,0:0:0:0:
2,111,151656,1,10,0:0:0:0:
23,3,152031,5,12,0:1:0:0:
122,50,152406,2,0,L|176:42,1,55,10|0,0:1|0:0,0:0:0:0:
217,78,152781,2,0,L|209:132,2,55,10|2|10,0:1|0:0|0:1,0:0:0:0:
262,47,153343,1,2,0:0:0:0:
309,18,153531,5,10,0:1:0:0:
378,103,153906,2,0,P|418:103|451:79,2,82.5,10|10|10,0:1|0:1|0:1,0:0:0:0:
333,136,154656,1,10,0:1:0:0:
295,239,155031,6,0,L|187:255,1,110,10|10,0:1|0:1,0:0:0:0:
158,304,155592,1,2,0:0:0:0:
158,304,155781,2,0,P|118:304|85:328,2,82.5,10|2|2,0:1|0:0|0:0,0:0:0:0:
192,347,156531,2,0,P|273:362|355:373,2,165,10|2|10,0:1|0:0|0:1,0:0:0:0:
217,239,158031,5,14,0:1:0:0:
217,239,158218,1,2,0:0:0:0:
329,222,158593,1,10,0:1:0:0:
329,222,158780,1,2,0:0:0:0:
308,118,159156,1,10,0:1:0:0:
308,118,159343,1,2,0:0:0:0:
203,137,159718,1,10,0:1:0:0:
203,137,159905,1,2,0:0:0:0:
94,155,160281,2,0,L|85:101,2,55,8|8|8,0:1|0:1|0:1,0:0:0:0:
11,227,161031,5,10,0:1:0:0:
4,281,161217,1,10,0:1:0:0:
73,366,161593,1,10,0:1:0:0:
127,373,161781,1,10,0:1:0:0:
212,304,162156,1,10,0:1:0:0:
219,250,162344,1,10,0:1:0:0:
