osu file format v14

[General]
AudioFilename: audio.mp3
AudioLeadIn: 0
PreviewTime: 121937
Countdown: 0
SampleSet: Soft
StackLeniency: 0.7
Mode: 0
LetterboxInBreaks: 0
WidescreenStoryboard: 1

[Editor]
Bookmarks: 531,14031,26031,38031,38124,62031,86406,98031,110031,122031,138406,146031,162531
DistanceSpacing: 1
BeatDivisor: 4
GridSize: 32
TimelineZoom: 3.199999

[Metadata]
Title:Septima
TitleUnicode:Septima
Artist:Lundy
ArtistUnicode:Lundy
Creator:Cytusine
Version:Extra
Source:vivid/stasis
Tags:vivid stasis featured artist fa edm future flamenco electronic instrumental video game mappers' guild mpg ajmosca ajmeowsca
BeatmapID:4500772
BeatmapSetID:2122231

[Difficulty]
HPDrainRate:5
CircleSize:4
OverallDifficulty:8.5
ApproachRate:9.3
SliderMultiplier:1.7
SliderTickRate:1

[Events]
//Background and Video events
0,0,"diamond.jpg",0,0
//Break Periods
2,86606,90531
2,110231,112281
//Storyboard Layer 0 (Background)
//Storyboard Layer 1 (Fail)
//Storyboard Layer 2 (Pass)
//Storyboard Layer 3 (Foreground)
//Storyboard Layer 4 (Overlay)
//Storyboard Sound Samples

[TimingPoints]
531,375,4,2,1,60,1,0
2031,-133.333333333333,4,2,1,60,0,0
8031,-100,4,2,1,60,0,0
12531,-100,4,2,2,60,0,0
12906,-83.3333333333333,4,2,1,60,0,0
13281,-100,4,2,1,60,0,0
14031,-83.3333333333333,4,2,1,70,0,0
23031,-83.3333333333333,4,2,1,70,0,0
23781,-83.3333333333333,4,2,1,70,0,0
24531,-100,4,2,1,50,0,0
26031,-100,4,2,1,40,0,0
32031,-100,4,2,1,50,0,0
37656,-83.3333333333333,4,2,1,50,0,0
38031,-83.3333333333333,4,2,1,60,0,0
50031,-100,4,2,1,50,0,0
56031,-100,4,2,1,60,0,0
61281,-400,4,2,1,70,0,0
61656,-55.5555555555556,4,2,2,70,0,0
62031,-66.6666666666667,4,2,1,85,0,1
62968,-66.6666666666667,4,2,2,85,0,1
65031,-55.5555555555556,4,2,1,85,0,1
65406,-83.3333333333333,4,2,1,85,0,1
67656,-66.6666666666667,4,2,1,85,0,1
68031,-66.6666666666667,4,2,1,85,0,1
68874,-66.6666666666667,4,2,1,60,0,1
69718,-66.6666666666667,4,2,1,75,0,1
69906,-66.6666666666667,4,2,1,85,0,1
70656,-66.6666666666667,4,2,1,85,0,1
71031,-66.6666666666667,4,2,1,85,0,1
71406,-66.6666666666667,4,2,1,85,0,1
72531,-83.3333333333333,4,2,1,60,0,0
74031,-66.6666666666667,4,2,1,85,0,1
74593,-66.6666666666667,4,2,2,85,0,1
74781,-66.6666666666667,4,2,1,85,0,1
77406,-55.5555555555556,4,2,2,85,0,1
77781,-66.6666666666667,4,2,1,85,0,1
78156,-66.6666666666667,4,2,1,85,0,1
78531,-100,4,2,1,60,0,0
80031,-66.6666666666667,4,2,1,60,0,1
82656,-55.5555555555556,4,2,1,60,0,1
83031,-66.6666666666667,4,2,1,60,0,1
85468,-66.6666666666667,4,2,2,69,0,1
86031,-100,4,2,1,45,0,0
91281,-250,4,2,1,45,0,0
92781,-400,4,2,1,45,0,0
95031,-125,4,2,1,45,0,0
98031,-100,4,2,1,60,0,0
108531,-100,4,2,2,70,0,0
108906,-100,4,2,2,70,0,0
109281,-100,4,2,2,70,0,0
109656,-100,4,2,2,70,0,0
110031,-100,4,2,1,60,0,0
113031,-100,4,2,1,75,0,0
121656,-100,4,2,1,75,0,0
121843,-100,4,2,1,75,0,0
122031,-66.6666666666667,4,2,1,85,0,1
126156,-66.6666666666667,4,2,1,85,0,1
126531,-66.6666666666667,4,2,1,85,0,1
132156,-55.5555555555556,4,2,2,85,0,1
132531,-83.3333333333333,4,2,1,60,0,0
134031,-83.3333333333333,4,2,1,60,0,0
134406,-83.3333333333333,4,2,2,60,0,0
135718,-83.3333333333333,4,2,2,60,0,0
136281,-200,4,2,2,60,0,0
137031,-55.5555555555556,4,2,1,85,0,1
138531,-66.6666666666667,4,2,1,85,0,1
144531,-100,4,2,1,60,0,0
146031,-83.3333333333333,4,2,1,60,0,0
146593,-83.3333333333333,4,2,2,80,0,0
146781,-66.6666666666667,4,2,1,80,0,0
149031,-83.3333333333333,4,2,1,80,0,0
149781,-66.6666666666667,4,2,1,80,0,0
150531,-66.6666666666667,4,2,1,80,0,0
151656,-83.3333333333333,4,2,1,80,0,0
152031,-83.3333333333333,4,2,1,80,0,0
152218,-83.3333333333333,4,2,1,60,0,0
152406,-83.3333333333333,4,2,1,60,0,0
152781,-83.3333333333333,4,2,1,40,0,0
155031,-83.3333333333333,4,2,1,60,0,0
156531,-100,4,2,1,70,0,0
158031,-83.3333333333333,4,2,1,80,0,0
160281,-83.3333333333333,4,2,1,80,0,0
160468,-83.3333333333333,4,2,1,80,0,0
160656,-66.6666666666667,4,2,1,80,0,0
160843,-66.6666666666667,4,2,1,80,0,0

[Colours]
Combo1 : 128,255,255
Combo2 : 255,0,128
Combo3 : 254,186,46

[HitObjects]
21,163,531,6,0,B|60:148|60:148|89:181,1,85
110,204,812,2,0,B|149:218|149:218|178:185,1,85
198,161,1093,2,0,P|224:192|246:228,1,85
262,259,1375,2,0,P|283:222|311:189,1,85
333,167,1656,1,0,0:0:0:0:
333,167,1843,1,0,0:0:0:0:
135,108,2031,6,0,L|129:76,3,31.8750012159348,6|0|0|0,0:0|0:0|0:0|0:0,0:0:0:0:
203,192,2593,2,0,L|197:160,3,31.8750012159348,2|0|0|0,0:0|0:0|0:0|0:0,0:0:0:0:
271,276,3156,2,0,L|265:244,3,31.8750012159348,2|0|0|0,0:0|0:0|0:0|0:0,0:0:0:0:
339,360,3718,2,0,L|333:328,3,31.8750012159348,2|0|0|0,0:0|0:0|0:0|0:0,0:0:0:0:
186,289,4281,5,2,0:0:0:0:
93,307,4467,1,2,0:0:0:0:
0,325,4656,1,2,0:0:0:0:
0,325,4843,1,0,0:0:0:0:
90,218,5031,6,0,L|122:224,3,31.8750012159348,6|0|0|0,0:0|0:0|0:0|0:0,0:0:0:0:
186,289,5593,2,0,L|218:283,3,31.8750012159348,2|0|0|0,0:0|0:0|0:0|0:0,0:0:0:0:
282,218,6156,2,0,L|314:224,3,31.8750012159348,2|0|0|0,0:0|0:0|0:0|0:0,0:0:0:0:
378,289,6718,2,0,L|410:283,3,31.8750012159348,2|0|0|0,0:0|0:0|0:0|0:0,0:0:0:0:
474,218,7281,5,2,0:0:0:0:
456,124,7468,1,2,0:0:0:0:
438,30,7656,1,2,0:0:0:0:
294,156,7843,1,8,0:1:0:0:
366,93,8031,6,0,P|345:91|324:86,1,42.5,12|0,0:1|0:0,0:0:0:0:
273,33,8218,1,0,0:0:0:0:
252,36,8311,1,0,0:0:0:0:
294,156,8593,6,0,P|273:157|252:162,1,42.5
201,216,8780,1,8,0:1:0:0:
180,213,8873,1,0,0:0:0:0:
187,104,9156,6,0,P|166:102|145:97,1,42.5,8|0,0:0|0:0,0:0:0:0:
94,44,9343,1,0,0:0:0:0:
73,47,9436,1,0,0:0:0:0:
115,167,9718,6,0,P|94:168|73:173,1,42.5
22,227,9905,1,8,0:0:0:0:
1,224,9998,1,0,0:0:0:0:
8,115,10281,5,10,0:1:0:0:
115,167,10468,1,2,0:0:0:0:
147,305,10656,1,10,0:0:0:0:
147,305,10843,1,0,0:0:0:0:
254,357,11031,6,0,P|256:336|261:315,1,42.5,12|0,0:1|0:0,0:0:0:0:
315,259,11218,1,0,0:0:0:0:
336,262,11311,1,0,0:0:0:0:
489,304,11593,6,0,P|487:283|482:262,1,42.5
428,206,11780,1,8,0:1:0:0:
407,209,11873,1,0,0:0:0:0:
256,55,12156,6,0,P|258:76|263:97,1,42.5,8|0,0:0|0:0,0:0:0:0:
317,153,12343,1,0,0:0:0:0:
338,150,12436,1,0,0:0:0:0:
354,122,12531,6,0,B|361:102|361:102|345:88,1,42.5,2|0,0:1|0:0,0:0:0:0:
219,160,12718,1,2,0:0:0:0:
238,168,12811,1,8,0:1:0:0:
270,248,12906,2,0,B|196:266|196:266|150:205,1,152.999995330811,12|0,0:0|0:0,0:0:0:0:
81,157,13281,6,0,P|60:159|40:163,1,42.5,2|2,0:0|0:0,0:0:0:0:
0,95,13468,1,8,0:1:0:0:
18,1,13655,1,8,0:0:0:0:
187,33,13843,1,8,0:1:0:0:
149,204,14031,6,0,P|129:249|81:262,1,101.999996887207,14|0,0:1|0:0,0:0:0:0:
0,325,14312,2,0,P|46:338|67:384,1,101.999996887207,2|0,0:0|0:0,0:0:0:0:
141,333,14593,1,2,0:0:0:0:
141,333,14687,1,10,0:1:0:0:
17,207,14874,6,0,B|5:157|5:157|45:127,1,101.999996887207,2|0,0:0|0:0,0:0:0:0:
120,72,15156,1,10,0:0:0:0:
136,105,15250,1,2,0:0:0:0:
166,129,15344,1,2,0:0:0:0:
202,136,15438,1,0,0:0:0:0:
239,128,15531,6,0,P|265:131|290:136,1,50.9999984436036,8|0,0:1|0:0,0:0:0:0:
443,134,15718,2,0,B|413:94|413:94|363:106,1,101.999996887207,2|8,0:0|0:0,0:0:0:0:
279,212,15999,2,0,B|329:224|329:224|359:184,1,101.999996887207,2|8,0:0|0:1,0:0:0:0:
301,62,16281,1,0,0:0:0:0:
301,62,16375,1,2,0:0:0:0:
301,62,16469,1,10,0:1:0:0:
408,249,16656,2,0,P|458:239|508:233,1,101.999996887207,10|8,0:0|0:0,0:0:0:0:
155,247,17031,6,0,P|202:259|222:305,1,101.999996887207,6|0,0:0|0:0,0:0:0:0:
279,360,17312,2,0,P|326:347|347:302,1,101.999996887207,2|0,0:0|0:0,0:0:0:0:
433,331,17593,1,2,0:0:0:0:
433,331,17687,1,10,0:1:0:0:
264,208,17874,6,0,B|276:158|276:158|236:128,1,101.999996887207,2|0,0:0|0:0,0:0:0:0:
179,70,18156,1,10,0:0:0:0:
195,37,18250,1,2,0:0:0:0:
225,13,18344,1,2,0:0:0:0:
261,6,18438,1,0,0:0:0:0:
298,14,18531,6,0,P|324:11|349:6,1,50.9999984436036,8|0,0:1|0:0,0:0:0:0:
421,109,18718,2,0,B|396:115|396:115|381:95,1,50.9999984436036,10|2,0:1|0:0,0:0:0:0:
426,31,18906,1,8,0:0:0:0:
426,31,19000,1,10,0:1:0:0:
376,193,19187,1,8,0:1:0:0:
376,193,19281,1,10,0:0:0:0:
214,243,19468,1,10,0:1:0:0:
371,339,19656,5,10,0:0:0:0:
323,359,19750,1,8,0:1:0:0:
288,322,19844,1,10,0:1:0:0:
313,277,19938,1,8,0:1:0:0:
362,287,20031,6,0,P|413:283|462:273,1,101.999996887207,14|0,0:1|0:0,0:0:0:0:
512,207,20312,1,0,0:0:0:0:
512,207,20406,2,0,L|504:156,1,50.9999984436036,8|0,0:1|0:0,0:0:0:0:
303,84,20593,1,0,0:0:0:0:
295,121,20687,1,0,0:0:0:0:
285,157,20781,6,0,P|234:161|185:171,1,101.999996887207,8|0,0:1|0:0,0:0:0:0:
111,132,21062,1,8,0:1:0:0:
111,132,21156,2,0,L|103:81,1,50.9999984436036,8|0,0:0|0:0,0:0:0:0:
182,252,21343,2,0,L|174:303,1,50.9999984436036,8|0,0:1|0:0,0:0:0:0:
26,359,21531,5,8,0:0:0:0:
5,326,21625,2,0,L|13:275,2,50.9999984436036,8|0|0,0:1|0:0|0:0,0:0:0:0:
119,342,21906,2,0,B|169:330|169:330|199:370,1,101.999996887207,14|0,0:1|0:0,0:0:0:0:
281,331,22187,1,0,0:0:0:0:
281,331,22281,6,0,L|332:339,1,50.9999984436036,10|0,0:1|0:0,0:0:0:0:
428,257,22468,2,0,L|377:265,1,50.9999984436036,2|8,0:0|0:1,0:0:0:0:
257,202,22656,2,0,L|308:210,1,50.9999984436036,10|0,0:0|0:0,0:0:0:0:
363,140,22843,1,8,0:1:0:0:
182,252,23031,6,0,P|133:244|108:201,1,101.999996887207,10|0,0:1|0:0,0:0:0:0:
0,154,23312,2,0,P|46:137|63:91,1,101.999996887207,10|0,0:1|0:0,0:0:0:0:
95,12,23593,1,10,0:1:0:0:
95,12,23687,1,2,0:0:0:0:
11,32,23781,6,0,L|162:53,1,152.999995330811,8|8,0:1|0:1,0:0:0:0:
259,68,24156,1,10,0:0:0:0:
399,3,24343,1,10,0:1:0:0:
424,6,24436,1,2,0:0:0:0:
496,99,24718,6,0,L|501:141,3,42.5,2|2|2|2,0:0|0:0|0:0|0:0,0:0:0:0:
444,217,25281,1,2,0:0:0:0:
454,294,25468,1,2,0:0:0:0:
465,371,25656,1,2,0:0:0:0:
392,342,26031,5,2,0:0:0:0:
238,322,27530,1,2,0:0:0:0:
332,198,29031,1,2,0:0:0:0:
392,342,30530,1,2,0:0:0:0:
0,342,32031,6,0,B|29:309|29:309|68:324,2,85,8|0|0,0:1|0:0|0:0,0:0:0:0:
60,195,32781,2,0,L|67:237,1,42.5,2|0,0:0|0:0,0:0:0:0:
188,147,33531,2,0,B|159:114|159:114|120:129,2,85,8|0|0,0:1|0:0|0:0,0:0:0:0:
128,0,34281,2,0,L|120:42,1,42.5,2|0,0:0|0:0,0:0:0:0:
212,227,35031,6,0,P|252:216|269:179,2,85,8|0|0,0:1|0:0|0:0,0:0:0:0:
318,111,35781,2,0,L|360:103,1,42.5,2|0,0:0|0:0,0:0:0:0:
477,382,36531,2,0,P|437:371|420:333,2,85,8|0|0,0:1|0:0|0:0,0:0:0:0:
371,265,37281,2,0,L|328:257,1,42.5,2|0,0:0|0:0,0:0:0:0:
446,222,37656,2,0,P|440:170|430:120,1,101.999996887207,2|2,0:0|0:0,0:0:0:0:
412,0,38031,6,0,P|395:46|349:62,1,101.999996887207,10|0,0:1|0:0,0:0:0:0:
259,119,38312,1,0,0:0:0:0:
231,97,38406,2,0,P|205:100|180:105,1,50.9999984436036,10|2,0:0|0:0,0:0:0:0:
141,209,38593,1,2,0:0:0:0:
150,241,38687,6,0,B|156:266|156:266|136:281,1,50.9999984436036,10|0,0:1|0:0,0:0:0:0:
21,245,38874,2,0,B|39:227|39:227|62:237,1,50.9999984436036,2|8,0:0|0:1,0:0:0:0:
89,355,39062,2,0,B|64:347|64:347|61:322,1,50.9999984436036,2|8,0:0|0:0,0:0:0:0:
220,327,39249,1,2,0:0:0:0:
258,321,39343,1,2,0:0:0:0:
294,336,39437,1,2,0:0:0:0:
316,368,39531,6,0,P|341:363|366:360,1,50.9999984436036,10|0,0:1|0:0,0:0:0:0:
466,344,39718,1,2,0:0:0:0:
442,326,39812,2,0,P|444:300|449:275,1,50.9999984436036,2|8,0:0|0:0,0:0:0:0:
465,176,39999,1,2,0:0:0:0:
440,193,40094,2,0,P|416:182|394:170,1,50.9999984436036,2|8,0:0|0:1,0:0:0:0:
305,124,40280,1,2,0:0:0:0:
313,152,40374,2,0,P|296:171|277:189,1,50.9999984436036,2|8,0:0|0:1,0:0:0:0:
206,261,40562,1,2,0:0:0:0:
236,261,40656,6,0,P|248:283|259:306,1,50.9999984436036,10|2,0:0|0:0,0:0:0:0:
195,177,40843,1,2,0:0:0:0:
216,124,40937,1,10,0:1:0:0:
163,102,41031,6,0,P|141:57|162:13,1,101.999996887207,2|8,0:0|0:1,0:0:0:0:
334,29,41312,1,0,0:0:0:0:
357,51,41406,2,0,P|382:48|407:43,1,50.9999984436036,10|10,0:0|0:1,0:0:0:0:
501,24,41593,1,2,0:0:0:0:
463,211,41781,5,2,0:0:0:0:
447,255,41875,1,2,0:0:0:0:
410,283,41969,1,10,0:1:0:0:
363,287,42063,1,2,0:0:0:0:
320,266,42155,2,0,P|295:263|270:258,1,50.9999984436036,10|2,0:0|0:0,0:0:0:0:
207,318,42343,2,0,P|182:321|157:326,1,50.9999984436036,2|2,0:0|0:0,0:0:0:0:
44,272,42530,6,0,L|70:267,3,25.4999992218018,10|0|0|0,0:1|0:0|0:0|0:0,0:0:0:0:
20,294,42717,1,2,0:0:0:0:
113,181,42906,2,0,L|87:176,3,25.4999992218018,10|0|0|0,0:0|0:0|0:0|0:0,0:0:0:0:
137,203,43093,2,0,P|159:194|168:171,1,50.9999984436036,2|8,0:0|0:1,0:0:0:0:
27,106,43281,6,0,P|44:60|90:44,1,101.999996887207,2|0,0:0|0:0,0:0:0:0:
124,66,43562,2,0,B|174:78|174:78|204:38,1,101.999996887207,10|2,0:1|0:0,0:0:0:0:
221,5,43843,1,10,0:1:0:0:
352,177,44031,5,10,0:1:0:0:
382,143,44124,2,0,P|379:118|374:93,1,50.9999984436036,2|0,0:0|0:0,0:0:0:0:
512,0,44312,2,0,P|494:46|447:61,1,101.999996887207,2|2,0:0|0:0,0:0:0:0:
382,10,44593,1,2,0:0:0:0:
338,26,44687,2,0,B|313:20|313:20|298:40,1,50.9999984436036,2|8,0:0|0:1,0:0:0:0:
194,111,44874,2,0,B|244:99|244:99|274:139,1,101.999996887207,2|2,0:0|0:0,0:0:0:0:
352,177,45156,1,10,0:0:0:0:
374,209,45249,1,2,0:0:0:0:
410,224,45344,2,0,P|434:220|452:236,1,50.9999984436036,2|2,0:0|0:0,0:0:0:0:
512,298,45531,5,10,0:1:0:0:
482,332,45624,2,0,P|485:357|490:382,1,50.9999984436036,2|0,0:0|0:0,0:0:0:0:
324,350,45812,2,0,P|373:347|402:307,1,101.999996887207,2|2,0:0|0:0,0:0:0:0:
325,271,46093,1,2,0:0:0:0:
278,257,46187,2,0,B|260:237|260:237|237:245,1,50.9999984436036,2|8,0:0|0:1,0:0:0:0:
151,356,46374,2,0,B|201:368|201:368|231:328,1,101.999996887207,2|2,0:0|0:0,0:0:0:0:
163,273,46656,1,10,0:0:0:0:
131,251,46749,1,2,0:0:0:0:
116,215,46844,2,0,P|118:190|138:177,1,50.9999984436036,2|2,0:0|0:0,0:0:0:0:
208,125,47031,6,0,P|214:73|224:23,1,101.999996887207,10|0,0:1|0:0,0:0:0:0:
252,3,47312,2,0,B|302:-9|302:-9|332:31,1,101.999996887207,2|0,0:0|0:0,0:0:0:0:
354,62,47594,2,0,P|371:15|418:0,1,101.999996887207,2|8,0:0|0:1,0:0:0:0:
481,50,47874,1,2,0:0:0:0:
505,79,47968,1,2,0:0:0:0:
510,118,48062,1,2,0:0:0:0:
493,153,48156,2,0,P|467:156|442:161,1,50.9999984436036,10|2,0:0|0:0,0:0:0:0:
383,221,48343,1,2,0:0:0:0:
345,214,48436,1,2,0:0:0:0:
316,242,48531,6,0,P|319:291|283:324,1,101.999996887207,10|0,0:1|0:0,0:0:0:0:
169,318,48812,1,2,0:0:0:0:
205,306,48906,2,0,P|205:280|224:266,1,50.9999984436036,10|0,0:0|0:0,0:0:0:0:
170,196,49093,1,2,0:0:0:0:
134,210,49187,1,2,0:0:0:0:
97,224,49281,2,0,P|88:302|73:377,2,152.999995330811,10|2|2,0:1|0:0|0:0,0:0:0:0:
30,86,50031,5,12,0:0:0:0:
30,171,50405,1,8,0:0:0:0:
97,224,50780,1,8,0:0:0:0:
180,206,51155,1,8,0:0:0:0:
216,129,51531,1,12,0:0:0:0:
180,52,51907,1,8,0:0:0:0:
97,33,52281,5,8,0:0:0:0:
180,52,52562,5,8,0:0:0:0:
216,129,52843,5,8,0:0:0:0:
299,148,53031,5,12,0:0:0:0:
255,239,53406,1,8,0:0:0:0:
300,330,53781,1,8,0:0:0:0:
401,351,54156,1,8,0:0:0:0:
478,287,54531,1,12,0:0:0:0:
478,185,54906,1,8,0:0:0:0:
398,122,55281,1,8,0:0:0:0:
299,148,55656,5,8,0:0:0:0:
398,122,55843,2,0,L|402:98,3,21.25,8|0|0|0,0:0|0:0|0:0|0:0,0:0:0:0:
377,62,56031,5,8,0:1:0:0:
228,101,56218,1,8,0:0:0:0:
267,250,56406,1,8,0:1:0:0:
416,211,56593,1,8,0:0:0:0:
299,148,56781,5,8,0:1:0:0:
251,328,56969,1,8,0:0:0:0:
299,148,57156,1,8,0:1:0:0:
251,328,57344,1,8,0:0:0:0:
66,222,57531,5,8,0:1:0:0:
215,183,57719,1,8,0:0:0:0:
176,34,57906,1,8,0:1:0:0:
27,73,58094,1,8,0:0:0:0:
106,308,58281,5,8,0:1:0:0:
154,128,58469,1,8,0:0:0:0:
106,308,58656,1,8,0:1:0:0:
154,128,58844,1,8,0:0:0:0:
292,261,59031,5,10,0:1:0:0:
320,221,59125,1,8,0:0:0:0:
365,202,59219,1,8,0:0:0:0:
413,209,59313,1,10,0:0:0:0:
508,259,59406,5,8,0:1:0:0:
504,286,59500,1,8,0:0:0:0:
476,281,59594,1,10,0:0:0:0:
480,255,59687,1,8,0:0:0:0:
487,170,59781,5,8,0:1:0:0:
464,138,59875,1,10,0:0:0:0:
481,102,59968,1,10,0:0:0:0:
459,70,60062,1,10,0:0:0:0:
393,21,60156,5,10,0:1:0:0:
362,63,60250,1,10,0:0:0:0:
313,83,60344,1,10,0:0:0:0:
261,76,60438,1,10,0:0:0:0:
209,5,60531,6,0,P|149:-6|109:38,2,127.5,14|4|4,0:1|0:0|0:0,0:0:0:0:
102,55,61281,2,0,L|70:49,1,31.875,12|0,0:0|0:0,0:0:0:0:
181,85,61656,2,0,B|162:189|162:189|176:205|176:205|157:305,1,229.499992996216,10|0,0:1|0:0,0:0:0:0:
114,384,62031,5,12,0:1:0:0:
114,384,62406,5,10,0:1:0:0:
69,363,62500,1,2,0:0:0:0:
65,313,62593,1,2,0:0:0:0:
21,293,62688,2,0,B|6:230|6:230|56:193,1,127.500004863739,2|2,0:0|0:0,0:0:0:0:
6,103,62967,5,2,0:1:0:0:
0,81,63061,1,2,0:1:0:0:
50,23,63156,1,10,0:1:0:0:
71,29,63250,1,2,0:1:0:0:
97,101,63342,1,2,0:1:0:0:
83,117,63436,1,2,0:1:0:0:
134,177,63531,6,0,P|166:179|197:185,1,63.7500024318696,8|0,0:1|0:0,0:0:0:0:
313,117,63718,2,0,P|281:118|249:125,1,63.7500024318696,2|0,0:1|0:0,0:0:0:0:
263,243,63906,5,8,0:1:0:0:
338,206,63999,2,0,P|306:205|290:231,1,63.7500024318696,2|0,0:1|0:0,0:0:0:0:
105,277,64187,2,0,P|165:270|202:319,1,127.500004863739,2|0,0:1|0:0,0:0:0:0:
159,384,64468,1,2,0:1:0:0:
411,255,64656,2,0,P|378:306|317:305,1,127.500004863739,10|0,0:1|0:0,0:0:0:0:
450,0,65031,6,0,P|477:111|488:225,1,229.499992996216,12|0,0:1|0:0,0:0:0:0:
463,377,65406,6,0,L|512:365,1,50.9999984436036,10|0,0:1|0:0,0:0:0:0:
336,326,65593,1,2,0:0:0:0:
336,326,65687,2,0,L|385:314,1,50.9999984436036,2|8,0:0|0:1,0:0:0:0:
205,262,65874,1,2,0:0:0:0:
205,262,65968,2,0,L|254:250,1,50.9999984436036,2|0,0:0|0:0,0:0:0:0:
101,164,66156,2,0,B|140:185|140:185|206:168|206:168|226:132,1,152.999995330811,10|0,0:1|0:0,0:0:0:0:
19,121,66531,5,10,0:1:0:0:
150,89,66718,1,2,0:0:0:0:
282,60,66906,2,0,L|289:10,1,50.9999984436036,10|0,0:1|0:0,0:0:0:0:
291,213,67092,1,2,0:0:0:0:
291,213,67186,2,0,B|315:166|315:166|364:171,1,101.999996887207,8|0,0:1|0:0,0:0:0:0:
438,122,67468,1,10,0:1:0:0:
326,356,67656,6,0,P|416:342|450:257,1,191.250007295609,10|0,0:0|0:0,0:0:0:0:
438,122,68031,5,8,0:1:0:0:
488,132,68125,1,8,0:1:0:0:
512,177,68219,1,8,0:1:0:0:
247,198,68406,1,8,0:1:0:0:
249,246,68500,1,8,0:1:0:0:
289,276,68594,1,8,0:1:0:0:
338,263,68687,1,8,0:1:0:0:
55,384,68968,5,2,0:0:0:0:
10,359,69062,1,2,0:0:0:0:
0,310,69156,1,10,0:1:0:0:
33,271,69249,1,2,0:0:0:0:
83,271,69343,1,10,0:0:0:0:
114,312,69437,1,2,0:0:0:0:
102,361,69531,1,10,0:0:0:0:
165,176,69718,6,0,L|157:239,1,63.7500024318696,8|0,0:1|0:0,0:0:0:0:
10,159,69906,2,0,B|89:142|89:142|98:109|98:109|175:92,1,191.250007295609,8|0,0:1|0:0,0:0:0:0:
170,77,70281,2,0,B|95:93|95:93|86:126|86:126|7:143,1,191.250007295609,8|0,0:1|0:0,0:0:0:0:
4,126,70656,2,0,B|83:109|83:109|92:76|92:76|167:60,1,191.250007295609,8|0,0:1|0:0,0:0:0:0:
244,0,71031,6,0,P|306:13|369:15,1,127.500004863739,12|0,0:1|0:0,0:0:0:0:
512,138,71406,1,8,0:1:0:0:
463,125,71499,1,0,0:0:0:0:
423,155,71593,1,8,0:0:0:0:
421,203,71688,2,0,P|357:204|295:217,1,127.500004863739,2|2,0:0|0:0,0:0:0:0:
227,184,71968,1,8,0:1:0:0:
138,358,72156,1,10,0:0:0:0:
138,358,72531,6,0,B|184:376|184:376|219:336,1,101.999996887207,10|0,0:1|0:0,0:0:0:0:
244,309,72812,2,0,B|290:292|290:292|325:331,1,101.999996887207,2|0,0:0|0:0,0:0:0:0:
350,361,73093,2,0,P|381:323|408:279,1,101.999996887207,2|8,0:0|0:1,0:0:0:0:
427,243,73375,2,0,P|452:287|485:327,1,101.999996887207,2|0,0:0|0:0,0:0:0:0:
512,354,73656,1,10,0:1:0:0:
512,354,73843,1,2,0:0:0:0:
333,187,74031,5,12,0:1:0:0:
337,208,74125,1,0,0:0:0:0:
341,228,74219,1,0,0:0:0:0:
217,65,74593,5,2,0:1:0:0:
196,69,74687,1,2,0:1:0:0:
131,32,74781,1,10,0:0:0:0:
75,0,74875,1,2,0:0:0:0:
20,17,74969,1,2,0:0:0:0:
0,75,75062,1,2,0:0:0:0:
29,126,75156,6,0,P|61:127|77:101,1,63.7500024318696,12|0,0:1|0:0,0:0:0:0:
239,203,75343,2,0,P|204:153|143:157,2,127.500004863739,2|2|2,0:0|0:0|0:0,0:0:0:0:
246,370,75906,2,0,P|247:338|221:322,1,63.7500024318696,10|0,0:1|0:0,0:0:0:0:
397,228,76093,2,0,P|336:224|302:275,2,127.500004863739,2|10|2,0:0|0:1|0:0,0:0:0:0:
499,11,76656,6,0,P|481:36|451:34,1,63.7500024318696,2|0,0:0|0:0,0:0:0:0:
367,119,76843,2,0,P|335:120|319:94,1,63.7500024318696,2|0,0:0|0:0,0:0:0:0:
110,0,77031,2,0,P|199:17|229:104,1,191.250007295609,8|0,0:1|0:0,0:0:0:0:
267,178,77406,2,0,P|163:227|69:292,1,229.499992996216,2|0,0:1|0:0,0:0:0:0:
7,352,77781,1,8,0:0:0:0:
7,352,78156,6,0,P|24:377|54:375,1,63.7500024318696,10|0,0:1|0:0,0:0:0:0:
83,241,78343,1,2,0:0:0:0:
200,288,78531,6,0,B|239:273|239:273|268:306,1,85,10|0,0:1|0:0,0:0:0:0:
289,329,78812,2,0,B|328:343|328:343|357:310,1,85,2|0,0:0|0:0,0:0:0:0:
377,286,79093,2,0,P|403:317|425:353,1,85,2|0,0:0|0:0,0:0:0:0:
441,384,79375,2,0,P|462:347|490:314,1,85,2|0,0:0|0:0,0:0:0:0:
512,292,79656,1,2,0:0:0:0:
512,292,79843,1,2,0:0:0:0:
304,239,80031,5,10,0:1:0:0:
341,207,80125,1,0,0:0:0:0:
332,158,80218,1,0,0:0:0:0:
370,127,80312,1,0,0:0:0:0:
360,77,80406,2,0,P|362:45|368:14,1,63.7500024318696,8|0,0:0|0:0,0:0:0:0:
243,5,80593,5,0,0:0:0:0:
211,42,80687,1,2,0:0:0:0:
162,33,80780,1,0,0:0:0:0:
131,71,80874,1,2,0:0:0:0:
81,61,80968,2,0,P|49:63|18:69,1,63.7500024318696,10|0,0:1|0:0,0:0:0:0:
67,178,81156,5,10,0:0:0:0:
67,228,81249,1,0,0:0:0:0:
106,259,81343,1,0,0:0:0:0:
153,249,81438,2,0,P|154:313|167:375,1,127.500004863739,8|0,0:1|0:0,0:0:0:0:
286,324,81718,5,2,0:0:0:0:
315,362,81812,1,8,0:1:0:0:
362,355,81906,2,0,P|393:348|425:346,1,63.7500024318696,10|0,0:0|0:0,0:0:0:0:
316,246,82093,1,2,0:0:0:0:
506,152,82281,6,0,B|488:180|488:180|458:174,1,63.7500024318696,2|0,0:0|0:0,0:0:0:0:
317,89,82468,1,10,0:1:0:0:
448,97,82656,2,0,P|322:117|221:138,1,229.499992996216,10|0,0:0|0:0,0:0:0:0:
233,259,83031,5,8,0:1:0:0:
201,296,83125,1,0,0:0:0:0:
152,287,83218,1,0,0:0:0:0:
121,325,83312,1,0,0:0:0:0:
71,315,83406,2,0,P|39:317|8:323,1,63.7500024318696,8|0,0:0|0:0,0:0:0:0:
0,177,83593,5,0,0:0:0:0:
48,167,83687,1,2,0:0:0:0:
64,120,83780,1,0,0:0:0:0:
113,113,83874,1,2,0:0:0:0:
129,63,83968,2,0,P|131:31|137:0,1,63.7500024318696,10|0,0:1|0:0,0:0:0:0:
282,112,84156,5,8,0:0:0:0:
294,160,84249,1,2,0:0:0:0:
340,180,84343,1,2,0:0:0:0:
383,158,84438,2,0,P|384:221|397:284,1,127.500004863739,8|0,0:1|0:0,0:0:0:0:
502,339,84718,5,2,0:0:0:0:
473,377,84812,1,8,0:1:0:0:
426,370,84906,2,0,P|394:363|362:361,1,63.7500024318696,10|0,0:0|0:0,0:0:0:0:
472,261,85093,1,2,0:0:0:0:
257,379,85281,6,0,P|255:347|248:315,1,63.7500024318696,8|0,0:0|0:0,0:0:0:0:
170,180,85468,1,10,0:1:0:0:
191,136,85562,1,10,0:1:0:0:
157,100,85656,2,0,B|127:94|127:94|109:122,1,63.7500024318696,8|0,0:0|0:0,0:0:0:0:
0,193,85843,2,0,B|30:187|30:187|48:215,1,63.7500024318696,2|0,0:0|0:0,0:0:0:0:
116,314,86031,1,8,0:1:0:0:
116,314,86406,5,4,0:0:0:0:
475,85,91281,6,0,B|505:64|505:64|491:-14,1,102,2|0,0:0|0:0,0:0:0:0:
397,125,92031,5,2,0:0:0:0:
329,163,92218,1,2,0:0:0:0:
345,237,92406,1,2,0:0:0:0:
421,245,92593,1,2,0:0:0:0:
452,175,92781,2,0,L|431:290,1,116.875,2|2,0:0|0:0,0:0:0:0:
430,304,95031,6,0,P|473:307|492:345,2,90.6666666666667,2|2|2,0:0|0:0|0:0,0:0:0:0:
290,319,95781,2,0,P|267:316|258:297,1,45.3333333333333,2|2,0:0|0:0,0:0:0:0:
320,246,96031,2,0,P|363:242|382:203,1,90.6666666666667,2|2,0:0|0:0,0:0:0:0:
188,126,96531,6,0,P|254:137|321:150,1,136,2|0,0:0|0:0,0:0:0:0:
437,144,97031,2,0,P|423:126|400:128,1,45.3333333333333,2|2,0:0|0:0,0:0:0:0:
313,116,97281,2,0,P|309:94|305:72,2,45.3333333333333,2|2|2,0:0|0:0|0:0,0:0:0:0:
253,180,97656,2,0,P|249:201|245:224,2,45.3333333333333,2|2|2,0:0|0:0|0:0,0:0:0:0:
188,126,98031,5,12,0:1:0:0:
66,4,98406,2,0,P|90:72|17:69,2,170,10|0|8,0:0|0:0|0:0,0:0:0:0:
50,181,99531,6,0,B|89:166|89:166|118:199,1,85,10|2,0:1|0:0,0:0:0:0:
188,275,99906,1,10,0:0:0:0:
145,375,100094,1,2,0:0:0:0:
105,362,100187,1,10,0:1:0:0:
64,349,100281,2,0,P|78:292|24:272,1,127.5,2|0,0:0|0:0,0:0:0:0:
94,261,100656,2,0,P|150:250|147:193,1,127.5,10|0,0:0|0:0,0:0:0:0:
188,275,101031,6,0,P|271:289|355:305,2,170,10|8|0,0:1|0:0|0:0,0:0:0:0:
109,121,102156,1,8,0:0:0:0:
267,31,102531,6,0,P|350:15|434:0,1,170,10|10,0:1|0:0,0:0:0:0:
460,126,103093,2,0,P|449:124|439:122,3,21.25,2|0|0|0,0:0|0:0|0:0|0:0,0:0:0:0:
470,145,103281,2,0,B|500:223|500:223|434:281,1,170,2|10,0:0|0:0,0:0:0:0:
192,290,104031,6,0,P|269:298|271:376,1,170,10|8,0:1|0:0,0:0:0:0:
320,227,104687,2,0,P|377:219|376:161,1,127.5,8|8,0:1|0:1,0:0:0:0:
254,178,105156,1,8,0:0:0:0:
161,364,105530,6,0,P|157:325|118:324,1,85,0|8,0:0|0:1,0:0:0:0:
0,271,105906,2,0,P|57:263|56:205,1,127.5,8|8,0:0|0:1,0:0:0:0:
90,90,106468,1,10,0:1:0:0:
93,110,106561,1,2,0:0:0:0:
97,131,106655,1,10,0:0:0:0:
192,290,106843,1,2,0:0:0:0:
195,270,106936,1,2,0:0:0:0:
199,249,107031,6,0,P|185:166|169:82,2,170,10|8|8,0:1|0:1|0:1,0:0:0:0:
333,350,108156,2,0,B|294:365|294:365|265:332,1,85,10|0,0:1|0:0,0:0:0:0:
238,174,108531,6,0,P|224:126|270:149,1,127.5,10|0,0:1|0:0,0:0:0:0:
353,243,108906,2,0,P|305:259|327:214,1,127.5,10|0,0:1|0:0,0:0:0:0:
420,129,109281,2,0,P|438:176|392:157,1,127.5,10|0,0:1|0:0,0:0:0:0:
307,61,109656,2,0,P|355:45|335:92,1,127.5,10|0,0:1|0:0,0:0:0:0:
254,252,110031,5,12,0:1:0:0:
204,378,113031,5,8,0:1:0:0:
287,363,113405,1,8,0:1:0:0:
328,288,113780,1,8,0:1:0:0:
296,209,114155,1,8,0:1:0:0:
214,187,114531,1,8,0:1:0:0:
144,236,114907,1,8,0:1:0:0:
140,321,115281,5,8,0:1:0:0:
144,236,115562,5,8,0:1:0:0:
214,187,115843,5,8,0:1:0:0:
218,102,116031,5,8,0:1:0:0:
118,83,116406,1,8,0:1:0:0:
42,150,116781,1,8,0:1:0:0:
48,253,117156,1,8,0:1:0:0:
130,310,117531,1,8,0:1:0:0:
228,284,117906,1,8,0:1:0:0:
268,190,118281,1,8,0:1:0:0:
218,102,118656,5,8,0:1:0:0:
268,190,118843,1,8,0:1:0:0:
356,140,119031,5,8,0:1:0:0:
356,140,119218,1,8,0:1:0:0:
457,39,119406,1,8,0:1:0:0:
457,39,119594,1,8,0:1:0:0:
320,3,119781,1,8,0:1:0:0:
320,3,119968,1,8,0:1:0:0:
218,102,120156,1,8,0:1:0:0:
218,102,120343,1,8,0:1:0:0:
356,140,120531,5,8,0:1:0:0:
401,160,120624,1,8,0:1:0:0:
429,200,120718,1,8,0:1:0:0:
434,249,120813,1,8,0:1:0:0:
414,294,120906,1,8,0:0:0:0:
372,322,121000,1,8,0:1:0:0:
322,326,121094,1,8,0:1:0:0:
278,306,121188,1,8,0:1:0:0:
250,267,121281,5,8,0:1:0:0:
245,315,121375,1,8,0:1:0:0:
217,354,121469,1,8,0:1:0:0:
172,376,121563,1,8,0:1:0:0:
122,373,121656,2,0,L|98:377,2,21.25,8|0|8,0:0|0:0|0:1,0:0:0:0:
156,282,121843,2,0,L|164:234,1,42.5,8|8,0:1|0:1,0:0:0:0:
179,129,122031,6,0,B|241:144|241:144|279:94,1,127.500004863739,14|2,0:1|0:0,0:0:0:0:
349,51,122312,1,2,0:0:0:0:
349,51,122406,1,10,0:1:0:0:
114,67,122593,1,2,0:0:0:0:
62,62,122686,1,2,0:0:0:0:
33,102,122781,6,0,P|37:160|96:169,1,127.500004863739,10|2,0:1|0:0,0:0:0:0:
166,212,123062,1,0,0:0:0:0:
241,177,123156,2,0,P|304:186|366:199,1,127.500004863739,10|2,0:1|0:0,0:0:0:0:
432,149,123437,1,2,0:0:0:0:
473,172,123531,6,0,B|523:210|523:210|508:272,1,127.500004863739,10|2,0:1|0:0,0:0:0:0:
488,353,123812,1,2,0:0:0:0:
488,353,123906,1,10,0:1:0:0:
187,374,124093,1,2,0:0:0:0:
168,325,124186,1,2,0:0:0:0:
199,286,124281,6,0,P|256:274|280:329,1,127.500004863739,10|2,0:1|0:0,0:0:0:0:
356,359,124562,1,0,0:0:0:0:
417,306,124656,2,0,P|408:243|395:181,1,127.500004863739,10|2,0:1|0:0,0:0:0:0:
333,118,124938,1,2,0:0:0:0:
357,77,125030,6,0,B|319:27|319:27|257:42,1,127.500004863739,10|2,0:1|0:0,0:0:0:0:
186,7,125312,1,2,0:0:0:0:
186,7,125406,1,10,0:1:0:0:
122,254,125593,1,2,0:0:0:0:
70,259,125686,1,2,0:0:0:0:
41,219,125781,6,0,P|45:161|104:152,1,127.500004863739,10|2,0:1|0:0,0:0:0:0:
183,148,126062,1,0,0:0:0:0:
247,205,126156,2,0,P|309:191|372:182,1,127.500004863739,8|0,0:1|0:0,0:0:0:0:
508,36,126531,6,0,B|458:73|458:73|473:135,1,127.500004863739,10|2,0:1|0:0,0:0:0:0:
446,212,126812,1,2,0:0:0:0:
507,282,126906,1,10,0:1:0:0:
512,321,127000,1,2,0:0:0:0:
496,359,127094,1,2,0:0:0:0:
462,382,127188,1,2,0:0:0:0:
392,338,127281,6,0,P|398:306|403:275,1,63.7500024318696,10|2,0:1|0:0,0:0:0:0:
337,216,127468,2,0,P|330:184|325:153,1,63.7500024318696,2|10,0:0|0:1,0:0:0:0:
256,77,127656,1,2,0:0:0:0:
219,112,127750,1,2,0:0:0:0:
172,98,127843,1,10,0:1:0:0:
137,133,127937,1,2,0:0:0:0:
89,120,128031,6,0,B|39:158|39:158|54:220,1,127.500004863739,10|2,0:1|0:0,0:0:0:0:
5,286,128312,1,2,0:0:0:0:
5,286,128406,1,10,0:0:0:0:
280,264,128593,1,2,0:0:0:0:
309,305,128686,1,2,0:0:0:0:
289,350,128781,6,0,P|236:375|199:328,1,127.500004863739,10|2,0:1|0:0,0:0:0:0:
129,283,129062,1,2,0:0:0:0:
63,339,129156,2,0,P|49:277|40:214,1,127.500004863739,10|2,0:0|0:0,0:0:0:0:
0,147,129437,1,2,0:0:0:0:
23,105,129531,6,0,B|61:54|61:54|123:69,1,127.500004863739,10|2,0:1|0:0,0:0:0:0:
185,18,129812,1,2,0:0:0:0:
185,18,129906,1,10,0:0:0:0:
201,236,130093,1,2,0:0:0:0:
162,202,130186,1,2,0:0:0:0:
169,155,130281,6,0,P|212:116|260:152,1,127.500004863739,10|2,0:1|0:0,0:0:0:0:
328,199,130562,1,2,0:0:0:0:
380,133,130656,2,0,P|388:69|403:7,1,127.500004863739,10|2,0:0|0:0,0:0:0:0:
478,21,130937,1,2,0:0:0:0:
491,67,131031,6,0,B|506:129|506:129|456:167,1,127.500004863739,10|2,0:1|0:0,0:0:0:0:
413,237,131312,1,2,0:0:0:0:
413,237,131406,1,10,0:0:0:0:
86,166,131593,1,2,0:0:0:0:
34,161,131686,1,2,0:0:0:0:
5,201,131781,6,0,P|9:259|68:268,1,127.500004863739,10|2,0:1|0:0,0:0:0:0:
382,20,132156,2,0,P|276:34|268:140,1,229.499992996216,10|0,0:1|0:0,0:0:0:0:
330,204,132531,1,0,0:0:0:0:
391,372,134031,6,0,P|385:320|375:270,1,101.999996887207,8|0,0:1|0:0,0:0:0:0:
512,106,134406,2,0,B|437:88|437:88|392:148,1,152.999995330811,10|2,0:1|0:0,0:0:0:0:
330,204,134780,1,8,0:1:0:0:
304,200,134874,1,8,0:1:0:0:
280,196,134968,1,8,0:1:0:0:
463,305,135156,2,0,B|509:246|509:246|472:178,1,152.999995330811,10|0,0:1|0:0,0:0:0:0:
410,67,135531,5,2,0:0:0:0:
320,85,135718,1,8,0:1:0:0:
230,104,135906,1,2,0:1:0:0:
159,86,135999,2,0,P|205:92|209:139,1,101.999996887207,8|2,0:1|0:0,0:0:0:0:
171,216,136281,6,0,P|170:240|189:223,1,63.75,8|0,0:0|0:0,0:0:0:0:
95,166,136656,2,0,P|83:145|108:151,1,63.75,10|0,0:1|0:0,0:0:0:0:
157,326,137031,6,0,B|250:305|250:305|261:267|261:267|352:247,1,229.499992996216,12|0,0:1|0:0,0:0:0:0:
367,259,137406,2,0,B|274:279|274:279|263:317|263:317|170:338,1,229.499992996216,8|0,0:1|0:0,0:0:0:0:
183,349,137781,2,0,B|276:328|276:328|287:290|287:290|380:270,1,229.499992996216,8|0,0:1|0:0,0:0:0:0:
393,282,138156,2,0,B|300:302|300:302|289:340|289:340|196:361,1,229.499992996216,8|0,0:1|0:0,0:0:0:0:
32,371,138531,6,0,P|71:368|76:329,1,85.0000032424928,12|0,0:1|0:0,0:0:0:0:
158,250,138781,2,0,P|118:247|113:208,1,85.0000032424928,8|0,0:1|0:0,0:0:0:0:
32,129,139031,2,0,P|71:126|76:87,1,85.0000032424928,8|0,0:1|0:0,0:0:0:0:
235,18,139281,6,0,P|194:9|152:5,1,85.0000032424928,8|0,0:1|0:0,0:0:0:0:
303,96,139531,2,0,P|262:110|224:127,1,85.0000032424928,8|0,0:1|0:0,0:0:0:0:
400,129,139781,2,0,P|372:161|347:196,1,85.0000032424928,8|0,0:1|0:0,0:0:0:0:
496,106,140031,5,14,0:1:0:0:
488,66,140125,1,2,0:0:0:0:
461,37,140219,1,2,0:0:0:0:
425,26,140313,1,2,0:0:0:0:
388,34,140406,2,0,P|356:29|325:23,1,63.7500024318696,10|0,0:0|0:0,0:0:0:0:
215,42,140593,1,2,0:0:0:0:
364,217,140781,5,10,0:1:0:0:
404,225,140875,1,2,0:0:0:0:
433,252,140969,1,2,0:0:0:0:
444,288,141063,1,2,0:0:0:0:
436,325,141156,2,0,P|468:320|499:314,1,63.7500024318696,10|0,0:0|0:0,0:0:0:0:
357,298,141343,1,2,0:0:0:0:
300,133,141531,6,0,P|278:191|220:211,1,127.500004863739,10|0,0:1|0:0,0:0:0:0:
184,188,141812,2,0,B|133:225|133:225|148:288,1,127.500004863739,2|0,0:0|0:0,0:0:0:0:
130,325,142093,2,0,P|69:330|33:380,1,127.500004863739,2|8,0:0|0:1,0:0:0:0:
272,344,142468,2,0,B|253:369|253:369|222:362,1,63.7500024318696,2|8,0:0|0:1,0:0:0:0:
321,258,142656,2,0,P|311:194|299:132,1,127.500004863739,10|2,0:0|0:0,0:0:0:0:
272,0,143031,1,14,0:1:0:0:
18,56,144531,6,0,B|57:41|57:41|86:74,1,85,10|0,0:1|0:0,0:0:0:0:
107,97,144812,2,0,B|146:111|146:111|175:78,1,85,2|0,0:0|0:0,0:0:0:0:
195,54,145093,2,0,P|221:85|243:121,1,85,10|0,0:1|0:0,0:0:0:0:
259,152,145375,2,0,P|280:115|308:82,1,85,2|0,0:0|0:0,0:0:0:0:
330,60,145656,1,10,0:1:0:0:
330,60,145843,1,10,0:1:0:0:
171,185,146031,5,8,0:1:0:0:
167,205,146125,1,0,0:0:0:0:
163,226,146219,1,0,0:0:0:0:
1,383,146406,2,0,B|27:340|27:340|78:350,1,101.999996887207,8|2,0:0|0:1,0:0:0:0:
226,295,146687,1,2,0:1:0:0:
291,340,146781,6,0,P|228:327|165:318,1,127.500004863739,12|0,0:1|0:0,0:0:0:0:
379,261,147062,2,0,P|441:248|504:239,1,127.500004863739,8|0,0:1|0:0,0:0:0:0:
271,182,147343,2,0,P|208:169|145:160,1,127.500004863739,8|0,0:1|0:0,0:0:0:0:
384,87,147624,2,0,P|446:74|509:65,1,127.500004863739,8|0,0:1|0:0,0:0:0:0:
248,9,147905,1,8,0:1:0:0:
296,258,148281,5,8,0:0:0:0:
473,170,148468,1,0,0:0:0:0:
441,164,148562,1,0,0:0:0:0:
409,157,148656,2,0,B|376:103|376:103|312:115,1,127.500004863739,2|8,0:0|0:0,0:0:0:0:
143,169,149031,6,0,P|69:163|26:103,1,152.999995330811,8|0,0:1|0:0,0:0:0:0:
24,6,149406,1,8,0:0:0:0:
54,270,149781,6,0,B|0:303|0:303|12:367,1,127.500004863739,8|0,0:1|0:0,0:0:0:0:
194,298,150062,2,0,B|206:234|206:234|152:201,1,127.500004863739,8|0,0:1|0:0,0:0:0:0:
118,79,150344,2,0,B|134:52|134:52|166:58,1,63.7500024318696,8|0,0:1|0:0,0:0:0:0:
300,7,150531,5,2,0:0:0:0:
271,44,150624,2,0,P|277:75|282:107,1,63.7500024318696,8|0,0:1|0:0,0:0:0:0:
457,77,150812,1,2,0:0:0:0:
486,114,150905,2,0,P|480:145|475:177,1,63.7500024318696,8|0,0:1|0:0,0:0:0:0:
256,240,151093,1,2,0:0:0:0:
297,219,151187,2,0,B|313:192|313:192|345:198,1,63.7500024318696,8|0,0:1|0:0,0:0:0:0:
450,320,151374,1,2,0:0:0:0:
416,353,151468,2,0,B|384:359|384:359|367:332,1,63.7500024318696,8|0,0:1|0:0,0:0:0:0:
512,247,151656,6,0,P|498:225|474:217,1,50.9999984436036,10|0,0:0|0:0,0:0:0:0:
313,118,151843,2,0,P|287:118|269:135,1,50.9999984436036,10|0,0:0|0:0,0:0:0:0:
209,327,152031,6,0,P|158:334|108:344,1,101.999996887207,12|2,0:1|0:0,0:0:0:0:
0,316,152312,1,2,0:0:0:0:
24,287,152406,1,10,0:1:0:0:
11,250,152500,2,0,B|1:198|1:198|44:173,1,101.999996887207,2|2,0:0|0:0,0:0:0:0:
111,124,152781,6,0,L|102:73,1,50.9999984436036,10|2,0:1|0:0,0:0:0:0:
256,0,152968,2,0,L|246:50,1,50.9999984436036,2|2,0:0|0:0,0:0:0:0:
207,185,153156,2,0,L|198:134,1,50.9999984436036,10|2,0:1|0:0,0:0:0:0:
352,61,153343,2,0,L|342:111,1,50.9999984436036,2|2,0:0|0:0,0:0:0:0:
291,236,153531,6,0,P|314:279|363:286,1,101.999996887207,10|2,0:1|0:0,0:0:0:0:
456,128,153906,1,10,0:1:0:0:
484,155,153999,2,0,P|488:180|493:205,1,50.9999984436036,2|2,0:0|0:0,0:0:0:0:
425,366,154187,2,0,B|468:341|468:341|458:289,1,101.999996887207,10|2,0:1|0:0,0:0:0:0:
409,214,154468,1,10,0:1:0:0:
373,200,154562,1,10,0:1:0:0:
356,166,154656,2,0,B|343:144|343:144|317:149,1,50.9999984436036,10|0,0:1|0:0,0:0:0:0:
162,178,154843,1,10,0:1:0:0:
24,22,155031,6,0,P|72:24|100:65,1,101.999996887207,10|0,0:1|0:0,0:0:0:0:
55,144,155312,1,2,0:0:0:0:
48,169,155406,2,0,B|23:174|23:174|21:201,1,50.9999984436036,10|0,0:1|0:0,0:0:0:0:
22,300,155594,1,2,0:0:0:0:
22,300,155687,1,2,0:0:0:0:
22,300,155781,2,0,P|69:306|93:350,1,101.999996887207,10|0,0:1|0:0,0:0:0:0:
172,367,156063,2,0,P|223:360|273:350,1,101.999996887207,2|0,0:0|0:0,0:0:0:0:
357,378,156343,1,2,0:0:0:0:
416,93,156531,6,0,B|401:132|401:132|434:161,1,85,10|0,0:1|0:0,0:0:0:0:
457,182,156812,2,0,B|471:221|471:221|438:250,1,85,2|0,0:0|0:0,0:0:0:0:
414,270,157093,2,0,P|445:296|481:318,1,85,2|0,0:0|0:0,0:0:0:0:
512,334,157375,1,10,0:1:0:0:
488,348,157468,1,8,0:1:0:0:
465,365,157562,1,8,0:1:0:0:
444,384,157656,1,10,0:1:0:0:
295,236,157843,1,10,0:1:0:0:
123,292,158030,5,14,0:1:0:0:
111,358,158124,1,2,0:0:0:0:
178,370,158217,1,2,0:0:0:0:
189,303,158311,1,2,0:0:0:0:
361,225,158593,5,10,0:1:0:0:
373,291,158687,1,2,0:0:0:0:
306,303,158780,1,2,0:0:0:0:
295,236,158874,1,2,0:0:0:0:
68,214,159156,5,10,0:1:0:0:
56,280,159250,1,2,0:0:0:0:
123,292,159343,1,2,0:0:0:0:
134,225,159437,1,2,0:0:0:0:
416,147,159718,5,10,0:1:0:0:
428,213,159812,1,2,0:0:0:0:
361,225,159905,1,2,0:0:0:0:
350,158,159999,1,2,0:0:0:0:
273,50,160281,6,0,L|281:0,1,50.9999984436036,8|0,0:1|0:0,0:0:0:0:
197,137,160469,2,0,L|188:86,1,50.9999984436036,8|0,0:1|0:0,0:0:0:0:
295,236,160656,2,0,L|306:173,1,63.7500024318696,8|0,0:1|0:0,0:0:0:0:
189,303,160843,2,0,L|177:240,1,63.7500024318696,8|0,0:1|0:0,0:0:0:0:
352,365,161031,5,10,0:1:0:0:
406,286,161125,1,10,0:1:0:0:
339,299,161218,1,10,0:1:0:0:
418,353,161312,1,10,0:1:0:0:
102,255,161593,5,10,0:1:0:0:
48,176,161687,1,10,0:1:0:0:
115,189,161780,1,10,0:1:0:0:
36,243,161874,1,10,0:1:0:0:
374,85,162156,5,10,0:1:0:0:
428,6,162250,1,10,0:1:0:0:
361,19,162343,1,10,0:1:0:0:
440,73,162437,1,14,0:1:0:0:
