osu file format v14

[General]
AudioFilename: audio.mp3
AudioLeadIn: 0
PreviewTime: 74272
Countdown: 0
SampleSet: Soft
StackLeniency: 0.7
Mode: 3
LetterboxInBreaks: 0
SpecialStyle: 0
WidescreenStoryboard: 0

[Editor]
DistanceSpacing: 1
BeatDivisor: 4
GridSize: 4
TimelineZoom: 1.5

[Metadata]
Title:Dement ~After Legend~
TitleUnicode:Dement ~After Legend~
Artist:LunaticSounds
ArtistUnicode:LunaticSounds
Creator:Vampir
Version:EZ
Source:EZ2AC : NIGHT TRAVELER
Tags:Evening -SoraGami- Fontes Artcore Arcaea Dynamix
BeatmapID:1180128
BeatmapSetID:557428

[Difficulty]
HPDrainRate:6
CircleSize:4
OverallDifficulty:7
ApproachRate:5
SliderMultiplier:1.4
SliderTickRate:1

[Events]
//Background and Video events
0,0,"Deznm.png",0,0
//Break Periods
//Storyboard Layer 0 (Background)
//Storyboard Layer 1 (Fail)
//Storyboard Layer 2 (Pass)
//Storyboard Layer 3 (Foreground)
//Storyboard Sound Samples

[TimingPoints]
-13,285.714285714286,4,2,0,30,1,0
37701,-100,4,2,0,30,0,1
55701,-100,4,2,0,30,0,0
74558,-100,4,2,0,30,0,1
110844,-100,4,2,0,30,0,0

[HitObjects]
64,192,1129,5,0,0:0:0:0:
192,192,1415,1,0,0:0:0:0:
320,192,1701,1,0,0:0:0:0:
448,192,1987,1,0,0:0:0:0:
192,192,2272,1,0,0:0:0:0:
448,192,2558,1,0,0:0:0:0:
320,192,2844,1,0,0:0:0:0:
64,192,3129,1,0,0:0:0:0:
448,192,3415,1,0,0:0:0:0:
320,192,3701,1,0,0:0:0:0:
192,192,3987,1,0,0:0:0:0:
64,192,4272,1,0,0:0:0:0:
448,192,4558,128,0,4987:0:0:0:50:soft-hitclap.wav
64,192,4987,128,0,5415:0:0:0:0:
448,192,5415,1,0,0:0:0:50:soft-hitclap2.wav
64,192,5701,1,0,0:0:0:0:
448,192,5701,1,0,0:0:0:50:soft-hitclap.wav
192,192,5987,1,0,0:0:0:0:
320,192,6272,1,0,0:0:0:50:soft-hitclap2.wav
448,192,6558,1,0,0:0:0:50:soft-hitclap.wav
192,192,6844,1,0,0:0:0:0:
64,192,7129,1,0,0:0:0:50:soft-hitclap.wav
448,192,7415,1,0,0:0:0:50:soft-hitclap2.wav
320,192,7701,1,0,0:0:0:0:
448,192,7987,1,0,0:0:0:50:soft-hitclap.wav
320,192,8272,1,0,0:0:0:50:soft-hitclap.wav
192,192,8558,1,0,0:0:0:50:soft-hitclap2.wav
64,192,8844,1,0,0:0:0:0:
320,192,9129,1,0,0:0:0:0:
192,192,9415,1,0,0:0:0:50:soft-hitclap.wav
64,192,9701,1,0,0:0:0:50:soft-hitclap2.wav
448,192,9987,1,0,0:0:0:0:
64,192,10272,1,0,0:0:0:0:
320,192,10272,1,0,0:0:0:50:soft-hitclap.wav
192,192,10558,1,0,0:0:0:0:
320,192,10844,1,0,0:0:0:50:soft-hitclap2.wav
448,192,11129,1,0,0:0:0:50:soft-hitclap.wav
64,192,11415,1,0,0:0:0:0:
320,192,11701,1,0,0:0:0:50:soft-hitclap.wav
192,192,11987,1,0,0:0:0:50:soft-hitclap2.wav
448,192,12272,1,0,0:0:0:0:
448,192,12558,1,0,0:0:0:50:soft-hitclap.wav
320,192,12844,1,0,0:0:0:50:soft-hitclap.wav
192,192,13129,1,0,0:0:0:50:soft-hitclap2.wav
64,192,13415,1,0,0:0:0:0:
320,192,13701,1,0,0:0:0:0:
64,192,13987,1,0,0:0:0:50:soft-hitclap.wav
192,192,14272,1,0,0:0:0:50:soft-hitclap2.wav
448,192,14558,1,0,0:0:0:0:
64,192,14844,1,0,0:0:0:50:soft-hitclap.wav
192,192,14844,1,0,0:0:0:0:
320,192,15129,1,0,0:0:0:50:soft-hitclap.wav
448,192,15415,1,0,0:0:0:50:soft-hitclap2.wav
192,192,15701,1,0,0:0:0:0:
64,192,15987,1,0,0:0:0:0:
320,192,16272,1,0,0:0:0:50:soft-hitclap.wav
448,192,16558,1,0,0:0:0:50:soft-hitclap2.wav
320,192,16844,1,0,0:0:0:0:
192,192,17129,1,0,0:0:0:50:soft-hitclap.wav
448,192,17415,1,0,0:0:0:50:soft-hitclap.wav
64,192,17701,1,0,0:0:0:50:soft-hitclap2.wav
320,192,17987,1,0,0:0:0:0:
192,192,18272,1,0,0:0:0:0:
320,192,18558,1,0,0:0:0:0:
448,192,18844,1,0,0:0:0:50:soft-hitclap2.wav
64,192,19129,1,0,0:0:0:50:soft-hitclap.wav
192,192,19415,1,0,0:0:0:0:
320,192,19415,1,0,0:0:0:0:
64,192,19701,1,0,0:0:0:50:soft-hitclap.wav
192,192,19987,1,0,0:0:0:50:soft-hitclap2.wav
320,192,20272,1,0,0:0:0:0:
192,192,20558,1,0,0:0:0:50:soft-hitclap.wav
448,192,20844,1,0,0:0:0:50:soft-hitclap.wav
64,192,21129,1,0,0:0:0:50:soft-hitclap2.wav
192,192,21415,1,0,0:0:0:0:
448,192,21701,128,0,21987:0:0:0:0:
320,192,21987,128,0,22272:0:0:0:0:
192,192,22272,128,0,22558:0:0:0:0:
64,192,22558,128,0,22844:0:0:0:0:
448,192,22844,128,0,23415:0:0:0:0:
320,192,23415,128,0,23987:0:0:0:0:
64,192,23987,1,0,0:0:0:50:soft-hitclap.wav
192,192,23987,1,0,0:0:0:50:LR_Long Bass.wav
192,192,25129,1,0,0:0:0:0:
448,192,25129,1,0,0:0:0:0:
192,192,25701,1,0,0:0:0:0:
320,192,25701,1,0,0:0:0:0:
64,192,26272,1,0,0:0:0:50:soft-hitclap.wav
192,192,26272,1,0,0:0:0:0:
320,192,26558,1,0,0:0:0:0:
448,192,26558,1,0,0:0:0:0:
192,192,27129,1,0,0:0:0:0:
320,192,27129,1,0,0:0:0:0:
320,192,27701,1,0,0:0:0:0:
448,192,27701,1,0,0:0:0:0:
64,192,28558,1,0,0:0:0:0:
192,192,28558,1,0,0:0:0:0:
320,192,29701,1,0,0:0:0:0:
448,192,29701,1,0,0:0:0:0:
192,192,29987,1,0,0:0:0:0:
320,192,29987,1,0,0:0:0:0:
64,192,30558,1,0,0:0:0:0:
192,192,30558,1,0,0:0:0:0:
320,192,30844,128,0,31987:0:0:0:0:
448,192,32558,128,0,32844:0:0:0:0:
64,192,32844,1,0,0:0:0:50:soft-hitclap.wav
192,192,33129,1,0,0:0:0:50:soft-hitclap.wav
448,192,33129,1,0,0:0:0:0:
64,192,33558,1,0,0:0:0:50:soft-hitclap.wav
320,192,33558,1,0,0:0:0:0:
192,192,33987,1,0,0:0:0:50:soft-hitclap.wav
448,192,33987,1,0,0:0:0:0:
192,192,34415,1,0,0:0:0:50:soft-hitclap.wav
320,192,34415,1,0,0:0:0:0:
64,192,34701,1,0,0:0:0:50:soft-hitclap.wav
192,192,34701,1,0,0:0:0:0:
320,192,35129,1,0,0:0:0:50:soft-hitclap.wav
448,192,35129,1,0,0:0:0:0:
64,192,35415,1,0,0:0:0:0:
320,192,35415,1,0,0:0:0:50:soft-hitclap.wav
192,192,35844,1,0,0:0:0:0:
448,192,35844,1,0,0:0:0:50:soft-hitclap.wav
192,192,36558,128,0,37129:0:0:0:0:
320,192,37129,128,0,37701:0:0:0:0:
64,192,37701,1,0,0:0:0:50:soft-hitclap.wav
448,192,37701,1,0,0:0:0:50:soft-hitfinish.wav
448,192,37987,1,0,0:0:0:50:soft-hitclap2.wav
192,192,38129,1,0,0:0:0:50:soft-hitclap.wav
320,192,38415,1,0,0:0:0:50:soft-hitclap2.wav
320,192,38701,1,0,0:0:0:50:soft-hitclap2.wav
192,192,38844,1,0,0:0:0:50:soft-hitclap.wav
448,192,39129,1,0,0:0:0:50:soft-hitclap2.wav
64,192,39272,1,0,0:0:0:50:soft-hitclap.wav
192,192,39558,1,0,0:0:0:50:soft-hitclap2.wav
320,192,39701,1,0,0:0:0:50:soft-hitclap.wav
64,192,39987,1,0,0:0:0:50:soft-hitclap.wav
320,192,40272,1,0,0:0:0:50:soft-hitclap2.wav
192,192,40415,1,0,0:0:0:50:soft-hitclap.wav
448,192,40701,1,0,0:0:0:50:soft-hitclap2.wav
320,192,40987,1,0,0:0:0:50:soft-hitclap2.wav
192,192,41129,1,0,0:0:0:50:soft-hitclap.wav
448,192,41415,1,0,0:0:0:50:soft-hitclap2.wav
64,192,41558,1,0,0:0:0:50:soft-hitclap.wav
192,192,41844,1,0,0:0:0:50:soft-hitclap2.wav
192,192,42129,1,0,0:0:0:50:soft-hitclap2.wav
64,192,42272,1,0,0:0:0:50:soft-hitfinish.wav
448,192,42272,1,0,0:0:0:50:soft-hitclap.wav
320,192,42558,1,0,0:0:0:50:soft-hitclap2.wav
192,192,42701,1,0,0:0:0:50:soft-hitclap.wav
320,192,42987,1,0,0:0:0:50:soft-hitclap2.wav
448,192,43272,1,0,0:0:0:50:soft-hitclap2.wav
64,192,43415,1,0,0:0:0:50:soft-hitclap.wav
320,192,43701,1,0,0:0:0:50:soft-hitclap2.wav
192,192,43844,1,0,0:0:0:50:soft-hitclap.wav
192,192,44129,1,0,0:0:0:50:soft-hitclap2.wav
448,192,44415,1,0,0:0:0:50:soft-hitclap.wav
320,192,44558,1,0,0:0:0:50:soft-hitclap.wav
192,192,44844,1,0,0:0:0:50:soft-hitclap2.wav
64,192,44987,1,0,0:0:0:50:soft-hitclap.wav
320,192,45272,1,0,0:0:0:50:soft-hitclap2.wav
448,192,45558,1,0,0:0:0:50:soft-hitclap2.wav
192,192,45701,128,0,46272:0:0:0:50:soft-hitclap.wav
320,192,46272,128,0,46844:0:0:0:50:soft-hitclap2.wav
64,192,46844,1,0,0:0:0:50:soft-hitclap.wav
448,192,46844,1,0,0:0:0:50:soft-hitfinish.wav
320,192,47129,1,0,0:0:0:50:soft-hitclap2.wav
192,192,47272,1,0,0:0:0:50:soft-hitclap.wav
448,192,47558,1,0,0:0:0:50:soft-hitclap2.wav
448,192,47844,1,0,0:0:0:50:soft-hitclap2.wav
64,192,47987,1,0,0:0:0:50:soft-hitclap.wav
320,192,48272,1,0,0:0:0:50:soft-hitclap2.wav
192,192,48415,1,0,0:0:0:50:soft-hitclap.wav
320,192,48701,1,0,0:0:0:50:soft-hitclap2.wav
64,192,48844,1,0,0:0:0:50:soft-hitclap.wav
192,192,49129,1,0,0:0:0:50:soft-hitclap.wav
448,192,49415,1,0,0:0:0:50:soft-hitclap2.wav
320,192,49558,1,0,0:0:0:50:soft-hitclap.wav
64,192,49844,1,0,0:0:0:50:soft-hitclap2.wav
448,192,50129,1,0,0:0:0:50:soft-hitclap2.wav
192,192,50272,1,0,0:0:0:50:soft-hitclap.wav
320,192,50558,1,0,0:0:0:50:soft-hitclap2.wav
64,192,50701,1,0,0:0:0:50:soft-hitclap.wav
448,192,50987,1,0,0:0:0:50:soft-hitclap2.wav
448,192,51272,1,0,0:0:0:50:soft-hitclap2.wav
192,192,51415,1,0,0:0:0:50:soft-hitclap.wav
448,192,51701,1,0,0:0:0:50:soft-hitclap2.wav
64,192,51844,1,0,0:0:0:50:soft-hitclap.wav
192,192,52129,1,0,0:0:0:50:soft-hitclap2.wav
192,192,52415,1,0,0:0:0:50:soft-hitclap2.wav
64,192,52558,1,0,0:0:0:50:soft-hitclap.wav
448,192,52844,1,0,0:0:0:50:soft-hitclap2.wav
320,192,52987,1,0,0:0:0:50:soft-hitclap.wav
192,192,53272,1,0,0:0:0:50:soft-hitclap2.wav
320,192,53415,1,0,0:0:0:50:soft-hitclap.wav
320,192,53701,128,0,54844:0:0:0:50:soft-hitclap.wav
192,192,54844,128,0,55701:0:0:0:50:soft-hitclap.wav
448,192,55701,128,0,55987:0:0:0:50:LR_Long Bass.wav
64,192,55987,1,0,0:0:0:0:
192,192,56129,1,0,0:0:0:0:
320,192,56415,128,0,57987:0:0:0:0:
192,192,57987,1,0,0:0:0:0:
320,192,58272,1,0,0:0:0:0:
64,192,58415,1,0,0:0:0:0:
448,192,58701,128,0,59272:0:0:0:0:
192,192,59272,128,0,59987:0:0:0:0:
64,192,59987,1,0,0:0:0:0:
320,192,60272,1,0,0:0:0:0:
448,192,60558,128,0,60987:0:0:0:0:
192,192,60987,128,0,61415:0:0:0:0:
448,192,61415,1,0,0:0:0:0:
320,192,61701,128,0,62129:0:0:0:0:
192,192,62129,1,0,0:0:0:0:
64,192,62415,1,0,0:0:0:0:
192,192,62701,128,0,63415:0:0:0:0:
448,192,63415,1,0,0:0:0:0:
192,192,63701,1,0,0:0:0:0:
320,192,63987,128,0,64415:0:0:0:0:
192,192,64415,1,0,0:0:0:0:
320,192,64701,1,0,0:0:0:0:
448,192,64987,1,0,0:0:0:0:
64,192,65129,1,0,0:0:0:50:soft-hitclap.wav
320,192,65129,1,0,0:0:0:0:
320,192,65701,1,0,0:0:0:0:
448,192,65701,1,0,0:0:0:50:soft-hitclap2.wav
192,192,66272,1,0,0:0:0:50:soft-hitclap.wav
320,192,66487,1,0,0:0:0:50:soft-hitclap.wav
64,192,66701,1,0,0:0:0:50:soft-hitclap.wav
448,192,66844,1,0,0:0:0:0:
320,192,66844,1,0,0:0:0:50:soft-hitclap2.wav
64,192,67415,1,0,0:0:0:50:soft-hitclap.wav
448,192,67844,1,0,0:0:0:50:soft-hitclap.wav
320,192,67987,1,0,0:0:0:50:soft-hitclap2.wav
192,192,67987,1,0,0:0:0:0:
320,192,68558,1,0,0:0:0:50:soft-hitclap.wav
192,192,68772,1,0,0:0:0:50:soft-hitclap.wav
64,192,68987,1,0,0:0:0:50:soft-hitclap.wav
320,192,69129,1,0,0:0:0:50:soft-hitclap2.wav
448,192,69129,1,0,0:0:0:0:
192,192,69415,1,0,0:0:0:50:soft-hitclap2.wav
64,192,69701,128,0,70844:0:0:0:0:
448,192,69701,128,0,70844:0:0:0:0:
192,192,70844,128,0,71987:0:0:0:0:
320,192,70844,128,0,71987:0:0:0:0:
448,192,71987,128,0,73129:0:0:0:0:
320,192,73129,1,0,0:0:0:0:
192,192,73129,1,0,0:0:0:0:
64,192,73701,1,0,0:0:0:0:
448,192,73701,1,0,0:0:0:0:
192,192,74558,1,0,0:0:0:50:soft-hitclap2.wav
320,192,74558,1,0,0:0:0:0:
64,192,74701,1,0,0:0:0:50:soft-hitclap.wav
448,192,74987,1,0,0:0:0:50:soft-hitclap2.wav
320,192,75272,1,0,0:0:0:50:soft-hitclap2.wav
192,192,75415,1,0,0:0:0:50:soft-hitclap.wav
448,192,75701,1,0,0:0:0:50:soft-hitclap2.wav
64,192,75844,1,0,0:0:0:50:soft-hitclap.wav
448,192,76129,1,0,0:0:0:50:soft-hitclap2.wav
64,192,76415,1,0,0:0:0:50:soft-hitclap.wav
320,192,76558,1,0,0:0:0:50:soft-hitclap.wav
448,192,76844,1,0,0:0:0:50:soft-hitclap2.wav
64,192,76987,1,0,0:0:0:50:soft-hitclap.wav
320,192,77272,1,0,0:0:0:50:soft-hitclap2.wav
320,192,77558,1,0,0:0:0:50:soft-hitclap2.wav
192,192,77701,1,0,0:0:0:50:soft-hitclap.wav
448,192,77987,1,0,0:0:0:50:soft-hitclap2.wav
64,192,78129,1,0,0:0:0:50:soft-hitclap.wav
192,192,78415,1,0,0:0:0:50:soft-hitclap2.wav
64,192,78558,1,0,0:0:0:50:soft-hitclap.wav
448,192,78701,1,0,0:0:0:50:soft-hitclap2.wav
192,192,78844,1,0,0:0:0:50:soft-hitfinish.wav
320,192,78844,1,0,0:0:0:50:soft-hitclap.wav
448,192,79129,1,0,0:0:0:50:soft-hitclap2.wav
320,192,79272,1,0,0:0:0:50:soft-hitclap.wav
448,192,79558,1,0,0:0:0:50:soft-hitclap2.wav
192,192,79701,1,0,0:0:0:50:soft-hitclap.wav
320,192,79844,1,0,0:0:0:50:soft-hitclap2.wav
64,192,79987,1,0,0:0:0:50:soft-hitclap.wav
192,192,80272,1,0,0:0:0:50:soft-hitclap2.wav
320,192,80558,1,0,0:0:0:50:soft-hitclap2.wav
448,192,80701,1,0,0:0:0:50:soft-hitclap2.wav
64,192,80987,1,0,0:0:0:50:soft-hitclap.wav
320,192,81129,1,0,0:0:0:50:soft-hitclap.wav
192,192,81415,1,0,0:0:0:50:soft-hitclap2.wav
320,192,81844,1,0,0:0:0:50:soft-hitclap2.wav
320,192,82129,1,0,0:0:0:50:soft-hitclap2.wav
192,192,82129,128,0,83415:0:0:0:0:
320,192,83129,128,0,83415:0:0:0:50:soft-hitclap2.wav
64,192,83701,1,0,0:0:0:50:soft-hitclap2.wav
448,192,83701,1,0,0:0:0:50:soft-hitfinish.wav
320,192,83844,1,0,0:0:0:50:soft-hitclap.wav
192,192,84129,1,0,0:0:0:50:soft-hitclap2.wav
448,192,84415,1,0,0:0:0:50:soft-hitclap2.wav
64,192,84558,1,0,0:0:0:50:soft-hitclap.wav
448,192,84844,1,0,0:0:0:50:soft-hitclap2.wav
192,192,84987,1,0,0:0:0:50:soft-hitclap.wav
320,192,85272,1,0,0:0:0:50:soft-hitclap2.wav
320,192,85558,1,0,0:0:0:50:soft-hitclap.wav
192,192,85701,1,0,0:0:0:50:soft-hitclap.wav
448,192,85987,1,0,0:0:0:50:soft-hitclap2.wav
64,192,86129,1,0,0:0:0:50:soft-hitclap.wav
320,192,86415,1,0,0:0:0:50:soft-hitclap2.wav
192,192,86701,1,0,0:0:0:50:soft-hitclap2.wav
64,192,86844,1,0,0:0:0:50:soft-hitclap.wav
320,192,87129,1,0,0:0:0:50:soft-hitclap2.wav
192,192,87272,1,0,0:0:0:50:soft-hitclap.wav
448,192,87558,1,0,0:0:0:50:soft-hitclap2.wav
448,192,87844,1,0,0:0:0:50:soft-hitclap2.wav
192,192,87987,1,0,0:0:0:50:soft-hitclap.wav
320,192,87987,1,0,0:0:0:50:soft-hitfinish.wav
320,192,88272,1,0,0:0:0:50:soft-hitclap2.wav
64,192,88415,1,0,0:0:0:50:soft-hitclap.wav
448,192,88701,1,0,0:0:0:50:soft-hitclap2.wav
64,192,88844,1,0,0:0:0:50:soft-hitclap.wav
192,192,88987,1,0,0:0:0:50:soft-hitclap.wav
320,192,89129,128,0,89415:0:0:0:50:soft-hitclap.wav
192,192,89415,128,0,89701:0:0:0:50:soft-hitclap.wav
448,192,89701,1,0,0:0:0:50:soft-hitclap2.wav
192,192,89915,1,0,0:0:0:50:soft-hitclap2.wav
320,192,90129,1,0,0:0:0:50:soft-hitclap2.wav
64,192,90272,128,0,90558:0:0:0:50:soft-hitclap2.wav
320,192,90558,128,0,90844:0:0:0:50:soft-hitclap2.wav
64,192,90844,1,0,0:0:0:50:soft-hitclap2.wav
448,192,91129,1,0,0:0:0:50:soft-hitclap2.wav
192,192,91415,128,0,91701:0:0:0:50:soft-hitclap.wav
448,192,91701,1,0,0:0:0:50:soft-hitclap2.wav
64,192,91987,1,0,0:0:0:50:soft-hitclap2.wav
320,192,92129,1,0,0:0:0:50:soft-hitclap2.wav
192,192,92272,1,0,0:0:0:50:soft-hitclap2.wav
448,192,92415,1,0,0:0:0:50:soft-hitclap2.wav
64,192,92558,1,0,0:0:0:50:soft-hitclap.wav
192,192,92844,1,0,0:0:0:50:soft-hitclap2.wav
320,192,92844,1,0,0:0:0:50:soft-hitfinish.wav
448,192,93272,1,0,0:0:0:50:soft-hitclap2.wav
320,192,93558,1,0,0:0:0:50:soft-hitclap2.wav
64,192,93701,1,0,0:0:0:50:soft-hitclap.wav
320,192,93987,1,0,0:0:0:50:soft-hitclap2.wav
192,192,94272,1,0,0:0:0:50:soft-hitclap.wav
320,192,94415,1,0,0:0:0:50:soft-hitclap2.wav
64,192,94701,1,0,0:0:0:50:soft-hitclap.wav
320,192,94844,1,0,0:0:0:40:soft-hitclap.wav
448,192,95129,1,0,0:0:0:50:soft-hitclap2.wav
192,192,95272,1,0,0:0:0:50:soft-hitclap.wav
64,192,95558,1,0,0:0:0:50:soft-hitclap2.wav
320,192,95844,1,0,0:0:0:50:soft-hitclap2.wav
192,192,95987,1,0,0:0:0:50:soft-hitclap.wav
320,192,96129,1,0,0:0:0:50:soft-hitclap.wav
448,192,96272,1,0,0:0:0:50:soft-hitclap2.wav
64,192,96415,1,0,0:0:0:50:soft-hitclap.wav
320,192,96701,1,0,0:0:0:50:soft-hitclap2.wav
320,192,96987,1,0,0:0:0:50:soft-hitclap2.wav
64,192,97129,1,0,0:0:0:50:soft-hitfinish.wav
448,192,97129,1,0,0:0:0:50:soft-hitclap.wav
320,192,97415,1,0,0:0:0:50:soft-hitclap2.wav
192,192,97558,1,0,0:0:0:50:soft-hitclap.wav
448,192,97844,1,0,0:0:0:50:soft-hitclap2.wav
320,192,98129,1,0,0:0:0:50:soft-hitclap2.wav
64,192,98272,1,0,0:0:0:50:soft-hitclap.wav
448,192,98415,1,0,0:0:0:50:soft-hitclap.wav
192,192,98558,1,0,0:0:0:50:soft-hitclap2.wav
320,192,98701,1,0,0:0:0:50:soft-hitclap.wav
448,192,98987,1,0,0:0:0:50:soft-hitclap2.wav
448,192,99272,1,0,0:0:0:50:soft-hitclap.wav
192,192,99415,1,0,0:0:0:50:soft-hitclap.wav
320,192,99701,1,0,0:0:0:50:soft-hitclap2.wav
192,192,99844,1,0,0:0:0:50:soft-hitclap.wav
448,192,100129,1,0,0:0:0:50:soft-hitclap2.wav
448,192,100415,1,0,0:0:0:50:soft-hitclap2.wav
64,192,100558,1,0,0:0:0:50:soft-hitclap.wav
192,192,100701,1,0,0:0:0:50:soft-hitclap.wav
320,192,100844,1,0,0:0:0:50:soft-hitclap2.wav
192,192,100987,1,0,0:0:0:50:soft-hitclap.wav
448,192,101129,128,0,101701:0:0:0:50:soft-hitclap.wav
64,192,101701,1,0,0:0:0:50:soft-hitclap.wav
320,192,101701,1,0,0:0:0:50:soft-hitfinish.wav
448,192,101987,1,0,0:0:0:50:soft-hitclap2.wav
192,192,102129,1,0,0:0:0:50:soft-hitclap.wav
448,192,102415,1,0,0:0:0:50:soft-hitclap2.wav
448,192,102701,1,0,0:0:0:50:soft-hitclap2.wav
64,192,102844,1,0,0:0:0:50:soft-hitclap.wav
320,192,103129,1,0,0:0:0:50:soft-hitclap2.wav
192,192,103272,1,0,0:0:0:50:soft-hitclap.wav
448,192,103558,1,0,0:0:0:50:soft-hitclap2.wav
192,192,103844,1,0,0:0:0:50:soft-hitclap.wav
320,192,103987,1,0,0:0:0:50:soft-hitclap.wav
448,192,104272,1,0,0:0:0:50:soft-hitclap2.wav
192,192,104415,1,0,0:0:0:50:soft-hitclap.wav
448,192,104701,1,0,0:0:0:50:soft-hitclap2.wav
192,192,104987,1,0,0:0:0:50:soft-hitclap2.wav
64,192,105129,1,0,0:0:0:50:soft-hitclap.wav
320,192,105272,1,0,0:0:0:50:soft-hitclap.wav
448,192,105415,1,0,0:0:0:50:soft-hitclap2.wav
64,192,105558,1,0,0:0:0:50:soft-hitclap.wav
192,192,105701,128,0,106272:0:0:0:50:soft-hitclap.wav
64,192,106272,1,0,0:0:0:50:soft-hitclap.wav
448,192,106272,1,0,0:0:0:50:soft-hitfinish.wav
448,192,106558,1,0,0:0:0:50:soft-hitclap2.wav
192,192,106701,1,0,0:0:0:50:soft-hitclap.wav
448,192,106987,1,0,0:0:0:50:soft-hitclap2.wav
320,192,107272,1,0,0:0:0:50:soft-hitclap2.wav
64,192,107415,1,0,0:0:0:50:soft-hitclap2.wav
192,192,107629,1,0,0:0:0:50:soft-hitclap2.wav
320,192,107844,1,0,0:0:0:50:soft-hitclap2.wav
448,192,107987,128,0,108272:0:0:0:50:soft-hitclap2.wav
64,192,108272,128,0,108558:0:0:0:50:soft-hitclap2.wav
448,192,108558,1,0,0:0:0:50:soft-hitclap.wav
320,192,108844,1,0,0:0:0:50:soft-hitclap2.wav
192,192,109129,1,0,0:0:0:50:soft-hitclap.wav
448,192,109272,1,0,0:0:0:50:soft-hitclap2.wav
320,192,109558,1,0,0:0:0:50:soft-hitclap2.wav
64,192,109701,128,0,109987:0:0:0:50:soft-hitclap.wav
320,192,109987,1,0,0:0:0:50:soft-hitclap2.wav
192,192,110272,128,0,110558:0:0:0:50:soft-hitclap2.wav
448,192,110558,1,0,0:0:0:0:
320,192,110844,1,0,0:0:0:50:soft-hitclap.wav
192,192,110987,1,0,0:0:0:50:soft-hitclap.wav
448,192,111129,128,0,115129:0:0:0:50:LR_Long Bass.wav
64,192,111129,1,0,0:0:0:50:soft-hitclap.wav
64,192,115129,1,0,0:0:0:50:LR_Long Bass.wav
