osu file format v14

[General]
AudioFilename: audio.mp3
AudioLeadIn: 0
PreviewTime: 74272
Countdown: 0
SampleSet: Soft
StackLeniency: 0.7
Mode: 3
LetterboxInBreaks: 0
SpecialStyle: 0
WidescreenStoryboard: 0

[Editor]
DistanceSpacing: 1
BeatDivisor: 4
GridSize: 4
TimelineZoom: 2.599998

[Metadata]
Title:Dement ~After Legend~
TitleUnicode:Dement ~After Legend~
Artist:LunaticSounds
ArtistUnicode:LunaticSounds
Creator:Vampir
Version:Sora's NM
Source:EZ2AC : NIGHT TRAVELER
Tags:Evening -SoraGami- Fontes Artcore Arcaea Dynamix
BeatmapID:1179493
BeatmapSetID:557428

[Difficulty]
HPDrainRate:7
CircleSize:4
OverallDifficulty:7
ApproachRate:5
SliderMultiplier:1.4
SliderTickRate:1

[Events]
//Background and Video events
0,0,"Deznm.png",0,0
//Break Periods
//Storyboard Layer 0 (Background)
//Storyboard Layer 1 (Fail)
//Storyboard Layer 2 (Pass)
//Storyboard Layer 3 (Foreground)
//Storyboard Sound Samples

[TimingPoints]
-13,285.714285714286,4,2,0,50,1,0
37701,-100,4,2,0,30,0,1
55701,-100,4,2,0,30,0,0
74558,-100,4,2,0,30,0,1
110844,-100,4,2,0,30,0,0

[HitObjects]
64,192,558,128,0,1129:0:0:0:30:RevCymbal.wav
448,192,1129,1,0,0:0:0:0:
320,192,1129,1,0,0:0:0:0:
192,192,1272,1,0,0:0:0:0:
320,192,1415,1,0,0:0:0:0:
64,192,1558,1,0,0:0:0:0:
448,192,1701,128,0,2272:0:0:0:0:
64,192,2272,1,0,0:0:0:0:
192,192,2272,128,0,2558:0:0:0:0:
320,192,2558,128,0,2844:0:0:0:0:
448,192,2844,1,0,0:0:0:0:
64,192,2987,1,0,0:0:0:0:
192,192,3129,1,0,0:0:0:0:
320,192,3272,1,0,0:0:0:0:
448,192,3415,1,0,0:0:0:0:
64,192,3415,1,0,0:0:0:0:
192,192,3701,1,0,0:0:0:0:
448,192,3844,1,0,0:0:0:0:
320,192,4129,1,0,0:0:0:0:
64,192,4272,1,0,0:0:0:0:
448,192,4558,1,0,0:0:0:70:soft-hitclap.wav
192,192,4558,128,0,5129:0:0:0:0:
320,192,4844,128,0,5129:0:0:0:0:
448,192,5129,128,0,5415:0:0:0:70:soft-hitclap.wav
64,192,5129,128,0,5415:0:0:0:0:
192,192,5415,1,0,0:0:0:0:
320,192,5415,1,0,0:0:0:100:LR_Long Bass.wav
64,192,5701,1,0,0:0:0:100:LR_Long Bass.wav
448,192,5701,1,0,0:0:0:70:soft-hitclap.wav
192,192,5844,1,0,0:0:0:0:
320,192,5987,1,0,0:0:0:0:
64,192,6272,1,0,0:0:0:0:
192,192,6415,1,0,0:0:0:0:
320,192,6558,1,0,0:0:0:70:soft-hitclap.wav
64,192,6844,1,0,0:0:0:0:
192,192,6987,1,0,0:0:0:0:
320,192,7129,1,0,0:0:0:70:soft-hitclap.wav
192,192,7415,1,0,0:0:0:70:LR4_SnareBPDT.wav
64,192,7415,1,0,0:0:0:0:
320,192,7558,1,0,0:0:0:0:
448,192,7701,1,0,0:0:0:0:
320,192,7987,1,0,0:0:0:70:soft-hitclap.wav
192,192,8129,1,0,0:0:0:0:
64,192,8272,1,0,0:0:0:70:soft-hitclap.wav
320,192,8558,1,0,0:0:0:70:LR4_SnareBPDT.wav
448,192,8558,1,0,0:0:0:0:
192,192,8701,1,0,0:0:0:0:
64,192,8844,1,0,0:0:0:0:
448,192,9129,1,0,0:0:0:0:
192,192,9272,1,0,0:0:0:0:
448,192,9415,1,0,0:0:0:70:soft-hitclap.wav
64,192,9558,1,0,0:0:0:0:
320,192,9701,1,0,0:0:0:70:LR4_SnareBPDT.wav
192,192,9701,1,0,0:0:0:0:
448,192,9844,1,0,0:0:0:70:soft-hitclap.wav
64,192,9987,1,0,0:0:0:0:
320,192,10129,1,0,0:0:0:0:
64,192,10272,1,0,0:0:0:100:LR_Long Bass.wav
320,192,10272,1,0,0:0:0:70:soft-hitclap.wav
192,192,10415,1,0,0:0:0:0:
320,192,10558,1,0,0:0:0:0:
64,192,10844,1,0,0:0:0:70:LR4_SnareBPDT.wav
192,192,10844,1,0,0:0:0:0:
320,192,10987,1,0,0:0:0:0:
448,192,11129,1,0,0:0:0:70:soft-hitclap.wav
192,192,11415,1,0,0:0:0:0:
320,192,11558,1,0,0:0:0:0:
448,192,11701,1,0,0:0:0:70:soft-hitclap.wav
64,192,11987,1,0,0:0:0:0:
320,192,11987,1,0,0:0:0:70:LR4_SnareBPDT.wav
192,192,12129,1,0,0:0:0:0:
320,192,12272,1,0,0:0:0:0:
448,192,12558,1,0,0:0:0:70:soft-hitclap.wav
64,192,12844,1,0,0:0:0:70:soft-hitclap.wav
192,192,12987,1,0,0:0:0:70:soft-hitclap.wav
448,192,13129,1,0,0:0:0:0:
320,192,13129,1,0,0:0:0:70:LR4_SnareBPDT.wav
64,192,13272,1,0,0:0:0:70:soft-hitclap.wav
448,192,13415,1,0,0:0:0:0:
320,192,13701,1,0,0:0:0:0:
192,192,13987,1,0,0:0:0:70:soft-hitclap.wav
448,192,14272,1,0,0:0:0:0:
64,192,14272,1,0,0:0:0:70:LR4_SnareBPDT.wav
320,192,14415,1,0,0:0:0:70:soft-hitclap.wav
192,192,14558,1,0,0:0:0:0:
448,192,14701,1,0,0:0:0:70:soft-hitclap.wav
64,192,14844,1,0,0:0:0:100:LR_Long Bass.wav
320,192,14844,1,0,0:0:0:70:soft-hitclap.wav
192,192,15129,1,0,0:0:0:70:soft-hitclap.wav
320,192,15272,1,0,0:0:0:0:
448,192,15415,1,0,0:0:0:70:LR4_SnareBPDT.wav
64,192,15415,1,0,0:0:0:0:
192,192,15558,1,0,0:0:0:70:soft-hitclap.wav
320,192,15987,1,0,0:0:0:0:
64,192,16272,1,0,0:0:0:70:soft-hitclap.wav
448,192,16558,1,0,0:0:0:0:
192,192,16558,1,0,0:0:0:70:LR4_SnareBPDT.wav
320,192,16701,1,0,0:0:0:70:soft-hitclap.wav
64,192,16844,1,0,0:0:0:0:
192,192,16987,1,0,0:0:0:70:soft-hitclap.wav
448,192,17129,1,0,0:0:0:70:soft-hitclap.wav
64,192,17415,1,0,0:0:0:70:soft-hitclap.wav
320,192,17558,1,0,0:0:0:0:
192,192,17701,1,0,0:0:0:70:LR4_SnareBPDT.wav
64,192,17701,1,0,0:0:0:0:
448,192,17844,1,0,0:0:0:0:
320,192,18129,1,0,0:0:0:70:soft-hitclap.wav
64,192,18272,1,0,0:0:0:0:
448,192,18415,1,0,0:0:0:70:soft-hitclap.wav
192,192,18701,1,0,0:0:0:70:soft-hitclap.wav
320,192,18844,1,0,0:0:0:70:LR4_SnareBPDT.wav
448,192,18844,1,0,0:0:0:0:
192,192,18987,1,0,0:0:0:70:soft-hitclap.wav
64,192,19129,128,0,19415:0:0:0:70:soft-hitclap.wav
320,192,19415,128,0,19701:0:0:0:100:LR_Long Bass.wav
192,192,19701,1,0,0:0:0:70:soft-hitclap.wav
448,192,19844,1,0,0:0:0:0:
64,192,19987,1,0,0:0:0:0:
320,192,19987,1,0,0:0:0:70:LR4_SnareBPDT.wav
192,192,20129,1,0,0:0:0:0:
448,192,20558,1,0,0:0:0:70:soft-hitclap.wav
320,192,20844,1,0,0:0:0:70:soft-hitclap.wav
64,192,21129,1,0,0:0:0:0:
192,192,21129,1,0,0:0:0:70:LR4_SnareBPDT.wav
448,192,21272,1,0,0:0:0:70:soft-hitclap.wav
448,192,21558,1,0,0:0:0:70:soft-hitclap.wav
64,192,21701,1,0,0:0:0:0:
320,192,21844,1,0,0:0:0:70:soft-hitclap.wav
192,192,21987,1,0,0:0:0:70:soft-hitclap.wav
320,192,22129,1,0,0:0:0:70:soft-hitclap.wav
64,192,22272,1,0,0:0:0:70:LR4_SnareBPDT.wav
448,192,22272,1,0,0:0:0:0:
192,192,22415,1,0,0:0:0:70:soft-hitclap.wav
448,192,22558,128,0,22844:0:0:0:0:
320,192,22558,128,0,22844:0:0:0:70:soft-hitclap.wav
192,192,22844,128,0,23415:0:0:0:0:
320,192,23415,128,0,23987:0:0:0:0:
448,192,23987,1,0,0:0:0:70:LR_Snare Hit.wav
64,192,23987,128,0,24129:0:0:0:100:LR_Long Bass.wav
192,192,25129,128,0,25272:0:0:0:0:
320,192,25701,128,0,25844:0:0:0:0:
64,192,26272,128,0,26415:0:0:0:0:
448,192,26558,128,0,26701:0:0:0:0:
192,192,27129,128,0,27272:0:0:0:0:
64,192,27701,128,0,27844:0:0:0:0:
448,192,27844,1,0,0:0:0:50:LR_Snare Hit.wav
320,192,27987,1,0,0:0:0:50:LR_Snare Hit.wav
192,192,28272,1,0,0:0:0:55:LR_Snare Hit.wav
320,192,28415,1,0,0:0:0:55:LR_Snare Hit.wav
448,192,28558,128,0,28701:0:0:0:60:LR_Snare Hit.wav
64,192,28701,1,0,0:0:0:60:LR_Snare Hit.wav
320,192,28844,1,0,0:0:0:60:LR_Snare Hit.wav
192,192,28987,1,0,0:0:0:60:LR_Snare Hit.wav
448,192,29129,1,0,0:0:0:65:LR_Snare Hit.wav
64,192,29272,1,0,0:0:0:65:LR_Snare Hit.wav
448,192,29415,1,0,0:0:0:65:LR_Snare Hit.wav
192,192,29558,1,0,0:0:0:65:LR_Snare Hit.wav
320,192,29701,128,0,29844:0:0:0:70:LR_Snare Hit.wav
64,192,29844,1,0,0:0:0:70:LR_Snare Hit.wav
448,192,29987,128,0,30129:0:0:0:70:LR_Snare Hit.wav
192,192,30129,1,0,0:0:0:70:LR_Snare Hit.wav
64,192,30272,128,0,30415:0:0:0:70:LR_Snare Hit.wav
320,192,30415,1,0,0:0:0:70:LR_Snare Hit.wav
192,192,30558,128,0,30701:0:0:0:70:LR_Snare Hit.wav
448,192,30701,1,0,0:0:0:70:LR_Snare Hit.wav
64,192,30844,128,0,31701:0:0:0:0:
320,192,31987,128,0,32272:0:0:0:0:
192,192,32272,128,0,32558:0:0:0:0:
448,192,32558,128,0,32844:0:0:0:0:
320,192,32558,128,0,32844:0:0:0:0:
64,192,32844,1,0,0:0:0:100:LR_Long Bass.wav
448,192,33129,1,0,0:0:0:0:
192,192,33129,1,0,0:0:0:70:LR4_SnareBPDT.wav
320,192,33415,1,0,0:0:0:70:soft-hitclap.wav
64,192,33558,1,0,0:0:0:0:
448,192,33558,1,0,0:0:0:70:LR4_SnareBPDT.wav
192,192,33844,1,0,0:0:0:70:soft-hitclap.wav
448,192,33987,1,0,0:0:0:70:LR4_SnareBPDT.wav
320,192,33987,1,0,0:0:0:0:
64,192,34272,1,0,0:0:0:70:soft-hitclap.wav
448,192,34415,1,0,0:0:0:0:
192,192,34415,1,0,0:0:0:70:LR4_SnareBPDT.wav
320,192,34701,1,0,0:0:0:70:LR4_SnareBPDT.wav
64,192,34701,1,0,0:0:0:0:
192,192,34987,128,0,35129:0:0:0:70:soft-hitclap.wav
64,192,35129,1,0,0:0:0:0:
448,192,35129,1,0,0:0:0:70:LR4_SnareBPDT.wav
320,192,35415,1,0,0:0:0:0:
64,192,35701,1,0,0:0:0:0:
192,192,35701,1,0,0:0:0:70:LR4_SnareBPDT.wav
448,192,35844,1,0,0:0:0:0:
320,192,36129,1,0,0:0:0:70:LR4_SnareBPDT.wav
64,192,36129,1,0,0:0:0:0:
192,192,36415,1,0,0:0:0:0:
448,192,36415,1,0,0:0:0:70:LR4_SnareBPDT.wav
320,192,36558,128,0,37129:0:0:0:70:soft-hitclap.wav
64,192,36987,1,0,0:0:0:70:LR4_SnareBPDT.wav
448,192,37129,128,0,37701:0:0:0:0:
192,192,37129,1,0,0:0:0:70:LR4_SnareBPDT.wav
64,192,37272,1,0,0:0:0:70:LR4_SnareBPDT.wav
320,192,37415,1,0,0:0:0:70:LR4_SnareBPDT.wav
192,192,37701,1,0,0:0:0:70:LR_CymbalQST.wav
320,192,37987,1,0,0:0:0:0:
448,192,37987,1,0,0:0:0:70:LR4_SnareBPDT.wav
64,192,38129,1,0,0:0:0:70:soft-hitclap.wav
192,192,38415,1,0,0:0:0:0:
448,192,38415,1,0,0:0:0:70:LR4_SnareBPDT.wav
320,192,38701,1,0,0:0:0:70:LR4_SnareBPDT.wav
64,192,38701,1,0,0:0:0:0:
192,192,38844,1,0,0:0:0:70:soft-hitclap.wav
448,192,38987,1,0,0:0:0:70:soft-hitclap.wav
64,192,39129,1,0,0:0:0:0:
320,192,39129,1,0,0:0:0:70:LR4_SnareBPDT.wav
192,192,39272,1,0,0:0:0:70:soft-hitclap.wav
320,192,39558,1,0,0:0:0:70:LR4_SnareBPDT.wav
448,192,39558,1,0,0:0:0:0:
64,192,39844,128,0,39987:0:0:0:70:soft-hitclap.wav
320,192,39987,1,0,0:0:0:70:soft-hitclap.wav
192,192,40272,1,0,0:0:0:70:LR4_SnareBPDT.wav
64,192,40272,1,0,0:0:0:0:
448,192,40415,1,0,0:0:0:70:soft-hitclap.wav
320,192,40701,1,0,0:0:0:70:LR4_SnareBPDT.wav
64,192,40701,1,0,0:0:0:0:
192,192,40987,1,0,0:0:0:70:LR4_SnareBPDT.wav
448,192,40987,1,0,0:0:0:0:
320,192,41129,1,0,0:0:0:70:soft-hitclap.wav
64,192,41272,1,0,0:0:0:70:soft-hitclap.wav
448,192,41415,1,0,0:0:0:0:
192,192,41415,1,0,0:0:0:70:LR4_SnareBPDT.wav
320,192,41558,1,0,0:0:0:70:soft-hitclap.wav
192,192,41844,1,0,0:0:0:70:LR4_SnareBPDT.wav
64,192,41844,1,0,0:0:0:0:
320,192,41987,1,0,0:0:0:70:soft-hitclap.wav
448,192,42129,1,0,0:0:0:0:
64,192,42129,1,0,0:0:0:70:LR4_SnareBPDT.wav
192,192,42272,1,0,0:0:0:70:LR_CymbalQST.wav
320,192,42558,1,0,0:0:0:70:LR4_SnareBPDT.wav
448,192,42558,1,0,0:0:0:0:
64,192,42701,1,0,0:0:0:70:soft-hitclap.wav
192,192,42987,1,0,0:0:0:0:
448,192,42987,1,0,0:0:0:70:LR4_SnareBPDT.wav
320,192,43272,1,0,0:0:0:70:LR4_SnareBPDT.wav
64,192,43272,1,0,0:0:0:0:
192,192,43415,1,0,0:0:0:70:soft-hitclap.wav
448,192,43558,1,0,0:0:0:70:soft-hitclap.wav
320,192,43701,1,0,0:0:0:70:LR4_SnareBPDT.wav
64,192,43701,1,0,0:0:0:0:
192,192,43844,1,0,0:0:0:70:soft-hitclap.wav
320,192,44129,1,0,0:0:0:70:LR4_SnareBPDT.wav
448,192,44129,1,0,0:0:0:0:
64,192,44415,128,0,44558:0:0:0:70:soft-hitclap.wav
320,192,44558,1,0,0:0:0:70:soft-hitclap.wav
192,192,44844,1,0,0:0:0:70:LR4_SnareBPDT.wav
64,192,44844,1,0,0:0:0:0:
448,192,44987,1,0,0:0:0:70:soft-hitclap.wav
320,192,45272,1,0,0:0:0:70:LR4_SnareBPDT.wav
192,192,45272,1,0,0:0:0:0:
64,192,45558,1,0,0:0:0:0:
448,192,45558,1,0,0:0:0:70:LR4_SnareBPDT.wav
320,192,45701,1,0,0:0:0:70:soft-hitclap.wav
192,192,45844,1,0,0:0:0:70:soft-hitclap.wav
448,192,45987,128,0,46272:0:0:0:70:LR4_SnareBPDT.wav
64,192,45987,128,0,46272:0:0:0:70:soft-hitclap.wav
192,192,46272,1,0,0:0:0:70:LR4_SnareBPDT.wav
320,192,46415,1,0,0:0:0:70:LR4_SnareBPDT.wav
64,192,46558,1,0,0:0:0:70:LR4_SnareBPDT.wav
448,192,46701,1,0,0:0:0:70:LR4_SnareBPDT.wav
320,192,46844,1,0,0:0:0:70:LR_CymbalQST.wav
192,192,46844,1,0,0:0:0:0:
64,192,47129,1,0,0:0:0:0:
448,192,47129,1,0,0:0:0:70:LR4_SnareBPDT.wav
192,192,47272,1,0,0:0:0:70:soft-hitclap.wav
320,192,47558,1,0,0:0:0:0:
448,192,47558,1,0,0:0:0:70:LR4_SnareBPDT.wav
192,192,47844,1,0,0:0:0:70:LR4_SnareBPDT.wav
64,192,47844,1,0,0:0:0:0:
448,192,47987,1,0,0:0:0:70:soft-hitclap.wav
320,192,48129,1,0,0:0:0:70:soft-hitclap.wav
192,192,48272,1,0,0:0:0:70:LR4_SnareBPDT.wav
64,192,48272,1,0,0:0:0:0:
320,192,48415,1,0,0:0:0:70:soft-hitclap.wav
64,192,48701,1,0,0:0:0:70:LR4_SnareBPDT.wav
448,192,48701,1,0,0:0:0:0:
192,192,48987,128,0,49129:0:0:0:70:soft-hitclap.wav
320,192,49129,1,0,0:0:0:70:soft-hitclap.wav
64,192,49415,1,0,0:0:0:70:LR4_SnareBPDT.wav
448,192,49415,1,0,0:0:0:0:
320,192,49558,1,0,0:0:0:70:soft-hitclap.wav
192,192,49844,1,0,0:0:0:70:LR4_SnareBPDT.wav
64,192,49844,1,0,0:0:0:0:
320,192,50129,1,0,0:0:0:70:LR4_SnareBPDT.wav
448,192,50129,1,0,0:0:0:0:
64,192,50272,1,0,0:0:0:70:soft-hitclap.wav
192,192,50415,1,0,0:0:0:70:soft-hitclap.wav
320,192,50558,1,0,0:0:0:70:LR4_SnareBPDT.wav
448,192,50558,1,0,0:0:0:0:
192,192,50701,1,0,0:0:0:70:soft-hitclap.wav
448,192,50987,1,0,0:0:0:70:LR4_SnareBPDT.wav
64,192,50987,1,0,0:0:0:0:
320,192,51129,1,0,0:0:0:70:soft-hitclap.wav
192,192,51272,1,0,0:0:0:70:LR4_SnareBPDT.wav
64,192,51272,1,0,0:0:0:0:
448,192,51415,1,0,0:0:0:70:LR_CymbalQST.wav
320,192,51558,1,0,0:0:0:70:soft-hitclap.wav
64,192,51701,1,0,0:0:0:0:
192,192,51701,1,0,0:0:0:70:LR4_SnareBPDT.wav
320,192,51844,1,0,0:0:0:70:soft-hitclap.wav
192,192,52129,1,0,0:0:0:70:LR4_SnareBPDT.wav
64,192,52129,1,0,0:0:0:0:
320,192,52415,1,0,0:0:0:70:LR4_SnareBPDT.wav
448,192,52415,1,0,0:0:0:0:
64,192,52558,1,0,0:0:0:70:soft-hitclap.wav
192,192,52701,1,0,0:0:0:70:soft-hitclap.wav
320,192,52844,1,0,0:0:0:70:LR4_SnareBPDT.wav
448,192,52844,1,0,0:0:0:0:
192,192,52987,1,0,0:0:0:70:soft-hitclap.wav
448,192,53129,1,0,0:0:0:70:soft-hitclap.wav
320,192,53272,1,0,0:0:0:70:LR4_SnareBPDT.wav
64,192,53272,1,0,0:0:0:0:
192,192,53558,128,0,53701:0:0:0:70:soft-hitclap.wav
448,192,53701,128,0,53987:0:0:0:70:soft-hitclap.wav
320,192,53987,128,0,54272:0:0:0:0:
64,192,54272,128,0,54844:0:0:0:0:
192,192,54272,128,0,54558:0:0:0:0:
448,192,54558,128,0,54844:0:0:0:0:
320,192,54844,1,0,0:0:0:70:soft-hitclap.wav
320,192,54987,1,0,0:0:0:70:soft-hitclap.wav
192,192,55129,128,0,55701:0:0:0:50:RevCymbal.wav
320,192,55415,128,0,55701:0:0:0:0:
448,192,55701,1,0,0:0:0:100:LR_Clap Long.wav
64,192,55701,1,0,0:0:0:70:LR_CymbalQST.wav
192,192,55987,1,0,0:0:0:0:
64,192,56129,1,0,0:0:0:0:
320,192,56415,128,0,57987:0:0:0:0:
192,192,57987,1,0,0:0:0:0:
320,192,58272,1,0,0:0:0:0:
64,192,58415,1,0,0:0:0:0:
448,192,58701,128,0,59272:0:0:0:0:
192,192,59272,128,0,59987:0:0:0:0:
320,192,59987,128,0,60272:0:0:0:0:
448,192,60272,128,0,60558:0:0:0:0:
64,192,60558,128,0,60987:0:0:0:0:
320,192,60987,128,0,61415:0:0:0:0:
448,192,61415,128,0,61701:0:0:0:0:
192,192,61701,128,0,62129:0:0:0:0:
320,192,62129,128,0,62415:0:0:0:0:
64,192,62415,128,0,62701:0:0:0:0:
192,192,62701,128,0,63415:0:0:0:0:
448,192,63415,128,0,63701:0:0:0:0:
320,192,63701,128,0,63987:0:0:0:0:
64,192,63987,128,0,64415:0:0:0:0:
192,192,64415,128,0,64701:0:0:0:0:
320,192,64701,128,0,64987:0:0:0:0:
448,192,64987,128,0,65129:0:0:0:0:
192,192,65129,1,0,0:0:0:0:
64,192,65129,1,0,0:0:0:70:soft-hitclap.wav
320,192,65415,1,0,0:0:0:0:
64,192,65701,1,0,0:0:0:0:
448,192,65701,1,0,0:0:0:70:LR4_SnareBPDT.wav
192,192,66272,1,0,0:0:0:70:soft-hitclap.wav
192,192,66487,1,0,0:0:0:70:soft-hitclap.wav
320,192,66701,128,0,66844:0:0:0:70:soft-hitclap.wav
448,192,66844,1,0,0:0:0:70:LR4_SnareBPDT.wav
64,192,66844,1,0,0:0:0:0:
320,192,67415,1,0,0:0:0:0:
192,192,67415,1,0,0:0:0:70:soft-hitclap.wav
64,192,67844,1,0,0:0:0:70:soft-hitclap.wav
192,192,67987,1,0,0:0:0:0:
448,192,67987,1,0,0:0:0:70:LR4_SnareBPDT.wav
320,192,68558,1,0,0:0:0:70:soft-hitclap.wav
320,192,68772,1,0,0:0:0:70:soft-hitclap.wav
192,192,68987,128,0,69129:0:0:0:70:soft-hitclap.wav
64,192,69129,1,0,0:0:0:0:
448,192,69129,1,0,0:0:0:70:LR4_SnareBPDT.wav
320,192,69272,1,0,0:0:0:70:soft-hitclap.wav
192,192,69415,1,0,0:0:0:70:LR4_SnareBPDT.wav
320,192,69558,1,0,0:0:0:70:LR4_SnareBPDT.wav
192,192,69701,1,0,0:0:0:0:
64,192,69701,1,0,0:0:0:70:LR4_SnareBPDT.wav
448,192,69844,1,0,0:0:0:70:LR4_SnareBPDT.wav
64,192,69987,1,0,0:0:0:70:LR4_SnareBPDT.wav
320,192,70129,1,0,0:0:0:70:LR4_SnareBPDT.wav
64,192,70272,1,0,0:0:0:70:LR4_SnareBPDT.wav
448,192,70415,1,0,0:0:0:70:LR4_SnareBPDT.wav
64,192,70558,1,0,0:0:0:70:LR4_SnareBPDT.wav
192,192,70701,1,0,0:0:0:70:LR4_SnareBPDT.wav
320,192,70844,1,0,0:0:0:70:LR4_SnareBPDT.wav
448,192,70844,1,0,0:0:0:0:
64,192,70987,1,0,0:0:0:70:LR4_SnareBPDT.wav
448,192,71129,1,0,0:0:0:70:LR4_SnareBPDT.wav
192,192,71272,1,0,0:0:0:70:LR4_SnareBPDT.wav
448,192,71415,128,0,71987:0:0:0:70:LR4_SnareBPDT.wav
64,192,71558,1,0,0:0:0:70:LR4_SnareBPDT.wav
320,192,71701,128,0,71987:0:0:0:70:LR4_SnareBPDT.wav
192,192,71987,128,0,73129:0:0:0:0:
448,192,73129,128,0,73701:0:0:0:0:
64,192,73129,128,0,73701:0:0:0:0:
320,192,73701,128,0,74272:0:0:0:0:
192,192,74272,1,0,0:0:0:100:LR_Long Bass.wav
448,192,74558,1,0,0:0:0:70:LR_CymbalQST.wav
64,192,74558,1,0,0:0:0:100:LR_Clap Long.wav
320,192,74701,1,0,0:0:0:70:soft-hitclap.wav
192,192,74987,1,0,0:0:0:70:LR4_SnareBPDT.wav
64,192,74987,1,0,0:0:0:0:
448,192,75129,1,0,0:0:0:0:
320,192,75272,1,0,0:0:0:70:LR4_SnareBPDT.wav
64,192,75272,1,0,0:0:0:0:
192,192,75415,1,0,0:0:0:70:soft-hitclap.wav
320,192,75701,1,0,0:0:0:70:LR4_SnareBPDT.wav
448,192,75701,1,0,0:0:0:0:
64,192,75844,1,0,0:0:0:70:soft-hitclap.wav
320,192,75987,1,0,0:0:0:0:
192,192,76129,1,0,0:0:0:70:LR4_SnareBPDT.wav
448,192,76129,1,0,0:0:0:0:
64,192,76415,128,0,76558:0:0:0:70:soft-hitclap.wav
320,192,76558,1,0,0:0:0:70:soft-hitclap.wav
448,192,76701,1,0,0:0:0:0:
192,192,76844,1,0,0:0:0:70:LR4_SnareBPDT.wav
64,192,76844,1,0,0:0:0:0:
320,192,77129,1,0,0:0:0:0:
448,192,77272,1,0,0:0:0:0:
64,192,77272,1,0,0:0:0:70:LR4_SnareBPDT.wav
192,192,77558,1,0,0:0:0:0:
320,192,77558,1,0,0:0:0:70:LR4_SnareBPDT.wav
448,192,77844,1,0,0:0:0:70:soft-hitclap.wav
192,192,77987,1,0,0:0:0:70:LR4_SnareBPDT.wav
64,192,77987,1,0,0:0:0:0:
320,192,78129,1,0,0:0:0:70:soft-hitclap.wav
448,192,78415,1,0,0:0:0:0:
64,192,78415,1,0,0:0:0:70:LR4_SnareBPDT.wav
192,192,78701,1,0,0:0:0:0:
320,192,78701,1,0,0:0:0:70:LR4_SnareBPDT.wav
64,192,78844,1,0,0:0:0:70:LR_CymbalQST.wav
448,192,78844,1,0,0:0:0:0:
192,192,79129,1,0,0:0:0:70:LR4_SnareBPDT.wav
448,192,79129,1,0,0:0:0:0:
320,192,79272,1,0,0:0:0:70:soft-hitclap.wav
64,192,79558,1,0,0:0:0:0:
192,192,79558,1,0,0:0:0:70:LR4_SnareBPDT.wav
448,192,79701,1,0,0:0:0:70:soft-hitclap.wav
320,192,79844,1,0,0:0:0:70:LR4_SnareBPDT.wav
64,192,79844,1,0,0:0:0:0:
192,192,80129,1,0,0:0:0:70:soft-hitclap.wav
320,192,80272,1,0,0:0:0:70:LR4_SnareBPDT.wav
448,192,80272,1,0,0:0:0:0:
64,192,80415,1,0,0:0:0:70:soft-hitclap.wav
448,192,80558,1,0,0:0:0:70:LR4_SnareBPDT.wav
320,192,80558,1,0,0:0:0:0:
192,192,80701,1,0,0:0:0:70:LR4_SnareBPDT.wav
320,192,80844,1,0,0:0:0:70:soft-hitclap.wav
192,192,80987,1,0,0:0:0:70:soft-hitclap.wav
448,192,81129,1,0,0:0:0:70:LR_CymbalQST.wav
64,192,81129,1,0,0:0:0:70:soft-hitclap.wav
320,192,81415,1,0,0:0:0:70:LR4_SnareBPDT.wav
192,192,81415,1,0,0:0:0:70:soft-hitclap.wav
448,192,81701,1,0,0:0:0:70:soft-hitclap.wav
64,192,81844,1,0,0:0:0:70:soft-hitclap.wav
192,192,81844,1,0,0:0:0:70:LR4_SnareBPDT.wav
320,192,81987,1,0,0:0:0:70:soft-hitclap.wav
64,192,82129,1,0,0:0:0:70:LR4_SnareBPDT.wav
448,192,82129,1,0,0:0:0:70:soft-hitclap.wav
192,192,82272,128,0,82701:0:0:0:70:soft-hitclap.wav
448,192,82701,128,0,83129:0:0:0:0:
320,192,82701,128,0,83129:0:0:0:70:soft-hitclap.wav
64,192,83129,128,0,83415:0:0:0:70:soft-hitclap.wav
192,192,83415,1,0,0:0:0:0:
448,192,83701,1,0,0:0:0:70:LR_CymbalQST.wav
64,192,83701,1,0,0:0:0:100:LR_Clap Long.wav
320,192,83987,1,0,0:0:0:0:
192,192,84129,1,0,0:0:0:70:LR4_SnareBPDT.wav
64,192,84129,1,0,0:0:0:0:
448,192,84272,1,0,0:0:0:0:
320,192,84415,1,0,0:0:0:70:LR4_SnareBPDT.wav
64,192,84415,1,0,0:0:0:0:
192,192,84558,1,0,0:0:0:70:soft-hitclap.wav
320,192,84701,1,0,0:0:0:70:soft-hitclap.wav
448,192,84844,1,0,0:0:0:70:LR4_SnareBPDT.wav
64,192,84844,1,0,0:0:0:0:
192,192,84987,1,0,0:0:0:70:soft-hitclap.wav
448,192,85272,1,0,0:0:0:0:
320,192,85272,1,0,0:0:0:70:LR4_SnareBPDT.wav
64,192,85558,128,0,85701:0:0:0:70:soft-hitclap.wav
448,192,85701,1,0,0:0:0:70:soft-hitclap.wav
192,192,85844,1,0,0:0:0:0:
320,192,85987,1,0,0:0:0:70:LR4_SnareBPDT.wav
64,192,85987,1,0,0:0:0:0:
448,192,86129,1,0,0:0:0:70:soft-hitclap.wav
192,192,86272,1,0,0:0:0:0:
320,192,86415,1,0,0:0:0:70:LR4_SnareBPDT.wav
448,192,86415,1,0,0:0:0:0:
64,192,86558,1,0,0:0:0:0:
192,192,86701,1,0,0:0:0:0:
320,192,86701,1,0,0:0:0:70:LR4_SnareBPDT.wav
448,192,86844,1,0,0:0:0:70:soft-hitclap.wav
64,192,86987,1,0,0:0:0:70:soft-hitclap.wav
192,192,87129,1,0,0:0:0:70:LR4_SnareBPDT.wav
448,192,87129,1,0,0:0:0:0:
64,192,87415,1,0,0:0:0:0:
320,192,87558,1,0,0:0:0:70:LR4_SnareBPDT.wav
448,192,87558,1,0,0:0:0:0:
192,192,87701,1,0,0:0:0:70:soft-hitclap.wav
64,192,87844,1,0,0:0:0:0:
448,192,87844,1,0,0:0:0:70:LR4_SnareBPDT.wav
320,192,87987,1,0,0:0:0:70:LR_CymbalQST.wav
192,192,87987,1,0,0:0:0:0:
192,192,88272,1,0,0:0:0:70:LR4_SnareBPDT.wav
64,192,88272,1,0,0:0:0:0:
448,192,88415,1,0,0:0:0:70:soft-hitclap.wav
320,192,88558,1,0,0:0:0:70:soft-hitclap.wav
192,192,88701,1,0,0:0:0:70:LR4_SnareBPDT.wav
64,192,88701,1,0,0:0:0:0:
448,192,88844,1,0,0:0:0:70:soft-hitclap.wav
192,192,88987,1,0,0:0:0:70:soft-hitclap.wav
320,192,89129,1,0,0:0:0:70:LR4_SnareBPDT.wav
448,192,89129,1,0,0:0:0:70:soft-hitclap.wav
64,192,89415,1,0,0:0:0:70:soft-hitclap.wav
448,192,89415,1,0,0:0:0:70:LR4_SnareBPDT.wav
320,192,89701,1,0,0:0:0:70:LR4_SnareBPDT.wav
192,192,89701,1,0,0:0:0:70:soft-hitclap.wav
192,192,89915,1,0,0:0:0:70:LR4_SnareBPDT.wav
64,192,89915,1,0,0:0:0:0:
320,192,90129,1,0,0:0:0:70:LR4_SnareBPDT.wav
448,192,90129,1,0,0:0:0:0:
192,192,90272,1,0,0:0:0:70:LR4_SnareBPDT.wav
64,192,90272,1,0,0:0:0:70:soft-hitclap.wav
320,192,90558,1,0,0:0:0:70:LR4_SnareBPDT.wav
64,192,90558,1,0,0:0:0:70:soft-hitclap.wav
192,192,90844,1,0,0:0:0:70:LR4_SnareBPDT.wav
448,192,90844,1,0,0:0:0:70:soft-hitclap.wav
320,192,91129,1,0,0:0:0:70:LR4_SnareBPDT.wav
448,192,91129,1,0,0:0:0:70:soft-hitclap.wav
192,192,91415,1,0,0:0:0:70:LR4_SnareBPDT.wav
64,192,91415,128,0,91987:0:0:0:70:soft-hitclap.wav
448,192,91701,128,0,91987:0:0:0:70:LR4_SnareBPDT.wav
320,192,91987,128,0,92558:0:0:0:0:
192,192,91987,128,0,92558:0:0:0:70:soft-hitclap.wav
64,192,92844,1,0,0:0:0:100:LR_Clap Long.wav
448,192,92844,1,0,0:0:0:70:LR_CymbalQST.wav
192,192,92987,1,0,0:0:0:70:soft-hitclap.wav
320,192,93272,1,0,0:0:0:70:LR4_SnareBPDT.wav
448,192,93272,1,0,0:0:0:0:
192,192,93558,1,0,0:0:0:70:LR4_SnareBPDT.wav
64,192,93558,1,0,0:0:0:0:
320,192,93701,1,0,0:0:0:70:soft-hitclap.wav
192,192,93844,1,0,0:0:0:70:soft-hitclap.wav
320,192,93987,1,0,0:0:0:70:LR4_SnareBPDT.wav
448,192,93987,1,0,0:0:0:0:
64,192,94129,1,0,0:0:0:70:soft-hitclap.wav
192,192,94415,1,0,0:0:0:70:LR4_SnareBPDT.wav
448,192,94415,1,0,0:0:0:0:
320,192,94701,128,0,94844:0:0:0:70:soft-hitclap.wav
64,192,94844,1,0,0:0:0:70:soft-hitclap.wav
448,192,95129,1,0,0:0:0:0:
192,192,95129,1,0,0:0:0:70:LR4_SnareBPDT.wav
320,192,95272,1,0,0:0:0:70:soft-hitclap.wav
192,192,95558,1,0,0:0:0:70:LR4_SnareBPDT.wav
64,192,95558,1,0,0:0:0:0:
320,192,95844,1,0,0:0:0:70:LR4_SnareBPDT.wav
448,192,95844,1,0,0:0:0:0:
192,192,95987,1,0,0:0:0:70:soft-hitclap.wav
320,192,96129,1,0,0:0:0:70:soft-hitclap.wav
192,192,96272,1,0,0:0:0:70:LR4_SnareBPDT.wav
64,192,96272,1,0,0:0:0:0:
448,192,96415,1,0,0:0:0:70:soft-hitclap.wav
320,192,96701,1,0,0:0:0:70:LR4_SnareBPDT.wav
64,192,96701,1,0,0:0:0:0:
192,192,96844,1,0,0:0:0:70:soft-hitclap.wav
448,192,96987,1,0,0:0:0:0:
320,192,96987,1,0,0:0:0:70:LR4_SnareBPDT.wav
64,192,97129,1,0,0:0:0:70:LR_CymbalQST.wav
192,192,97129,1,0,0:0:0:70:soft-hitclap.wav
192,192,97415,1,0,0:0:0:70:LR4_SnareBPDT.wav
448,192,97415,1,0,0:0:0:0:
320,192,97558,1,0,0:0:0:70:soft-hitclap.wav
448,192,97844,1,0,0:0:0:70:LR4_SnareBPDT.wav
64,192,97844,1,0,0:0:0:0:
192,192,98129,1,0,0:0:0:0:
320,192,98129,1,0,0:0:0:70:LR4_SnareBPDT.wav
64,192,98272,1,0,0:0:0:70:soft-hitclap.wav
448,192,98415,1,0,0:0:0:70:soft-hitclap.wav
192,192,98558,1,0,0:0:0:70:LR4_SnareBPDT.wav
64,192,98558,1,0,0:0:0:0:
320,192,98701,1,0,0:0:0:70:soft-hitclap.wav
448,192,98987,1,0,0:0:0:70:LR4_SnareBPDT.wav
64,192,98987,1,0,0:0:0:0:
192,192,99272,128,0,99415:0:0:0:70:soft-hitclap.wav
448,192,99415,1,0,0:0:0:70:soft-hitclap.wav
64,192,99701,1,0,0:0:0:0:
320,192,99701,1,0,0:0:0:70:LR4_SnareBPDT.wav
192,192,99844,1,0,0:0:0:70:soft-hitclap.wav
448,192,100129,1,0,0:0:0:70:LR4_SnareBPDT.wav
64,192,100129,1,0,0:0:0:0:
192,192,100415,1,0,0:0:0:0:
320,192,100415,1,0,0:0:0:70:LR4_SnareBPDT.wav
448,192,100558,1,0,0:0:0:70:soft-hitclap.wav
64,192,100701,1,0,0:0:0:70:soft-hitclap.wav
448,192,100844,1,0,0:0:0:0:
320,192,100844,1,0,0:0:0:70:LR4_SnareBPDT.wav
192,192,100987,1,0,0:0:0:70:soft-hitclap.wav
320,192,101129,128,0,101272:0:0:0:70:soft-hitclap.wav
64,192,101272,1,0,0:0:0:70:LR4_SnareBPDT.wav
448,192,101415,1,0,0:0:0:70:LR4_SnareBPDT.wav
64,192,101558,1,0,0:0:0:70:LR4_SnareBPDT.wav
448,192,101701,1,0,0:0:0:30:soft-hitclap.wav
320,192,101701,1,0,0:0:0:70:LR_CymbalQST.wav
192,192,101844,1,0,0:0:0:70:soft-hitclap.wav
448,192,101987,1,0,0:0:0:70:LR4_SnareBPDT.wav
64,192,101987,1,0,0:0:0:0:
320,192,102129,1,0,0:0:0:70:soft-hitclap.wav
64,192,102415,1,0,0:0:0:0:
192,192,102415,1,0,0:0:0:70:LR4_SnareBPDT.wav
320,192,102701,1,0,0:0:0:70:LR4_SnareBPDT.wav
448,192,102701,1,0,0:0:0:0:
192,192,102844,1,0,0:0:0:70:soft-hitclap.wav
448,192,102987,1,0,0:0:0:70:soft-hitclap.wav
64,192,103129,1,0,0:0:0:0:
320,192,103129,1,0,0:0:0:70:LR4_SnareBPDT.wav
192,192,103272,1,0,0:0:0:70:soft-hitclap.wav
448,192,103558,1,0,0:0:0:0:
320,192,103558,1,0,0:0:0:70:LR4_SnareBPDT.wav
64,192,103844,128,0,103987:0:0:0:70:soft-hitclap.wav
320,192,103987,1,0,0:0:0:70:soft-hitclap.wav
64,192,104272,1,0,0:0:0:0:
448,192,104272,1,0,0:0:0:70:LR4_SnareBPDT.wav
192,192,104415,1,0,0:0:0:70:soft-hitclap.wav
320,192,104701,1,0,0:0:0:70:LR4_SnareBPDT.wav
448,192,104701,1,0,0:0:0:0:
192,192,104987,1,0,0:0:0:70:LR4_SnareBPDT.wav
64,192,104987,1,0,0:0:0:0:
320,192,105129,1,0,0:0:0:70:soft-hitclap.wav
64,192,105272,1,0,0:0:0:70:soft-hitclap.wav
448,192,105415,1,0,0:0:0:0:
192,192,105415,1,0,0:0:0:70:LR4_SnareBPDT.wav
320,192,105558,1,0,0:0:0:70:soft-hitclap.wav
192,192,105701,128,0,105844:0:0:0:0:
448,192,105844,1,0,0:0:0:70:LR4_SnareBPDT.wav
64,192,105987,1,0,0:0:0:70:LR4_SnareBPDT.wav
448,192,106129,1,0,0:0:0:70:LR4_SnareBPDT.wav
64,192,106272,1,0,0:0:0:70:LR_CymbalQST.wav
192,192,106272,1,0,0:0:0:70:soft-hitclap.wav
320,192,106415,1,0,0:0:0:70:soft-hitclap.wav
64,192,106558,1,0,0:0:0:0:
448,192,106558,1,0,0:0:0:70:LR4_SnareBPDT.wav
192,192,106701,1,0,0:0:0:70:soft-hitclap.wav
448,192,106987,1,0,0:0:0:0:
320,192,106987,1,0,0:0:0:70:LR4_SnareBPDT.wav
192,192,107272,1,0,0:0:0:70:LR4_SnareBPDT.wav
64,192,107272,1,0,0:0:0:0:
320,192,107415,1,0,0:0:0:70:LR4_SnareBPDT.wav
448,192,107415,1,0,0:0:0:70:LR_CymbalQST.wav
64,192,107629,1,0,0:0:0:0:
192,192,107629,1,0,0:0:0:70:LR4_SnareBPDT.wav
320,192,107844,1,0,0:0:0:70:LR4_SnareBPDT.wav
448,192,107844,1,0,0:0:0:0:
64,192,107987,128,0,108129:0:0:0:0:
192,192,107987,128,0,108129:0:0:0:70:LR4_SnareBPDT.wav
448,192,108129,1,0,0:0:0:70:LR4_SnareBPDT.wav
320,192,108272,1,0,0:0:0:70:LR4_SnareBPDT.wav
192,192,108415,1,0,0:0:0:70:LR4_SnareBPDT.wav
448,192,108558,1,0,0:0:0:100:soft-hitclap.wav
64,192,108558,1,0,0:0:0:70:LR_CymbalQST.wav
320,192,108844,1,0,0:0:0:0:
192,192,108844,1,0,0:0:0:70:LR4_SnareBPDT.wav
448,192,108987,1,0,0:0:0:70:soft-hitclap.wav
64,192,109129,1,0,0:0:0:70:soft-hitclap.wav
192,192,109272,1,0,0:0:0:70:LR4_SnareBPDT.wav
448,192,109272,1,0,0:0:0:0:
320,192,109415,1,0,0:0:0:70:soft-hitclap.wav
64,192,109558,1,0,0:0:0:0:
192,192,109558,1,0,0:0:0:70:LR4_SnareBPDT.wav
448,192,109701,128,0,110272:0:0:0:70:soft-hitclap.wav
320,192,109987,128,0,110272:0:0:0:70:LR4_SnareBPDT.wav
64,192,110272,128,0,110844:0:0:0:0:
192,192,110272,128,0,110844:0:0:0:70:soft-hitclap.wav
448,192,110844,128,0,111129:0:0:0:0:
192,192,111129,1,0,0:0:0:70:LR_CymbalQST.wav
320,192,111129,128,0,115129:0:0:0:100:LR_Long Bass.wav
64,192,115129,1,0,0:0:0:100:LR_Long Bass.wav
