osu file format v14

[General]
AudioFilename: audio.mp3
AudioLeadIn: 0
PreviewTime: 74272
Countdown: 0
SampleSet: Soft
StackLeniency: 0.7
Mode: 3
LetterboxInBreaks: 0
SpecialStyle: 0
WidescreenStoryboard: 0

[Editor]
Bookmarks: 33126,55981,74551,92835
DistanceSpacing: 1
BeatDivisor: 4
GridSize: 4
TimelineZoom: 1.400006

[Metadata]
Title:Dement ~After Legend~
TitleUnicode:Dement ~After Legend~
Artist:LunaticSounds
ArtistUnicode:LunaticSounds
Creator:Vampir
Version:SHD
Source:EZ2AC : NIGHT TRAVELER
Tags:Evening -SoraGami- Fontes Artcore Arcaea Dynamix
BeatmapID:1179486
BeatmapSetID:557428

[Difficulty]
HPDrainRate:8.5
CircleSize:4
OverallDifficulty:8.5
ApproachRate:5
SliderMultiplier:1.4
SliderTickRate:1

[Events]
//Background and Video events
0,0,"Dshd.png",0,0
//Break Periods
//Storyboard Layer 0 (Background)
//Storyboard Layer 1 (Fail)
//Storyboard Layer 2 (Pass)
//Storyboard Layer 3 (Foreground)
//Storyboard Sound Samples

[TimingPoints]
-13,285.714285714286,4,2,0,30,1,0
37701,-100,4,2,0,30,0,1
55701,-100,4,2,0,30,0,0
74558,-100,4,2,0,30,0,1
110844,-100,4,2,0,30,0,0

[HitObjects]
64,192,1129,5,0,0:0:0:0:
448,192,1129,1,0,0:0:0:0:
192,192,1272,1,0,0:0:0:0:
320,192,1415,1,0,0:0:0:0:
192,192,1558,1,0,0:0:0:0:
448,192,1701,1,0,0:0:0:0:
320,192,1844,1,0,0:0:0:0:
192,192,1987,1,0,0:0:0:0:
320,192,2129,1,0,0:0:0:0:
64,192,2272,1,0,0:0:0:0:
448,192,2272,1,0,0:0:0:0:
192,192,2415,1,0,0:0:0:0:
320,192,2558,1,0,0:0:0:0:
448,192,2701,1,0,0:0:0:0:
64,192,2844,1,0,0:0:0:0:
320,192,2987,1,0,0:0:0:0:
192,192,3129,1,0,0:0:0:0:
448,192,3272,1,0,0:0:0:0:
320,192,3415,1,0,0:0:0:0:
64,192,3415,1,0,0:0:0:0:
448,192,3701,1,0,0:0:0:0:
192,192,3844,1,0,0:0:0:0:
64,192,3844,1,0,0:0:0:0:
448,192,3987,1,0,0:0:0:0:
320,192,4129,1,0,0:0:0:0:
192,192,4129,1,0,0:0:0:0:
448,192,4272,1,0,0:0:0:0:
320,192,4415,1,0,0:0:0:0:
64,192,4558,1,0,0:0:0:50:soft-hitclap.wav
448,192,4558,1,0,0:0:0:0:
192,192,4701,1,0,0:0:0:0:
320,192,4844,1,0,0:0:0:0:
448,192,4844,1,0,0:0:0:0:
192,192,4915,1,0,0:0:0:0:
448,192,4987,1,0,0:0:0:0:
64,192,4987,1,0,0:0:0:0:
320,192,5022,1,0,0:0:0:0:
192,192,5058,1,0,0:0:0:0:
448,192,5129,1,0,0:0:0:0:
320,192,5129,1,0,0:0:0:50:soft-hitclap2.wav
64,192,5201,1,0,0:0:0:50:soft-hitclap2.wav
192,192,5201,1,0,0:0:0:0:
320,192,5272,1,0,0:0:0:50:soft-hitclap2.wav
448,192,5272,1,0,0:0:0:0:
64,192,5344,1,0,0:0:0:50:soft-hitclap2.wav
192,192,5344,1,0,0:0:0:0:
320,192,5415,128,0,5558:0:0:0:50:soft-hitclap.wav
448,192,5415,128,0,5558:0:0:0:0:
64,192,5558,1,0,0:0:0:50:soft-hitclap2.wav
192,192,5629,1,0,0:0:0:0:
64,192,5701,1,0,0:0:0:50:soft-hitclap.wav
320,192,5701,1,0,0:0:0:0:
448,192,5701,1,0,0:0:0:0:
192,192,5844,1,0,0:0:0:0:
320,192,5987,1,0,0:0:0:0:
448,192,6129,1,0,0:0:0:0:
320,192,6272,1,0,0:0:0:40:soft-hitclap2.wav
64,192,6272,1,0,0:0:0:0:
192,192,6415,1,0,0:0:0:0:
64,192,6558,1,0,0:0:0:0:
448,192,6558,1,0,0:0:0:50:soft-hitclap.wav
320,192,6701,1,0,0:0:0:0:
192,192,6844,1,0,0:0:0:0:
64,192,6987,1,0,0:0:0:0:
320,192,7129,1,0,0:0:0:0:
448,192,7129,1,0,0:0:0:50:soft-hitclap.wav
192,192,7272,1,0,0:0:0:0:
448,192,7415,1,0,0:0:0:50:soft-hitclap2.wav
64,192,7415,1,0,0:0:0:0:
320,192,7558,1,0,0:0:0:0:
192,192,7701,1,0,0:0:0:0:
320,192,7844,1,0,0:0:0:0:
64,192,7987,1,0,0:0:0:0:
448,192,7987,1,0,0:0:0:50:soft-hitclap.wav
192,192,8129,1,0,0:0:0:0:
192,192,8272,1,0,0:0:0:0:
448,192,8272,1,0,0:0:0:50:soft-hitclap.wav
320,192,8415,1,0,0:0:0:0:
320,192,8558,1,0,0:0:0:0:
448,192,8558,1,0,0:0:0:50:soft-hitclap2.wav
192,192,8701,1,0,0:0:0:0:
448,192,8844,1,0,0:0:0:0:
320,192,8987,1,0,0:0:0:0:
192,192,9129,1,0,0:0:0:0:
64,192,9272,1,0,0:0:0:0:
192,192,9415,1,0,0:0:0:50:soft-hitclap.wav
320,192,9415,1,0,0:0:0:0:
448,192,9558,1,0,0:0:0:0:
192,192,9701,1,0,0:0:0:50:soft-hitclap2.wav
64,192,9701,1,0,0:0:0:0:
320,192,9844,1,0,0:0:0:50:soft-hitclap.wav
448,192,9844,1,0,0:0:0:0:
192,192,9987,1,0,0:0:0:0:
64,192,10129,1,0,0:0:0:0:
192,192,10272,1,0,0:0:0:0:
320,192,10272,1,0,0:0:0:50:soft-hitclap.wav
448,192,10415,1,0,0:0:0:0:
192,192,10558,1,0,0:0:0:0:
64,192,10701,1,0,0:0:0:0:
192,192,10844,1,0,0:0:0:50:soft-hitclap2.wav
448,192,10844,1,0,0:0:0:0:
320,192,10987,1,0,0:0:0:0:
192,192,11129,1,0,0:0:0:0:
320,192,11129,1,0,0:0:0:50:soft-hitclap.wav
64,192,11272,1,0,0:0:0:0:
320,192,11415,1,0,0:0:0:0:
448,192,11558,1,0,0:0:0:0:
64,192,11701,1,0,0:0:0:0:
192,192,11701,1,0,0:0:0:50:soft-hitclap.wav
192,192,11844,1,0,0:0:0:0:
320,192,11987,1,0,0:0:0:0:
448,192,11987,1,0,0:0:0:50:soft-hitclap2.wav
64,192,12129,1,0,0:0:0:0:
192,192,12272,1,0,0:0:0:0:
448,192,12415,1,0,0:0:0:0:
64,192,12558,1,0,0:0:0:0:
320,192,12558,1,0,0:0:0:50:soft-hitclap.wav
448,192,12701,1,0,0:0:0:0:
192,192,12844,1,0,0:0:0:0:
320,192,12844,1,0,0:0:0:50:soft-hitclap.wav
192,192,12987,1,0,0:0:0:0:
320,192,12987,1,0,0:0:0:50:soft-hitclap.wav
320,192,13129,1,0,0:0:0:50:soft-hitclap2.wav
448,192,13129,1,0,0:0:0:0:
64,192,13272,1,0,0:0:0:0:
192,192,13272,1,0,0:0:0:50:soft-hitclap.wav
320,192,13415,1,0,0:0:0:0:
448,192,13558,1,0,0:0:0:0:
64,192,13701,1,0,0:0:0:0:
192,192,13844,1,0,0:0:0:0:
448,192,13987,1,0,0:0:0:0:
320,192,13987,1,0,0:0:0:50:soft-hitclap.wav
64,192,14129,1,0,0:0:0:0:
192,192,14272,1,0,0:0:0:0:
448,192,14272,1,0,0:0:0:50:soft-hitclap2.wav
320,192,14415,1,0,0:0:0:50:soft-hitclap.wav
64,192,14415,1,0,0:0:0:0:
192,192,14558,1,0,0:0:0:0:
320,192,14701,1,0,0:0:0:50:soft-hitclap.wav
448,192,14701,1,0,0:0:0:0:
64,192,14844,1,0,0:0:0:50:soft-hitclap.wav
192,192,14844,1,0,0:0:0:0:
448,192,14987,1,0,0:0:0:0:
192,192,15129,1,0,0:0:0:0:
320,192,15129,1,0,0:0:0:50:soft-hitclap.wav
64,192,15272,1,0,0:0:0:0:
320,192,15415,1,0,0:0:0:0:
448,192,15415,1,0,0:0:0:50:soft-hitclap2.wav
192,192,15558,1,0,0:0:0:0:
320,192,15558,1,0,0:0:0:50:soft-hitclap.wav
64,192,15701,1,0,0:0:0:0:
192,192,15844,1,0,0:0:0:0:
320,192,15987,1,0,0:0:0:0:
448,192,16129,1,0,0:0:0:0:
320,192,16272,1,0,0:0:0:50:soft-hitclap.wav
192,192,16272,1,0,0:0:0:0:
64,192,16415,1,0,0:0:0:0:
192,192,16558,1,0,0:0:0:50:soft-hitclap2.wav
320,192,16558,1,0,0:0:0:0:
320,192,16701,1,0,0:0:0:0:
448,192,16701,1,0,0:0:0:50:soft-hitclap.wav
64,192,16844,1,0,0:0:0:0:
320,192,16987,1,0,0:0:0:50:soft-hitclap.wav
448,192,16987,1,0,0:0:0:0:
64,192,17129,1,0,0:0:0:50:soft-hitclap.wav
192,192,17129,1,0,0:0:0:0:
448,192,17272,1,0,0:0:0:0:
192,192,17415,1,0,0:0:0:50:soft-hitclap.wav
320,192,17415,1,0,0:0:0:0:
64,192,17558,1,0,0:0:0:0:
448,192,17701,1,0,0:0:0:50:soft-hitclap2.wav
320,192,17701,1,0,0:0:0:0:
192,192,17844,1,0,0:0:0:0:
64,192,17987,1,0,0:0:0:0:
192,192,18129,1,0,0:0:0:50:soft-hitclap.wav
320,192,18129,1,0,0:0:0:0:
448,192,18272,1,0,0:0:0:0:
192,192,18415,1,0,0:0:0:50:soft-hitclap.wav
320,192,18415,1,0,0:0:0:0:
64,192,18558,1,0,0:0:0:0:
192,192,18701,1,0,0:0:0:50:soft-hitclap.wav
320,192,18701,1,0,0:0:0:0:
320,192,18844,1,0,0:0:0:0:
448,192,18844,1,0,0:0:0:50:soft-hitclap2.wav
64,192,18987,1,0,0:0:0:0:
192,192,18987,1,0,0:0:0:50:soft-hitclap.wav
64,192,19129,1,0,0:0:0:50:soft-hitclap.wav
320,192,19129,1,0,0:0:0:0:
448,192,19272,1,0,0:0:0:0:
64,192,19415,1,0,0:0:0:0:
448,192,19558,1,0,0:0:0:0:
192,192,19701,1,0,0:0:0:0:
320,192,19701,1,0,0:0:0:50:soft-hitclap.wav
192,192,19844,1,0,0:0:0:0:
320,192,19987,1,0,0:0:0:0:
448,192,19987,1,0,0:0:0:50:soft-hitclap2.wav
64,192,20129,1,0,0:0:0:0:
192,192,20272,1,0,0:0:0:0:
448,192,20415,1,0,0:0:0:0:
192,192,20558,1,0,0:0:0:0:
320,192,20558,1,0,0:0:0:50:soft-hitclap.wav
448,192,20701,1,0,0:0:0:0:
64,192,20844,1,0,0:0:0:0:
320,192,20844,1,0,0:0:0:50:soft-hitclap.wav
192,192,20987,1,0,0:0:0:0:
64,192,21129,1,0,0:0:0:0:
448,192,21129,1,0,0:0:0:50:soft-hitclap2.wav
320,192,21272,1,0,0:0:0:50:soft-hitclap.wav
192,192,21272,1,0,0:0:0:0:
448,192,21415,1,0,0:0:0:0:
192,192,21558,1,0,0:0:0:0:
320,192,21558,1,0,0:0:0:50:soft-hitclap.wav
64,192,21701,5,0,0:0:0:0:
192,192,21844,5,0,0:0:0:0:
320,192,21844,1,0,0:0:0:50:soft-hitclap.wav
192,192,21987,5,0,0:0:0:0:
320,192,21987,1,0,0:0:0:50:soft-hitclap.wav
192,192,22129,1,0,0:0:0:0:
320,192,22129,1,0,0:0:0:50:soft-hitclap.wav
64,192,22272,5,0,0:0:0:0:
448,192,22272,1,0,0:0:0:50:soft-hitclap2.wav
192,192,22415,1,0,0:0:0:0:
320,192,22415,1,0,0:0:0:50:soft-hitclap.wav
64,192,22558,1,0,0:0:0:0:
192,192,22558,1,0,0:0:0:50:soft-hitclap.wav
320,192,22629,1,0,0:0:0:50:soft-hitclap.wav
448,192,22629,1,0,0:0:0:0:
64,192,22701,1,0,0:0:0:0:
192,192,22701,1,0,0:0:0:50:soft-hitclap.wav
320,192,22772,1,0,0:0:0:50:soft-hitclap.wav
448,192,22772,1,0,0:0:0:0:
192,192,22844,128,0,23844:0:0:0:0:
64,192,22844,128,0,23844:0:0:0:0:
448,192,23415,128,0,23844:0:0:0:0:
320,192,23701,128,0,23844:0:0:0:0:
64,192,23987,1,0,0:0:0:50:soft-hitclap.wav
448,192,23987,1,0,0:0:0:50:LR_Long Bass.wav
192,192,23987,1,0,0:0:0:0:
320,192,23987,1,0,0:0:0:0:
320,192,24129,1,0,0:0:0:0:
192,192,24272,1,0,0:0:0:0:
448,192,24415,1,0,0:0:0:0:
192,192,24558,1,0,0:0:0:0:
320,192,24701,1,0,0:0:0:0:
64,192,24844,1,0,0:0:0:0:
320,192,24987,1,0,0:0:0:0:
192,192,25129,1,0,0:0:0:0:
448,192,25129,1,0,0:0:0:0:
320,192,25272,1,0,0:0:0:0:
192,192,25415,1,0,0:0:0:0:
448,192,25558,1,0,0:0:0:0:
64,192,25701,1,0,0:0:0:0:
320,192,25701,1,0,0:0:0:0:
192,192,25844,1,0,0:0:0:0:
320,192,25987,1,0,0:0:0:0:
448,192,26129,1,0,0:0:0:0:
192,192,26272,1,0,0:0:0:0:
64,192,26272,1,0,0:0:0:50:soft-hitclap.wav
320,192,26415,1,0,0:0:0:0:
320,192,26558,1,0,0:0:0:0:
448,192,26558,1,0,0:0:0:0:
192,192,26701,1,0,0:0:0:0:
64,192,26844,1,0,0:0:0:0:
448,192,26987,1,0,0:0:0:0:
192,192,27129,1,0,0:0:0:0:
320,192,27129,1,0,0:0:0:0:
448,192,27272,1,0,0:0:0:0:
64,192,27415,1,0,0:0:0:0:
192,192,27558,1,0,0:0:0:0:
320,192,27701,1,0,0:0:0:50:soft-hitclap.wav
448,192,27701,1,0,0:0:0:0:
64,192,27844,1,0,0:0:0:50:soft-hitclap.wav
320,192,27987,1,0,0:0:0:50:soft-hitclap.wav
448,192,27987,1,0,0:0:0:0:
192,192,28129,1,0,0:0:0:0:
448,192,28272,1,0,0:0:0:50:soft-hitclap.wav
64,192,28272,1,0,0:0:0:0:
192,192,28415,1,0,0:0:0:50:soft-hitclap.wav
320,192,28487,1,0,0:0:0:50:soft-hitclap.wav
64,192,28558,1,0,0:0:0:50:soft-hitclap.wav
192,192,28558,1,0,0:0:0:0:
192,192,28701,1,0,0:0:0:50:soft-hitclap.wav
320,192,28701,1,0,0:0:0:0:
320,192,28844,1,0,0:0:0:50:soft-hitclap.wav
448,192,28844,1,0,0:0:0:0:
64,192,28987,1,0,0:0:0:50:soft-hitclap.wav
192,192,28987,1,0,0:0:0:0:
192,192,29129,1,0,0:0:0:50:soft-hitclap.wav
320,192,29129,1,0,0:0:0:0:
320,192,29272,1,0,0:0:0:50:soft-hitclap.wav
448,192,29272,1,0,0:0:0:0:
64,192,29415,1,0,0:0:0:50:soft-hitclap.wav
192,192,29415,1,0,0:0:0:0:
320,192,29558,1,0,0:0:0:50:soft-hitclap.wav
448,192,29558,1,0,0:0:0:0:
64,192,29701,1,0,0:0:0:50:soft-hitclap.wav
192,192,29701,1,0,0:0:0:50:soft-hitclap2.wav
320,192,29701,1,0,0:0:0:0:
192,192,29844,1,0,0:0:0:50:soft-hitclap.wav
320,192,29844,1,0,0:0:0:50:soft-hitclap2.wav
448,192,29844,1,0,0:0:0:0:
64,192,29987,1,0,0:0:0:50:soft-hitclap.wav
192,192,29987,1,0,0:0:0:50:soft-hitclap2.wav
320,192,29987,1,0,0:0:0:0:
192,192,30129,1,0,0:0:0:40:soft-hitclap.wav
320,192,30129,1,0,0:0:0:50:soft-hitclap2.wav
448,192,30129,1,0,0:0:0:0:
64,192,30272,1,0,0:0:0:50:soft-hitclap.wav
192,192,30272,1,0,0:0:0:50:soft-hitclap2.wav
320,192,30344,1,0,0:0:0:50:soft-hitclap.wav
448,192,30344,1,0,0:0:0:50:soft-hitclap2.wav
64,192,30415,1,0,0:0:0:50:soft-hitclap.wav
192,192,30415,1,0,0:0:0:50:soft-hitclap2.wav
320,192,30487,1,0,0:0:0:50:soft-hitclap.wav
448,192,30487,1,0,0:0:0:50:soft-hitclap2.wav
64,192,30558,1,0,0:0:0:50:soft-hitclap.wav
192,192,30558,1,0,0:0:0:50:soft-hitclap2.wav
320,192,30629,1,0,0:0:0:50:soft-hitclap.wav
448,192,30629,1,0,0:0:0:50:soft-hitclap2.wav
64,192,30701,1,0,0:0:0:50:soft-hitclap.wav
192,192,30701,1,0,0:0:0:50:soft-hitclap2.wav
320,192,30772,1,0,0:0:0:50:soft-hitclap.wav
448,192,30772,1,0,0:0:0:50:soft-hitclap2.wav
64,192,30844,1,0,0:0:0:0:
192,192,30915,1,0,0:0:0:0:
448,192,30987,1,0,0:0:0:0:
320,192,31058,1,0,0:0:0:0:
192,192,31129,1,0,0:0:0:0:
320,192,31201,1,0,0:0:0:0:
64,192,31272,1,0,0:0:0:0:
192,192,31344,1,0,0:0:0:0:
448,192,31415,1,0,0:0:0:0:
320,192,31487,1,0,0:0:0:0:
64,192,31558,1,0,0:0:0:0:
192,192,31629,128,0,31987:0:0:0:0:
64,192,31987,1,0,0:0:0:0:
448,192,32058,1,0,0:0:0:0:
192,192,32129,1,0,0:0:0:0:
320,192,32201,1,0,0:0:0:0:
64,192,32272,1,0,0:0:0:0:
192,192,32344,1,0,0:0:0:0:
448,192,32415,1,0,0:0:0:0:
320,192,32487,1,0,0:0:0:0:
192,192,32558,1,0,0:0:0:0:
64,192,32629,1,0,0:0:0:0:
320,192,32701,1,0,0:0:0:0:
448,192,32772,1,0,0:0:0:0:
320,192,32844,128,0,33058:0:0:0:0:
192,192,32844,128,0,33058:0:0:0:50:soft-hitclap.wav
64,192,33129,1,0,0:0:0:0:
192,192,33129,1,0,0:0:0:50:soft-hitclap.wav
448,192,33129,1,0,0:0:0:0:
320,192,33129,1,0,0:0:0:0:
192,192,33415,1,0,0:0:0:0:
320,192,33415,1,0,0:0:0:50:soft-hitclap2.wav
64,192,33558,1,0,0:0:0:50:soft-hitclap.wav
192,192,33558,1,0,0:0:0:0:
448,192,33558,1,0,0:0:0:0:
320,192,33844,1,0,0:0:0:0:
448,192,33844,1,0,0:0:0:50:soft-hitclap2.wav
320,192,33987,1,0,0:0:0:0:
192,192,33987,1,0,0:0:0:50:soft-hitclap.wav
64,192,33987,1,0,0:0:0:0:
64,192,34272,1,0,0:0:0:50:soft-hitclap2.wav
192,192,34272,1,0,0:0:0:0:
64,192,34415,1,0,0:0:0:0:
320,192,34415,1,0,0:0:0:0:
448,192,34415,1,0,0:0:0:50:soft-hitclap.wav
192,192,34701,1,0,0:0:0:0:
320,192,34701,1,0,0:0:0:50:soft-hitclap.wav
448,192,34701,1,0,0:0:0:0:
64,192,34987,1,0,0:0:0:0:
320,192,34987,1,0,0:0:0:50:soft-hitclap.wav
320,192,35058,1,0,0:0:0:50:soft-hitclap.wav
64,192,35129,1,0,0:0:0:0:
192,192,35129,1,0,0:0:0:50:soft-hitclap2.wav
448,192,35129,1,0,0:0:0:50:soft-hitclap.wav
192,192,35415,1,0,0:0:0:0:
320,192,35415,1,0,0:0:0:50:soft-hitclap.wav
64,192,35701,1,0,0:0:0:0:
192,192,35701,1,0,0:0:0:50:soft-hitclap2.wav
192,192,35844,1,0,0:0:0:0:
320,192,35844,1,0,0:0:0:50:soft-hitclap.wav
448,192,35844,1,0,0:0:0:0:
64,192,36129,1,0,0:0:0:0:
192,192,36129,1,0,0:0:0:50:soft-hitclap2.wav
448,192,36129,1,0,0:0:0:0:
64,192,36415,1,0,0:0:0:0:
192,192,36415,1,0,0:0:0:50:soft-hitclap2.wav
320,192,36415,1,0,0:0:0:0:
320,192,36558,1,0,0:0:0:50:soft-hitclap.wav
448,192,36558,1,0,0:0:0:0:
64,192,36701,1,0,0:0:0:50:soft-hitclap.wav
192,192,36701,1,0,0:0:0:0:
64,192,36844,1,0,0:0:0:50:soft-hitclap.wav
192,192,36844,1,0,0:0:0:0:
64,192,36987,1,0,0:0:0:50:soft-hitclap.wav
192,192,36987,1,0,0:0:0:0:
448,192,37058,1,0,0:0:0:50:soft-hitclap.wav
320,192,37129,1,0,0:0:0:0:
192,192,37129,1,0,0:0:0:50:soft-hitclap2.wav
64,192,37201,1,0,0:0:0:50:soft-hitclap.wav
320,192,37272,1,0,0:0:0:50:soft-hitclap.wav
192,192,37272,1,0,0:0:0:0:
64,192,37344,1,0,0:0:0:50:soft-hitclap.wav
448,192,37415,1,0,0:0:0:50:soft-hitclap.wav
320,192,37415,1,0,0:0:0:0:
320,192,37558,1,0,0:0:0:50:soft-hitclap2.wav
448,192,37558,1,0,0:0:0:0:
448,192,37701,1,0,0:0:0:50:soft-hitclap.wav
64,192,37701,128,0,38415:0:0:0:50:soft-hitfinish.wav
320,192,37701,1,0,0:0:0:0:
320,192,37987,1,0,0:0:0:0:
448,192,37987,1,0,0:0:0:50:soft-hitclap2.wav
192,192,38129,1,0,0:0:0:50:soft-hitclap.wav
320,192,38415,1,0,0:0:0:0:
448,192,38415,1,0,0:0:0:50:soft-hitclap2.wav
192,192,38558,128,0,38701:0:0:0:0:
448,192,38701,128,0,39558:0:0:0:0:
64,192,38701,1,0,0:0:0:0:
320,192,38701,1,0,0:0:0:50:soft-hitclap2.wav
64,192,38844,1,0,0:0:0:50:soft-hitclap.wav
64,192,38987,1,0,0:0:0:50:soft-hitclap.wav
192,192,39129,1,0,0:0:0:0:
320,192,39129,1,0,0:0:0:50:soft-hitclap2.wav
64,192,39272,1,0,0:0:0:50:soft-hitclap.wav
64,192,39558,1,0,0:0:0:0:
320,192,39558,1,0,0:0:0:50:soft-hitclap2.wav
192,192,39701,128,0,39987:0:0:0:0:
64,192,39844,1,0,0:0:0:50:soft-hitclap.wav
64,192,39915,1,0,0:0:0:50:soft-hitclap.wav
320,192,39987,1,0,0:0:0:50:soft-hitclap.wav
448,192,39987,128,0,40415:0:0:0:0:
64,192,40272,1,0,0:0:0:0:
192,192,40272,1,0,0:0:0:50:soft-hitclap2.wav
320,192,40415,128,0,40701:0:0:0:0:
192,192,40415,1,0,0:0:0:50:soft-hitclap.wav
192,192,40701,1,0,0:0:0:0:
448,192,40701,1,0,0:0:0:50:soft-hitclap2.wav
448,192,40844,128,0,40987:0:0:0:0:
64,192,40987,128,0,41701:0:0:0:0:
192,192,40987,1,0,0:0:0:0:
320,192,40987,1,0,0:0:0:50:soft-hitclap2.wav
320,192,41129,1,0,0:0:0:50:soft-hitclap.wav
320,192,41272,1,0,0:0:0:50:soft-hitclap.wav
192,192,41415,1,0,0:0:0:0:
448,192,41415,1,0,0:0:0:50:soft-hitclap2.wav
320,192,41558,1,0,0:0:0:50:soft-hitclap.wav
192,192,41701,1,0,0:0:0:0:
320,192,41844,1,0,0:0:0:0:
448,192,41844,1,0,0:0:0:50:soft-hitclap2.wav
192,192,41987,1,0,0:0:0:50:soft-hitclap.wav
320,192,42129,1,0,0:0:0:0:
448,192,42129,1,0,0:0:0:40:soft-hitclap2.wav
64,192,42272,1,0,0:0:0:50:soft-hitclap.wav
192,192,42272,1,0,0:0:0:50:soft-hitfinish.wav
448,192,42272,128,0,42987:0:0:0:0:
320,192,42558,1,0,0:0:0:50:soft-hitclap2.wav
64,192,42558,1,0,0:0:0:0:
192,192,42701,1,0,0:0:0:50:soft-hitclap.wav
192,192,42987,1,0,0:0:0:0:
64,192,42987,1,0,0:0:0:50:soft-hitclap2.wav
64,192,43129,128,0,43987:0:0:0:0:
448,192,43129,1,0,0:0:0:50:soft-hitclap.wav
320,192,43272,1,0,0:0:0:50:soft-hitclap2.wav
192,192,43272,1,0,0:0:0:0:
448,192,43415,1,0,0:0:0:50:soft-hitclap.wav
448,192,43558,1,0,0:0:0:50:soft-hitclap.wav
320,192,43701,1,0,0:0:0:50:soft-hitclap2.wav
192,192,43701,1,0,0:0:0:0:
320,192,43844,1,0,0:0:0:50:soft-hitclap.wav
192,192,43987,128,0,44272:0:0:0:0:
320,192,43987,1,0,0:0:0:50:soft-hitclap.wav
64,192,44129,1,0,0:0:0:0:
448,192,44129,1,0,0:0:0:50:soft-hitclap2.wav
448,192,44272,128,0,44558:0:0:0:0:
320,192,44272,1,0,0:0:0:50:soft-hitclap.wav
320,192,44415,1,0,0:0:0:50:soft-hitclap.wav
320,192,44487,1,0,0:0:0:50:soft-hitclap.wav
64,192,44558,128,0,44987:0:0:0:0:
192,192,44558,1,0,0:0:0:50:soft-hitclap.wav
192,192,44844,1,0,0:0:0:0:
320,192,44844,1,0,0:0:0:50:soft-hitclap2.wav
192,192,44987,128,0,45415:0:0:0:0:
448,192,44987,1,0,0:0:0:50:soft-hitclap.wav
64,192,45272,1,0,0:0:0:0:
448,192,45272,1,0,0:0:0:50:soft-hitclap2.wav
320,192,45415,128,0,45701:0:0:0:0:
64,192,45558,1,0,0:0:0:0:
448,192,45558,1,0,0:0:0:50:soft-hitclap2.wav
64,192,45701,1,0,0:0:0:0:
192,192,45701,1,0,0:0:0:50:soft-hitclap.wav
448,192,45844,1,0,0:0:0:0:
320,192,45915,1,0,0:0:0:0:
64,192,45987,1,0,0:0:0:0:
192,192,46034,1,0,0:0:0:0:
448,192,46076,1,0,0:0:0:0:
320,192,46129,1,0,0:0:0:0:
192,192,46165,1,0,0:0:0:0:
64,192,46201,1,0,0:0:0:0:
448,192,46237,1,0,0:0:0:0:
320,192,46272,1,0,0:0:0:50:soft-hitclap2.wav
192,192,46272,1,0,0:0:0:0:
64,192,46344,1,0,0:0:0:0:
448,192,46415,1,0,0:0:0:50:soft-hitclap.wav
192,192,46415,1,0,0:0:0:0:
320,192,46487,1,0,0:0:0:0:
192,192,46558,1,0,0:0:0:50:soft-hitclap.wav
64,192,46558,1,0,0:0:0:0:
448,192,46558,1,0,0:0:0:0:
320,192,46701,1,0,0:0:0:50:soft-hitclap.wav
192,192,46701,1,0,0:0:0:0:
64,192,46701,1,0,0:0:0:0:
448,192,46844,1,0,0:0:0:50:soft-hitclap.wav
64,192,46844,128,0,47558:0:0:0:50:soft-hitfinish.wav
320,192,46844,1,0,0:0:0:0:
448,192,47129,1,0,0:0:0:50:soft-hitclap2.wav
320,192,47129,1,0,0:0:0:0:
192,192,47272,1,0,0:0:0:50:soft-hitclap.wav
192,192,47558,128,0,47987:0:0:0:0:
448,192,47558,1,0,0:0:0:50:soft-hitclap2.wav
320,192,47558,1,0,0:0:0:0:
448,192,47844,1,0,0:0:0:50:soft-hitclap2.wav
64,192,47844,1,0,0:0:0:0:
320,192,47987,128,0,48558:0:0:0:0:
448,192,47987,1,0,0:0:0:50:soft-hitclap.wav
192,192,48129,1,0,0:0:0:50:soft-hitclap.wav
64,192,48272,1,0,0:0:0:0:
448,192,48272,1,0,0:0:0:50:soft-hitclap2.wav
192,192,48415,1,0,0:0:0:50:soft-hitclap.wav
448,192,48558,128,0,49129:0:0:0:0:
64,192,48701,1,0,0:0:0:0:
320,192,48701,1,0,0:0:0:50:soft-hitclap2.wav
320,192,48987,1,0,0:0:0:50:soft-hitclap.wav
320,192,49058,1,0,0:0:0:50:soft-hitclap.wav
64,192,49129,1,0,0:0:0:50:soft-hitclap.wav
192,192,49129,128,0,49558:0:0:0:0:
320,192,49415,1,0,0:0:0:0:
448,192,49415,1,0,0:0:0:50:soft-hitclap2.wav
448,192,49558,128,0,49987:0:0:0:0:
64,192,49558,1,0,0:0:0:50:soft-hitclap.wav
192,192,49844,1,0,0:0:0:50:soft-hitclap2.wav
64,192,49844,1,0,0:0:0:0:
320,192,49987,128,0,50844:0:0:0:50:soft-hitclap.wav
64,192,49987,1,0,0:0:0:0:
192,192,50129,1,0,0:0:0:0:
448,192,50129,1,0,0:0:0:50:soft-hitclap2.wav
64,192,50272,1,0,0:0:0:50:soft-hitclap.wav
192,192,50558,1,0,0:0:0:0:
448,192,50558,1,0,0:0:0:50:soft-hitclap2.wav
448,192,50701,1,0,0:0:0:50:soft-hitclap.wav
192,192,50844,128,0,51415:0:0:0:0:
64,192,50987,1,0,0:0:0:0:
448,192,50987,1,0,0:0:0:50:soft-hitclap2.wav
64,192,51272,1,0,0:0:0:0:
448,192,51272,1,0,0:0:0:50:soft-hitclap2.wav
64,192,51415,1,0,0:0:0:50:soft-hitclap.wav
320,192,51415,128,0,51844:0:0:0:0:
192,192,51558,1,0,0:0:0:50:soft-hitclap.wav
64,192,51701,1,0,0:0:0:0:
448,192,51701,1,0,0:0:0:50:soft-hitclap2.wav
192,192,51844,128,0,52272:0:0:0:0:
64,192,51844,1,0,0:0:0:50:soft-hitclap.wav
320,192,51987,1,0,0:0:0:50:soft-hitclap.wav
448,192,52129,1,0,0:0:0:50:soft-hitclap2.wav
64,192,52129,1,0,0:0:0:0:
64,192,52272,128,0,52701:0:0:0:0:
320,192,52272,1,0,0:0:0:50:soft-hitclap.wav
192,192,52415,1,0,0:0:0:0:
448,192,52415,1,0,0:0:0:50:soft-hitclap2.wav
320,192,52558,1,0,0:0:0:50:soft-hitclap.wav
448,192,52701,128,0,53129:0:0:0:0:
192,192,52701,1,0,0:0:0:50:soft-hitclap.wav
320,192,52844,1,0,0:0:0:50:soft-hitclap2.wav
192,192,52844,1,0,0:0:0:0:
64,192,52987,1,0,0:0:0:50:soft-hitclap.wav
192,192,53129,128,0,53415:0:0:0:0:
64,192,53129,1,0,0:0:0:50:soft-hitclap.wav
320,192,53272,1,0,0:0:0:0:
448,192,53272,1,0,0:0:0:50:soft-hitclap2.wav
320,192,53415,128,0,53701:0:0:0:0:
64,192,53415,1,0,0:0:0:50:soft-hitclap.wav
448,192,53558,1,0,0:0:0:50:soft-hitclap.wav
448,192,53629,1,0,0:0:0:50:soft-hitclap.wav
192,192,53701,1,0,0:0:0:50:soft-hitclap.wav
64,192,53701,1,0,0:0:0:0:
320,192,53772,1,0,0:0:0:0:
192,192,53844,1,0,0:0:0:0:
448,192,53915,1,0,0:0:0:0:
320,192,53987,1,0,0:0:0:0:
64,192,54058,1,0,0:0:0:0:
192,192,54094,1,0,0:0:0:0:
448,192,54129,1,0,0:0:0:0:
320,192,54165,1,0,0:0:0:0:
64,192,54201,1,0,0:0:0:0:
192,192,54237,1,0,0:0:0:0:
320,192,54272,1,0,0:0:0:0:
192,192,54344,1,0,0:0:0:0:
448,192,54415,1,0,0:0:0:0:
320,192,54451,1,0,0:0:0:0:
64,192,54487,1,0,0:0:0:0:
192,192,54522,1,0,0:0:0:0:
448,192,54558,1,0,0:0:0:0:
320,192,54629,1,0,0:0:0:0:
192,192,54701,1,0,0:0:0:0:
320,192,54772,1,0,0:0:0:0:
192,192,54844,1,0,0:0:0:50:soft-hitclap.wav
448,192,54844,1,0,0:0:0:0:
64,192,54844,1,0,0:0:0:0:
192,192,54987,1,0,0:0:0:50:soft-hitclap.wav
320,192,54987,1,0,0:0:0:0:
448,192,54987,1,0,0:0:0:0:
320,192,55129,128,0,55558:0:0:0:0:
448,192,55558,1,0,0:0:0:50:soft-hitclap.wav
448,192,55629,1,0,0:0:0:50:soft-hitclap.wav
192,192,55701,1,0,0:0:0:50:soft-hitfinish.wav
64,192,55701,1,0,0:0:0:50:LR_Long Bass.wav
64,192,55987,5,0,0:0:0:0:
320,192,55987,1,0,0:0:0:0:
192,192,56129,1,0,0:0:0:0:
448,192,56415,1,0,0:0:0:0:
64,192,57987,1,0,0:0:0:0:
320,192,58272,1,0,0:0:0:0:
448,192,58272,1,0,0:0:0:0:
192,192,58415,1,0,0:0:0:0:
64,192,58415,1,0,0:0:0:0:
320,192,58701,1,0,0:0:0:0:
192,192,59272,1,0,0:0:0:0:
64,192,59987,1,0,0:0:0:0:
192,192,60272,1,0,0:0:0:0:
320,192,60558,1,0,0:0:0:0:
192,192,60987,1,0,0:0:0:0:
448,192,61415,1,0,0:0:0:0:
320,192,61701,1,0,0:0:0:0:
192,192,61701,1,0,0:0:0:0:
448,192,62129,1,0,0:0:0:0:
64,192,62129,1,0,0:0:0:0:
320,192,62415,1,0,0:0:0:0:
192,192,62415,1,0,0:0:0:0:
64,192,62701,1,0,0:0:0:0:
320,192,62701,1,0,0:0:0:0:
448,192,63415,1,0,0:0:0:0:
192,192,63701,1,0,0:0:0:0:
320,192,63987,1,0,0:0:0:0:
448,192,63987,1,0,0:0:0:50:soft-hitclap.wav
64,192,64129,1,0,0:0:0:0:
320,192,64272,1,0,0:0:0:50:soft-hitclap.wav
192,192,64415,1,0,0:0:0:0:
448,192,64558,1,0,0:0:0:0:
64,192,64701,1,0,0:0:0:0:
192,192,64844,1,0,0:0:0:0:
320,192,64987,1,0,0:0:0:0:
64,192,65129,1,0,0:0:0:50:soft-hitclap.wav
192,192,65129,1,0,0:0:0:0:
448,192,65129,1,0,0:0:0:0:
320,192,65272,1,0,0:0:0:0:
64,192,65344,1,0,0:0:0:0:
192,192,65415,1,0,0:0:0:0:
320,192,65558,1,0,0:0:0:0:
64,192,65701,1,0,0:0:0:0:
448,192,65701,1,0,0:0:0:50:soft-hitclap2.wav
320,192,65844,1,0,0:0:0:0:
192,192,65987,1,0,0:0:0:0:
448,192,66129,1,0,0:0:0:0:
64,192,66201,1,0,0:0:0:0:
192,192,66272,1,0,0:0:0:0:
320,192,66272,1,0,0:0:0:50:soft-hitclap.wav
192,192,66487,1,0,0:0:0:0:
320,192,66487,1,0,0:0:0:50:soft-hitclap.wav
64,192,66701,1,0,0:0:0:0:
192,192,66701,1,0,0:0:0:50:soft-hitclap.wav
64,192,66772,1,0,0:0:0:0:
192,192,66772,1,0,0:0:0:50:soft-hitclap.wav
320,192,66844,1,0,0:0:0:50:soft-hitclap2.wav
448,192,66844,1,0,0:0:0:0:
320,192,67129,1,0,0:0:0:0:
192,192,67415,1,0,0:0:0:50:soft-hitclap.wav
448,192,67415,1,0,0:0:0:0:
64,192,67558,1,0,0:0:0:0:
448,192,67629,1,0,0:0:0:0:
192,192,67701,1,0,0:0:0:0:
320,192,67844,1,0,0:0:0:50:soft-hitclap.wav
448,192,67844,1,0,0:0:0:0:
64,192,67987,1,0,0:0:0:0:
192,192,67987,1,0,0:0:0:50:soft-hitclap2.wav
320,192,68272,1,0,0:0:0:0:
448,192,68415,1,0,0:0:0:50:soft-hitclap.wav
448,192,68487,1,0,0:0:0:50:soft-hitclap.wav
192,192,68558,1,0,0:0:0:50:soft-hitclap.wav
64,192,68558,1,0,0:0:0:0:
320,192,68772,1,0,0:0:0:50:soft-hitclap.wav
448,192,68772,1,0,0:0:0:0:
64,192,68987,1,0,0:0:0:0:
320,192,68987,1,0,0:0:0:50:soft-hitclap.wav
64,192,69058,1,0,0:0:0:0:
320,192,69058,1,0,0:0:0:50:soft-hitclap.wav
192,192,69129,1,0,0:0:0:0:
448,192,69129,1,0,0:0:0:50:soft-hitclap2.wav
320,192,69272,1,0,0:0:0:50:soft-hitclap.wav
192,192,69272,1,0,0:0:0:0:
320,192,69344,1,0,0:0:0:50:soft-hitclap.wav
192,192,69344,1,0,0:0:0:0:
64,192,69415,1,0,0:0:0:0:
448,192,69415,1,0,0:0:0:50:soft-hitclap2.wav
64,192,69558,1,0,0:0:0:0:
448,192,69558,1,0,0:0:0:50:soft-hitclap2.wav
320,192,69701,1,0,0:0:0:0:
448,192,69701,1,0,0:0:0:50:soft-hitclap2.wav
64,192,69844,1,0,0:0:0:0:
192,192,69844,1,0,0:0:0:50:soft-hitclap.wav
192,192,69987,1,0,0:0:0:0:
320,192,69987,1,0,0:0:0:50:soft-hitclap2.wav
64,192,70129,1,0,0:0:0:0:
192,192,70129,1,0,0:0:0:50:soft-hitclap.wav
320,192,70272,1,0,0:0:0:0:
448,192,70272,1,0,0:0:0:50:soft-hitclap2.wav
192,192,70415,1,0,0:0:0:0:
320,192,70415,1,0,0:0:0:50:soft-hitclap.wav
320,192,70558,1,0,0:0:0:0:
448,192,70558,1,0,0:0:0:50:soft-hitclap2.wav
64,192,70701,1,0,0:0:0:0:
192,192,70701,1,0,0:0:0:50:soft-hitclap.wav
448,192,70844,1,0,0:0:0:50:soft-hitclap2.wav
192,192,70844,1,0,0:0:0:0:
64,192,70915,1,0,0:0:0:50:soft-hitclap.wav
448,192,70987,1,0,0:0:0:50:soft-hitclap2.wav
192,192,70987,1,0,0:0:0:0:
320,192,71058,1,0,0:0:0:50:soft-hitclap.wav
192,192,71129,1,0,0:0:0:0:
448,192,71129,1,0,0:0:0:50:soft-hitclap2.wav
64,192,71201,1,0,0:0:0:50:soft-hitclap.wav
448,192,71272,1,0,0:0:0:50:soft-hitclap2.wav
192,192,71272,1,0,0:0:0:0:
320,192,71344,1,0,0:0:0:50:soft-hitclap.wav
64,192,71415,1,0,0:0:0:50:soft-hitclap.wav
192,192,71415,1,0,0:0:0:50:soft-hitclap2.wav
320,192,71487,1,0,0:0:0:50:soft-hitclap2.wav
448,192,71487,1,0,0:0:0:50:soft-hitclap.wav
64,192,71558,1,0,0:0:0:50:soft-hitclap.wav
192,192,71558,1,0,0:0:0:50:soft-hitclap2.wav
320,192,71629,1,0,0:0:0:50:soft-hitclap2.wav
448,192,71629,1,0,0:0:0:50:soft-hitclap.wav
64,192,71701,1,0,0:0:0:50:soft-hitclap.wav
192,192,71701,1,0,0:0:0:50:soft-hitclap2.wav
320,192,71772,1,0,0:0:0:50:soft-hitclap2.wav
448,192,71772,1,0,0:0:0:50:soft-hitclap.wav
64,192,71844,1,0,0:0:0:50:soft-hitclap.wav
192,192,71844,1,0,0:0:0:50:soft-hitclap2.wav
320,192,71915,1,0,0:0:0:50:soft-hitclap2.wav
448,192,71915,1,0,0:0:0:50:soft-hitclap.wav
192,192,71987,128,0,73129:0:0:0:0:
448,192,73129,128,0,73701:0:0:0:0:
64,192,73129,128,0,73701:0:0:0:0:
320,192,73701,128,0,74272:0:0:0:0:
448,192,74272,1,0,0:0:0:50:soft-hitclap.wav
64,192,74272,1,0,0:0:0:0:
320,192,74558,128,0,74987:0:0:0:0:
64,192,74558,1,0,0:0:0:0:
448,192,74558,1,0,0:0:0:50:soft-hitfinish.wav
192,192,74558,1,0,0:0:0:50:soft-hitclap2.wav
192,192,74701,1,0,0:0:0:50:soft-hitclap.wav
448,192,74987,128,0,75415:0:0:0:0:
192,192,74987,1,0,0:0:0:50:soft-hitclap2.wav
64,192,74987,1,0,0:0:0:0:
320,192,75272,1,0,0:0:0:50:soft-hitclap2.wav
192,192,75272,1,0,0:0:0:0:
64,192,75415,128,0,75844:0:0:0:0:
320,192,75415,1,0,0:0:0:50:soft-hitclap.wav
192,192,75558,1,0,0:0:0:50:soft-hitclap.wav
320,192,75701,1,0,0:0:0:0:
448,192,75701,1,0,0:0:0:50:soft-hitclap2.wav
192,192,75844,128,0,76129:0:0:0:0:
448,192,75844,1,0,0:0:0:50:soft-hitclap.wav
448,192,76129,128,0,76415:0:0:0:0:
64,192,76129,1,0,0:0:0:0:
320,192,76129,1,0,0:0:0:50:soft-hitclap2.wav
320,192,76415,1,0,0:0:0:50:soft-hitclap.wav
64,192,76415,1,0,0:0:0:0:
192,192,76415,128,0,76701:0:0:0:0:
320,192,76487,1,0,0:0:0:50:soft-hitclap.wav
64,192,76558,1,0,0:0:0:50:soft-hitclap.wav
448,192,76701,128,0,76844:0:0:0:0:
64,192,76844,1,0,0:0:0:0:
320,192,76844,128,0,76987:0:0:0:0:
192,192,76844,1,0,0:0:0:50:soft-hitclap2.wav
64,192,76987,1,0,0:0:0:50:soft-hitclap.wav
192,192,76987,128,0,77272:0:0:0:0:
320,192,77272,128,0,77558:0:0:0:0:
64,192,77272,1,0,0:0:0:0:
448,192,77272,1,0,0:0:0:50:soft-hitclap2.wav
64,192,77558,128,0,77844:0:0:0:0:
448,192,77558,1,0,0:0:0:50:soft-hitclap2.wav
192,192,77558,1,0,0:0:0:0:
320,192,77701,1,0,0:0:0:50:soft-hitclap.wav
192,192,77844,128,0,78129:0:0:0:0:
320,192,77844,1,0,0:0:0:50:soft-hitclap.wav
64,192,77987,1,0,0:0:0:0:
448,192,77987,1,0,0:0:0:50:soft-hitclap2.wav
320,192,78129,128,0,78415:0:0:0:0:
64,192,78129,1,0,0:0:0:50:soft-hitclap.wav
448,192,78415,128,0,78844:0:0:0:0:
192,192,78415,1,0,0:0:0:50:soft-hitclap2.wav
64,192,78415,1,0,0:0:0:0:
320,192,78558,1,0,0:0:0:50:soft-hitclap.wav
192,192,78701,1,0,0:0:0:50:soft-hitclap2.wav
64,192,78701,1,0,0:0:0:0:
192,192,78844,128,0,79272:0:0:0:50:soft-hitfinish.wav
64,192,78844,1,0,0:0:0:0:
320,192,78844,1,0,0:0:0:50:soft-hitclap.wav
320,192,78987,1,0,0:0:0:50:soft-hitclap.wav
448,192,79129,1,0,0:0:0:50:soft-hitclap2.wav
64,192,79129,1,0,0:0:0:0:
448,192,79272,128,0,79701:0:0:0:0:
320,192,79272,1,0,0:0:0:50:soft-hitclap.wav
192,192,79558,1,0,0:0:0:50:soft-hitclap2.wav
64,192,79558,1,0,0:0:0:0:
320,192,79701,128,0,79844:0:0:0:50:soft-hitclap.wav
192,192,79844,128,0,80129:0:0:0:0:
448,192,79844,1,0,0:0:0:50:soft-hitclap2.wav
64,192,79844,1,0,0:0:0:0:
64,192,79987,1,0,0:0:0:50:soft-hitclap.wav
320,192,80129,128,0,80415:0:0:0:0:
448,192,80129,1,0,0:0:0:50:soft-hitclap.wav
192,192,80272,1,0,0:0:0:50:soft-hitclap2.wav
64,192,80272,1,0,0:0:0:0:
448,192,80415,128,0,81129:0:0:0:0:
192,192,80415,1,0,0:0:0:50:soft-hitclap.wav
64,192,80558,1,0,0:0:0:0:
320,192,80558,1,0,0:0:0:40:soft-hitclap2.wav
64,192,80701,1,0,0:0:0:0:
192,192,80701,1,0,0:0:0:50:soft-hitclap2.wav
320,192,80844,1,0,0:0:0:50:soft-hitclap.wav
192,192,80915,1,0,0:0:0:50:soft-hitclap.wav
64,192,80987,1,0,0:0:0:50:soft-hitclap.wav
192,192,81058,1,0,0:0:0:50:soft-hitclap.wav
64,192,81129,128,0,81701:0:0:0:50:soft-hitfinish.wav
320,192,81129,1,0,0:0:0:50:soft-hitclap.wav
448,192,81201,1,0,0:0:0:50:soft-hitclap.wav
320,192,81272,1,0,0:0:0:50:soft-hitclap.wav
192,192,81344,1,0,0:0:0:50:soft-hitclap.wav
320,192,81415,1,0,0:0:0:50:soft-hitclap.wav
448,192,81415,1,0,0:0:0:50:soft-hitclap2.wav
192,192,81487,1,0,0:0:0:50:soft-hitclap.wav
448,192,81558,1,0,0:0:0:50:soft-hitclap.wav
320,192,81629,1,0,0:0:0:50:soft-hitclap.wav
448,192,81701,128,0,81987:0:0:0:0:
192,192,81701,1,0,0:0:0:50:soft-hitclap.wav
64,192,81772,1,0,0:0:0:50:soft-hitclap.wav
320,192,81844,1,0,0:0:0:50:soft-hitclap2.wav
192,192,81844,1,0,0:0:0:50:soft-hitclap.wav
64,192,81915,1,0,0:0:0:50:soft-hitclap.wav
320,192,81987,128,0,82272:0:0:0:0:
192,192,81987,1,0,0:0:0:50:soft-hitclap.wav
448,192,82058,1,0,0:0:0:50:soft-hitclap.wav
192,192,82129,1,0,0:0:0:50:soft-hitclap2.wav
64,192,82129,1,0,0:0:0:50:soft-hitclap.wav
448,192,82201,1,0,0:0:0:50:soft-hitclap.wav
192,192,82272,1,0,0:0:0:50:soft-hitclap.wav
64,192,82272,1,0,0:0:0:0:
448,192,82415,1,0,0:0:0:0:
320,192,82487,1,0,0:0:0:0:
64,192,82487,1,0,0:0:0:0:
192,192,82558,1,0,0:0:0:0:
448,192,82558,1,0,0:0:0:0:
320,192,82629,1,0,0:0:0:0:
192,192,82665,1,0,0:0:0:0:
64,192,82701,1,0,0:0:0:0:
320,192,82737,1,0,0:0:0:0:
448,192,82772,1,0,0:0:0:0:
192,192,82808,1,0,0:0:0:0:
64,192,82844,1,0,0:0:0:0:
320,192,82915,1,0,0:0:0:0:
192,192,82987,1,0,0:0:0:0:
320,192,83058,1,0,0:0:0:0:
192,192,83129,128,0,83558:0:0:0:0:
448,192,83129,1,0,0:0:0:50:soft-hitclap2.wav
64,192,83129,1,0,0:0:0:0:
320,192,83272,1,0,0:0:0:0:
448,192,83272,1,0,0:0:0:50:soft-hitclap2.wav
448,192,83558,1,0,0:0:0:50:soft-hitclap.wav
448,192,83629,1,0,0:0:0:50:soft-hitclap.wav
64,192,83701,1,0,0:0:0:50:soft-hitclap2.wav
320,192,83701,128,0,83987:0:0:0:0:
192,192,83701,1,0,0:0:0:50:soft-hitfinish.wav
448,192,83844,1,0,0:0:0:50:soft-hitclap.wav
192,192,83987,128,0,84272:0:0:0:0:
64,192,84129,1,0,0:0:0:0:
448,192,84129,1,0,0:0:0:50:soft-hitclap2.wav
64,192,84272,128,0,84558:0:0:0:0:
320,192,84415,1,0,0:0:0:0:
448,192,84415,1,0,0:0:0:50:soft-hitclap2.wav
448,192,84558,1,0,0:0:0:50:soft-hitclap.wav
192,192,84558,128,0,84701:0:0:0:0:
64,192,84701,1,0,0:0:0:50:soft-hitclap.wav
320,192,84701,128,0,84844:0:0:0:0:
64,192,84844,1,0,0:0:0:0:
448,192,84844,1,0,0:0:0:50:soft-hitclap2.wav
192,192,84844,128,0,84987:0:0:0:0:
64,192,84987,128,0,85272:0:0:0:0:
320,192,84987,1,0,0:0:0:50:soft-hitclap.wav
192,192,85272,128,0,85701:0:0:0:0:
320,192,85272,1,0,0:0:0:0:
448,192,85272,1,0,0:0:0:50:soft-hitclap2.wav
320,192,85415,1,0,0:0:0:50:soft-hitclap.wav
448,192,85558,1,0,0:0:0:50:soft-hitclap.wav
448,192,85629,1,0,0:0:0:50:soft-hitclap.wav
320,192,85701,1,0,0:0:0:50:soft-hitclap.wav
64,192,85701,1,0,0:0:0:0:
64,192,85844,128,0,86129:0:0:0:0:
320,192,85844,1,0,0:0:0:50:soft-hitclap.wav
192,192,85987,1,0,0:0:0:0:
448,192,85987,1,0,0:0:0:50:soft-hitclap2.wav
448,192,86129,1,0,0:0:0:50:soft-hitclap.wav
192,192,86272,128,0,86558:0:0:0:0:
64,192,86415,1,0,0:0:0:0:
320,192,86415,1,0,0:0:0:50:soft-hitclap2.wav
448,192,86558,1,0,0:0:0:50:soft-hitclap.wav
320,192,86701,128,0,86844:0:0:0:0:
192,192,86701,1,0,0:0:0:50:soft-hitclap2.wav
64,192,86701,1,0,0:0:0:0:
448,192,86844,1,0,0:0:0:0:
192,192,86987,128,0,87415:0:0:0:0:
320,192,86987,1,0,0:0:0:50:soft-hitclap.wav
448,192,87129,1,0,0:0:0:50:soft-hitclap2.wav
64,192,87129,1,0,0:0:0:0:
320,192,87272,1,0,0:0:0:50:soft-hitclap.wav
448,192,87415,128,0,87701:0:0:0:0:
64,192,87558,1,0,0:0:0:0:
320,192,87558,1,0,0:0:0:50:soft-hitclap2.wav
192,192,87701,128,0,87987:0:0:0:0:
64,192,87701,1,0,0:0:0:50:soft-hitclap.wav
448,192,87844,1,0,0:0:0:50:soft-hitclap2.wav
320,192,87844,1,0,0:0:0:0:
320,192,87987,128,0,88844:0:0:0:50:soft-hitfinish.wav
64,192,87987,1,0,0:0:0:50:soft-hitclap.wav
448,192,87987,1,0,0:0:0:0:
192,192,88129,1,0,0:0:0:50:soft-hitclap.wav
192,192,88272,1,0,0:0:0:0:
448,192,88272,1,0,0:0:0:50:soft-hitclap2.wav
64,192,88415,1,0,0:0:0:50:soft-hitclap.wav
192,192,88558,1,0,0:0:0:50:soft-hitclap.wav
448,192,88701,1,0,0:0:0:50:soft-hitclap2.wav
64,192,88701,1,0,0:0:0:0:
448,192,88844,128,0,88987:0:0:0:0:
192,192,88844,1,0,0:0:0:50:soft-hitclap.wav
64,192,88987,128,0,89129:0:0:0:0:
320,192,88987,1,0,0:0:0:50:soft-hitclap.wav
192,192,89129,1,0,0:0:0:0:
320,192,89129,1,0,0:0:0:50:soft-hitclap.wav
448,192,89201,1,0,0:0:0:50:soft-hitclap.wav
64,192,89272,1,0,0:0:0:0:
192,192,89272,1,0,0:0:0:50:soft-hitclap.wav
320,192,89344,1,0,0:0:0:50:soft-hitclap.wav
64,192,89415,1,0,0:0:0:0:
192,192,89415,1,0,0:0:0:50:soft-hitclap.wav
448,192,89487,1,0,0:0:0:50:soft-hitclap.wav
192,192,89558,1,0,0:0:0:0:
320,192,89558,1,0,0:0:0:50:soft-hitclap.wav
448,192,89629,1,0,0:0:0:50:soft-hitclap.wav
320,192,89701,1,0,0:0:0:50:soft-hitclap2.wav
192,192,89701,1,0,0:0:0:50:soft-hitclap.wav
64,192,89701,1,0,0:0:0:0:
192,192,89915,1,0,0:0:0:0:
320,192,89915,1,0,0:0:0:50:soft-hitclap.wav
448,192,89915,1,0,0:0:0:50:soft-hitclap2.wav
64,192,90129,1,0,0:0:0:0:
192,192,90129,1,0,0:0:0:50:soft-hitclap.wav
320,192,90129,1,0,0:0:0:50:soft-hitclap2.wav
64,192,90272,1,0,0:0:0:0:
192,192,90272,1,0,0:0:0:50:soft-hitclap2.wav
448,192,90272,1,0,0:0:0:0:
320,192,90344,1,0,0:0:0:0:
64,192,90415,1,0,0:0:0:0:
192,192,90415,1,0,0:0:0:50:soft-hitclap.wav
320,192,90487,1,0,0:0:0:0:
64,192,90558,1,0,0:0:0:0:
192,192,90558,1,0,0:0:0:50:soft-hitclap2.wav
448,192,90558,1,0,0:0:0:0:
320,192,90629,1,0,0:0:0:0:
192,192,90701,1,0,0:0:0:50:soft-hitclap.wav
448,192,90701,1,0,0:0:0:0:
64,192,90772,1,0,0:0:0:0:
192,192,90844,1,0,0:0:0:50:soft-hitclap2.wav
448,192,90844,1,0,0:0:0:0:
320,192,90844,1,0,0:0:0:0:
64,192,90915,1,0,0:0:0:0:
192,192,90987,1,0,0:0:0:50:soft-hitclap.wav
448,192,90987,1,0,0:0:0:0:
64,192,91058,1,0,0:0:0:0:
320,192,91129,1,0,0:0:0:0:
448,192,91129,1,0,0:0:0:0:
192,192,91129,1,0,0:0:0:50:soft-hitclap2.wav
64,192,91201,1,0,0:0:0:0:
320,192,91272,1,0,0:0:0:50:soft-hitclap.wav
448,192,91272,1,0,0:0:0:0:
64,192,91344,1,0,0:0:0:0:
320,192,91415,1,0,0:0:0:0:
448,192,91415,1,0,0:0:0:50:soft-hitclap2.wav
192,192,91415,1,0,0:0:0:50:soft-hitclap.wav
64,192,91558,1,0,0:0:0:0:
320,192,91558,1,0,0:0:0:50:soft-hitclap.wav
192,192,91629,1,0,0:0:0:0:
320,192,91701,1,0,0:0:0:0:
448,192,91701,1,0,0:0:0:50:soft-hitclap2.wav
64,192,91772,1,0,0:0:0:0:
192,192,91844,1,0,0:0:0:0:
320,192,91879,1,0,0:0:0:0:
448,192,91915,1,0,0:0:0:0:
192,192,91951,1,0,0:0:0:0:
64,192,91987,1,0,0:0:0:50:soft-hitclap2.wav
320,192,91987,1,0,0:0:0:0:
448,192,92058,1,0,0:0:0:0:
320,192,92129,1,0,0:0:0:50:soft-hitclap2.wav
192,192,92129,1,0,0:0:0:0:
64,192,92201,1,0,0:0:0:0:
320,192,92272,1,0,0:0:0:50:soft-hitclap2.wav
192,192,92272,1,0,0:0:0:0:
64,192,92415,1,0,0:0:0:0:
448,192,92415,1,0,0:0:0:50:soft-hitclap2.wav
192,192,92558,1,0,0:0:0:50:soft-hitclap.wav
320,192,92701,1,0,0:0:0:50:soft-hitclap.wav
320,192,92772,1,0,0:0:0:50:soft-hitclap.wav
448,192,92844,1,0,0:0:0:50:soft-hitclap2.wav
64,192,92844,128,0,93701:0:0:0:50:soft-hitfinish.wav
192,192,92844,1,0,0:0:0:50:LR_Long Bass.wav
320,192,93272,1,0,0:0:0:0:
448,192,93272,1,0,0:0:0:50:soft-hitclap2.wav
320,192,93558,1,0,0:0:0:0:
448,192,93558,1,0,0:0:0:50:soft-hitclap2.wav
320,192,93701,128,0,94129:0:0:0:0:
192,192,93701,1,0,0:0:0:50:soft-hitclap.wav
192,192,93844,1,0,0:0:0:50:soft-hitclap.wav
192,192,93987,1,0,0:0:0:0:
448,192,93987,1,0,0:0:0:50:soft-hitclap2.wav
64,192,94129,128,0,94415:0:0:0:0:
448,192,94129,1,0,0:0:0:50:soft-hitclap.wav
448,192,94415,128,0,94701:0:0:0:0:
320,192,94415,1,0,0:0:0:50:soft-hitclap2.wav
192,192,94415,1,0,0:0:0:0:
64,192,94558,1,0,0:0:0:0:
192,192,94701,128,0,94987:0:0:0:0:
320,192,94701,1,0,0:0:0:50:soft-hitclap.wav
320,192,94772,1,0,0:0:0:50:soft-hitclap.wav
64,192,94844,1,0,0:0:0:50:soft-hitclap.wav
448,192,94987,128,0,95129:0:0:0:0:
64,192,95129,1,0,0:0:0:0:
192,192,95129,1,0,0:0:0:50:soft-hitclap2.wav
320,192,95129,128,0,95272:0:0:0:0:
448,192,95272,1,0,0:0:0:50:soft-hitclap.wav
64,192,95272,128,0,95558:0:0:0:0:
320,192,95558,1,0,0:0:0:0:
448,192,95558,1,0,0:0:0:50:soft-hitclap2.wav
192,192,95558,128,0,95844:0:0:0:0:
448,192,95701,1,0,0:0:0:50:soft-hitclap.wav
64,192,95844,128,0,96129:0:0:0:0:
320,192,95844,1,0,0:0:0:0:
448,192,95844,1,0,0:0:0:50:soft-hitclap2.wav
192,192,95987,1,0,0:0:0:50:soft-hitclap.wav
448,192,96129,1,0,0:0:0:50:soft-hitclap.wav
320,192,96129,128,0,96415:0:0:0:0:
192,192,96272,1,0,0:0:0:50:soft-hitclap2.wav
64,192,96272,1,0,0:0:0:0:
192,192,96415,128,0,96701:0:0:0:0:
448,192,96415,1,0,0:0:0:50:soft-hitclap.wav
320,192,96558,1,0,0:0:0:50:soft-hitclap.wav
448,192,96701,128,0,97129:0:0:0:0:
64,192,96701,1,0,0:0:0:0:
320,192,96701,1,0,0:0:0:50:soft-hitclap2.wav
192,192,96844,1,0,0:0:0:50:soft-hitclap.wav
192,192,96987,1,0,0:0:0:0:
320,192,96987,1,0,0:0:0:50:soft-hitclap2.wav
64,192,97129,128,0,97558:0:0:0:50:soft-hitfinish.wav
320,192,97129,1,0,0:0:0:50:soft-hitclap.wav
192,192,97129,1,0,0:0:0:0:
192,192,97415,1,0,0:0:0:0:
448,192,97415,1,0,0:0:0:50:soft-hitclap2.wav
320,192,97558,128,0,97987:0:0:0:0:
448,192,97558,1,0,0:0:0:50:soft-hitclap.wav
192,192,97701,1,0,0:0:0:50:soft-hitclap.wav
448,192,97844,1,0,0:0:0:50:soft-hitclap2.wav
64,192,97844,1,0,0:0:0:0:
192,192,97987,128,0,98129:0:0:0:0:
64,192,98129,128,0,98415:0:0:0:0:
448,192,98129,1,0,0:0:0:50:soft-hitclap2.wav
320,192,98129,1,0,0:0:0:0:
320,192,98272,1,0,0:0:0:50:soft-hitclap.wav
448,192,98415,128,0,98701:0:0:0:0:
192,192,98415,1,0,0:0:0:50:soft-hitclap.wav
64,192,98558,1,0,0:0:0:0:
320,192,98558,1,0,0:0:0:50:soft-hitclap2.wav
192,192,98701,128,0,99415:0:0:0:0:
320,192,98701,1,0,0:0:0:50:soft-hitclap.wav
64,192,98844,1,0,0:0:0:0:
448,192,98987,1,0,0:0:0:50:soft-hitclap2.wav
320,192,98987,1,0,0:0:0:0:
64,192,99129,1,0,0:0:0:50:soft-hitclap.wav
320,192,99272,1,0,0:0:0:50:soft-hitclap.wav
448,192,99272,1,0,0:0:0:0:
320,192,99344,1,0,0:0:0:50:soft-hitclap.wav
64,192,99415,128,0,99701:0:0:0:0:
448,192,99415,1,0,0:0:0:50:soft-hitclap.wav
448,192,99701,1,0,0:0:0:50:soft-hitclap2.wav
320,192,99701,1,0,0:0:0:0:
192,192,99701,128,0,99844:0:0:0:0:
448,192,99844,128,0,100129:0:0:0:0:
64,192,99844,1,0,0:0:0:50:soft-hitclap.wav
320,192,100129,128,0,100415:0:0:0:0:
192,192,100129,1,0,0:0:0:0:
64,192,100129,1,0,0:0:0:50:soft-hitclap2.wav
64,192,100415,1,0,0:0:0:0:
448,192,100415,1,0,0:0:0:50:soft-hitclap2.wav
192,192,100558,128,0,100987:0:0:0:0:
320,192,100558,1,0,0:0:0:50:soft-hitclap.wav
320,192,100701,1,0,0:0:0:50:soft-hitclap.wav
64,192,100844,1,0,0:0:0:0:
448,192,100844,1,0,0:0:0:50:soft-hitclap2.wav
320,192,100987,1,0,0:0:0:50:soft-hitclap.wav
448,192,100987,128,0,101415:0:0:0:0:
192,192,101129,1,0,0:0:0:50:soft-hitclap.wav
192,192,101201,1,0,0:0:0:50:soft-hitclap.wav
64,192,101272,1,0,0:0:0:0:
320,192,101272,1,0,0:0:0:50:soft-hitclap2.wav
64,192,101415,128,0,101701:0:0:0:0:
192,192,101415,1,0,0:0:0:0:
320,192,101415,1,0,0:0:0:50:soft-hitclap2.wav
448,192,101558,1,0,0:0:0:0:
192,192,101558,1,0,0:0:0:50:soft-hitclap2.wav
320,192,101701,1,0,0:0:0:50:soft-hitclap.wav
448,192,101701,1,0,0:0:0:50:soft-hitfinish.wav
320,192,101844,1,0,0:0:0:50:soft-hitclap.wav
448,192,101987,128,0,102272:0:0:0:0:
192,192,101987,1,0,0:0:0:0:
320,192,101987,1,0,0:0:0:50:soft-hitclap2.wav
64,192,102129,1,0,0:0:0:50:soft-hitclap.wav
320,192,102272,128,0,102558:0:0:0:0:
64,192,102415,1,0,0:0:0:0:
448,192,102415,1,0,0:0:0:50:soft-hitclap2.wav
192,192,102558,128,0,102844:0:0:0:0:
448,192,102701,1,0,0:0:0:50:soft-hitclap2.wav
64,192,102701,1,0,0:0:0:0:
320,192,102844,128,0,102987:0:0:0:0:
64,192,102844,1,0,0:0:0:50:soft-hitclap.wav
448,192,102987,128,0,103129:0:0:0:0:
64,192,103129,128,0,103272:0:0:0:0:
192,192,103129,1,0,0:0:0:0:
320,192,103129,1,0,0:0:0:50:soft-hitclap2.wav
192,192,103272,128,0,103558:0:0:0:0:
448,192,103272,1,0,0:0:0:50:soft-hitclap.wav
320,192,103415,1,0,0:0:0:0:
448,192,103558,1,0,0:0:0:50:soft-hitclap2.wav
320,192,103558,128,0,103987:0:0:0:0:
64,192,103558,1,0,0:0:0:0:
192,192,103701,1,0,0:0:0:0:
448,192,103844,1,0,0:0:0:50:soft-hitclap.wav
448,192,103915,1,0,0:0:0:50:soft-hitclap.wav
64,192,103987,1,0,0:0:0:50:soft-hitclap.wav
192,192,103987,128,0,104272:0:0:0:0:
448,192,104272,1,0,0:0:0:50:soft-hitclap2.wav
320,192,104272,128,0,104415:0:0:0:0:
64,192,104272,1,0,0:0:0:0:
64,192,104415,128,0,104844:0:0:0:0:
192,192,104415,1,0,0:0:0:50:soft-hitclap.wav
448,192,104701,1,0,0:0:0:50:soft-hitclap2.wav
320,192,104701,1,0,0:0:0:0:
192,192,104844,128,0,105129:0:0:0:0:
448,192,104987,1,0,0:0:0:50:soft-hitclap2.wav
64,192,104987,1,0,0:0:0:0:
320,192,105129,1,0,0:0:0:50:soft-hitclap.wav
448,192,105129,128,0,105987:0:0:0:0:
64,192,105129,1,0,0:0:0:0:
320,192,105272,1,0,0:0:0:50:soft-hitclap.wav
64,192,105415,1,0,0:0:0:0:
320,192,105415,1,0,0:0:0:50:soft-hitclap2.wav
64,192,105558,1,0,0:0:0:50:soft-hitclap.wav
320,192,105701,1,0,0:0:0:50:soft-hitclap.wav
320,192,105772,1,0,0:0:0:50:soft-hitclap.wav
64,192,105844,1,0,0:0:0:50:soft-hitclap2.wav
192,192,105844,1,0,0:0:0:0:
64,192,105987,1,0,0:0:0:0:
192,192,105987,128,0,106272:0:0:0:0:
320,192,105987,1,0,0:0:0:50:soft-hitclap2.wav
448,192,106129,1,0,0:0:0:50:soft-hitclap2.wav
64,192,106129,1,0,0:0:0:0:
320,192,106272,128,0,107129:0:0:0:0:
448,192,106272,1,0,0:0:0:50:soft-hitfinish.wav
64,192,106272,1,0,0:0:0:50:soft-hitclap.wav
192,192,106415,1,0,0:0:0:50:soft-hitclap.wav
192,192,106558,1,0,0:0:0:0:
448,192,106558,1,0,0:0:0:50:soft-hitclap2.wav
64,192,106701,1,0,0:0:0:50:soft-hitclap.wav
64,192,106987,1,0,0:0:0:0:
192,192,106987,1,0,0:0:0:50:soft-hitclap2.wav
448,192,107129,1,0,0:0:0:0:
64,192,107129,128,0,107272:0:0:0:0:
320,192,107201,1,0,0:0:0:0:
192,192,107272,128,0,107987:0:0:0:0:
448,192,107272,1,0,0:0:0:50:soft-hitclap2.wav
448,192,107415,1,0,0:0:0:0:
320,192,107415,1,0,0:0:0:50:soft-hitclap2.wav
64,192,107629,1,0,0:0:0:0:
320,192,107629,1,0,0:0:0:50:soft-hitclap2.wav
448,192,107844,1,0,0:0:0:50:soft-hitclap2.wav
320,192,107844,1,0,0:0:0:0:
448,192,107987,1,0,0:0:0:50:soft-hitclap2.wav
320,192,107987,128,0,108272:0:0:0:0:
64,192,107987,1,0,0:0:0:0:
192,192,108058,1,0,0:0:0:0:
64,192,108129,1,0,0:0:0:0:
448,192,108129,1,0,0:0:0:50:soft-hitclap2.wav
192,192,108201,1,0,0:0:0:50:soft-hitclap2.wav
64,192,108272,128,0,108558:0:0:0:50:soft-hitclap2.wav
448,192,108272,1,0,0:0:0:50:soft-hitclap.wav
448,192,108415,1,0,0:0:0:50:soft-hitclap2.wav
192,192,108415,1,0,0:0:0:50:soft-hitclap.wav
448,192,108558,128,0,109701:0:0:0:0:
192,192,108558,1,0,0:0:0:50:soft-hitclap.wav
320,192,108558,1,0,0:0:0:0:
64,192,108629,1,0,0:0:0:0:
320,192,108701,1,0,0:0:0:0:
64,192,108772,1,0,0:0:0:0:
320,192,108844,1,0,0:0:0:50:soft-hitclap2.wav
192,192,108844,1,0,0:0:0:0:
64,192,108915,1,0,0:0:0:0:
192,192,108987,1,0,0:0:0:0:
320,192,109058,1,0,0:0:0:0:
192,192,109129,1,0,0:0:0:50:soft-hitclap.wav
64,192,109201,1,0,0:0:0:0:
320,192,109272,1,0,0:0:0:50:soft-hitclap2.wav
192,192,109272,1,0,0:0:0:0:
64,192,109344,1,0,0:0:0:0:
320,192,109415,1,0,0:0:0:0:
192,192,109487,1,0,0:0:0:0:
64,192,109558,1,0,0:0:0:50:soft-hitclap2.wav
320,192,109558,1,0,0:0:0:0:
192,192,109701,1,0,0:0:0:50:soft-hitclap.wav
64,192,109701,128,0,110844:0:0:0:0:
320,192,109772,1,0,0:0:0:50:soft-hitclap.wav
448,192,109844,1,0,0:0:0:50:soft-hitclap.wav
192,192,109915,1,0,0:0:0:50:soft-hitclap.wav
448,192,109987,1,0,0:0:0:50:soft-hitclap.wav
320,192,109987,1,0,0:0:0:50:soft-hitclap2.wav
192,192,110058,1,0,0:0:0:50:soft-hitclap.wav
320,192,110129,1,0,0:0:0:50:soft-hitclap.wav
448,192,110201,1,0,0:0:0:50:soft-hitclap.wav
192,192,110272,1,0,0:0:0:50:soft-hitclap.wav
320,192,110272,1,0,0:0:0:50:soft-hitclap2.wav
192,192,110415,1,0,0:0:0:50:soft-hitclap.wav
448,192,110415,1,0,0:0:0:50:soft-hitclap2.wav
320,192,110487,1,0,0:0:0:50:soft-hitclap.wav
192,192,110558,1,0,0:0:0:50:soft-hitclap.wav
448,192,110629,1,0,0:0:0:50:soft-hitclap.wav
320,192,110701,1,0,0:0:0:50:soft-hitclap.wav
448,192,110772,1,0,0:0:0:50:soft-hitclap.wav
192,192,110844,1,0,0:0:0:50:soft-hitclap.wav
448,192,110915,1,0,0:0:0:50:soft-hitclap.wav
192,192,110987,1,0,0:0:0:50:soft-hitclap.wav
192,192,111058,1,0,0:0:0:50:soft-hitclap.wav
448,192,111129,128,0,115201:0:0:0:50:LR_Long Bass.wav
64,192,111129,128,0,115201:0:0:0:0:
320,192,111129,1,0,0:0:0:50:soft-hitfinish.wav
192,192,115129,128,0,115201:0:0:0:50:soft-hitclap.wav
320,192,115129,128,0,115201:0:0:0:50:LR_Long Bass.wav
