osu file format v14

[General]
AudioFilename: audio.mp3
AudioLeadIn: 0
PreviewTime: 63586
Countdown: 1
SampleSet: None
StackLeniency: 0.7
Mode: 0
LetterboxInBreaks: 0
WidescreenStoryboard: 1

[Editor]
Bookmarks: 82786
DistanceSpacing: 0.2
BeatDivisor: 8
GridSize: 4
TimelineZoom: 2.5

[Metadata]
Title:Death
TitleUnicode:Death
Artist:LunaticSounds
ArtistUnicode:LunaticSounds
Creator:fufu-
Version:death (no 1/8)
Source:
Tags:
BeatmapID:1403143
BeatmapSetID:662916

[Difficulty]
HPDrainRate:7
CircleSize:5
OverallDifficulty:9.3
ApproachRate:9.7
SliderMultiplier:1.1
SliderTickRate:1

[Events]
//Background and Video events
0,0,"dark-moon-phase-wallpaper-4.jpg",0,0
//Break Periods
//Storyboard Layer 0 (Background)
//Storyboard Layer 1 (Fail)
//Storyboard Layer 2 (Pass)
//Storyboard Layer 3 (Foreground)
//Storyboard Sound Samples

[TimingPoints]
1186,300,4,2,0,50,1,0
1186,-200,4,2,0,50,0,0
17911,-200,4,3,0,5,0,0
17986,-200,4,2,0,50,0,0
20311,-200,4,3,0,5,0,0
20386,-100,4,2,0,50,0,0
43561,-100,4,3,0,5,0,0
43636,-100,4,2,0,50,0,0
44011,-100,4,3,0,5,0,0
44086,-66.6666666666667,4,2,0,50,0,0
44311,-66.6666666666667,4,3,0,5,0,0
44386,-200,4,2,0,50,0,0
45098,-200,4,3,0,5,0,0
45136,-200,4,2,0,50,0,0
45848,-200,4,3,0,5,0,0
45886,-200,4,2,0,50,0,0
47911,-200,4,3,0,5,0,0
47986,-200,4,2,0,50,0,0
52711,-200,4,3,0,5,0,0
52786,-200,4,2,0,50,0,0
57511,-200,4,3,0,5,0,0
57586,-200,4,2,0,50,0,0
57998,-200,4,3,0,5,0,0
58036,-200,4,2,0,50,0,0
59198,-200,4,3,0,5,0,0
59236,-200,4,2,0,50,0,0
59498,-200,4,3,0,5,0,0
59536,-200,4,2,0,50,0,0
59986,-200,4,2,0,50,0,0
60286,-100,4,2,0,50,0,0
60586,-66.6666666666667,4,2,0,50,0,0
60886,-50,4,2,0,50,0,0
61186,-200,4,2,0,50,0,0
61598,-200,4,3,0,5,0,0
61636,-200,4,2,0,50,0,0
62348,-200,4,3,0,5,0,0
62386,-100,4,2,0,50,0,0
62386,-200,4,2,0,50,0,0
62686,-100,4,2,0,50,0,0
63286,-66.6666666666667,4,2,0,50,0,0
63586,-50,4,2,0,50,0,1
82484,-200,4,2,0,50,0,0
82748,-200,4,3,0,5,0,0
82786,-50,4,2,0,75,0,1
82786,-50,4,2,0,75,0,1
100786,-133.333333333333,4,3,0,75,0,0
100861,-133.333333333333,4,3,0,65,0,0
100936,-133.333333333333,4,3,0,55,0,0
101011,-133.333333333333,4,3,0,45,0,0
101086,-133.333333333333,4,3,0,35,0,0
101161,-133.333333333333,4,3,0,25,0,0
101236,-133.333333333333,4,3,0,15,0,0
101311,-133.333333333333,4,3,0,5,0,0
101386,-133.333333333333,4,2,0,75,0,0
107986,-133.333333333333,4,3,0,5,0,0

[Colours]
Combo1 : 119,32,32
Combo2 : 192,192,192
Combo3 : 128,128,128
Combo4 : 168,0,0

[HitObjects]
198,117,1186,5,2,0:0:0:0:
291,102,1486,1,0,0:0:0:0:
191,129,1786,1,0,0:0:0:0:
331,182,2086,2,0,P|335:199|336:218,2,27.5,2|0|0,0:0|0:0|0:0,0:0:0:0:
186,231,2686,5,0,0:0:0:0:
255,187,2986,1,0,0:0:0:0:
295,305,3286,1,0,0:0:0:0:
431,156,3586,38,0,L|487:144,1,55,2|0,0:0|0:0,0:0:0:0:
371,192,4186,1,0,0:0:0:0:
435,61,4486,2,0,L|407:68,2,27.5,2|2|2,0:0|0:0|0:0,0:0:0:0:
428,288,5086,5,0,0:0:0:0:
413,310,5236,2,0,P|394:318|357:378,1,82.5,2|0,0:0|0:0,0:0:0:0:
182,280,5986,38,0,P|206:274|236:258,1,55,2|0,0:0|0:0,0:0:0:0:
305,189,6586,1,0,0:0:0:0:
173,151,6886,1,0,0:0:0:0:
317,96,7186,5,0,0:0:0:0:
238,200,7486,1,0,0:0:0:0:
184,45,7786,1,0,0:0:0:0:
139,240,8386,37,0,0:0:0:0:
46,166,8686,1,0,0:0:0:0:
8,301,8986,1,0,0:0:0:0:
148,262,9286,1,0,0:0:0:0:
255,330,9586,2,0,P|277:340|312:348,1,55
432,184,10186,1,2,0:0:0:0:
448,172,10786,5,2,0:0:0:0:
336,240,11086,1,0,0:0:0:0:
420,294,11386,1,0,0:0:0:0:
306,154,11686,1,2,0:0:0:0:
263,337,11986,2,0,P|248:323|222:290,1,55
136,208,12586,2,0,P|142:183|156:153,1,55
135,42,13186,37,2,0:0:0:0:
241,2,13486,1,0,0:0:0:0:
326,91,13786,1,0,0:0:0:0:
437,57,14086,2,0,L|465:47,2,27.5,2|2|2,0:0|0:0|0:0,0:0:0:0:
326,183,14686,5,0,0:0:0:0:
298,180,14836,2,0,L|210:214,1,82.5,2|0,0:0|0:0,0:0:0:0:
45,350,15586,38,2,B|61:339|76:328|85:317|91:303|98:289|102:273|103:254|102:241|98:227|87:215|87:215|76:230|71:245|71:264|77:283|90:301|99:308|112:317|126:324|139:328|155:331|171:330|183:324|194:314|210:310|230:309|243:314|253:324|260:333,1,426.25,2|0,0:0|0:0,0:0:0:0:
438,272,17986,6,2,B|420:269|405:272|391:280|384:287|377:302|372:323|370:340|375:355|389:370|389:370|403:350|402:327|393:306|384:291|372:274|365:260|365:260|361:250|356:236|355:225|354:211|353:195|356:181|361:163|368:151|376:138|390:127|404:124|419:120|419:119,1,426.25,0|0,0:0|0:0,0:0:0:0:
482,146,20386,37,0,0:0:0:0:
429,198,20536,1,0,0:0:0:0:
474,344,20686,1,0,0:0:0:0:
308,295,20836,5,0,0:0:0:0:
298,304,20911,1,0,0:0:0:0:
290,315,20986,1,8,0:0:0:0:
203,228,21136,37,0,0:0:0:0:
205,214,21211,1,0,0:0:0:0:
208,200,21286,1,0,0:0:0:0:
213,187,21361,1,0,0:0:0:0:
220,175,21436,1,8,0:0:0:0:
172,65,21586,5,0,0:0:0:0:
183,58,21661,1,0,0:0:0:0:
196,54,21736,1,8,0:0:0:0:
295,113,21886,37,0,0:0:0:0:
306,119,21961,1,0,0:0:0:0:
319,121,22036,1,8,0:0:0:0:
441,52,22186,5,0,0:0:0:0:
444,65,22261,1,0,0:0:0:0:
445,78,22336,1,0,0:0:0:0:
443,91,22411,1,0,0:0:0:0:
414,133,22486,37,8,0:0:0:0:
410,146,22561,1,0,0:0:0:0:
408,159,22636,1,8,0:0:0:0:
408,172,22711,1,0,0:0:0:0:
431,218,22786,5,0,0:0:0:0:
482,268,22936,1,0,0:0:0:0:
322,192,23086,1,8,0:0:0:0:
263,360,23236,1,0,0:0:0:0:
172,124,23386,38,0,L|168:106,7,13.75
121,190,23686,2,0,L|134:176,1,13.75
107,184,23761,2,0,L|114:165,1,13.75
93,182,23836,2,0,L|91:159,1,13.75
79,182,23911,2,0,L|68:163,1,13.75
62,184,23986,6,0,L|51:201,1,13.75,2|0,0:0|0:0,0:0:0:0:
99,319,24136,2,0,L|97:300,1,13.75,2|0,0:0|0:0,0:0:0:0:
26,127,24286,2,0,L|38:115,1,13.75,0|2,0:0|0:0,0:0:0:0:
53,369,24436,2,0,L|44:357,1,13.75,0|2,0:0|0:0,0:0:0:0:
155,112,24586,37,0,0:0:0:0:
47,262,24736,1,0,0:0:0:0:
186,325,24886,1,0,0:0:0:0:
92,80,25036,1,0,0:0:0:0:
104,329,25186,5,0,0:0:0:0:
141,260,25336,1,0,0:0:0:0:
258,302,25486,1,0,0:0:0:0:
295,233,25636,1,0,0:0:0:0:
97,352,25786,37,8,0:0:0:0:
52,230,25936,1,0,0:0:0:0:
250,328,26086,2,0,P|279:335|309:333,1,55
499,270,26386,5,0,0:0:0:0:
383,362,26536,1,0,0:0:0:0:
271,194,26686,1,8,0:0:0:0:
386,263,26836,1,0,0:0:0:0:
134,214,26986,1,8,0:0:0:0:
136,200,27061,1,0,0:0:0:0:
138,186,27136,1,0,0:0:0:0:
140,172,27211,1,0,0:0:0:0:
177,133,27286,37,8,0:0:0:0:
174,119,27361,1,0,0:0:0:0:
172,105,27436,1,0,0:0:0:0:
170,91,27511,1,0,0:0:0:0:
135,52,27586,5,0,0:0:0:0:
256,96,27736,1,0,0:0:0:0:
60,162,27886,1,8,0:0:0:0:
60,162,28036,1,8,0:0:0:0:
174,318,28186,38,0,P|180:288|182:264,1,55,2|0,0:0|0:0,0:0:0:0:
31,33,28486,2,0,P|22:61|17:93,1,55,2|0,0:0|0:0,0:0:0:0:
260,201,28786,1,0,0:0:0:0:
365,102,28936,1,0,0:0:0:0:
210,17,29086,5,8,0:0:0:0:
291,183,29236,1,0,0:0:0:0:
371,19,29386,2,0,P|390:16|427:15,1,55,0|2,0:0|0:0,0:0:0:0:
344,276,29686,2,0,P|319:287|286:294,1,55,2|0,0:0|0:0,0:0:0:0:
464,163,29986,37,0,0:0:0:0:
222,273,30136,1,0,0:0:0:0:
464,303,30286,5,8,0:0:0:0:
251,205,30436,1,0,0:0:0:0:
376,362,30586,37,8,0:0:0:0:
418,228,30736,1,0,0:0:0:0:
297,264,30886,1,8,0:0:0:0:
228,132,31036,1,8,0:0:0:0:
126,293,31186,5,0,0:0:0:0:
136,302,31261,1,0,0:0:0:0:
147,309,31336,1,8,0:0:0:0:
289,184,31486,37,8,0:0:0:0:
300,176,31561,1,0,0:0:0:0:
313,172,31636,1,8,0:0:0:0:
440,309,31786,5,0,0:0:0:0:
443,322,31861,1,0,0:0:0:0:
443,335,31936,1,8,0:0:0:0:
202,229,32086,37,0,0:0:0:0:
191,219,32161,1,0,0:0:0:0:
183,207,32236,1,8,0:0:0:0:
352,79,32386,5,0,0:0:0:0:
416,231,32536,1,0,0:0:0:0:
250,119,32686,1,0,0:0:0:0:
317,7,32836,1,0,0:0:0:0:
325,238,32986,38,0,P|306:250|264:264,1,55,8|0,0:0|0:0,0:0:0:0:
126,89,33286,2,0,P|90:78|62:74,1,55,0|8,0:0|0:0,0:0:0:0:
193,302,33586,6,0,P|198:273|197:245,1,55,0|8,0:0|0:0,0:0:0:0:
18,139,33886,1,8,0:0:0:0:
121,332,34036,1,0,0:0:0:0:
224,179,34186,38,0,P|234:149|245:126,1,55,8|8,0:0|0:0,0:0:0:0:
400,202,34486,1,8,0:0:0:0:
301,370,34636,1,8,0:0:0:0:
390,126,34786,5,0,0:0:0:0:
417,280,34936,1,0,0:0:0:0:
460,157,35086,1,0,0:0:0:0:
383,347,35236,1,0,0:0:0:0:
263,198,35386,38,0,P|238:177|212:161,1,55,8|0,0:0|0:0,0:0:0:0:
141,357,35686,2,0,P|165:355|197:348,1,55,8|0,0:0|0:0,0:0:0:0:
322,263,35986,1,0,0:0:0:0:
115,195,36136,1,0,0:0:0:0:
308,287,36286,5,0,0:0:0:0:
117,229,36436,1,0,0:0:0:0:
353,185,36586,2,0,L|407:172,1,55,2|0,0:0|0:0,0:0:0:0:
228,353,36886,2,0,L|200:305,1,55,2|0,0:0|0:0,0:0:0:0:
214,217,37186,37,0,0:0:0:0:
111,321,37336,1,0,0:0:0:0:
121,250,37486,1,0,0:0:0:0:
84,188,37636,1,0,0:0:0:0:
17,162,37786,5,8,0:0:0:0:
1,363,37936,1,0,0:0:0:0:
95,168,38086,37,8,0:0:0:0:
8,347,38236,1,0,0:0:0:0:
163,128,38386,5,0,0:0:0:0:
198,65,38536,1,0,0:0:0:0:
263,253,38686,1,8,0:0:0:0:
323,43,38836,1,8,0:0:0:0:
406,284,38986,38,0,P|437:266|462:247,1,55,8|0,0:0|0:0,0:0:0:0:
257,121,39286,2,0,P|255:148|255:185,1,55,8|0,0:0|0:0,0:0:0:0:
306,365,39586,6,0,L|287:369,1,13.75
309,351,39661,2,0,L|292:356,1,13.75
309,337,39736,2,0,L|291:343,1,13.75
307,323,39811,2,0,L|295:330,1,13.75
302,309,39886,37,0,0:0:0:0:
290,284,39961,1,0,0:0:0:0:
284,257,40036,1,0,0:0:0:0:
290,230,40111,1,0,0:0:0:0:
305,207,40186,1,0,0:0:0:0:
329,194,40261,1,0,0:0:0:0:
356,190,40336,1,0,0:0:0:0:
382,197,40411,1,0,0:0:0:0:
402,214,40486,6,0,L|411:229,1,13.75
451,320,40636,2,0,L|455:304,1,13.75
497,163,40786,1,2,0:0:0:0:
497,163,41686,38,0,L|479:167,1,13.75
249,118,41836,2,0,L|267:114,1,13.75
433,81,41986,6,0,L|436:105,1,13.75
419,85,42061,2,0,L|418:107,1,13.75
405,86,42136,2,0,L|399:110,1,13.75
391,84,42211,2,0,L|383:106,1,13.75
376,78,42286,37,0,0:0:0:0:
318,35,42436,1,0,0:0:0:0:
249,14,42586,6,0,L|227:15,1,13.75
139,41,42736,2,0,L|161:40,1,13.75
278,89,42886,2,0,L|256:90,1,13.75
155,138,43036,2,0,L|177:137,1,13.75
229,165,43111,37,0,0:0:0:0:
293,200,43186,6,0,P|332:226|335:317,1,137.5,2|0,0:0|0:0,0:0:0:0:
214,371,43636,38,0,P|212:324|285:269,1,137.5,2|0,0:0|0:0,0:0:0:0:
401,355,44086,6,0,P|430:343|472:252,1,123.750004720688,2|0,0:0|0:0,0:0:0:0:
431,116,44386,37,2,0:0:0:0:
411,231,44536,1,0,0:0:0:0:
291,109,44686,1,0,0:0:0:0:
430,29,44836,2,0,P|409:19|382:11,1,48.125,2|0,0:0|0:0,0:0:0:0:
318,34,45136,5,2,0:0:0:0:
351,157,45286,1,2,0:0:0:0:
392,91,45436,1,2,0:0:0:0:
350,254,45586,2,0,P|336:265|315:287,1,48.125,2|0,0:0|0:0,0:0:0:0:
245,253,45886,37,0,0:0:0:0:
299,367,46036,1,0,0:0:0:0:
151,348,46186,5,0,0:0:0:0:
177,360,46336,1,0,0:0:0:0:
138,137,46486,1,0,0:0:0:0:
115,118,46636,1,0,0:0:0:0:
245,253,46786,38,0,P|275:269|307:307,1,82.5,2|2,0:0|0:0,0:0:0:0:
335,371,47311,1,2,0:0:0:0:
386,320,47386,2,0,P|414:302|477:293,1,96.25,2|0,0:0|0:0,0:0:0:0:
455,375,47986,5,2,0:0:0:0:
355,211,48211,1,2,0:0:0:0:
495,97,48436,1,2,0:0:0:0:
346,236,48586,37,2,0:0:0:0:
419,2,48811,1,2,0:0:0:0:
496,306,49036,1,2,0:0:0:0:
328,125,49186,5,0,0:0:0:0:
394,157,49336,1,0,0:0:0:0:
353,332,49486,1,0,0:0:0:0:
304,118,49636,37,0,0:0:0:0:
375,91,49786,1,0,0:0:0:0:
331,346,49936,1,2,0:0:0:0:
262,370,50086,1,2,0:0:0:0:
187,315,50236,1,2,0:0:0:0:
96,338,50386,5,2,0:0:0:0:
210,305,50536,1,0,0:0:0:0:
249,197,50686,37,2,0:0:0:0:
89,137,50836,1,0,0:0:0:0:
133,256,50986,5,2,0:0:0:0:
324,167,51136,1,0,0:0:0:0:
291,34,51286,37,2,0:0:0:0:
95,5,51436,1,0,0:0:0:0:
246,242,51586,6,0,P|276:268|318:279,1,82.5,2|2,0:0|0:0,0:0:0:0:
379,251,52111,1,2,0:0:0:0:
440,218,52186,2,0,P|457:177|453:123,1,96.25,2|0,0:0|0:0,0:0:0:0:
409,72,52786,37,2,0:0:0:0:
342,41,52936,1,0,0:0:0:0:
271,146,53086,5,2,0:0:0:0:
365,126,53236,1,0,0:0:0:0:
452,231,53386,37,2,0:0:0:0:
341,197,53536,1,0,0:0:0:0:
273,332,53686,5,2,0:0:0:0:
383,264,53836,1,0,0:0:0:0:
180,172,53986,37,2,0:0:0:0:
264,206,54136,1,0,0:0:0:0:
152,159,54286,1,0,0:0:0:0:
265,102,54436,2,0,P|288:89|309:67,1,55,2|0,0:0|0:0,0:0:0:0:
309,2,55186,5,0,0:0:0:0:
236,14,55336,1,0,0:0:0:0:
385,197,55486,1,0,0:0:0:0:
194,165,55636,2,0,L|197:182,1,13.75
215,295,55786,37,2,0:0:0:0:
416,193,56011,1,2,0:0:0:0:
94,68,56236,1,2,0:0:0:0:
50,367,56386,5,2,0:0:0:0:
128,318,56536,1,0,0:0:0:0:
281,367,56686,1,0,0:0:0:0:
401,275,56836,2,0,L|401:259,1,13.75,2|2,0:0|0:0,0:0:0:0:
404,121,56986,38,0,P|413:109|395:123,1,96.25,2|0,0:0|0:0,0:0:0:0:
399,189,57586,5,2,0:0:0:0:
372,21,57736,2,0,P|356:15|325:8,1,48.125,2|0,0:0|0:0,0:0:0:0:
261,25,58036,37,2,0:0:0:0:
372,209,58186,1,0,0:0:0:0:
199,62,58336,5,2,0:0:0:0:
263,293,58486,1,0,0:0:0:0:
129,78,58636,37,2,0:0:0:0:
104,324,58786,5,0,0:0:0:0:
64,207,58936,2,0,P|77:202|115:198,1,48.125,2|0,0:0|0:0,0:0:0:0:
277,361,59236,2,0,P|291:356|317:335,1,48.125,2|0,0:0|0:0,0:0:0:0:
372,130,59536,37,2,0:0:0:0:
343,272,59686,1,0,0:0:0:0:
278,158,59836,1,0,0:0:0:0:
249,354,59986,6,0,P|262:343|269:330,1,27.5,2|0,0:0|0:0,0:0:0:0:
108,141,60286,38,0,P|97:170|95:203,1,55,2|0,0:0|0:0,0:0:0:0:
362,113,60586,6,0,P|357:76|340:27,1,82.5000031471254,2|0,0:0|0:0,0:0:0:0:
26,171,60886,38,0,P|26:219|49:283,1,110,2|0,0:0|0:0,0:0:0:0:
408,342,61186,6,0,P|417:326|429:268,1,75.625,2|0,0:0|0:0,0:0:0:0:
398,213,61636,1,0,0:0:0:0:
422,149,61711,38,0,P|455:119|441:159,1,116.875
327,232,62386,6,0,L|333:251,1,13.75
314,237,62461,2,0,L|317:256,1,13.75
301,242,62536,2,0,L|302:267,1,13.75
288,245,62611,2,0,L|286:268,1,13.75
272,246,62686,37,0,0:0:0:0:
244,244,62761,1,0,0:0:0:0:
217,238,62836,1,0,0:0:0:0:
192,226,62911,1,0,0:0:0:0:
170,211,62986,1,0,0:0:0:0:
151,191,63061,1,0,0:0:0:0:
135,168,63136,1,0,0:0:0:0:
125,143,63211,1,0,0:0:0:0:
122,114,63286,6,0,L|125:93,1,20.6250007867813,2|0,0:0|0:0,0:0:0:0:
252,31,63436,2,0,L|249:52,1,20.6250007867813,0|2,0:0|0:0,0:0:0:0:
331,159,63586,5,8,0:0:0:0:
356,187,63661,1,0,0:0:0:0:
390,204,63736,1,0,0:0:0:0:
428,205,63811,1,0,0:0:0:0:
463,189,63886,1,8,0:0:0:0:
489,161,63961,1,0,0:0:0:0:
499,123,64036,1,0,0:0:0:0:
491,85,64111,1,0,0:0:0:0:
471,51,64186,5,8,0:0:0:0:
448,81,64261,1,0,0:0:0:0:
434,116,64336,1,0,0:0:0:0:
437,154,64411,1,0,0:0:0:0:
447,190,64486,1,0,0:0:0:0:
463,224,64561,1,0,0:0:0:0:
471,261,64636,1,0,0:0:0:0:
465,299,64711,1,0,0:0:0:0:
443,331,64786,37,8,0:0:0:0:
410,310,64861,1,0,0:0:0:0:
374,295,64936,1,0,0:0:0:0:
336,284,65011,1,0,0:0:0:0:
297,280,65086,1,8,0:0:0:0:
259,286,65161,1,0,0:0:0:0:
223,300,65236,1,0,0:0:0:0:
190,320,65311,1,0,0:0:0:0:
161,346,65386,5,8,0:0:0:0:
177,311,65461,1,0,0:0:0:0:
183,273,65536,1,0,0:0:0:0:
181,234,65611,1,0,0:0:0:0:
172,196,65686,1,0,0:0:0:0:
153,162,65761,1,0,0:0:0:0:
120,140,65836,1,0,0:0:0:0:
92,113,65911,1,0,0:0:0:0:
76,77,65986,37,8,0:0:0:0:
105,101,66061,1,0,0:0:0:0:
108,139,66136,1,0,0:0:0:0:
94,174,66211,1,0,0:0:0:0:
69,203,66286,1,0,0:0:0:0:
37,224,66361,1,0,0:0:0:0:
17,257,66436,1,0,0:0:0:0:
9,294,66511,1,0,0:0:0:0:
15,332,66586,5,8,0:0:0:0:
49,315,66661,1,0,0:0:0:0:
75,287,66736,1,0,0:0:0:0:
83,249,66811,1,0,0:0:0:0:
82,210,66886,1,0,0:0:0:0:
68,173,66961,1,0,0:0:0:0:
53,137,67036,1,0,0:0:0:0:
53,98,67111,1,0,0:0:0:0:
68,62,67186,37,2,0:0:0:0:
128,100,67261,1,0,0:0:0:0:
172,156,67336,1,0,0:0:0:0:
192,224,67411,1,2,0:0:0:0:
187,295,67486,1,0,0:0:0:0:
165,226,67561,1,0,0:0:0:0:
190,159,67636,1,2,0:0:0:0:
247,116,67711,1,0,0:0:0:0:
317,106,67786,5,2,0:0:0:0:
253,138,67861,1,0,0:0:0:0:
181,133,67936,1,0,0:0:0:0:
120,95,68011,1,2,0:0:0:0:
89,30,68086,1,0,0:0:0:0:
52,91,68161,1,0,0:0:0:0:
39,161,68236,1,2,0:0:0:0:
47,232,68311,1,0,0:0:0:0:
75,297,68386,37,8,0:0:0:0:
110,281,68461,1,0,0:0:0:0:
148,275,68536,1,0,0:0:0:0:
186,280,68611,1,0,0:0:0:0:
219,298,68686,1,8,0:0:0:0:
246,325,68761,1,0,0:0:0:0:
278,346,68836,1,0,0:0:0:0:
315,356,68911,1,0,0:0:0:0:
353,349,68986,5,8,0:0:0:0:
322,326,69061,1,0,0:0:0:0:
307,290,69136,1,0,0:0:0:0:
308,251,69211,1,0,0:0:0:0:
324,216,69286,1,0,0:0:0:0:
350,187,69361,1,0,0:0:0:0:
367,152,69436,1,0,0:0:0:0:
373,113,69511,1,0,0:0:0:0:
361,76,69586,37,8,0:0:0:0:
345,111,69661,1,0,0:0:0:0:
345,149,69736,1,0,0:0:0:0:
358,185,69811,1,0,0:0:0:0:
379,216,69886,1,8,0:0:0:0:
409,239,69961,1,0,0:0:0:0:
446,248,70036,1,0,0:0:0:0:
484,244,70111,1,0,0:0:0:0:
509,215,70186,5,8,0:0:0:0:
502,252,70261,1,0,0:0:0:0:
479,283,70336,1,0,0:0:0:0:
448,306,70411,1,0,0:0:0:0:
411,317,70486,1,0,0:0:0:0:
373,307,70561,1,0,0:0:0:0:
338,289,70636,1,8,0:0:0:0:
301,277,70711,1,0,0:0:0:0:
262,278,70786,37,8,0:0:0:0:
294,297,70861,1,0,0:0:0:0:
332,298,70936,1,0,0:0:0:0:
366,280,71011,1,0,0:0:0:0:
387,248,71086,1,0,0:0:0:0:
389,210,71161,1,0,0:0:0:0:
373,176,71236,1,0,0:0:0:0:
342,154,71311,1,0,0:0:0:0:
304,150,71386,5,8,0:0:0:0:
323,117,71461,1,0,0:0:0:0:
324,79,71536,1,0,0:0:0:0:
307,45,71611,1,0,0:0:0:0:
275,24,71686,1,0,0:0:0:0:
237,22,71761,1,0,0:0:0:0:
202,38,71836,1,0,0:0:0:0:
180,69,71911,1,0,0:0:0:0:
177,107,71986,37,8,0:0:0:0:
143,87,72061,1,0,0:0:0:0:
105,80,72136,1,0,0:0:0:0:
68,91,72211,1,0,0:0:0:0:
40,118,72286,1,8,0:0:0:0:
30,155,72361,1,0,0:0:0:0:
45,190,72436,1,0,0:0:0:0:
56,226,72511,1,0,0:0:0:0:
48,263,72586,5,8,0:0:0:0:
90,237,72661,1,0,0:0:0:0:
138,229,72736,1,0,0:0:0:0:
186,236,72811,1,0,0:0:0:0:
230,257,72886,37,8,0:0:0:0:
276,273,72961,1,0,0:0:0:0:
325,268,73036,1,0,0:0:0:0:
365,239,73111,1,0,0:0:0:0:
389,195,73186,5,8,0:0:0:0:
360,221,73261,1,0,0:0:0:0:
339,253,73336,1,0,0:0:0:0:
337,291,73411,1,0,0:0:0:0:
352,326,73486,1,0,0:0:0:0:
381,350,73561,1,0,0:0:0:0:
418,359,73636,1,0,0:0:0:0:
455,351,73711,1,0,0:0:0:0:
488,331,73786,37,8,0:0:0:0:
452,315,73861,1,0,0:0:0:0:
414,307,73936,1,0,0:0:0:0:
375,304,74011,1,0,0:0:0:0:
336,305,74086,1,0,0:0:0:0:
298,312,74161,1,0,0:0:0:0:
261,324,74236,1,0,0:0:0:0:
225,340,74311,1,0,0:0:0:0:
193,361,74386,5,8,0:0:0:0:
204,324,74461,1,0,0:0:0:0:
205,285,74536,1,0,0:0:0:0:
198,247,74611,1,0,0:0:0:0:
185,210,74686,1,8,0:0:0:0:
161,179,74761,1,0,0:0:0:0:
132,153,74836,1,0,0:0:0:0:
99,133,74911,1,0,0:0:0:0:
62,121,74986,37,2,0:0:0:0:
103,179,75061,1,0,0:0:0:0:
124,247,75136,1,0,0:0:0:0:
120,318,75211,1,2,0:0:0:0:
83,379,75286,5,0,0:0:0:0:
143,340,75361,1,0,0:0:0:0:
212,321,75436,1,2,0:0:0:0:
283,321,75511,1,0,0:0:0:0:
351,341,75586,37,8,0:0:0:0:
378,314,75661,1,0,0:0:0:0:
394,279,75736,1,0,0:0:0:0:
398,240,75811,1,0,0:0:0:0:
386,203,75886,1,0,0:0:0:0:
363,171,75961,1,0,0:0:0:0:
349,134,76036,1,0,0:0:0:0:
345,95,76111,1,0,0:0:0:0:
354,57,76186,5,8,0:0:0:0:
381,83,76261,1,0,0:0:0:0:
395,118,76336,1,0,0:0:0:0:
394,156,76411,1,0,0:0:0:0:
380,192,76486,1,0,0:0:0:0:
355,221,76561,1,0,0:0:0:0:
319,235,76636,1,0,0:0:0:0:
280,238,76711,1,0,0:0:0:0:
244,223,76786,37,8,0:0:0:0:
281,214,76861,1,0,0:0:0:0:
318,220,76936,1,0,0:0:0:0:
349,242,77011,1,0,0:0:0:0:
370,273,77086,1,0,0:0:0:0:
393,303,77161,1,0,0:0:0:0:
420,329,77236,1,0,0:0:0:0:
454,345,77311,1,0,0:0:0:0:
492,343,77386,5,8,0:0:0:0:
460,320,77461,1,0,0:0:0:0:
422,311,77536,1,0,0:0:0:0:
383,312,77611,1,0,0:0:0:0:
346,324,77686,1,8,0:0:0:0:
310,338,77761,1,0,0:0:0:0:
272,346,77836,1,0,0:0:0:0:
233,343,77911,1,0,0:0:0:0:
196,330,77986,37,8,0:0:0:0:
232,316,78061,1,0,0:0:0:0:
258,288,78136,1,0,0:0:0:0:
274,253,78211,1,0,0:0:0:0:
278,214,78286,1,8,0:0:0:0:
270,176,78361,1,0,0:0:0:0:
249,143,78436,1,0,0:0:0:0:
220,116,78511,1,0,0:0:0:0:
184,101,78586,5,8,0:0:0:0:
196,137,78661,1,0,0:0:0:0:
223,164,78736,1,0,0:0:0:0:
257,180,78811,1,0,0:0:0:0:
294,187,78886,1,0,0:0:0:0:
332,181,78961,1,0,0:0:0:0:
365,161,79036,1,0,0:0:0:0:
393,135,79111,1,0,0:0:0:0:
410,100,79186,37,8,0:0:0:0:
373,111,79261,1,0,0:0:0:0:
350,141,79336,1,0,0:0:0:0:
335,176,79411,1,0,0:0:0:0:
329,214,79486,1,0,0:0:0:0:
332,252,79561,1,0,0:0:0:0:
341,289,79636,1,0,0:0:0:0:
356,324,79711,1,0,0:0:0:0:
379,354,79786,5,8,0:0:0:0:
342,365,79861,1,0,0:0:0:0:
303,367,79936,1,0,0:0:0:0:
265,359,80011,1,0,0:0:0:0:
231,339,80086,1,0,0:0:0:0:
194,325,80161,1,0,0:0:0:0:
155,320,80236,1,0,0:0:0:0:
116,324,80311,1,0,0:0:0:0:
83,344,80386,37,8,0:0:0:0:
65,309,80461,1,0,0:0:0:0:
60,270,80536,1,0,0:0:0:0:
66,232,80611,1,0,0:0:0:0:
80,196,80686,1,8,0:0:0:0:
104,166,80761,1,0,0:0:0:0:
137,147,80836,1,0,0:0:0:0:
174,139,80911,1,0,0:0:0:0:
211,145,80986,5,8,0:0:0:0:
178,165,81061,1,0,0:0:0:0:
139,162,81136,1,0,0:0:0:0:
103,148,81211,1,0,0:0:0:0:
75,121,81286,1,0,0:0:0:0:
59,85,81361,1,0,0:0:0:0:
62,46,81436,1,0,0:0:0:0:
86,16,81511,1,0,0:0:0:0:
123,5,81586,37,8,0:0:0:0:
131,42,81661,1,0,0:0:0:0:
156,70,81736,1,0,0:0:0:0:
191,83,81811,1,0,0:0:0:0:
229,85,81886,1,8,0:0:0:0:
266,77,81961,1,0,0:0:0:0:
301,62,82036,1,0,0:0:0:0:
338,52,82111,1,0,0:0:0:0:
376,49,82186,22,0,L|391:106,1,55,2|0,0:0|0:0,0:0:0:0:
385,279,82336,2,0,L|373:223,1,55,2|0,0:0|0:0,0:0:0:0:
399,25,82486,2,0,L|412:76,1,48.125,6|0,0:0|0:0,0:0:0:0:
435,155,82786,5,8,0:0:0:0:
356,353,82936,1,0,0:0:0:0:
417,139,83086,1,8,0:0:0:0:
488,323,83236,1,0,0:0:0:0:
488,323,83311,1,0,0:0:0:0:
488,323,83386,1,8,0:0:0:0:
311,209,83536,1,0,0:0:0:0:
275,193,83611,1,0,0:0:0:0:
237,186,83686,1,0,0:0:0:0:
198,187,83761,1,0,0:0:0:0:
162,200,83836,1,8,0:0:0:0:
68,366,83986,37,8,0:0:0:0:
12,173,84136,1,8,0:0:0:0:
91,350,84286,1,8,0:0:0:0:
160,107,84436,1,0,0:0:0:0:
160,107,84511,1,0,0:0:0:0:
160,107,84586,1,8,0:0:0:0:
116,335,84736,1,0,0:0:0:0:
148,355,84811,1,0,0:0:0:0:
185,365,84886,1,0,0:0:0:0:
223,364,84961,1,0,0:0:0:0:
259,353,85036,1,8,0:0:0:0:
376,232,85186,6,0,P|404:211|480:186,1,110,8|0,0:0|0:0,0:0:0:0:
199,280,85486,2,8,P|162:263|109:212,1,110,8|0,0:0|0:0,0:0:0:0:
341,41,85786,1,8,0:0:0:0:
199,310,85936,1,0,0:0:0:0:
160,306,86011,1,0,0:0:0:0:
123,294,86086,1,0,0:0:0:0:
90,272,86161,1,0,0:0:0:0:
67,240,86236,1,8,0:0:0:0:
141,70,86386,37,8,0:0:0:0:
199,310,86536,1,8,0:0:0:0:
266,133,86686,1,8,0:0:0:0:
346,360,86836,1,0,0:0:0:0:
346,360,86911,1,0,0:0:0:0:
346,360,86986,1,8,0:0:0:0:
264,94,87136,1,0,0:0:0:0:
282,60,87211,1,0,0:0:0:0:
314,39,87286,1,0,0:0:0:0:
352,32,87361,1,0,0:0:0:0:
389,41,87436,1,8,0:0:0:0:
310,253,87586,21,8,0:0:0:0:
268,279,87661,1,0,0:0:0:0:
221,296,87736,1,0,0:0:0:0:
171,292,87811,1,0,0:0:0:0:
126,270,87886,1,8,0:0:0:0:
97,229,87961,1,0,0:0:0:0:
90,179,88036,1,0,0:0:0:0:
73,132,88111,1,0,0:0:0:0:
40,94,88186,5,8,0:0:0:0:
27,141,88261,1,0,0:0:0:0:
39,188,88336,1,0,0:0:0:0:
77,218,88411,1,0,0:0:0:0:
126,222,88486,1,0,0:0:0:0:
171,202,88561,1,0,0:0:0:0:
216,182,88636,1,0,0:0:0:0:
264,171,88711,1,0,0:0:0:0:
313,176,88786,37,8,0:0:0:0:
269,152,88861,1,0,0:0:0:0:
220,143,88936,1,0,0:0:0:0:
172,157,89011,1,0,0:0:0:0:
138,193,89086,1,8,0:0:0:0:
122,240,89161,1,0,0:0:0:0:
123,289,89236,1,0,0:0:0:0:
137,336,89311,1,0,0:0:0:0:
164,377,89386,5,8,0:0:0:0:
179,330,89461,1,0,0:0:0:0:
182,280,89536,1,0,0:0:0:0:
176,230,89611,1,0,0:0:0:0:
163,182,89686,1,0,0:0:0:0:
138,139,89761,1,0,0:0:0:0:
111,97,89836,1,8,0:0:0:0:
91,51,89911,1,0,0:0:0:0:
84,1,89986,37,8,0:0:0:0:
123,31,90061,1,0,0:0:0:0:
166,54,90136,1,0,0:0:0:0:
212,70,90211,1,0,0:0:0:0:
261,75,90286,1,8,0:0:0:0:
310,70,90361,1,0,0:0:0:0:
357,55,90436,1,0,0:0:0:0:
401,33,90511,1,0,0:0:0:0:
437,0,90586,5,8,0:0:0:0:
460,43,90661,1,0,0:0:0:0:
471,91,90736,1,0,0:0:0:0:
470,140,90811,1,0,0:0:0:0:
458,188,90886,1,0,0:0:0:0:
436,232,90961,1,0,0:0:0:0:
425,280,91036,1,0,0:0:0:0:
429,329,91111,1,0,0:0:0:0:
448,374,91186,37,8,0:0:0:0:
477,334,91261,1,0,0:0:0:0:
481,284,91336,1,0,0:0:0:0:
466,236,91411,1,0,0:0:0:0:
435,196,91486,1,8,0:0:0:0:
389,175,91561,1,0,0:0:0:0:
339,175,91636,1,0,0:0:0:0:
295,198,91711,1,0,0:0:0:0:
264,236,91786,5,8,0:0:0:0:
244,191,91861,1,0,0:0:0:0:
202,162,91936,1,0,0:0:0:0:
153,151,92011,1,0,0:0:0:0:
103,158,92086,1,8,0:0:0:0:
62,188,92161,1,0,0:0:0:0:
37,231,92236,1,8,0:0:0:0:
35,280,92311,1,0,0:0:0:0:
52,326,92386,37,8,0:0:0:0:
89,294,92461,1,0,0:0:0:0:
114,251,92536,1,0,0:0:0:0:
128,203,92611,1,0,0:0:0:0:
131,153,92686,1,8,0:0:0:0:
125,103,92761,1,0,0:0:0:0:
105,57,92836,1,0,0:0:0:0:
69,22,92911,1,0,0:0:0:0:
22,4,92986,5,8,0:0:0:0:
47,46,93061,1,0,0:0:0:0:
88,73,93136,1,0,0:0:0:0:
135,87,93211,1,0,0:0:0:0:
184,88,93286,1,0,0:0:0:0:
232,76,93361,1,0,0:0:0:0:
277,57,93436,1,8,0:0:0:0:
325,45,93511,1,0,0:0:0:0:
374,50,93586,37,10,0:0:0:0:
343,88,93661,1,0,0:0:0:0:
328,135,93736,1,0,0:0:0:0:
331,184,93811,1,10,0:0:0:0:
347,230,93886,1,0,0:0:0:0:
374,270,93961,1,0,0:0:0:0:
390,316,94036,1,10,0:0:0:0:
383,365,94111,1,0,0:0:0:0:
336,382,94186,5,10,0:0:0:0:
350,334,94261,1,0,0:0:0:0:
385,299,94336,1,0,0:0:0:0:
433,287,94411,1,10,0:0:0:0:
468,251,94486,1,0,0:0:0:0:
475,202,94561,1,0,0:0:0:0:
462,154,94636,1,10,0:0:0:0:
430,115,94711,1,0,0:0:0:0:
383,99,94786,37,8,0:0:0:0:
357,141,94861,1,0,0:0:0:0:
313,164,94936,1,0,0:0:0:0:
263,168,95011,1,0,0:0:0:0:
218,145,95086,1,8,0:0:0:0:
169,133,95161,1,0,0:0:0:0:
119,138,95236,1,0,0:0:0:0:
78,166,95311,1,0,0:0:0:0:
54,209,95386,5,8,0:0:0:0:
103,213,95461,1,0,0:0:0:0:
148,231,95536,1,0,0:0:0:0:
183,266,95611,1,0,0:0:0:0:
203,311,95686,1,8,0:0:0:0:
241,342,95761,1,0,0:0:0:0:
288,356,95836,1,8,0:0:0:0:
337,351,95911,1,0,0:0:0:0:
382,331,95986,37,8,0:0:0:0:
346,296,96061,1,0,0:0:0:0:
299,278,96136,1,0,0:0:0:0:
249,279,96211,1,0,0:0:0:0:
201,293,96286,1,8,0:0:0:0:
157,316,96361,1,0,0:0:0:0:
109,328,96436,1,0,0:0:0:0:
61,313,96511,1,0,0:0:0:0:
28,275,96586,5,8,0:0:0:0:
76,263,96661,1,0,0:0:0:0:
116,233,96736,1,0,0:0:0:0:
138,188,96811,1,0,0:0:0:0:
149,139,96886,1,0,0:0:0:0:
144,89,96961,1,0,0:0:0:0:
124,43,97036,1,8,0:0:0:0:
84,13,97111,1,0,0:0:0:0:
35,3,97186,37,8,0:0:0:0:
65,41,97261,1,0,0:0:0:0:
107,65,97336,1,0,0:0:0:0:
155,75,97411,1,0,0:0:0:0:
204,75,97486,1,8,0:0:0:0:
253,69,97561,1,0,0:0:0:0:
301,58,97636,1,0,0:0:0:0:
348,42,97711,1,0,0:0:0:0:
391,17,97786,5,8,0:0:0:0:
420,56,97861,1,0,0:0:0:0:
436,102,97936,1,0,0:0:0:0:
448,149,98011,1,0,0:0:0:0:
454,198,98086,1,8,0:0:0:0:
447,247,98161,1,0,0:0:0:0:
429,293,98236,1,8,0:0:0:0:
393,327,98311,1,0,0:0:0:0:
346,342,98386,37,8,0:0:0:0:
329,295,98461,1,0,0:0:0:0:
326,245,98536,1,0,0:0:0:0:
331,195,98611,1,0,0:0:0:0:
342,146,98686,1,8,0:0:0:0:
364,102,98761,1,0,0:0:0:0:
397,65,98836,1,0,0:0:0:0:
439,39,98911,1,0,0:0:0:0:
488,32,98986,5,8,0:0:0:0:
474,79,99061,1,0,0:0:0:0:
446,120,99136,1,0,0:0:0:0:
413,157,99211,1,0,0:0:0:0:
370,182,99286,1,0,0:0:0:0:
321,190,99361,1,0,0:0:0:0:
271,183,99436,1,0,0:0:0:0:
229,155,99511,1,0,0:0:0:0:
195,118,99586,37,8,0:0:0:0:
212,164,99661,1,0,0:0:0:0:
217,213,99736,1,0,0:0:0:0:
208,261,99811,1,0,0:0:0:0:
189,306,99886,1,8,0:0:0:0:
153,341,99961,1,0,0:0:0:0:
104,352,100036,1,0,0:0:0:0:
58,332,100111,1,0,0:0:0:0:
27,293,100186,5,8,0:0:0:0:
66,263,100261,1,0,0:0:0:0:
114,252,100336,1,0,0:0:0:0:
163,252,100411,1,0,0:0:0:0:
211,263,100486,1,8,0:0:0:0:
257,280,100561,1,0,0:0:0:0:
305,289,100636,1,8,0:0:0:0:
354,286,100711,1,0,0:0:0:0:
398,271,100786,6,0,B|448:257|470:230|485:214|485:214|457:200|427:197,1,165.000006294251,8|4,0:0|0:0,0:0:0:0:
256,192,101423,12,0,107986,0:0:0:0:
