osu file format v14

[General]
AudioFilename: audio.mp3
AudioLeadIn: 0
PreviewTime: 62933
Countdown: 0
SampleSet: Soft
StackLeniency: 0.7
Mode: 0
LetterboxInBreaks: 0
WidescreenStoryboard: 0

[Editor]
DistanceSpacing: 0.3
BeatDivisor: 4
GridSize: 32
TimelineZoom: 1.4

[Metadata]
Title:Kizuna Memory ~Mirai Chizu~
TitleUnicode:キズナメモリー ~未来地図~
Artist:Lunark x SYNC.ART'S
ArtistUnicode:Lunark×SYNC.ART’S
Creator:Adinda
Version:Insane
Source:
Tags:c97 comiket 97 pop rock jrock j-rock japanese mondrear 〜若葉揺らぐ静寂なる一節〜 doujin tanisyo masako 谷生優子
BeatmapID:2824623
BeatmapSetID:1363005

[Difficulty]
HPDrainRate:5
CircleSize:4
OverallDifficulty:8
ApproachRate:9
SliderMultiplier:1.7
SliderTickRate:1

[Events]
//Background and Video events
0,0,"a.jpg",0,0
//Break Periods
//Storyboard Layer 0 (Background)
//Storyboard Layer 1 (Fail)
//Storyboard Layer 2 (Pass)
//Storyboard Layer 3 (Foreground)
//Storyboard Layer 4 (Overlay)
//Storyboard Sound Samples

[TimingPoints]
225,348.837209302326,4,2,1,5,1,0
225,-100,4,2,1,5,0,0
1620,-181.818181818181,4,2,1,40,0,0
12259,-181.818181818181,4,2,1,80,0,0
12695,-181.818181818181,4,2,1,5,0,0
12783,-83.3333333333333,4,2,1,85,0,0
18626,-83.3333333333333,4,2,1,5,0,0
18713,-83.3333333333333,4,2,1,85,0,0
18887,-71.4285714285714,4,2,1,85,0,0
21416,-71.4285714285714,4,2,1,5,0,0
21504,-71.4285714285714,4,2,1,85,0,0
22812,-71.4285714285714,4,2,1,5,0,0
22900,-71.4285714285714,4,2,1,85,0,0
25864,-100,4,2,1,70,0,0
26736,-181.818181818181,4,2,1,60,0,0
37899,-181.818181818181,4,2,11,65,0,0
42957,-181.818181818181,4,2,1,65,0,0
43480,-181.818181818181,4,2,11,65,0,0
47492,-100,4,2,1,75,0,0
49062,-125,4,2,1,70,0,0
54643,-125,4,2,1,75,0,0
57434,-133.333333333333,4,2,1,60,0,0
60050,-83.3333333333333,4,2,1,80,0,0
62928,-83.3333333333333,4,2,1,5,0,0
63015,-83.3333333333333,4,2,1,90,0,1
67463,-83.3333333333333,4,2,1,5,0,1
67550,-83.3333333333333,4,2,1,90,0,1
72608,-71.4285714285714,4,2,1,90,0,1
73131,-83.3333333333333,4,2,1,90,0,1
76969,-71.4285714285714,4,2,1,90,0,1
77492,-83.3333333333333,4,2,1,90,0,1
80282,-71.4285714285714,4,2,1,90,0,1
80544,-71.4285714285714,4,2,1,5,0,1
80631,-71.4285714285714,4,2,1,90,0,1
82899,-83.3333333333333,4,2,1,90,0,1
84207,-83.3333333333333,4,2,1,5,0,1
84294,-83.3333333333333,4,2,1,90,0,1
85602,-83.3333333333333,4,2,1,5,0,1
85689,-83.3333333333333,4,2,1,90,0,1
87782,-71.4285714285714,4,2,1,90,0,1
88044,-71.4285714285714,4,2,1,5,0,1
88131,-83.3333333333333,4,2,1,85,0,0
91184,-83.3333333333333,4,2,1,5,0,0
91271,-83.3333333333333,4,2,1,85,0,0
91881,-83.3333333333333,4,2,1,5,0,0
91968,-83.3333333333333,4,2,1,85,0,0
93713,-71.4285714285714,4,2,1,85,0,0
96765,-71.4285714285714,4,2,1,5,0,0
96852,-71.4285714285714,4,2,1,85,0,0
98161,-71.4285714285714,4,2,1,5,0,0
98248,-71.4285714285714,4,2,1,85,0,0
101213,-100,4,2,1,70,0,0
102085,-133.333333333333,4,2,1,70,0,0
111852,-83.3333333333333,4,2,1,70,0,0
113248,-100,4,2,1,75,0,0
124411,-125,4,2,1,70,0,0
129992,-125,4,2,1,75,0,0
132783,-133.333333333333,4,2,1,60,0,0
135399,-83.3333333333333,4,2,1,80,0,0
138277,-83.3333333333333,4,2,1,5,0,0
138364,-83.3333333333333,4,2,1,90,0,1
142812,-83.3333333333333,4,2,1,5,0,1
142899,-83.3333333333333,4,2,1,90,0,1
147957,-71.4285714285714,4,2,1,90,0,1
148480,-83.3333333333333,4,2,1,90,0,1
152318,-71.4285714285714,4,2,1,90,0,1
152841,-83.3333333333333,4,2,1,90,0,1
155631,-71.4285714285714,4,2,1,90,0,1
155893,-71.4285714285714,4,2,1,5,0,1
155980,-71.4285714285714,4,2,1,90,0,1
158248,-83.3333333333333,4,2,1,90,0,1
159556,-83.3333333333333,4,2,1,5,0,1
159643,-83.3333333333333,4,2,1,90,0,1
160951,-83.3333333333333,4,2,1,5,0,1
161038,-83.3333333333333,4,2,1,90,0,1
163131,-71.4285714285714,4,2,1,90,0,1
163393,-71.4285714285714,4,2,1,5,0,1
163480,-133.333333333333,4,2,1,75,0,0
174643,-83.3333333333333,4,2,1,90,0,1
184236,-83.3333333333333,4,2,1,90,0,0
185631,-83.3333333333333,4,2,1,70,0,0
185806,-153.846153846153,4,2,1,50,0,0
191387,-133.333333333333,4,2,1,60,0,0
196794,-83.3333333333333,4,2,1,80,0,0
199759,-83.3333333333333,4,2,1,90,0,1
204207,-83.3333333333333,4,2,1,5,0,1
204294,-83.3333333333333,4,2,1,90,0,1
209352,-71.4285714285714,4,2,1,90,0,1
209876,-83.3333333333333,4,2,1,90,0,1
213713,-71.4285714285714,4,2,1,90,0,1
214236,-83.3333333333333,4,2,1,90,0,1
217027,-71.4285714285714,4,2,1,90,0,1
217288,-71.4285714285714,4,2,1,5,0,1
217376,-71.4285714285714,4,2,1,90,0,1
219643,-83.3333333333333,4,2,1,90,0,1
220951,-83.3333333333333,4,2,1,5,0,1
221038,-83.3333333333333,4,2,1,90,0,1
222347,-83.3333333333333,4,2,1,5,0,1
222434,-83.3333333333333,4,2,1,90,0,1
224527,-71.4285714285714,4,2,1,90,0,1
224788,-71.4285714285714,4,2,1,5,0,1
224876,-83.3333333333333,4,2,1,85,0,0
234469,-71.4285714285714,4,2,1,85,0,0
236038,-83.3333333333333,4,2,1,85,0,0
242143,-71.4285714285714,4,2,1,85,0,0
244672,-83.3333333333333,4,2,1,5,0,0
244759,-71.4285714285714,4,2,1,85,0,0
246068,-83.3333333333333,4,2,1,5,0,0
246155,-71.4285714285714,4,2,1,85,0,0
248422,-62.5,4,2,1,85,0,0
250079,-62.5,4,2,1,75,0,0
251387,-62.5,4,2,1,50,0,0
252783,-62.5,4,2,1,25,0,0
254178,-62.5,4,2,1,5,0,0

[Colours]
Combo1 : 149,43,255
Combo2 : 192,192,192

[HitObjects]
256,192,225,12,0,1445,0:0:0:0:
79,154,1620,6,0,P|49:200|39:339,2,187.000005706787,10|0|2,0:1|0:0|0:0,0:0:0:0:
79,154,3713,1,2,0:0:0:0:
205,371,4411,6,0,P|235:325|245:186,2,187.000005706787,2|0|2,0:0|0:0|0:0,0:0:0:0:
205,371,6504,1,2,0:0:0:0:
473,219,7201,6,0,L|435:186,2,46.7500014266968,2|0|2,0:0|0:0|0:0,0:0:0:0:
347,211,7899,1,2,0:0:0:0:
347,211,8073,2,0,P|381:201|448:187,1,93.5000028533936,2|0,0:0|0:0,0:0:0:0:
406,102,8597,6,0,L|444:69,1,46.7500014266968,2|0,0:0|0:0,0:0:0:0:
295,48,8945,2,0,L|333:15,1,46.7500014266968,2|0,0:0|0:0,0:0:0:0:
447,96,9294,2,0,L|485:63,1,46.7500014266968,2|0,0:0|0:0,0:0:0:0:
336,42,9643,2,0,L|370:11,1,46.7500014266968,2|0,0:0|0:0,0:0:0:0:
371,11,9905,1,0,3:0:0:0:
371,11,9992,6,0,B|337:3|305:18|305:18|274:7,1,93.5000028533936,2|2,3:0|3:0,0:0:0:0:
52,87,10690,2,0,P|61:113|68:140,2,46.7500014266968,0|2|0,0:0|0:0|3:0,0:0:0:0:
17,197,11213,2,0,B|88:152|88:152|123:313,1,233.750007133484,2|0,0:0|0:0,0:0:0:0:
119,298,12259,1,8,0:1:0:0:
262,325,12434,6,0,B|287:324|287:324|299:328|299:328|347:323,1,70.1250021400452,10|0,0:3|0:0,0:0:0:0:
414,370,12783,6,0,P|452:325|452:177,2,203.999993774414,14|8|10,0:1|0:0|0:1,0:0:0:0:
414,370,13655,1,8,0:1:0:0:
329,205,13829,2,0,P|334:150|320:95,1,101.999996887207,8|0,0:0|0:0,0:0:0:0:
165,64,14178,6,0,P|218:62|237:17,1,101.999996887207,10|0,0:1|0:0,0:0:0:0:
72,126,14527,2,0,P|48:168|0:167,1,101.999996887207,8|0,0:0|0:0,0:0:0:0:
66,26,14876,1,10,0:1:0:0:
66,26,15050,1,8,0:1:0:0:
172,169,15225,2,0,P|161:218|166:269,1,101.999996887207,8|0,0:0|0:0,0:0:0:0:
296,364,15573,6,0,P|350:351|508:333,2,203.999993774414,10|8|10,0:1|0:0|0:1,0:0:0:0:
296,364,16445,1,8,0:1:0:0:
393,226,16620,2,0,L|346:129,1,101.999996887207,8|0,0:0|0:0,0:0:0:0:
424,36,16969,6,0,L|518:233,1,203.999993774414,10|8,0:1|0:0,0:0:0:0:
296,364,17492,5,8,0:1:0:0:
199,349,17666,1,14,0:1:0:0:
101,329,17841,1,8,0:0:0:0:
98,297,17928,1,8,0:0:0:0:
77,280,18015,1,10,0:0:0:0:
264,201,18190,5,8,0:3:0:0:
264,201,18277,1,8,0:3:0:0:
264,201,18364,2,0,B|254:122|213:155|201:58,1,152.999995330811,14|0,0:1|0:0,0:0:0:0:
178,51,18713,1,8,0:0:0:0:
335,93,18887,6,0,L|410:189,1,118.999996368408,14|0,0:1|0:0,0:0:0:0:
178,51,19236,2,0,L|103:147,1,118.999996368408,10|8,0:1|0:0,0:0:0:0:
300,0,19585,6,0,P|397:24|488:151,1,237.999992736817,14|8,0:1|0:1,0:0:0:0:
494,338,20108,1,10,0:0:0:0:
494,338,20195,1,2,0:0:0:0:
494,338,20283,2,0,B|329:296|414:369|259:334,1,237.999992736817,14|8,0:1|0:1,0:0:0:0:
86,341,20806,5,8,0:0:0:0:
86,341,20893,1,8,0:0:0:0:
86,341,20980,1,8,0:3:0:0:
86,341,21068,1,8,0:3:0:0:
86,341,21155,2,0,B|117:363|117:363|148:307|148:307|108:232,1,178.499994552612,14|0,0:1|0:0,0:0:0:0:
80,209,21504,6,0,P|54:155|42:95,1,118.999996368408,8|8,0:0|0:1,0:0:0:0:
211,8,21852,2,0,P|185:62|173:122,1,118.999996368408,8|8,0:0|0:1,0:0:0:0:
297,68,22201,1,8,0:0:0:0:
105,11,22376,1,8,0:1:0:0:
297,92,22550,6,0,B|362:84|362:84|395:109|395:109|476:96,1,178.499994552612,14|0,0:1|0:0,0:0:0:0:
469,79,22899,1,8,0:0:0:0:
341,200,23073,1,8,0:1:0:0:
297,92,23248,1,10,0:0:0:0:
505,189,23422,1,8,0:1:0:0:
415,321,23597,5,8,0:0:0:0:
415,321,23684,1,8,0:0:0:0:
415,321,23771,2,0,L|473:292,1,59.4999981842042,8|8,0:3|0:3,0:0:0:0:
322,344,23945,6,0,B|238:317|238:317|191:356|191:356|83:321,1,237.999992736817,14|8,0:1|0:0,0:0:0:0:
106,328,24469,1,8,0:1:0:0:
197,214,24643,5,14,0:1:0:0:
37,182,24818,1,8,0:3:0:0:
127,67,24992,1,8,0:0:0:0:
232,12,25166,6,0,B|201:75|273:105|273:105|523:35,1,356.999989105225,14|0,0:1|0:1,0:0:0:0:
361,172,25864,6,0,P|332:236|534:340,1,340,2|0,0:0|0:0,0:0:0:0:
446,253,26736,6,0,B|259:218|337:300|151:246,1,280.500008560181,14|0,0:1|0:0,0:0:0:0:
171,273,28131,2,0,B|358:238|280:320|466:266,1,280.500008560181,2|0,0:0|0:0,0:0:0:0:
446,271,29527,1,2,0:0:0:0:
334,126,29876,6,0,P|295:133|186:116,1,140.25000428009,2|0,0:0|0:0,0:0:0:0:
285,59,30748,2,0,P|353:72|422:65,1,140.25000428009,2|0,0:0|0:0,0:0:0:0:
154,31,31620,2,0,P|151:68|94:76,1,93.5000028533936,2|0,0:0|0:0,0:0:0:0:
102,81,32143,1,2,0:0:0:0:
34,160,32318,6,0,P|21:229|193:293,1,280.500008560181,14|0,0:1|0:0,0:0:0:0:
143,327,33713,6,0,P|16:264|12:182,1,233.750007133484,2|10,0:0|0:1,0:0:0:0:
10,185,34934,1,10,0:1:0:0:
10,185,35457,6,0,P|52:187|119:182,1,93.5000028533936,2|2,0:0|0:0,0:0:0:0:
182,132,35980,2,0,P|224:134|291:129,1,93.5000028533936,2|2,0:0|0:0,0:0:0:0:
382,21,36504,6,0,P|441:90|453:152,1,140.25000428009,12|2,0:1|0:0,0:0:0:0:
422,337,37376,2,0,L|405:284,2,46.7500014266968,0|0|0,3:0|3:0|3:0,0:0:0:0:
303,360,37899,6,8,P|277:323|217:323,1,93.5000028533936,14|8,0:1|0:0,0:0:0:0:
220,293,38597,2,8,P|265:299|291:336,1,93.5000028533936,8|8,0:0|0:0,0:0:0:0:
1,289,39294,6,8,P|27:252|87:252,1,93.5000028533936,10|8,0:0|0:0,0:0:0:0:
84,222,39992,2,8,P|38:228|12:265,1,93.5000028533936,8|8,0:0|0:0,0:0:0:0:
0,133,40515,5,8,0:1:0:0:
86,59,40690,1,10,0:1:0:0:
86,59,41038,6,0,P|142:66|192:57,1,93.5000028533936,10|8,0:0|0:0,0:0:0:0:
289,39,41562,2,0,L|257:-9,1,46.7500014266968,2|8,0:0|0:0,0:0:0:0:
314,58,41911,2,0,B|265:133|265:133|319:220,1,187.000005706787,2|0,0:0|0:0,0:0:0:0:
316,215,42783,1,10,0:0:0:0:
424,139,42957,5,8,0:1:0:0:
441,326,43131,1,8,0:0:0:0:
316,215,43480,6,8,P|286:251|280:307,1,93.5000028533936,14|8,0:1|0:0,0:0:0:0:
247,300,44178,2,8,P|254:254|285:219,1,93.5000028533936
128,100,44876,2,8,P|97:135|91:191,1,93.5000028533936,10|8,0:0|0:0,0:0:0:0:
58,184,45574,2,8,P|65:138|96:103,1,93.5000028533936
0,270,46271,6,0,P|38:348|133:357,1,187.000005706787,14|8,0:1|0:0,0:0:0:0:
187,275,47143,2,0,P|155:275|128:277,1,46.7500014266968,2|8,0:0|0:0,0:0:0:0:
245,203,47492,6,0,B|221:110|297:146|267:23,1,170,14|8,0:1|0:1,0:0:0:0:
335,178,48015,2,0,P|390:202|508:197,1,170,8|4,0:0|0:3,0:0:0:0:
401,92,48538,2,0,L|457:71,2,42.5,8|8|8,0:0|0:0|0:0,0:0:0:0:
401,92,49062,6,0,P|434:112|447:149,1,68,14|4,0:0|0:3,0:0:0:0:
432,254,49411,1,8,0:1:0:0:
335,178,49585,1,14,0:0:0:0:
418,240,49759,2,0,P|402:327|402:387,1,136,8|10,0:1|0:1,0:0:0:0:
143,328,50457,6,0,P|140:260|126:193,1,136,14|8,0:1|0:1,0:0:0:0:
25,249,50980,2,0,L|55:319,1,68,10|0,0:3|0:0,0:0:0:0:
126,193,51329,1,8,0:3:0:0:
126,193,51504,2,0,L|99:130,1,68,6|0,0:3|0:0,0:0:0:0:
219,17,51852,5,14,0:0:0:0:
219,17,52027,1,8,0:1:0:0:
285,82,52201,1,10,0:1:0:0:
405,9,52376,5,14,0:0:0:0:
468,80,52550,2,0,P|466:113|375:120,1,136,8|8,0:1|0:1,0:0:0:0:
126,193,53248,2,0,P|128:226|219:233,1,136,10|10,0:3|0:1,0:0:0:0:
261,366,53771,2,0,P|222:353|190:344,1,68,10|0,0:3|0:0,0:0:0:0:
196,345,54120,1,8,0:3:0:0:
325,289,54294,2,0,P|364:302|396:311,1,68,14|0,0:0|0:0,0:0:0:0:
472,145,54643,6,0,B|478:112|478:112|466:74,1,68,14|8,0:1|0:0,0:0:0:0:
450,69,54905,1,8,0:0:0:0:
433,61,54992,2,0,P|394:82|343:86,1,68,8|10,0:0|0:0,0:0:0:0:
284,20,55341,1,8,0:0:0:0:
284,20,55428,1,8,0:0:0:0:
284,20,55515,1,8,0:0:0:0:
143,99,55690,2,0,P|182:120|233:124,1,68,10|8,0:0|0:0,0:0:0:0:
223,133,55951,1,8,0:0:0:0:
239,145,56038,5,14,0:0:0:0:
90,185,56213,1,8,0:0:0:0:
90,185,56300,1,8,0:0:0:0:
90,185,56387,1,8,0:0:0:0:
13,253,56562,2,0,L|39:318,1,68,8|8,0:0|0:0,0:0:0:0:
55,331,56823,1,8,0:0:0:0:
68,343,56911,1,8,0:0:0:0:
159,261,57085,1,8,0:0:0:0:
292,371,57259,5,8,0:0:0:0:
292,371,57347,1,8,0:0:0:0:
292,371,57434,2,0,P|365:355|339:191,1,255.000009727478,14|0,0:1|0:0,0:0:0:0:
385,192,58829,2,0,P|418:305|314:360,1,255.000009727478,2|0,0:0|0:0,0:0:0:0:
314,360,59876,5,2,0:0:0:0:
213,285,60050,2,0,P|126:259|13:232,1,203.999993774414,14|8,0:1|0:1,0:0:0:0:
35,55,60573,2,0,L|82:156,1,101.999996887207,12|0,0:0|0:0,0:0:0:0:
170,69,60922,2,0,L|217:170,1,101.999996887207,8|8,0:0|0:1,0:0:0:0:
213,285,61271,5,8,0:0:0:0:
385,192,61445,2,0,L|428:99,1,101.999996887207,14|0,0:1|0:0,0:0:0:0:
316,96,61794,5,10,0:0:0:0:
494,180,61969,1,10,0:0:0:0:
316,96,62318,2,0,L|272:3,1,101.999996887207,8|4,0:0|0:3,0:0:0:0:
467,9,62666,1,8,0:0:0:0:
467,9,62754,1,8,0:0:0:0:
467,9,62841,1,4,0:3:0:0:
494,180,63015,6,0,B|447:288|569:266|506:379,1,203.999993774414,14|10,0:1|0:0,0:0:0:0:
326,368,63538,2,0,P|356:318|367:268,1,101.999996887207,2|8,0:0|0:1,0:0:0:0:
127,230,63887,2,0,P|140:279|167:322,1,101.999996887207,10|8,0:1|0:0,0:0:0:0:
167,322,64236,1,2,0:0:0:0:
192,107,64411,6,0,B|118:96|118:96|82:125|82:125|-26:110,2,203.999993774414,8|8|10,0:1|0:0|0:1,0:0:0:0:
281,22,65283,1,10,0:1:0:0:
192,107,65457,1,10,0:0:0:0:
370,140,65631,1,2,0:0:0:0:
279,220,65806,6,0,P|284:293|384:379,1,203.999993774414,10|10,0:1|0:0,0:0:0:0:
461,220,66329,2,0,P|461:161|495:120,1,101.999996887207,2|8,0:0|0:1,0:0:0:0:
317,18,66678,2,0,P|343:60|340:110,1,101.999996887207,10|8,0:1|0:0,0:0:0:0:
339,110,67027,1,2,0:0:0:0:
108,169,67201,6,0,B|35:167|3:120|3:120|23:80,1,152.999995330811,8|0,0:1|0:0,0:0:0:0:
41,60,67550,2,0,B|88:80|88:80|143:56,1,101.999996887207,8|0,0:0|0:0,0:0:0:0:
64,261,67899,2,0,L|110:164,1,101.999996887207,8|8,0:1|0:1,0:0:0:0:
134,59,68248,5,10,0:0:0:0:
176,253,68422,1,10,0:1:0:0:
281,63,68597,6,0,B|390:61|346:-12|488:7,1,203.999993774414,14|10,0:1|0:0,0:0:0:0:
368,164,69120,2,0,P|456:203|490:315,1,203.999993774414,2|8,0:0|0:1,0:0:0:0:
387,371,69643,2,0,P|394:314|383:267,1,101.999996887207,8|0,0:0|0:0,0:0:0:0:
176,361,69992,6,0,B|221:376|221:376|298:323|283:232,1,203.999993774414,10|10,0:1|0:0,0:0:0:0:
114,166,70515,2,0,B|69:181|69:181|-8:128|7:37,1,203.999993774414,2|10,0:0|0:1,0:0:0:0:
87,7,71038,1,10,0:0:0:0:
87,7,71213,1,2,0:0:0:0:
114,166,71387,6,0,L|63:260,1,101.999996887207,10|0,0:1|0:0,0:0:0:0:
176,361,71736,1,10,0:0:0:0:
176,361,71911,2,0,L|224:271,1,101.999996887207,2|8,0:0|0:1,0:0:0:0:
197,81,72259,2,0,L|146:175,1,101.999996887207,10|8,0:1|0:0,0:0:0:0:
286,62,72608,6,0,B|375:35|441:102|441:102|457:16,1,237.999992736817,14|8,0:1|0:1,0:0:0:0:
482,50,73044,1,8,0:1:0:0:
482,50,73131,2,0,P|500:154|511:258,1,203.999993774414,12|8,0:0|0:1,0:0:0:0:
396,306,73655,2,0,L|409:246,2,50.9999984436036,8|8|8,0:0|0:0|0:0,0:0:0:0:
148,170,74004,6,0,L|158:219,1,50.9999984436036,8|8,0:0|0:0,0:0:0:0:
154,140,74178,2,0,B|114:205|41:176|41:176|32:120|57:105,1,203.999993774414,14|8,0:1|0:0,0:0:0:0:
87,280,74701,2,0,P|65:329|54:377,1,101.999996887207,2|8,0:0|0:1,0:0:0:0:
240,272,75050,2,0,P|218:321|207:369,1,101.999996887207,2|8,0:0|0:0,0:0:0:0:
207,367,75399,1,2,0:0:0:0:
325,200,75573,6,0,L|285:86,1,101.999996887207,8|0,0:1|0:0,0:0:0:0:
429,98,75922,2,0,L|462:194,1,101.999996887207,8|0,0:0|0:0,0:0:0:0:
353,6,76271,5,10,0:1:0:0:
291,103,76445,1,2,0:0:0:0:
429,98,76620,1,10,0:0:0:0:
227,17,76794,1,2,0:0:0:0:
80,95,76969,6,0,B|55:124|45:142|45:142|42:253|110:317,1,237.999992736817,14|10,0:1|0:0,0:0:0:0:
325,200,77492,2,0,P|257:180|220:162,1,101.999996887207,2|8,0:0|0:1,0:0:0:0:
100,307,77841,2,0,P|168:287|205:269,1,101.999996887207,2|8,0:0|0:0,0:0:0:0:
370,370,78190,6,0,P|438:350|475:332,1,101.999996887207,2|8,0:0|0:1,0:0:0:0:
325,200,78538,2,0,L|297:310,1,101.999996887207,2|8,0:0|0:0,0:0:0:0:
494,164,78887,1,2,0:0:0:0:
440,238,79062,2,0,L|468:348,1,101.999996887207,8|8,0:0|0:0,0:0:0:0:
495,357,79323,1,8,0:0:0:0:
495,357,79411,2,0,L|483:303,1,50.9999984436036,10|8,0:0|0:0,0:0:0:0:
494,164,79585,1,10,0:3:0:0:
305,26,79759,5,14,0:1:0:0:
217,141,79934,1,2,0:0:0:0:
121,0,80108,1,10,0:0:0:0:
30,117,80283,6,0,P|14:215|9:317,1,178.499994552612,14|0,0:1|0:0,0:0:0:0:
31,311,80631,2,0,B|90:335|90:335|155:306,1,118.999996368408,10|8,0:1|0:0,0:0:0:0:
326,168,80980,6,0,B|159:140|292:71|102:63,1,237.999992736817,14|10,0:1|0:1,0:0:0:0:
125,64,81504,1,10,0:0:0:0:
299,254,81678,2,0,P|332:336|470:349,1,237.999992736817,14|8,0:1|0:1,0:0:0:0:
236,356,82201,5,8,0:0:0:0:
218,354,82288,1,8,0:0:0:0:
200,354,82375,1,8,0:3:0:0:
182,353,82462,1,8,0:3:0:0:
164,354,82549,1,12,0:1:0:0:
125,64,82899,6,0,L|90:166,1,101.999996887207,10|8,0:0|0:1,0:0:0:0:
292,163,83248,2,0,L|327:265,1,101.999996887207,10|8,0:0|0:1,0:0:0:0:
506,68,83597,2,0,L|471:170,1,101.999996887207,10|8,0:0|0:1,0:0:0:0:
361,40,83945,6,0,B|309:24|309:24|278:50|278:50|200:25,1,152.999995330811,10|0,0:0|0:0,0:0:0:0:
210,9,84294,1,10,0:0:0:0:
45,36,84469,1,10,0:1:0:0:
212,126,84643,1,8,0:0:0:0:
47,153,84818,1,10,0:1:0:0:
114,250,84992,6,0,L|165:229,2,50.9999984436036,8|8|8,0:0|0:0|0:3,0:0:0:0:
274,259,85341,6,0,P|273:330|341:357,1,152.999995330811,14|0,0:1|0:0,0:0:0:0:
370,366,85690,2,0,B|421:354|421:354|481:366,1,101.999996887207,8|0,0:0|0:0,0:0:0:0:
362,194,86038,2,0,B|374:146|333:116|333:116|309:131,1,101.999996887207,14|8,0:1|0:3,0:0:0:0:
295,145,86300,1,8,0:3:0:0:
295,145,86387,1,8,0:3:0:0:
467,231,86562,6,0,B|422:118|552:153|483:13,1,203.999993774414,14|8,0:1|0:0,0:0:0:0:
455,24,86998,1,8,0:0:0:0:
455,24,87085,2,0,B|415:17|415:17|403:26|403:26|345:20,1,101.999996887207,8|8,0:0|0:1,0:0:0:0:
223,0,87434,1,8,0:3:0:0:
246,160,87608,6,0,L|309:140,1,50.9999984436036,4|4,0:3|0:3,0:0:0:0:
362,194,87783,2,0,B|349:262|286:285|286:285|223:251,1,178.499994552612,12|0,0:0|0:0,0:0:0:0:
154,205,88131,6,0,P|106:253|145:380,1,203.999993774414,14|8,0:1|0:0,0:0:0:0:
136,373,88655,1,0,0:0:0:0:
300,316,88829,2,0,L|201:277,1,101.999996887207,10|0,0:1|0:0,0:0:0:0:
59,242,89178,2,0,L|158:203,1,101.999996887207,8|0,0:0|0:0,0:0:0:0:
103,11,89527,6,0,B|13:22|5:115|5:115|51:151,1,203.999993774414,10|8,0:1|0:0,0:0:0:0:
41,143,90050,1,0,0:0:0:0:
222,108,90225,2,0,B|206:58|206:58|232:0,1,101.999996887207,10|0,0:1|0:0,0:0:0:0:
340,158,90573,2,0,B|390:142|390:142|448:168,1,101.999996887207,8|0,0:0|0:0,0:0:0:0:
424,361,90922,6,0,B|411:334|411:334|437:250|437:250|480:286,1,152.999995330811,10|0,0:1|0:0,0:0:0:0:
493,269,91271,2,0,P|514:304|500:365,1,101.999996887207,8|0,0:0|0:0,0:0:0:0:
290,303,91620,2,0,B|292:338|292:338|179:300,1,152.999995330811,10|0,0:1|0:0,0:0:0:0:
144,327,91969,2,0,P|130:278|153:234,1,101.999996887207,8|0,0:0|0:0,0:0:0:0:
249,42,92318,6,0,B|323:27|323:27|352:52|352:52|448:32,2,203.999993774414,10|8|10,0:1|0:0|0:1,0:0:0:0:
249,42,93190,1,0,0:0:0:0:
45,54,93364,2,0,L|169:12,1,101.999996887207,10|0,0:0|0:0,0:0:0:0:
153,234,93713,6,0,B|103:217|103:217|17:297|93:380,1,237.999992736817,14|10,0:1|0:0,0:0:0:0:
294,363,94236,2,0,P|228:349|175:331,1,118.999996368408,14|0,0:1|0:0,0:0:0:0:
390,266,94585,2,0,P|456:280|509:298,1,118.999996368408,10|8,0:1|0:0,0:0:0:0:
372,168,94934,6,0,P|370:89|511:33,1,237.999992736817,14|8,0:1|0:1,0:0:0:0:
290,88,95457,1,10,0:0:0:0:
290,88,95544,1,2,0:0:0:0:
290,88,95631,2,0,B|214:100|187:31|187:31|132:4|60:49,1,237.999992736817,14|8,0:1|0:1,0:0:0:0:
1,195,96155,5,8,0:0:0:0:
1,195,96242,1,8,0:0:0:0:
1,195,96329,1,8,0:3:0:0:
1,195,96416,1,8,0:3:0:0:
1,195,96504,2,0,P|66:180|186:167,1,178.499994552612,14|0,0:1|0:0,0:0:0:0:
203,152,96852,6,0,P|257:139|290:73,1,118.999996368408,8|8,0:0|0:1,0:0:0:0:
426,6,97201,2,0,P|455:55|512:70,1,118.999996368408,8|8,0:0|0:1,0:0:0:0:
408,186,97550,1,8,0:0:0:0:
512,70,97725,1,8,0:1:0:0:
381,191,97899,6,0,B|375:229|375:229|411:297|395:364,1,178.499994552612,14|0,0:1|0:0,0:0:0:0:
357,373,98248,1,8,0:0:0:0:
127,302,98422,1,8,0:1:0:0:
309,287,98597,1,10,0:0:0:0:
177,379,98771,1,8,0:1:0:0:
20,246,98945,5,8,0:0:0:0:
20,246,99033,1,8,0:0:0:0:
20,246,99120,2,0,L|42:189,1,59.4999981842042,8|8,0:3|0:3,0:0:0:0:
108,86,99294,6,0,B|108:139|108:139|177:225|177:225|231:162,1,237.999992736817,14|8,0:1|0:0,0:0:0:0:
225,168,99818,1,8,0:1:0:0:
382,76,99992,5,14,0:1:0:0:
231,75,100166,1,8,0:3:0:0:
384,177,100341,1,8,0:0:0:0:
512,87,100515,6,0,B|464:61|464:61|401:110|401:110|459:335,1,356.999989105225,14|0,0:1|0:0,0:0:0:0:
333,206,101213,6,0,B|98:142|217:247|-18:179,1,340,2|0,0:0|0:0,0:0:0:0:
46,315,102085,6,0,P|86:302|126:295,1,63.7500024318696,14|0,0:1|0:0,0:0:0:0:
189,335,102434,1,10,0:1:0:0:
189,335,102608,2,0,P|226:354|259:377,1,63.7500024318696,2|8,0:0|0:1,0:0:0:0:
244,365,102957,1,0,0:0:0:0:
383,301,103131,2,0,P|345:283|335:201,1,127.500004863739,8|10,0:1|0:1,0:0:0:0:
454,88,103829,5,10,0:1:0:0:
454,88,104004,2,0,L|487:222,1,127.500004863739,2|2,0:0|0:0,0:0:0:0:
414,245,104527,2,0,L|374:314,1,63.7500024318696,10|0,0:1|0:0,0:0:0:0:
382,300,104876,1,8,0:1:0:0:
234,77,105225,6,0,B|271:62|306:72|306:72|319:39|287:18,1,127.500004863739,10|8,0:1|0:1,0:0:0:0:
228,94,105748,2,0,B|265:79|300:89|300:89|313:56|281:35,1,127.500004863739,2|0,0:0|0:0,0:0:0:0:
147,31,106271,6,0,P|124:53|99:145,2,127.500004863739,10|8|10,0:1|0:1|0:1,0:0:0:0:
147,31,107143,1,0,0:0:0:0:
17,80,107318,2,0,L|-2:15,1,63.7500024318696,10|0,0:0|0:0,0:0:0:0:
32,233,107666,6,0,P|41:177|97:142,1,127.500004863739,14|10,0:1|0:1,0:0:0:0:
121,242,108190,2,0,P|112:298|56:333,1,127.500004863739,2|0,0:0|0:0,0:0:0:0:
55,333,108713,1,8,0:1:0:0:
259,208,109062,6,0,P|255:246|263:280,1,63.7500024318696,10|0,0:1|0:0,0:0:0:0:
361,257,109411,1,10,0:1:0:0:
361,257,109585,2,0,P|357:295|365:329,1,63.7500024318696,2|8,0:0|0:1,0:0:0:0:
447,360,109934,5,14,0:0:0:0:
361,257,110108,1,10,0:1:0:0:
512,224,110283,1,14,0:0:0:0:
393,72,111852,6,0,L|494:31,1,101.999996887207,14|0,0:1|0:0,0:0:0:0:
501,48,112114,1,8,0:0:0:0:
501,48,112201,1,8,0:0:0:0:
294,46,112376,2,0,B|195:69|195:69|97:13,1,203.999993774414,14|8,0:1|0:3,0:0:0:0:
273,142,112899,2,0,P|274:83|299:40,1,101.999996887207,12|8,0:0|0:3,0:0:0:0:
192,200,113248,6,0,B|133:182|133:182|103:204|103:204|19:177,1,170,14|10,0:1|0:0,0:0:0:0:
159,285,113771,2,0,L|143:324,2,42.5,2|0|8,3:0|3:0|3:1,3:0:0:0:
233,372,114120,1,8,0:1:0:0:
233,372,114469,6,0,P|301:366|406:373,1,170,8|8,0:0|0:1,0:0:0:0:
328,285,114992,2,0,P|243:278|158:284,1,170,10|8,0:0|0:1,0:0:0:0:
158,284,115515,1,10,0:1:0:0:
249,88,115690,2,0,B|234:131|234:131|253:181,1,85,10|0,0:0|0:0,0:0:0:0:
375,106,116038,6,0,B|351:30|399:-15|399:-15|434:11,1,170,8|10,0:1|0:0,0:0:0:0:
490,165,116562,2,0,L|474:126,2,42.5,0|0|8,3:0|3:0|3:1,3:0:0:0:
484,288,116911,1,10,0:1:0:0:
484,288,117259,6,0,B|426:273|426:273|389:301|389:301|318:282,1,170,10|8,0:0|0:1,0:0:0:0:
180,202,117783,2,0,P|192:255|210:374,1,170,8|10,0:0|0:1,0:0:0:0:
237,358,118219,1,8,0:0:0:0:
237,358,118306,1,8,0:1:0:0:
327,284,118480,1,10,0:0:0:0:
178,60,118829,6,0,B|121:51|66:77|66:77|19:41,1,170,14|10,0:1|0:0,0:0:0:0:
5,191,119352,2,0,L|49:164,2,42.5,2|0|8,3:0|3:0|3:1,3:0:0:0:
22,43,119701,1,8,0:1:0:0:
22,43,120050,6,0,P|69:48|190:1,1,170,8|8,0:0|0:1,0:0:0:0:
331,19,120573,2,0,B|373:32|373:32|408:85|474:124,1,170,10|8,0:0|0:1,0:0:0:0:
463,117,121097,1,10,0:1:0:0:
326,228,121271,2,0,P|319:182|332:142,1,85,8|0,0:0|0:0,0:0:0:0:
237,291,121620,6,0,B|280:315|280:315|306:360|306:360|379:389,1,170,12|8,0:1|0:0,0:0:0:0:
326,228,122143,2,0,L|308:185,2,42.5,0|0|0,3:1|3:0|3:1,0:0:0:0:
225,124,122492,2,0,B|184:136|184:136|140:121,1,85,10|0,0:1|0:0,0:0:0:0:
55,314,122841,6,0,B|43:266|43:266|75:198|75:198|114:248,1,170,10|8,0:0|0:1,0:0:0:0:
237,291,123364,2,0,L|172:347,1,85,12|0,0:0|0:0,0:0:0:0:
326,228,123713,2,0,L|391:284,2,85,8|8|8,0:0|0:3|0:3,0:0:0:0:
326,228,124236,1,4,0:3:0:0:
398,101,124411,6,0,P|403:140|440:172,1,68,14|0,0:0|0:3,0:0:0:0:
397,11,124759,1,8,0:3:0:0:
468,51,124934,1,14,0:0:0:0:
325,57,125108,2,0,P|271:46|172:18,1,136,8|10,0:1|0:1,0:0:0:0:
193,260,125806,6,0,P|247:249|346:221,1,136,10|8,0:1|0:1,0:0:0:0:
161,199,126329,2,0,L|193:261,1,68,10|0,0:3|0:0,0:0:0:0:
63,178,126678,1,8,0:3:0:0:
63,178,126852,2,0,L|31:240,1,68,6|0,0:3|0:0,0:0:0:0:
11,64,127201,5,14,0:0:0:0:
63,178,127376,1,8,0:3:0:0:
63,178,127550,1,10,0:3:0:0:
200,114,127725,5,14,0:0:0:0:
148,0,127899,2,0,B|103:29|102:90|102:90|122:122,1,136,8|8,0:1|0:1,0:0:0:0:
359,154,128597,6,0,P|405:142|495:128,1,136,10|10,0:3|0:1,0:0:0:0:
428,228,129120,2,0,P|465:238|477:269,1,68,10|0,0:3|0:0,0:0:0:0:
476,262,129469,1,8,0:3:0:0:
310,188,129643,2,0,P|326:159|358:153,1,68,14|0,0:0|0:0,0:0:0:0:
152,64,129992,6,0,B|161:31|161:31|143:-11,1,68,14|8,0:1|0:0,0:0:0:0:
121,8,130254,1,8,0:0:0:0:
95,24,130341,2,0,P|49:34|12:36,1,68,8|10,0:0|0:0,0:0:0:0:
0,120,130690,1,8,0:0:0:0:
0,120,130777,1,8,0:0:0:0:
0,120,130864,1,10,0:0:0:0:
92,212,131038,2,0,P|138:222|175:224,1,68,10|10,0:0|0:0,0:0:0:0:
176,227,131300,1,8,0:0:0:0:
192,234,131387,5,12,0:0:0:0:
281,166,131562,1,8,0:0:0:0:
281,166,131649,1,8,0:0:0:0:
281,166,131736,1,8,0:0:0:0:
294,340,131911,2,0,L|277:263,1,68,8|8,0:0|0:0,0:0:0:0:
298,265,132172,1,8,0:0:0:0:
316,254,132259,1,8,0:0:0:0:
397,180,132434,1,8,0:0:0:0:
437,348,132608,5,10,0:0:0:0:
437,348,132695,1,10,0:0:0:0:
437,348,132783,2,0,B|475:360|475:360|536:265|467:137,1,255.000009727478,14|0,0:1|0:0,0:0:0:0:
479,174,134178,2,0,B|538:284|477:379|477:379|439:367,1,255.000009727478,2|0,0:0|0:0,0:0:0:0:
441,367,135225,5,2,0:0:0:0:
254,263,135399,2,0,B|252:306|252:306|313:369|313:369|364:287,1,203.999993774414,14|8,0:1|0:1,0:0:0:0:
142,255,135922,2,0,P|118:308|116:357,1,101.999996887207,12|0,0:0|0:0,0:0:0:0:
254,263,136271,2,0,P|249:212|227:166,1,101.999996887207,8|8,0:0|0:1,0:0:0:0:
280,0,136620,5,8,0:0:0:0:
356,195,136794,2,0,P|360:144|382:98,1,101.999996887207,14|0,0:1|0:0,0:0:0:0:
226,57,137143,5,10,0:0:0:0:
429,14,137318,1,10,0:0:0:0:
226,57,137666,6,0,B|177:69|177:69|114:45,1,101.999996887207,8|8,0:0|0:1,0:0:0:0:
39,7,138015,1,8,0:0:0:0:
39,7,138102,1,8,0:0:0:0:
39,7,138190,1,4,0:3:0:0:
23,206,138364,6,0,B|94:195|94:195|130:235|130:235|231:220,1,203.999993774414,14|10,0:1|0:0,0:0:0:0:
128,360,138887,2,0,P|68:338|19:325,1,101.999996887207,2|8,0:0|0:1,0:0:0:0:
273,330,139236,2,0,P|333:352|382:365,1,101.999996887207,10|8,0:1|0:0,0:0:0:0:
370,362,139585,1,2,0:0:0:0:
490,233,139759,6,0,B|480:126|413:171|394:47,2,203.999993774414,8|8|10,0:1|0:0|0:1,0:0:0:0:
370,362,140631,1,10,0:1:0:0:
490,233,140806,1,10,0:0:0:0:
512,371,140980,1,2,0:0:0:0:
344,238,141155,6,0,B|203:226|310:167|135:166,1,203.999993774414,10|10,0:1|0:0,0:0:0:0:
201,361,141678,2,0,B|211:308|211:308|182:261,1,101.999996887207,2|8,0:0|0:1,0:0:0:0:
23,164,142027,2,0,B|12:111|12:111|41:64,1,101.999996887207,10|8,0:1|0:0,0:0:0:0:
37,70,142376,1,2,0:0:0:0:
277,12,142550,6,0,B|277:79|334:114|334:114|386:102,1,152.999995330811,8|0,0:1|0:0,0:0:0:0:
399,90,142899,2,0,P|390:35|430:17,1,101.999996887207,8|0,0:0|0:0,0:0:0:0:
400,201,143248,2,0,P|354:225|365:273,1,101.999996887207,8|8,0:1|0:1,0:0:0:0:
399,90,143597,5,10,0:0:0:0:
484,149,143771,1,10,0:1:0:0:
316,148,143945,6,0,B|270:136|224:152|224:152|152:148|163:79,1,203.999993774414,14|10,0:1|0:0,0:0:0:0:
20,263,144469,2,0,P|49:333|176:384,1,203.999993774414,2|8,0:0|0:1,0:0:0:0:
222,262,144992,2,0,B|171:277|171:277|120:246,1,101.999996887207,8|0,0:0|0:0,0:0:0:0:
63,44,145341,6,0,B|72:100|72:100|131:146|131:146|163:78,1,203.999993774414,10|10,0:1|0:0,0:0:0:0:
357,65,145864,2,0,B|348:121|348:121|289:167|289:167|257:99,1,203.999993774414,2|10,0:0|0:1,0:0:0:0:
285,3,146387,1,10,0:0:0:0:
285,3,146562,1,2,0:0:0:0:
456,134,146736,6,0,P|414:181|414:232,1,101.999996887207,10|0,0:1|0:0,0:0:0:0:
512,378,147085,1,10,0:0:0:0:
512,378,147259,2,0,P|503:328|466:294,1,101.999996887207,2|8,0:0|0:1,0:0:0:0:
457,102,147608,2,0,P|415:149|415:200,1,101.999996887207,10|8,0:1|0:0,0:0:0:0:
215,321,147957,6,0,B|299:333|357:260|357:260|280:215,1,237.999992736817,14|8,0:1|0:1,0:0:0:0:
254,213,148393,1,8,0:1:0:0:
254,213,148480,2,0,B|155:235|155:235|52:177,1,203.999993774414,12|8,0:0|0:1,0:0:0:0:
50,345,149004,2,0,L|104:328,2,50.9999984436036,8|8|8,0:0|0:0|0:0,0:0:0:0:
254,213,149352,6,0,L|200:196,1,50.9999984436036,8|8,0:0|0:0,0:0:0:0:
286,228,149527,2,0,B|339:228|415:192|415:192|474:238,1,203.999993774414,14|8,0:1|0:0,0:0:0:0:
375,108,150050,2,0,P|391:57|407:1,1,101.999996887207,2|8,0:0|0:1,0:0:0:0:
256,130,150399,2,0,P|270:178|285:227,1,101.999996887207,2|8,0:0|0:0,0:0:0:0:
285,227,150748,1,2,0:0:0:0:
160,77,150922,6,0,L|254:36,1,101.999996887207,8|0,0:1|0:0,0:0:0:0:
99,24,151271,2,0,L|5:65,1,101.999996887207,8|0,0:0|0:0,0:0:0:0:
155,188,151620,5,10,0:1:0:0:
160,77,151794,1,2,0:0:0:0:
62,137,151969,1,10,0:0:0:0:
256,130,152143,1,2,0:0:0:0:
323,31,152318,6,0,B|392:4|392:4|452:186,1,237.999992736817,14|10,0:1|0:0,0:0:0:0:
379,336,152841,2,0,P|370:284|399:242,1,101.999996887207,2|8,0:0|0:1,0:0:0:0:
248,336,153190,2,0,P|207:369|156:365,1,101.999996887207,2|8,0:0|0:0,0:0:0:0:
62,137,153538,6,0,P|80:190|89:240,1,101.999996887207,2|8,0:0|0:1,0:0:0:0:
177,183,153887,1,2,0:0:0:0:
95,64,154062,1,10,0:0:0:0:
62,137,154236,1,2,0:0:0:0:
213,103,154411,2,0,P|222:52|239:4,1,101.999996887207,8|8,0:0|0:0,0:0:0:0:
264,24,154672,1,8,0:0:0:0:
264,24,154759,2,0,L|317:6,1,50.9999984436036,10|8,0:0|0:0,0:0:0:0:
429,65,154934,1,10,0:3:0:0:
333,224,155108,5,14,0:1:0:0:
502,176,155283,1,2,0:0:0:0:
321,142,155457,1,10,0:0:0:0:
512,276,155631,6,0,B|461:294|461:294|398:288|398:288|323:317,1,178.499994552612,14|0,0:1|0:0,0:0:0:0:
356,331,155980,2,0,B|410:359|410:359|462:326,1,118.999996368408,10|8,0:1|0:0,0:0:0:0:
403,138,156329,6,0,P|415:77|270:31,1,237.999992736817,14|10,0:1|0:1,0:0:0:0:
279,23,156852,1,10,0:0:0:0:
134,157,157027,2,0,B|115:107|115:107|151:9|151:9|195:77,1,237.999992736817,14|8,0:1|0:1,0:0:0:0:
22,105,157550,5,8,0:0:0:0:
21,87,157637,1,8,0:0:0:0:
22,69,157724,1,8,0:3:0:0:
22,51,157811,1,8,0:3:0:0:
24,33,157898,1,14,0:1:0:0:
95,243,158248,6,0,P|102:188|144:152,1,101.999996887207,10|8,0:0|0:1,0:0:0:0:
176,344,158597,2,0,P|124:365|72:347,1,101.999996887207,10|8,0:0|0:1,0:0:0:0:
224,231,158945,2,0,P|268:264|278:318,1,101.999996887207,10|8,0:0|0:1,0:0:0:0:
456,249,159294,6,0,B|484:220|484:220|480:145|417:113,1,152.999995330811,10|0,0:0|0:0,0:0:0:0:
405,124,159643,1,10,0:0:0:0:
224,231,159818,1,10,0:1:0:0:
377,236,159992,1,8,0:0:0:0:
241,121,160166,1,10,0:1:0:0:
130,131,160341,6,0,L|104:184,2,50.9999984436036,8|8|6,0:0|0:0|0:3,0:0:0:0:
24,255,160690,6,0,B|20:324|59:369|59:369|109:375,1,152.999995330811,14|0,0:1|0:0,0:0:0:0:
125,379,161038,2,0,P|186:368|250:381,1,101.999996887207,8|0,0:0|0:0,0:0:0:0:
163,221,161387,2,0,B|142:234|142:234|96:223|107:175,1,101.999996887207,14|8,0:1|0:3,0:0:0:0:
83,159,161649,1,8,0:3:0:0:
83,159,161736,1,8,0:3:0:0:
241,31,161911,6,0,B|315:22|315:22|343:43|343:43|455:31,1,203.999993774414,14|8,0:1|0:0,0:0:0:0:
466,57,162347,1,8,0:0:0:0:
466,57,162434,2,0,P|451:111|445:175,1,101.999996887207,8|10,0:0|0:1,0:0:0:0:
481,235,162783,1,8,0:3:0:0:
284,158,162957,6,0,L|348:138,1,50.9999984436036,4|4,0:3|0:3,0:0:0:0:
366,226,163131,2,0,B|319:266|329:346|329:346|373:373,1,178.499994552612,12|0,0:0|0:0,0:0:0:0:
436,285,163480,6,0,P|475:299|477:233,1,127.500004863739,14|0,0:1|0:0,0:0:0:0:
435,129,164004,1,8,0:1:0:0:
435,129,164091,1,8,0:1:0:0:
435,129,164178,2,0,P|474:143|476:77,1,127.500004863739,8|0,0:0|0:0,0:0:0:0:
224,35,164876,6,0,L|359:12,1,127.500004863739,2|8,0:0|0:1,0:0:0:0:
349,13,165573,1,8,0:0:0:0:
130,223,166271,6,0,L|-5:200,1,127.500004863739,14|0,0:1|0:0,0:0:0:0:
43,307,166794,1,8,0:1:0:0:
43,307,166881,1,8,0:1:0:0:
43,307,166969,2,0,L|168:328,1,127.500004863739,8|0,0:0|0:0,0:0:0:0:
362,184,167666,6,0,P|363:144|398:64,1,127.500004863739,2|8,0:0|0:1,0:0:0:0:
474,240,168364,5,8,0:0:0:0:
362,184,168538,1,8,0:1:0:0:
456,149,168887,5,8,0:1:0:0:
379,274,169062,2,0,B|357:299|357:299|255:266,1,127.500004863739,14|0,0:1|0:0,0:0:0:0:
182,336,169585,1,8,0:1:0:0:
182,336,169672,1,8,0:1:0:0:
182,336,169759,2,0,B|160:361|160:361|58:328,1,127.500004863739,8|0,0:0|0:0,0:0:0:0:
47,61,170457,6,0,B|10:125|48:107|6:194,1,127.500004863739,2|8,0:0|0:1,0:0:0:0:
11,182,171155,1,8,0:0:0:0:
299,86,171504,5,2,0:0:0:0:
222,106,171678,1,8,0:1:0:0:
241,35,171852,2,0,P|257:73|277:168,3,127.500004863739,14|2|2|2,0:1|0:0|0:0|0:0,0:0:0:0:
208,242,173073,6,0,P|192:280|172:375,1,127.500004863739,14|8,0:1|0:1,0:0:0:0:
272,351,173597,2,0,L|344:320,1,63.7500024318696,8|8,0:0|0:1,0:0:0:0:
208,242,173945,2,0,L|136:211,1,63.7500024318696,8|8,0:0|0:1,0:0:0:0:
112,239,174207,1,8,0:1:0:0:
112,239,174294,2,0,L|40:208,1,63.7500024318696,12|2,0:0|0:0,0:0:0:0:
275,156,174643,6,0,B|324:206|406:186|406:186|414:136|434:106,1,203.999993774414,14|8,0:1|0:0,0:0:0:0:
285,6,175166,2,0,P|219:28|82:46,1,203.999993774414,2|2,0:0|0:0,0:0:0:0:
0,0,175690,1,10,0:0:0:0:
53,213,175864,6,0,B|42:263|42:263|90:354|90:354|155:282,1,203.999993774414,2|2,0:0|0:0,0:0:0:0:
163,220,176387,1,10,0:0:0:0:
123,316,176562,1,2,0:0:0:0:
318,258,176736,2,0,B|313:140|241:200|239:57,1,203.999993774414,10|10,0:1|0:0,0:0:0:0:
473,205,177259,5,2,0:0:0:0:
473,205,177347,1,2,0:0:0:0:
473,205,177434,2,0,L|446:257,1,50.9999984436036,10|0,3:1|3:0,0:0:0:0:
424,112,177608,5,0,3:0:0:0:
424,112,177696,1,0,3:0:0:0:
424,112,177783,2,0,L|397:164,1,50.9999984436036,10|0,3:2|3:0,0:0:0:0:
318,258,177957,5,0,3:0:0:0:
311,282,178044,1,0,3:0:0:0:
313,307,178131,1,10,3:1:0:0:
324,330,178218,1,0,3:0:0:0:
341,349,178305,1,8,3:1:0:0:
153,273,178480,5,10,3:2:0:0:
159,248,178567,1,0,3:2:0:0:
157,223,178654,1,0,3:2:0:0:
146,200,178741,1,0,3:2:0:0:
128,180,178829,6,0,P|105:195|74:198,3,50.9999984436036,10|0|0|0,3:1|3:0|3:0|3:0,0:0:0:0:
167,91,179178,1,10,3:2:0:0:
167,91,179265,1,0,3:0:0:0:
167,91,179352,2,0,P|190:106|221:109,1,50.9999984436036,0|0,3:0|3:0,0:0:0:0:
263,15,179527,6,0,B|356:10|356:10|300:238,1,305.999990661621,10|10,0:1|0:1,0:0:0:0:
272,236,180137,1,2,0:0:0:0:
272,236,180225,6,0,P|268:290|301:331,1,101.999996887207,14|2,0:1|0:0,0:0:0:0:
466,382,180573,2,0,P|494:340|488:290,1,101.999996887207,10|2,0:0|0:0,0:0:0:0:
272,236,180922,1,10,0:1:0:0:
359,186,181097,5,10,0:1:0:0:
321,91,181271,1,10,0:0:0:0:
272,236,181445,5,2,0:0:0:0:
272,236,181533,1,2,0:0:0:0:
272,236,181620,2,0,L|246:344,1,101.999996887207,10|2,0:1|0:0,0:0:0:0:
359,186,181969,5,10,0:0:0:0:
197,32,182143,1,2,0:0:0:0:
321,91,182318,1,10,0:1:0:0:
170,233,182492,1,10,0:1:0:0:
170,233,182579,1,2,0:0:0:0:
170,233,182666,2,0,B|120:250|120:250|77:224,1,101.999996887207,10|2,0:0|0:0,0:0:0:0:
12,272,182928,1,2,0:0:0:0:
21,289,183015,6,0,L|10:350,1,50.9999984436036,14|0,3:1|3:0,0:0:0:0:
130,377,183190,2,0,L|139:326,1,50.9999984436036,0|0,3:0|3:0,0:0:0:0:
232,173,183364,5,10,3:2:0:0:
282,165,183451,1,0,3:0:0:0:
331,175,183538,1,0,3:0:0:0:
381,182,183625,1,0,3:0:0:0:
430,177,183713,6,0,P|448:191|482:207,1,50.9999984436036,10|0,3:0|3:0,0:0:0:0:
426,90,183887,2,0,P|444:104|478:120,1,50.9999984436036,10|0,3:3|3:0,0:0:0:0:
417,0,184062,2,0,P|435:14|469:30,1,50.9999984436036,6|0,3:3|3:0,0:0:0:0:
250,17,184236,5,14,3:1:0:0:
256,192,184323,12,0,185631,0:0:0:0:
250,17,185806,6,0,B|284:31|284:31|319:102|290:159,2,165.749992412568,14|0|0,0:1|0:0|0:0,0:0:0:0:
91,88,187201,2,0,B|57:102|57:102|22:173|51:230,2,165.749992412568,2|0|0,0:0|0:0|0:0,0:0:0:0:
226,311,188597,6,0,B|114:280|168:331|52:302,1,165.749992412568,2|0,0:0|0:0,0:0:0:0:
63,304,189992,2,0,P|76:337|191:342,1,165.749992412568,2|0,0:0|0:0,0:0:0:0:
343,97,191038,6,0,P|339:64|353:41,1,55.2499974708558,2|0,0:0|0:0,0:0:0:0:
431,11,191387,2,0,B|491:35|491:35|462:188,1,191.250007295609,14|0,0:1|0:0,0:0:0:0:
408,373,192434,6,0,L|478:350,1,63.7500024318696,2|0,0:0|0:0,0:0:0:0:
390,285,192783,2,0,B|296:296|225:227|225:227|149:276,1,255.000009727478,2|0,0:0|0:0,0:0:0:0:
28,13,194178,6,0,B|32:119|126:148|126:148|162:128|168:76,1,255.000009727478,14|0,0:1|0:0,0:0:0:0:
174,110,195573,2,0,B|162:155|133:170|133:170|38:139|35:35,1,255.000009727478,2|0,0:0|0:0,0:0:0:0:
35,34,196620,5,2,0:0:0:0:
271,74,196794,2,0,B|326:55|375:78|375:78|441:68|419:-4,1,203.999993774414,14|10,0:1|0:1,0:0:0:0:
273,185,197318,2,0,P|248:239|245:286,1,101.999996887207,14|0,0:0|0:0,0:0:0:0:
412,242,197666,2,0,P|437:296|440:343,1,101.999996887207,10|8,0:0|0:1,0:0:0:0:
366,376,198015,5,10,0:0:0:0:
511,228,198190,2,0,L|462:126,1,101.999996887207,14|0,0:1|0:0,0:0:0:0:
491,54,198538,5,10,0:0:0:0:
412,242,198713,1,10,0:0:0:0:
491,54,199062,6,0,B|458:42|458:42|434:53|434:53|377:35,1,101.999996887207,8|8,0:0|0:1,0:0:0:0:
296,4,199411,1,8,0:0:0:0:
296,4,199498,1,8,0:0:0:0:
296,4,199585,1,4,0:3:0:0:
226,185,199759,6,0,B|241:139|241:139|198:57|198:57|148:114,1,203.999993774414,14|10,0:1|0:0,0:0:0:0:
74,238,200283,2,0,B|53:288|53:288|70:334,1,101.999996887207,2|8,0:0|0:1,0:0:0:0:
203,372,200631,2,0,P|264:359|315:354,1,101.999996887207,10|8,0:1|0:0,0:0:0:0:
303,354,200980,1,2,0:0:0:0:
420,193,201155,6,0,B|352:180|352:180|318:202|318:202|220:183,2,203.999993774414,8|8|10,0:1|0:0|0:1,0:0:0:0:
418,8,202027,1,10,0:1:0:0:
420,193,202201,1,10,0:0:0:0:
512,117,202376,1,2,0:0:0:0:
330,102,202550,6,0,B|298:156|308:241|308:241|370:291,1,203.999993774414,10|10,0:1|0:0,0:0:0:0:
61,275,203073,2,0,L|78:155,1,101.999996887207,2|8,0:0|0:1,0:0:0:0:
154,6,203422,2,0,L|168:106,1,101.999996887207,10|8,0:1|0:0,0:0:0:0:
168,106,203771,1,2,0:0:0:0:
355,279,203945,6,0,B|344:226|381:168|381:168|424:179,1,152.999995330811,8|0,0:1|0:0,0:0:0:0:
449,202,204294,2,0,B|433:251|433:251|449:302,1,101.999996887207,8|0,0:0|0:0,0:0:0:0:
441,95,204643,2,0,P|488:74|479:31,1,101.999996887207,8|8,0:1|0:1,0:0:0:0:
289,74,204992,5,10,0:0:0:0:
449,202,205166,1,10,0:1:0:0:
275,55,205341,6,0,B|205:43|147:70|147:70|90:12,1,203.999993774414,14|10,0:1|0:0,0:0:0:0:
0,211,205864,2,0,B|70:199|128:226|128:226|185:168,1,203.999993774414,2|8,0:0|0:1,0:0:0:0:
124,350,206387,2,0,P|65:330|10:318,1,101.999996887207,8|0,0:0|0:0,0:0:0:0:
217,255,206736,6,0,P|223:337|332:369,1,203.999993774414,10|10,0:1|0:0,0:0:0:0:
449,202,207259,2,0,B|443:279|347:289|347:289|315:229,1,203.999993774414,2|10,0:0|0:1,0:0:0:0:
371,153,207783,1,10,0:0:0:0:
371,153,207957,1,2,0:0:0:0:
305,48,208131,6,0,L|412:9,1,101.999996887207,10|0,0:1|0:0,0:0:0:0:
145,30,208480,1,10,0:0:0:0:
145,30,208655,2,0,L|49:64,1,101.999996887207,2|8,0:0|0:1,0:0:0:0:
352,57,209004,2,0,L|459:18,1,101.999996887207,10|8,0:1|0:0,0:0:0:0:
325,236,209352,6,0,B|315:290|315:290|366:370|366:370|462:328,1,237.999992736817,14|8,0:1|0:1,0:0:0:0:
456,318,209788,1,8,0:1:0:0:
456,318,209876,2,0,B|377:311|377:311|338:335|338:335|241:327,1,203.999993774414,12|8,0:0|0:1,0:0:0:0:
32,269,210399,2,0,L|80:238,2,50.9999984436036,8|8|8,0:0|0:0|0:0,0:0:0:0:
131,51,210748,6,0,L|83:20,1,50.9999984436036,8|8,0:0|0:0,0:0:0:0:
150,77,210922,2,0,B|217:51|217:51|239:192,1,203.999993774414,14|8,0:1|0:0,0:0:0:0:
381,30,211445,2,0,P|315:12|270:-6,1,101.999996887207,2|8,0:0|0:1,0:0:0:0:
237,181,211794,2,0,P|284:198|334:210,1,101.999996887207,2|8,0:0|0:0,0:0:0:0:
334,210,212143,1,2,0:0:0:0:
130,247,212318,6,0,L|164:348,1,101.999996887207,8|0,0:1|0:0,0:0:0:0:
17,217,212666,2,0,L|51:318,1,101.999996887207,8|0,0:0|0:0,0:0:0:0:
237,181,213015,5,10,0:1:0:0:
130,247,213190,1,2,0:0:0:0:
165,109,213364,1,10,0:0:0:0:
214,323,213538,1,2,0:0:0:0:
336,177,213713,6,0,B|375:160|375:160|468:221|455:338,1,237.999992736817,14|10,0:1|0:0,0:0:0:0:
489,143,214236,2,0,B|505:93|505:93|475:31,1,101.999996887207,2|8,0:0|0:1,0:0:0:0:
306,27,214585,2,0,B|256:11|256:11|198:35,1,101.999996887207,2|8,0:0|0:0,0:0:0:0:
0,224,214934,6,0,P|10:166|30:117,1,101.999996887207,2|8,0:0|0:1,0:0:0:0:
83,378,215283,2,0,P|93:320|113:271,1,101.999996887207,2|8,0:0|0:0,0:0:0:0:
328,351,215631,1,2,0:0:0:0:
246,309,215806,2,0,P|228:261|220:210,1,101.999996887207,8|8,0:0|0:0,0:0:0:0:
205,201,216068,1,8,0:0:0:0:
205,201,216155,2,0,L|186:263,1,50.9999984436036,10|8,0:0|0:0,0:0:0:0:
181,377,216329,1,10,0:3:0:0:
376,247,216504,5,14,0:1:0:0:
205,201,216678,1,2,0:0:0:0:
328,351,216852,1,10,0:0:0:0:
254,102,217027,6,0,B|132:92|211:46|74:54,1,178.499994552612,14|0,0:1|0:0,0:0:0:0:
48,81,217376,2,0,P|35:143|72:186,1,118.999996368408,10|8,0:1|0:0,0:0:0:0:
254,102,217725,6,0,P|330:78|508:43,1,237.999992736817,14|10,0:1|0:1,0:0:0:0:
484,45,218248,1,10,0:0:0:0:
356,203,218422,2,0,B|445:209|490:306|490:306|448:371,1,237.999992736817,14|8,0:1|0:1,0:0:0:0:
254,335,218945,5,8,0:0:0:0:
272,333,219032,1,8,0:0:0:0:
290,333,219119,1,8,0:3:0:0:
308,332,219206,1,8,0:3:0:0:
326,333,219293,1,12,0:1:0:0:
119,201,219643,6,0,L|10:136,1,101.999996887207,10|8,0:0|0:1,0:0:0:0:
238,93,219992,2,0,L|129:28,1,101.999996887207,10|8,0:0|0:1,0:0:0:0:
186,274,220341,2,0,L|77:209,1,101.999996887207,10|8,0:0|0:1,0:0:0:0:
151,41,220690,6,0,B|208:33|208:33|232:51|232:51|312:40,1,152.999995330811,10|0,0:0|0:0,0:0:0:0:
332,38,221038,1,10,0:0:0:0:
358,184,221213,1,10,0:1:0:0:
438,0,221387,1,8,0:0:0:0:
464,146,221562,1,10,0:1:0:0:
332,38,221736,2,0,L|279:17,2,50.9999984436036,8|8|6,0:0|0:0|0:3,0:0:0:0:
381,247,222085,6,0,B|404:218|404:218|386:141|321:135,1,152.999995330811,14|0,0:1|0:0,0:0:0:0:
293,166,222434,2,0,P|268:226|263:276,1,101.999996887207,8|0,0:0|0:0,0:0:0:0:
412,363,222783,2,0,B|446:374|475:363|475:363|468:322,1,101.999996887207,14|8,0:1|0:3,0:0:0:0:
479,309,223044,1,8,0:3:0:0:
479,309,223131,1,8,0:3:0:0:
279,361,223306,6,0,B|212:337|145:371|145:371|86:326,1,203.999993774414,14|8,0:1|0:0,0:0:0:0:
65,334,223742,1,8,0:0:0:0:
65,334,223829,2,0,B|51:280|51:280|71:236,1,101.999996887207,8|10,0:0|0:1,0:0:0:0:
25,163,224178,1,8,0:3:0:0:
127,20,224352,6,0,L|111:69,1,50.9999984436036,4|4,0:3|0:3,0:0:0:0:
159,131,224527,2,0,B|227:126|283:83|283:83|242:45,1,178.499994552612,12|0,0:0|0:0,0:0:0:0:
345,13,224876,6,0,P|410:40|412:168,2,203.999993774414,14|8|10,0:1|0:0|0:1,0:0:0:0:
345,13,225748,1,8,0:1:0:0:
293,196,225922,2,0,B|277:247|277:247|296:302,1,101.999996887207,8|0,0:0|0:0,0:0:0:0:
418,160,226271,6,0,L|515:117,1,101.999996887207,10|0,0:1|0:0,0:0:0:0:
345,13,226620,2,0,L|251:54,1,101.999996887207,8|0,0:0|0:0,0:0:0:0:
159,11,226969,1,10,0:1:0:0:
159,11,227143,1,8,0:1:0:0:
8,127,227318,2,0,P|9:184|32:231,1,101.999996887207,8|0,0:0|0:0,0:0:0:0:
198,353,227666,6,0,B|67:296|121:377|-13:328,2,203.999993774414,10|8|10,0:1|0:0|0:1,0:0:0:0:
198,353,228538,1,8,0:1:0:0:
168,236,228713,2,0,P|187:189|187:138,1,101.999996887207,8|0,0:0|0:0,0:0:0:0:
346,27,229062,6,0,B|364:89|446:131|446:131|472:77,1,203.999993774414,10|8,0:1|0:0,0:0:0:0:
470,80,229585,1,0,0:0:0:0:
284,167,229759,2,0,L|179:136,1,101.999996887207,10|8,0:1|0:1,0:0:0:0:
383,166,230108,5,8,0:0:0:0:
346,27,230283,1,8,0:1:0:0:
186,138,230457,6,0,B|184:236|284:198|265:343,2,203.999993774414,14|8|10,0:1|0:0|0:1,0:0:0:0:
186,138,231329,1,8,0:1:0:0:
383,166,231504,2,0,P|432:193|494:204,1,101.999996887207,8|0,0:0|0:0,0:0:0:0:
267,315,231852,6,0,P|218:342|156:353,1,101.999996887207,10|0,0:1|0:0,0:0:0:0:
186,138,232201,2,0,P|235:165|297:176,1,101.999996887207,8|0,0:0|0:0,0:0:0:0:
182,0,232550,1,10,0:1:0:0:
182,0,232725,1,8,0:1:0:0:
108,69,232899,2,0,L|4:96,1,101.999996887207,8|0,0:0|0:0,0:0:0:0:
193,235,233248,6,0,B|173:182|173:182|202:93|202:93|259:128,1,203.999993774414,10|8,0:1|0:0,0:0:0:0:
482,361,233945,5,8,0:1:0:0:
359,258,234120,1,8,0:1:0:0:
491,258,234294,1,8,0:0:0:0:
345,369,234469,6,0,P|270:353|112:326,1,237.999992736817,14|8,0:1|0:1,0:0:0:0:
83,293,234905,1,8,0:1:0:0:
83,293,234992,2,0,B|69:233|69:233|86:177,1,118.999996368408,12|0,0:0|0:0,0:0:0:0:
185,114,235341,2,0,B|171:54|171:54|188:-2,1,118.999996368408,8|8,0:1|0:0,0:0:0:0:
212,9,235602,1,8,0:0:0:0:
212,9,235690,1,8,0:0:0:0:
369,152,235864,5,8,0:0:0:0:
369,152,235951,1,8,0:0:0:0:
369,152,236038,2,0,B|403:170|403:170|452:77|352:20,2,203.999993774414,14|8|10,0:1|0:0|0:1,0:0:0:0:
369,152,236911,1,8,0:1:0:0:
157,151,237085,2,0,L|247:100,1,101.999996887207,8|0,0:0|0:0,0:0:0:0:
322,266,237434,6,0,L|232:215,1,101.999996887207,10|0,0:1|0:0,0:0:0:0:
314,373,237783,2,0,L|224:322,1,101.999996887207,8|0,0:0|0:0,0:0:0:0:
138,358,238131,1,10,0:1:0:0:
138,358,238306,1,8,0:1:0:0:
411,281,238480,2,0,P|409:346|445:390,1,101.999996887207,8|0,0:0|0:0,0:0:0:0:
489,178,238829,6,0,B|427:156|427:156|403:98|403:98|324:67,2,203.999993774414,10|8|10,0:1|0:0|0:1,0:0:0:0:
489,178,239701,1,8,0:1:0:0:
342,165,239876,2,0,B|355:116|355:116|329:64,1,101.999996887207,8|0,0:0|0:0,0:0:0:0:
166,12,240225,6,0,B|155:84|54:118|54:118|3:84,1,203.999993774414,10|8,0:1|0:0,0:0:0:0:
210,148,240748,5,8,0:1:0:0:
145,215,240922,1,14,0:1:0:0:
79,278,241097,1,8,0:0:0:0:
36,267,241184,1,8,0:0:0:0:
13,294,241271,1,10,0:0:0:0:
210,306,241445,5,8,0:3:0:0:
210,306,241533,1,8,0:3:0:0:
210,306,241620,2,0,B|279:293|279:293|314:321|314:321|412:305,1,203.999993774414,14|10,0:1|0:0,0:0:0:0:
265,164,242143,2,0,P|241:109|241:51,1,118.999996368408,14|0,0:1|0:0,0:0:0:0:
425,193,242492,2,0,P|424:252|401:306,1,118.999996368408,10|8,0:1|0:0,0:0:0:0:
325,63,242841,6,0,B|441:116|441:116|501:18,1,237.999992736817,14|8,0:1|0:1,0:0:0:0:
265,164,243364,1,10,0:0:0:0:
265,164,243451,1,2,0:0:0:0:
265,164,243538,2,0,B|192:146|111:188|111:188|54:116,1,237.999992736817,14|8,0:1|0:1,0:0:0:0:
156,19,244062,5,8,0:0:0:0:
156,19,244149,1,8,0:0:0:0:
156,19,244236,1,8,0:3:0:0:
156,19,244323,1,8,0:3:0:0:
156,19,244411,6,0,B|161:63|161:63|309:25,1,178.499994552612,14|0,0:1|0:0,0:0:0:0:
325,63,244759,2,0,P|381:92|449:103,1,118.999996368408,8|8,0:0|0:1,0:0:0:0:
154,203,245108,2,0,P|212:191|264:163,1,118.999996368408,8|8,0:0|0:1,0:0:0:0:
325,63,245457,5,8,0:0:0:0:
264,163,245631,1,8,0:1:0:0:
445,208,245806,6,0,B|403:202|403:202|362:246|362:246|385:326,1,178.499994552612,14|0,0:1|0:0,0:0:0:0:
398,335,246155,1,8,0:0:0:0:
264,163,246329,1,8,0:1:0:0:
445,208,246504,1,10,0:0:0:0:
221,292,246678,1,8,0:1:0:0:
53,160,246852,5,8,0:0:0:0:
53,160,246940,1,8,0:0:0:0:
53,160,247027,2,0,L|34:88,1,59.4999981842042,8|8,0:3|0:3,0:0:0:0:
1,232,247201,6,0,B|-59:305|4:370|4:370|61:372|73:322,1,237.999992736817,14|8,0:1|0:0,0:0:0:0:
70,330,247725,1,8,0:1:0:0:
53,160,247899,5,14,0:1:0:0:
186,204,248073,1,8,0:3:0:0:
168,33,248247,1,8,0:0:0:0:
257,77,248422,6,0,B|335:94|379:27|379:27|457:7|507:47,1,272,14|8,0:1|0:1,0:0:0:0:
503,44,248945,1,8,0:0:0:0:
354,170,249120,6,0,P|416:202|506:377,1,272,14|8,0:1|0:0,0:0:0:0:
477,372,249556,1,8,0:0:0:0:
477,372,249643,2,0,L|410:346,1,68,8|8,0:0|0:0,0:0:0:0:
217,367,249818,5,10,0:3:0:0:
217,367,249905,1,10,0:3:0:0:
217,367,249992,1,14,0:1:0:0:
256,192,250079,12,0,255573,0:0:0:0:
