osu file format v14

[General]
AudioFilename: forbidden girl.mp3
AudioLeadIn: 0
PreviewTime: 122268
Countdown: 1
SampleSet: None
StackLeniency: 0.2
Mode: 2
LetterboxInBreaks: 1
WidescreenStoryboard: 1

[Editor]
Bookmarks: 47996,57171,75958,85278,94307,94598,122414,141200,150521,159841,178336,187802,197123,206443,220278
DistanceSpacing: 1.7
BeatDivisor: 4
GridSize: 8
TimelineZoom: 1

[Metadata]
Title:Forbidden girl
TitleUnicode:Forbidden girl
Artist:Lunachu
ArtistUnicode:Lunachu
Creator:Pizza Kun
Version:Overdose [AR 10]
Source:
Tags:
BeatmapID:774297
BeatmapSetID:351352

[Difficulty]
HPDrainRate:7
CircleSize:4
OverallDifficulty:7
ApproachRate:10
SliderMultiplier:1.9
SliderTickRate:1

[Events]
//Background and Video events
0,0,"BG.jpg",0,0
//Break Periods
2,85478,92268
2,142565,150071
2,199653,205993
//Storyboard Layer 0 (Background)
//Storyboard Layer 1 (Fail)
//Storyboard Layer 2 (Pass)
//Storyboard Layer 3 (Foreground)
//Storyboard Sound Samples

[TimingPoints]
230,291.26213592233,4,2,1,100,1,0
1395,-133.333333333333,4,2,1,50,0,0
10715,-90.9090909090909,4,1,1,70,0,0
29647,-100,4,2,1,50,0,0
38676,-100,4,1,1,50,0,0
47996,-133.333333333333,4,1,1,50,0,0
48215,-133.333333333333,4,1,1,5,0,0
48288,-133.333333333333,4,1,1,50,0,0
48506,-133.333333333333,4,1,1,5,0,0
48579,-133.333333333333,4,1,1,50,0,0
48797,-133.333333333333,4,1,1,5,0,0
48870,-133.333333333333,4,1,1,50,0,0
49089,-133.333333333333,4,1,1,5,0,0
49162,-133.333333333333,4,1,1,50,0,0
49380,-133.333333333333,4,1,1,5,0,0
49453,-133.333333333333,4,1,1,50,0,0
50545,-133.333333333333,4,1,1,5,0,0
50618,-133.333333333333,4,1,1,50,0,0
50836,-133.333333333333,4,1,1,5,0,0
50909,-133.333333333333,4,1,1,50,0,0
52875,-133.333333333333,4,1,1,5,0,0
52948,-133.333333333333,4,1,1,50,0,0
53166,-133.333333333333,4,1,1,5,0,0
53239,-133.333333333333,4,1,1,50,0,0
53458,-133.333333333333,4,1,1,5,0,0
53530,-133.333333333333,4,1,1,50,0,0
53749,-133.333333333333,4,1,1,5,0,0
53822,-133.333333333333,4,1,1,50,0,0
55205,-133.333333333333,4,1,1,5,0,0
55278,-133.333333333333,4,1,1,50,0,0
55496,-133.333333333333,4,1,1,5,0,0
55569,-133.333333333333,4,1,1,50,0,0
55788,-133.333333333333,4,1,1,5,0,0
55861,-133.333333333333,4,1,1,50,0,0
57171,-76.9230769230769,4,1,1,50,0,1
75958,-90.9090909090909,4,1,1,50,0,0
94307,-76.9230769230769,4,1,1,5,0,0
94562,-76.9230769230769,4,1,1,50,0,0
102754,-100,4,1,1,50,0,0
122414,-76.9230769230769,4,1,1,50,0,1
141200,-100,4,1,1,50,0,0
141273,-100,4,1,1,5,0,0
142438,-100,4,1,1,50,0,0
159841,-76.9230769230769,4,1,1,50,0,0
169744,-100,4,1,1,50,0,0
178336,-76.9230769230769,4,1,1,50,0,1
188021,-76.9230769230769,4,1,1,5,0,1
188094,-76.9230769230769,4,1,1,50,0,1
197123,-100,4,1,1,50,0,0
215763,-100,4,2,1,40,0,0
215909,-100,4,2,1,5,0,0
216055,-100,4,2,1,40,0,0
216200,-100,4,2,1,5,0,0
216346,-100,4,2,1,40,0,0
216492,-100,4,2,1,5,0,0
216637,-100,4,2,1,40,0,0
216783,-100,4,2,1,5,0,0
216929,-100,4,2,1,40,0,0
217074,-100,4,2,1,5,0,0
217220,-100,4,2,1,40,0,0
217365,-100,4,2,1,5,0,0
217511,-100,4,2,1,40,0,0
217657,-100,4,2,1,5,0,0
217802,-100,4,2,1,40,0,0
217948,-100,4,2,1,5,0,0
218094,-100,4,2,1,40,0,0
218239,-100,4,2,1,5,0,0
218385,-100,4,2,1,40,0,0
218530,-100,4,2,1,5,0,0
218676,-100,4,2,1,40,0,0
218822,-100,4,2,1,5,0,0
218967,-100,4,2,1,40,0,0
219113,-100,4,2,1,5,0,0
219259,-100,4,2,1,40,0,0
219404,-100,4,2,1,5,0,0
219550,-100,4,2,1,40,0,0
219696,-100,4,2,1,5,0,0
219841,-100,4,2,1,40,0,0
220351,-100,4,1,1,5,0,0

[Colours]
Combo1 : 35,35,35
Combo2 : 255,162,159
Combo3 : 198,23,23
Combo4 : 207,207,207

[HitObjects]
216,192,1395,6,0,L|368:192,1,142.500005435944,2|0,0:0|0:0,0:0:0:0:
272,192,1831,1,0,0:0:0:0:
488,272,1977,2,0,L|344:272,1,142.500005435944,2|0,0:0|0:0,0:0:0:0:
424,272,2414,1,0,0:0:0:0:
160,272,2560,2,0,P|120:224|96:144,1,142.500005435944,2|0,0:0|0:0,0:0:0:0:
176,144,2996,1,0,0:0:0:0:
8,144,3142,2,0,L|8:288,1,142.500005435944,2|0,0:0|0:0,0:0:0:0:
256,272,3725,5,2,0:0:0:0:
160,272,3870,1,0,0:0:0:0:
312,208,4016,1,2,0:0:0:0:
216,208,4161,1,0,0:0:0:0:
352,136,4307,1,2,0:0:0:0:
448,136,4452,1,0,0:0:0:0:
296,80,4598,1,2,0:0:0:0:
200,80,4744,1,0,0:0:0:0:
480,208,4890,6,0,P|504:296|488:360,2,142.500005435944,2|2|2,0:0|0:0|0:0,0:0:0:0:
480,208,5763,1,0,0:0:0:0:
256,192,5909,1,0,0:0:0:0:
32,208,6055,6,0,P|8:144|32:64,1,142.500005435944,2|0,0:0|0:0,0:0:0:0:
25,74,6492,1,0,0:0:0:0:
256,192,6637,2,0,L|224:256,1,71.2500027179719,2|0,0:0|0:0,0:0:0:0:
336,264,6929,2,0,L|368:336,1,71.2500027179719
240,56,7220,6,0,L|208:128,1,71.2500027179719,2|0,0:0|0:0,0:0:0:0:
320,56,7511,2,0,L|352:128,1,71.2500027179719,2|0,0:0|0:0,0:0:0:0:
96,96,7802,2,0,L|120:168,1,71.2500027179719,2|0,0:0|0:0,0:0:0:0:
424,128,8094,1,2,0:0:0:0:
328,200,8239,1,0,0:0:0:0:
424,264,8385,5,2,0:0:0:0:
256,264,8676,1,0,0:0:0:0:
88,264,8967,1,2,0:0:0:0:
360,264,9259,1,0,0:0:0:0:
48,264,9550,1,2,0:0:0:0:
464,264,9841,1,2,0:0:0:0:
16,264,10132,5,2,0:0:0:0:
13,228,10204,1,0,0:0:0:0:
18,193,10277,1,0,0:0:0:0:
30,159,10350,1,0,0:0:0:0:
216,72,10424,2,0,L|232:120,1,35.625001358986
440,104,10569,2,0,L|456:136,1,35.625001358986
304,336,10715,5,0,0:0:0:0:
229,336,10787,1,0,0:0:0:0:
155,336,10860,1,0,0:0:0:0:
81,336,10933,1,0,0:0:0:0:
0,336,11006,2,0,L|104:336,2,104.500003189087,8|0|0,0:0|0:0|0:0,0:0:0:0:
112,248,11443,1,0,0:0:0:0:
13,228,11589,1,8,0:0:0:0:
308,117,11734,6,0,P|334:227|304:328,1,209.000006378174
224,320,12098,1,0,0:0:0:0:
48,160,12171,2,0,L|8:56,1,104.500003189087,8|0,0:0|0:0,0:0:0:0:
160,152,12463,2,0,L|120:48,1,104.500003189087
440,40,12754,2,0,L|477:137,1,104.500003189087,8|0,0:0|0:0,0:0:0:0:
144,232,13045,5,0,0:0:0:0:
84,256,13117,1,0,0:0:0:0:
80,321,13190,1,0,0:0:0:0:
136,352,13263,1,0,0:0:0:0:
368,352,13336,2,0,L|472:352,2,104.500003189087,8|0|0,0:0|0:0|0:0,0:0:0:0:
432,280,13773,1,0,0:0:0:0:
496,280,13919,1,8,0:0:0:0:
256,248,14064,6,0,P|200:152|256:88,1,209.000006378174
344,88,14501,1,8,0:0:0:0:
180,106,14647,1,0,0:0:0:0:
408,88,14793,1,0,0:0:0:0:
104,88,14938,1,8,0:0:0:0:
488,192,15084,1,8,0:0:0:0:
336,192,15375,5,0,0:0:0:0:
396,214,15447,1,0,0:0:0:0:
400,278,15520,1,0,0:0:0:0:
343,307,15593,1,0,0:0:0:0:
32,312,15666,2,0,P|24:248|40:208,1,104.500003189087,8|0,0:0|0:0,0:0:0:0:
256,192,15958,1,0,0:0:0:0:
128,192,16103,1,0,0:0:0:0:
336,192,16249,1,8,0:0:0:0:
45,105,16395,6,0,P|29:169|36:330,1,209.000006378174
112,312,16759,1,0,0:0:0:0:
343,307,16831,2,0,P|376:256|384:208,1,104.500003189087,8|0,0:0|0:0,0:0:0:0:
169,307,17123,2,0,P|136:256|128:208,1,104.500003189087
336,80,17414,1,8,0:0:0:0:
232,80,17560,1,0,0:0:0:0:
432,40,17705,5,0,0:0:0:0:
459,83,17777,1,0,0:0:0:0:
460,134,17850,1,0,0:0:0:0:
433,178,17923,1,0,0:0:0:0:
80,160,17996,2,0,P|64:96|88:56,1,104.500003189087,8|0,0:0|0:0,0:0:0:0:
80,64,18288,1,0,0:0:0:0:
336,80,18433,1,0,0:0:0:0:
336,80,18579,1,8,0:0:0:0:
56,144,18725,1,0,0:0:0:0:
240,144,19016,5,8,0:0:0:0:
188,144,19089,1,8,0:0:0:0:
240,144,19161,1,8,0:0:0:0:
368,144,19307,1,0,0:0:0:0:
368,224,19453,5,0,0:0:0:0:
315,224,19525,1,0,0:0:0:0:
263,224,19598,1,0,0:0:0:0:
211,224,19671,1,0,0:0:0:0:
424,296,19744,2,0,L|464:336,1,52.2500015945435
224,296,19890,2,0,L|176:336,1,52.2500015945435
368,224,20035,5,0,0:0:0:0:
420,224,20107,1,0,0:0:0:0:
472,224,20180,1,0,0:0:0:0:
483,224,20253,1,0,0:0:0:0:
224,144,20327,2,0,P|200:200|224:240,1,104.500003189087,8|0,0:0|0:0,0:0:0:0:
352,240,20618,2,0,P|376:296|352:336,1,104.500003189087
224,336,20909,1,8,0:0:0:0:
448,312,21055,6,0,P|480:248|456:112,1,209.000006378174
312,144,21492,1,8,0:0:0:0:
160,120,21637,1,8,0:0:0:0:
312,144,21783,2,0,L|264:240,1,104.500003189087
128,120,22074,2,0,L|176:216,1,104.500003189087,8|0,0:0|0:0,0:0:0:0:
288,328,22365,5,0,0:0:0:0:
208,328,22438,1,0,0:0:0:0:
128,328,22511,1,0,0:0:0:0:
48,328,22584,1,0,0:0:0:0:
128,328,22657,1,8,0:0:0:0:
48,328,22802,1,0,0:0:0:0:
312,144,22948,1,0,0:0:0:0:
176,144,23093,1,0,0:0:0:0:
312,144,23239,1,8,0:0:0:0:
40,240,23385,6,0,P|8:160|48:16,1,227.999993041992
312,24,23822,1,8,0:0:0:0:
176,24,23967,1,8,0:0:0:0:
416,240,24113,1,0,0:0:0:0:
462,273,24185,1,0,0:0:0:0:
492,320,24258,1,0,0:0:0:0:
504,376,24331,1,0,0:0:0:0:
80,304,24404,1,8,0:0:0:0:
80,304,24696,6,0,L|112:256,1,56.9999982604981
256,312,24841,2,0,L|288:264,1,56.9999982604981
462,273,24987,2,0,P|496:208|496:160,1,113.999996520996,8|0,0:0|0:0,0:0:0:0:
400,64,25278,2,0,P|366:129|366:177,1,113.999996520996
497,168,25569,1,8,0:0:0:0:
144,208,25715,6,0,P|200:104|144:8,1,227.999993041992
56,16,26152,1,8,0:0:0:0:
56,16,26297,1,0,0:0:0:0:
384,64,26443,1,0,0:0:0:0:
384,64,26589,1,0,0:0:0:0:
144,208,26734,1,8,0:0:0:0:
368,208,26880,1,0,0:0:0:0:
256,312,27026,5,0,0:0:0:0:
288,312,27098,1,0,0:0:0:0:
336,312,27171,1,0,0:0:0:0:
400,312,27244,1,0,0:0:0:0:
472,312,27317,1,8,0:0:0:0:
336,312,27463,1,0,0:0:0:0:
472,312,27608,1,0,0:0:0:0:
336,312,27754,1,0,0:0:0:0:
192,312,27899,1,8,0:0:0:0:
40,312,28045,6,0,P|16:248|40:104,1,209.000006378174
264,64,28409,1,0,0:0:0:0:
288,115,28481,1,8,0:0:0:0:
299,171,28554,1,0,0:0:0:0:
294,227,28627,1,0,0:0:0:0:
275,281,28700,1,0,0:0:0:0:
408,192,28773,6,0,L|432:256,1,56.9999982604981
176,192,28919,2,0,L|152:256,1,56.9999982604981
464,56,29064,1,8,0:0:0:0:
464,56,29137,1,0,0:0:0:0:
464,56,29210,1,0,0:0:0:0:
464,56,29283,1,0,0:0:0:0:
120,40,29356,5,4,0:0:0:0:
215,40,29647,5,0,0:0:0:0:
167,40,29719,1,0,0:0:0:0:
120,40,29792,1,0,0:0:0:0:
256,112,29938,1,0,0:0:0:0:
208,112,30010,1,0,0:0:0:0:
161,112,30083,1,0,0:0:0:0:
304,184,30229,1,0,0:0:0:0:
256,184,30301,1,0,0:0:0:0:
209,184,30374,1,0,0:0:0:0:
441,245,30521,5,0,0:0:0:0:
304,336,30666,1,0,0:0:0:0:
351,336,30738,1,0,0:0:0:0:
399,336,30811,1,0,0:0:0:0:
280,336,30958,1,0,0:0:0:0:
416,336,31103,5,0,0:0:0:0:
435,292,31175,1,0,0:0:0:0:
441,245,31248,1,0,0:0:0:0:
435,199,31321,1,0,0:0:0:0:
416,155,31394,1,0,0:0:0:0:
512,152,31540,1,0,0:0:0:0:
256,144,31686,5,0,0:0:0:0:
360,64,31977,1,0,0:0:0:0:
407,64,32049,1,0,0:0:0:0:
455,64,32122,1,0,0:0:0:0:
320,144,32268,1,0,0:0:0:0:
367,144,32340,1,0,0:0:0:0:
415,144,32413,1,0,0:0:0:0:
104,192,32560,1,0,0:0:0:0:
56,192,32632,1,0,0:0:0:0:
9,192,32705,1,0,0:0:0:0:
256,256,32851,5,0,0:0:0:0:
256,256,33142,1,0,0:0:0:0:
224,256,33215,1,0,0:0:0:0:
192,256,33288,1,0,0:0:0:0:
352,280,33433,5,0,0:0:0:0:
399,283,33505,1,0,0:0:0:0:
445,273,33578,1,0,0:0:0:0:
485,248,33651,1,0,0:0:0:0:
256,144,33725,1,0,0:0:0:0:
208,140,33797,1,0,0:0:0:0:
162,150,33870,1,0,0:0:0:0:
122,175,33943,1,0,0:0:0:0:
400,144,34016,5,2,0:0:0:0:
256,144,34307,1,0,0:0:0:0:
303,144,34379,1,0,0:0:0:0:
351,144,34452,1,0,0:0:0:0:
144,72,34598,1,0,0:0:0:0:
352,72,34890,5,0,0:0:0:0:
304,72,34962,1,0,0:0:0:0:
257,72,35035,1,0,0:0:0:0:
512,48,35181,1,0,0:0:0:0:
512,48,35327,1,0,0:0:0:0:
256,144,35472,5,0,0:0:0:0:
303,144,35544,1,0,0:0:0:0:
351,144,35617,1,0,0:0:0:0:
398,144,35690,1,0,0:0:0:0:
448,144,35763,1,0,0:0:0:0:
496,144,35836,1,0,0:0:0:0:
448,144,35909,1,0,0:0:0:0:
398,144,35982,1,0,0:0:0:0:
176,320,36055,5,0,0:0:0:0:
128,320,36127,1,0,0:0:0:0:
81,320,36200,1,0,0:0:0:0:
33,320,36273,1,0,0:0:0:0:
352,320,36346,5,0,0:0:0:0:
464,320,36492,1,0,0:0:0:0:
464,320,36637,1,0,0:0:0:0:
464,320,36783,1,0,0:0:0:0:
296,320,36929,5,0,0:0:0:0:
343,320,37001,1,0,0:0:0:0:
391,320,37074,1,0,0:0:0:0:
249,320,37220,1,0,0:0:0:0:
296,320,37292,1,0,0:0:0:0:
344,320,37365,1,0,0:0:0:0:
96,224,37511,6,0,P|72:136|80:72,1,142.5
416,224,37802,2,0,P|440:136|432:72,1,142.5
216,48,38094,5,8,0:3:0:0:
194,90,38166,1,8,0:3:0:0:
182,136,38239,1,8,0:3:0:0:
182,183,38312,1,8,0:3:0:0:
416,224,38385,1,8,0:3:0:0:
438,182,38457,1,8,0:3:0:0:
450,136,38530,1,8,0:3:0:0:
450,89,38603,1,8,0:3:0:0:
96,224,38676,5,4,0:0:0:0:
208,224,38822,1,0,0:0:0:0:
96,224,38967,1,8,0:0:0:0:
208,224,39113,1,0,0:0:0:0:
16,224,39259,2,0,P|8:128|48:40,1,190,0|8,0:0|0:0,0:0:0:0:
44,44,39696,1,0,0:0:0:0:
320,40,39841,6,0,P|344:136|336:240,1,190,0|8,0:0|0:0,0:0:0:0:
339,226,40278,1,0,0:0:0:0:
176,224,40351,1,0,0:0:0:0:
16,224,40424,2,0,P|16:288|32:336,1,95
176,224,40715,2,0,P|184:280|176:320,1,95,8|0,0:0|0:0,0:0:0:0:
16,128,41006,5,0,0:0:0:0:
256,104,41152,2,0,L|160:104,1,95,0|8,0:0|0:0,0:0:0:0:
304,104,41443,2,0,L|200:104,1,95
352,104,41734,1,0,0:0:0:0:
192,104,41880,1,8,0:0:0:0:
352,104,42026,1,0,0:0:0:0:
464,104,42171,6,0,P|488:160|496:288,1,190,0|8,0:0|0:0,0:0:0:0:
384,288,42608,1,0,0:0:0:0:
328,288,42681,1,0,0:0:0:0:
96,288,42754,2,0,P|80:240|120:96,1,190,0|8,0:0|0:0,0:0:0:0:
110,107,43191,1,0,0:0:0:0:
464,104,43336,5,0,0:0:0:0:
352,104,43482,2,0,L|448:104,1,95,0|8,0:0|0:0,0:0:0:0:
296,104,43773,1,0,0:0:0:0:
464,104,43919,2,0,P|496:160|512:288,1,190,0|8,0:0|0:0,0:0:0:0:
512,282,44356,1,0,0:0:0:0:
264,208,44501,6,0,P|248:280|248:312,1,95
384,232,44793,2,0,P|400:304|400:336,1,95,8|0,0:0|0:0,0:0:0:0:
344,328,45011,1,0,0:0:0:0:
64,208,45084,2,0,P|48:136|48:104,1,95
184,184,45376,2,0,P|200:112|200:80,1,95,8|0,0:0|0:0,0:0:0:0:
0,40,45666,5,0,0:0:0:0:
0,40,45812,2,0,L|104:40,1,95,0|8,0:0|0:0,0:0:0:0:
208,40,46103,1,0,0:0:0:0:
440,40,46249,2,0,P|480:104|488:176,1,142.5
304,184,46540,2,0,P|272:232|256:336,1,142.5,8|0,0:0|0:0,0:0:0:0:
392,312,46831,1,0,0:0:0:0:
120,312,47123,1,8,0:0:0:0:
496,312,47414,5,0,0:0:0:0:
376,312,47560,1,0,0:0:0:0:
248,312,47705,1,0,0:0:0:0:
120,312,47851,1,8,0:0:0:0:
384,192,47996,6,0,L|496:192,1,106.875004076958,4|0,0:0|0:0,0:0:0:0:
312,192,48288,2,0,L|200:192,1,106.875004076958
40,192,48579,2,0,L|152:192,1,106.875004076958
448,112,48870,2,0,L|336:112,1,106.875004076958
120,312,49162,6,0,L|8:312,1,106.875004076958
192,312,49453,1,0,0:0:0:0:
13,312,49744,1,0,0:0:0:0:
264,312,50035,1,0,0:0:0:0:
29,232,50327,6,0,P|80:192|104:144,1,106.875004076958
248,72,50618,2,0,P|208:112|192:168,1,106.875004076958
32,320,50909,1,0,0:0:0:0:
272,320,51200,1,0,0:0:0:0:
176,320,51346,1,0,0:0:0:0:
440,320,51492,1,0,0:0:0:0:
256,240,51783,1,0,0:0:0:0:
72,320,52074,5,0,0:0:0:0:
45,297,52146,1,0,0:0:0:0:
30,265,52219,1,0,0:0:0:0:
30,229,52292,1,0,0:0:0:0:
168,192,52365,1,0,0:0:0:0:
194,168,52437,1,0,0:0:0:0:
210,136,52510,1,0,0:0:0:0:
216,101,52583,1,0,0:0:0:0:
464,40,52657,6,0,L|464:96|464:152,1,106.875004076958
288,160,52948,2,0,L|344:192|368:240,1,106.875004076958
488,312,53239,2,0,P|512:256|504:200,1,106.875004076958
272,192,53530,2,0,P|248:248|256:304,1,106.875004076958
304,328,53822,5,0,0:0:0:0:
352,328,53967,1,0,0:0:0:0:
400,328,54113,1,0,0:0:0:0:
448,328,54259,1,0,0:0:0:0:
496,328,54404,1,0,0:0:0:0:
48,304,54696,1,0,0:0:0:0:
216,304,54987,6,0,P|240:264|240:200,1,106.875004076958
96,56,55278,2,0,P|72:96|72:160,1,106.875004076958
441,155,55569,2,0,P|441:102|416:56,1,106.875004076958
96,56,55861,5,0,0:0:0:0:
256,48,56152,5,0,0:0:0:0:
80,32,56443,5,0,0:0:0:0:
488,32,56734,5,0,0:0:0:0:
464,32,57026,5,0,0:0:0:0:
192,40,57171,2,0,P|272:104|176:176,1,246.999988693238,4|0,0:0|0:0,0:0:0:0:
488,192,57608,1,8,0:0:0:0:
424,192,57754,1,0,0:0:0:0:
360,192,57899,1,0,0:0:0:0:
40,192,58045,1,0,0:0:0:0:
40,192,58191,1,8,0:0:0:0:
400,296,58336,6,0,P|448:240|376:96,1,246.999988693238,4|0,0:0|0:0,0:0:0:0:
144,96,58773,1,8,0:0:0:0:
304,96,58919,1,0,0:0:0:0:
16,96,59064,1,0,0:0:0:0:
256,192,59356,1,8,0:0:0:0:
40,192,59501,6,0,B|0:296|0:296|144:296,1,246.999988693238,4|0,0:0|0:0,0:0:0:0:
16,96,59938,1,8,0:0:0:0:
184,96,60084,1,0,0:0:0:0:
48,96,60229,1,0,0:0:0:0:
216,96,60375,1,0,0:0:0:0:
80,96,60521,1,8,0:0:0:0:
424,96,60666,6,0,P|336:168|424:224,1,246.999988693238,4|0,0:0|0:0,0:0:0:0:
256,224,61103,1,8,0:0:0:0:
95,225,61249,1,0,0:0:0:0:
480,224,61395,1,0,0:0:0:0:
95,225,61686,1,8,0:0:0:0:
95,225,61977,6,0,L|8:216,2,82.3333295644126
288,128,62268,2,0,P|344:72|288:32,1,164.666659128825
104,88,62560,2,0,L|16:112,2,82.3333295644126
360,224,62851,2,0,L|440:256,2,82.3333295644126
159,289,63142,5,0,0:0:0:0:
98,300,63214,1,0,0:0:0:0:
37,311,63287,1,0,0:0:0:0:
95,225,63361,1,0,0:0:0:0:
312,224,63433,5,0,0:0:0:0:
372,235,63506,1,0,0:0:0:0:
433,246,63578,1,0,0:0:0:0:
376,160,63652,1,0,0:0:0:0:
128,88,63725,5,0,0:0:0:0:
67,99,63797,1,0,0:0:0:0:
6,110,63870,1,0,0:0:0:0:
64,24,63944,1,0,0:0:0:0:
312,32,64016,1,4,0:0:0:0:
208,56,64162,1,0,0:0:0:0:
440,88,64307,6,8,L|504:120,2,61.7499971733095
96,224,64598,2,0,L|0:136,3,123.499994346619
4,140,65181,1,8,0:0:0:0:
480,192,65327,6,0,L|224:192,1,246.999988693238
368,272,65763,2,0,L|240:272,1,123.499994346619,8|0,0:0|0:0,0:0:0:0:
408,352,66055,1,0,0:0:0:0:
136,352,66346,1,8,0:0:0:0:
408,352,66492,6,0,P|456:248|352:176,1,246.999988693238,4|0,0:0|0:0,0:0:0:0:
224,240,66929,2,0,L|352:272,1,123.499994346619,8|0,0:0|0:0,0:0:0:0:
192,184,67220,2,0,L|320:216,1,123.499994346619
224,240,67511,1,8,0:0:0:0:
0,88,67657,6,0,L|264:88,1,246.999988693238,4|0,0:0|0:0,0:0:0:0:
144,88,68094,1,8,0:0:0:0:
464,80,68239,1,0,0:0:0:0:
368,80,68385,1,0,0:0:0:0:
512,80,68530,1,0,0:0:0:0:
464,80,68603,1,0,0:0:0:0:
416,80,68676,1,8,0:0:0:0:
48,240,68822,6,0,L|312:240,1,246.999988693238,4|0,0:0|0:0,0:0:0:0:
160,168,69259,2,0,L|296:168,1,123.499994346619,8|0,0:0|0:0,0:0:0:0:
144,88,69550,2,0,L|280:88,1,123.499994346619
8,88,69841,1,8,0:0:0:0:
464,192,69987,6,0,B|344:192|344:192|480:192,1,246.999988693238,4|0,0:0|0:0,0:0:0:0:
344,272,70424,2,8,L|488:272,1,123.499994346619
304,344,70715,1,0,0:0:0:0:
504,344,71006,1,8,0:0:0:0:
256,280,71152,1,0,0:0:0:0:
8,344,71297,6,0,L|8:256,1,82.3333295644126
96,264,71492,1,0,0:0:0:0:
384,192,71589,2,0,L|384:104,1,82.3333295644126,8|0,0:0|0:0,0:0:0:0:
296,112,71784,1,0,0:0:0:0:
88,88,71880,2,0,L|0:88,2,82.3333295644126
344,40,72171,1,8,0:0:0:0:
426,40,72268,1,0,0:0:0:0:
508,40,72365,1,0,0:0:0:0:
256,280,72463,6,0,L|224:336,1,61.7499971733095,8|0,0:0|0:0,0:0:0:0:
416,296,72608,2,0,L|440:360,1,61.7499971733095
224,192,72754,2,0,L|176:248,1,61.7499971733095,8|0,0:0|0:0,0:0:0:0:
448,200,72899,2,0,L|488:248,1,61.7499971733095
160,112,73045,6,0,L|96:152,1,61.7499971733095,8|0,0:0|0:0,0:0:0:0:
464,112,73191,2,0,L|512:152,1,61.7499971733095
104,256,73336,1,8,0:0:0:0:
104,256,73482,1,4,0:0:0:0:
344,288,73773,5,0,0:0:0:0:
344,288,73919,1,8,0:0:0:0:
64,144,74064,1,0,0:0:0:0:
160,112,74210,1,0,0:0:0:0:
256,128,74356,1,0,0:0:0:0:
160,112,74501,1,8,0:0:0:0:
432,232,74647,1,0,0:0:0:0:
88,336,74793,6,0,P|48:264|104:176,1,185.249991519928,4|0,0:0|0:0,0:0:0:0:
424,336,75084,1,8,0:0:0:0:
424,336,75375,2,0,P|464:264|408:176,1,185.249991519928
88,336,75666,1,8,0:0:0:0:
52,287,75738,1,8,0:0:0:0:
54,226,75811,1,8,0:0:0:0:
94,180,75884,1,8,0:0:0:0:
432,128,75958,5,4,0:0:0:0:
476,89,76030,1,0,0:0:0:0:
465,31,76103,1,0,0:0:0:0:
409,13,76176,1,0,0:0:0:0:
168,64,76249,2,0,L|48:80,2,104.500003189087,8|0|0,0:0|0:0|0:0,0:0:0:0:
304,48,76686,1,0,0:0:0:0:
168,64,76831,1,8,0:0:0:0:
432,208,76977,6,0,P|480:256|424:368,1,209.000006378174
425,367,77414,1,8,0:0:0:0:
256,288,77560,1,8,0:0:0:0:
432,208,77705,1,0,0:0:0:0:
432,208,77851,1,0,0:0:0:0:
24,208,77996,1,8,0:0:0:0:
80,208,78142,1,0,0:0:0:0:
368,144,78288,5,0,0:0:0:0:
427,119,78360,1,0,0:0:0:0:
433,55,78433,1,0,0:0:0:0:
379,21,78506,1,0,0:0:0:0:
136,56,78579,2,0,P|168:88|128:128,1,104.500003189087,8|0,0:0|0:0,0:0:0:0:
262,127,78870,2,0,P|231:91|264:56,1,104.500003189087
137,127,79162,1,8,0:0:0:0:
427,119,79307,6,0,P|464:176|432:312,1,209.000006378174,4|0,0:0|0:0,0:0:0:0:
360,304,79671,1,0,0:0:0:0:
144,279,79744,2,0,P|88:239|80:199,1,104.500003189087,8|0,0:0|0:0,0:0:0:0:
264,128,80035,2,0,L|264:232,1,104.500003189087
64,72,80327,1,8,0:0:0:0:
64,72,80618,6,0,L|-8:72,1,52.2500015945435
224,32,80763,2,0,L|288:32,1,52.2500015945435
464,32,80909,2,0,P|496:80|464:104,1,104.500003189087,8|0,0:0|0:0,0:0:0:0:
264,128,81200,2,0,P|232:176|264:200,1,104.500003189087
416,200,81492,1,8,0:0:0:0:
104,312,81637,6,0,P|48:256|112:160,1,209.000006378174
107,160,82001,1,0,0:0:0:0:
416,200,82074,2,0,P|408:256|416:304,1,104.500003189087,8|0,0:0|0:0,0:0:0:0:
256,240,82365,2,0,P|272:296|256:352,1,104.500003189087
504,104,82657,2,0,P|496:160|504:208,1,104.500003189087,8|0,0:0|0:0,0:0:0:0:
107,160,82948,5,0,0:0:0:0:
147,129,83020,1,0,0:0:0:0:
151,78,83093,1,0,0:0:0:0:
116,41,83166,1,0,0:0:0:0:
304,32,83239,2,0,P|368:40|416:32,1,104.500003189087,8|0,0:0|0:0,0:0:0:0:
256,240,83530,2,0,L|152:240,1,104.500003189087
296,240,83822,1,8,0:0:0:0:
40,192,83967,5,4,0:0:0:0:
256,152,84259,6,0,L|200:152,1,52.2500015945435
416,144,84404,1,0,0:0:0:0:
451,180,84476,1,0,0:0:0:0:
453,231,84549,1,0,0:0:0:0:
420,269,84622,1,0,0:0:0:0:
256,240,84696,6,0,L|232:296,1,52.2500015945435
420,269,84841,2,0,L|440:336,1,52.2500015945435
152,224,84987,1,0,0:0:0:0:
122,182,85059,1,0,0:0:0:0:
128,131,85132,1,0,0:0:0:0:
166,98,85205,1,0,0:0:0:0:
448,72,85278,5,4,0:0:0:0:
416,192,94307,6,0,L|416:160,6,30.8749985866547
160,192,94598,5,4,0:0:0:0:
256,192,94744,1,0,0:0:0:0:
72,192,94890,1,8,0:0:0:0:
200,192,95035,1,0,0:0:0:0:
48,192,95181,6,0,P|16:280|40:368,1,185.249991519928
256,344,95472,1,8,0:0:0:0:
176,344,95618,1,0,0:0:0:0:
256,344,95763,1,0,0:0:0:0:
336,344,95909,1,0,0:0:0:0:
104,88,96055,1,8,0:0:0:0:
104,88,96200,2,0,L|232:88,2,123.499994346619
256,88,96637,2,0,L|128:88,1,123.499994346619,8|0,0:0|0:0,0:0:0:0:
400,88,97074,5,0,0:0:0:0:
400,88,97220,1,8,0:0:0:0:
152,192,97365,1,0,0:0:0:0:
256,192,97511,1,0,0:0:0:0:
112,288,97657,1,0,0:0:0:0:
8,288,97802,1,8,0:0:0:0:
256,344,97948,1,0,0:0:0:0:
360,344,98094,1,0,0:0:0:0:
56,192,98385,5,8,0:0:0:0:
56,192,98530,2,0,L|120:176,1,61.7499971733095
376,192,98676,1,8,0:0:0:0:
376,192,98822,1,0,0:0:0:0:
256,192,98967,1,0,0:0:0:0:
440,192,99113,1,8,0:0:0:0:
72,192,99259,6,0,B|8:120|8:120|160:120,1,246.999988693238,4|8,0:0|0:0,0:0:0:0:
288,120,99696,1,0,0:0:0:0:
158,120,99841,2,0,P|280:104|408:120,1,246.999988693238,0|8,0:0|0:0,0:0:0:0:
405,120,100278,1,0,0:0:0:0:
264,264,100424,2,0,P|384:288|512:264,1,246.999988693238,0|8,0:0|0:0,0:0:0:0:
511,264,100861,1,0,0:0:0:0:
440,264,100933,1,0,0:0:0:0:
80,264,101006,2,0,L|208:264,1,123.499994346619
512,192,101297,2,0,L|384:192,1,123.499994346619,8|8,0:0|0:0,0:0:0:0:
512,104,101734,5,0,0:0:0:0:
384,104,101880,1,8,0:0:0:0:
512,104,102026,1,0,0:0:0:0:
256,104,102171,1,0,0:0:0:0:
384,104,102317,1,0,0:0:0:0:
88,104,102463,1,8,0:0:0:0:
136,216,102754,5,8,0:0:0:0:
52,216,102851,1,0,0:0:0:0:
92,184,102948,1,0,0:0:0:0:
256,320,103045,5,8,0:0:0:0:
172,320,103142,1,0,0:0:0:0:
212,288,103239,1,0,0:0:0:0:
360,192,103336,5,8,0:0:0:0:
423,192,103433,1,0,0:0:0:0:
487,192,103530,1,0,0:0:0:0:
256,104,103628,1,8,0:0:0:0:
193,104,103725,1,8,0:0:0:0:
129,104,103822,1,8,0:0:0:0:
320,40,103919,6,0,P|416:24|512:40,1,190,4|8,0:0|0:0,0:0:0:0:
432,40,104307,1,0,0:0:0:0:
320,40,104404,1,0,0:0:0:0:
80,32,104501,6,0,P|24:72|80:160,1,190,0|8,0:0|0:0,0:0:0:0:
152,160,104890,1,0,0:0:0:0:
224,160,104987,1,0,0:0:0:0:
472,232,105084,5,0,0:0:0:0:
408,232,105181,1,0,0:0:0:0:
345,232,105278,1,0,0:0:0:0:
176,288,105375,1,8,0:0:0:0:
239,288,105472,1,0,0:0:0:0:
302,288,105569,1,0,0:0:0:0:
504,360,105666,5,0,0:0:0:0:
440,360,105763,1,0,0:0:0:0:
377,360,105860,1,0,0:0:0:0:
160,360,105958,1,8,0:0:0:0:
96,360,106055,1,0,0:0:0:0:
33,360,106152,1,0,0:0:0:0:
352,152,106249,6,0,P|432:96|440:56,1,126.666666666667,4|0,0:0|0:0,0:0:0:0:
160,152,106540,2,0,P|80:96|72:56,1,126.666666666667,8|0,0:0|0:0,0:0:0:0:
256,96,106831,1,0,0:0:0:0:
285,150,106928,1,0,0:0:0:0:
280,213,107025,1,0,0:0:0:0:
33,360,107123,1,8,0:0:0:0:
28,297,107220,1,0,0:0:0:0:
57,242,107317,1,0,0:0:0:0:
304,288,107414,6,0,L|432:288,1,126.666666666667,4|0,0:0|0:0,0:0:0:0:
224,336,107705,2,0,L|88:336,1,126.666666666667,8|0,0:0|0:0,0:0:0:0:
320,368,107996,1,0,0:0:0:0:
383,368,108093,1,0,0:0:0:0:
446,368,108190,1,0,0:0:0:0:
136,184,108288,2,0,P|88:128|72:64,1,126.666666666667,12|0,0:0|0:0,0:0:0:0:
328,64,108579,5,4,0:0:0:0:
391,64,108676,1,0,0:0:0:0:
454,64,108773,1,0,0:0:0:0:
216,136,108870,1,8,0:0:0:0:
96,136,109064,1,0,0:0:0:0:
328,64,109162,1,0,0:0:0:0:
391,64,109259,1,0,0:0:0:0:
454,64,109356,1,0,0:0:0:0:
216,136,109453,1,8,0:0:0:0:
96,136,109647,1,0,0:0:0:0:
416,192,109744,6,0,L|479:192,2,63.3333333333333
256,256,110035,2,0,L|192:256,2,63.3333333333333,8|0|0,0:0|0:0|0:0,0:0:0:0:
448,328,110327,2,0,L|511:328,2,63.3333333333333
216,352,110618,1,8,0:0:0:0:
152,352,110715,1,0,0:0:0:0:
89,352,110812,1,0,0:0:0:0:
363,82,110909,6,0,P|402:130|416:192,1,126.666666666667,4|0,0:0|0:0,0:0:0:0:
148,82,111200,2,0,P|109:130|96:192,1,126.666666666667,12|0,0:0|0:0,0:0:0:0:
408,80,111492,2,0,P|447:128|460:189,1,126.666666666667,4|0,0:0|0:0,0:0:0:0:
104,80,111783,2,0,P|64:128|51:189,1,126.666666666667,12|0,0:0|0:0,0:0:0:0:
296,256,112074,6,0,L|360:256,2,63.3333333333333
256,312,112365,2,0,L|320:312,2,63.3333333333333,8|0|0,0:0|0:0|0:0,0:0:0:0:
400,312,112657,2,0,L|464:312,2,63.3333333333333
448,256,112948,2,0,L|512:256,2,63.3333333333333,8|0|0,0:0|0:0|0:0,0:0:0:0:
112,200,113239,6,0,P|56:256|40:312,1,126.666666666667,4|0,0:0|0:0,0:0:0:0:
248,312,113530,1,8,0:0:0:0:
311,312,113627,1,0,0:0:0:0:
374,312,113724,1,0,0:0:0:0:
112,200,113822,2,0,P|64:128|64:80,1,126.666666666667
128,88,114113,1,8,0:0:0:0:
191,88,114210,1,0,0:0:0:0:
254,88,114307,1,0,0:0:0:0:
432,88,114404,6,0,L|496:88,5,63.3333333333333,8|0|0|8|0|0,0:0|0:0|0:0|0:0|0:0|0:0,0:0:0:0:
264,192,114987,2,0,L|200:192,5,63.3333333333333,8|0|0|8|0|0,0:0|0:0|0:0|0:0|0:0|0:0,0:0:0:0:
448,192,115569,6,0,L|512:192,2,63.3333333333333,4|0|0,0:0|0:0|0:0,0:0:0:0:
224,280,115861,2,0,L|160:280,2,63.3333333333333,8|0|0,0:0|0:0|0:0,0:0:0:0:
416,280,116152,2,0,L|480:280,2,63.3333333333333
192,360,116443,2,0,L|128:360,2,63.3333333333333,8|0|0,0:0|0:0|0:0,0:0:0:0:
448,192,116734,6,0,B|496:96|496:96|464:72,1,142.5,4|0,0:0|0:0,0:0:0:0:
64,192,117026,2,0,B|16:96|16:96|48:72,1,142.5,4|0,0:0|0:0,0:0:0:0:
320,192,117317,2,0,L|384:192,2,63.3333333333333
112,280,117608,2,0,L|248:280,1,126.666666666667,8|0,0:0|0:0,0:0:0:0:
64,192,117899,6,0,L|256:192,1,190,4|8,0:0|0:0,0:0:0:0:
254,192,118482,1,0,0:0:0:0:
176,192,118628,1,0,0:0:0:0:
464,192,118773,2,0,L|360:192,1,95,8|0,0:0|0:0,0:0:0:0:
256,96,119064,5,0,0:0:0:0:
336,96,119210,1,0,0:0:0:0:
200,32,119356,1,8,0:0:0:0:
280,32,119502,1,0,0:0:0:0:
56,40,119647,2,0,P|16:120|56:216,1,190,0|8,0:0|0:0,0:0:0:0:
49,209,120229,6,0,L|112:208,1,63.3333333333333,8|0,0:0|0:0,0:0:0:0:
176,208,120424,1,0,0:0:0:0:
112,280,120521,2,0,L|175:279,1,63.3333333333333,8|0,0:0|0:0,0:0:0:0:
239,279,120716,1,0,0:0:0:0:
488,120,120812,6,0,L|425:119,1,63.3333333333333,8|0,0:0|0:0,0:0:0:0:
361,119,121007,1,0,0:0:0:0:
425,191,121104,2,0,L|362:190,1,63.3333333333333,8|0,0:0|0:0,0:0:0:0:
298,190,121299,1,0,0:0:0:0:
496,248,121395,5,8,0:0:0:0:
504,310,121492,1,8,0:0:0:0:
492,372,121589,1,8,0:0:0:0:
239,279,121686,1,0,0:0:0:0:
227,217,121783,1,0,0:0:0:0:
236,155,121880,1,0,0:0:0:0:
488,120,121977,5,8,0:0:0:0:
488,120,122268,1,8,0:0:0:0:
236,155,122414,6,0,P|328:224|416:144,1,246.999988693238,4|0,0:0|0:0,0:0:0:0:
120,48,122851,1,8,0:0:0:0:
240,48,122996,1,0,0:0:0:0:
0,48,123142,1,0,0:0:0:0:
120,48,123288,1,0,0:0:0:0:
240,48,123433,1,8,0:0:0:0:
512,232,123579,6,0,L|248:232,1,246.999988693238
360,232,124016,1,8,0:0:0:0:
32,232,124162,1,0,0:0:0:0:
112,232,124307,1,0,0:0:0:0:
112,232,124598,1,8,0:0:0:0:
488,128,124744,6,0,B|352:128|352:128|416:128|416:128|232:128,1,370.499983039857,4|8,0:0|0:0,0:0:0:0:
336,128,125327,1,0,0:0:0:0:
24,40,125472,1,0,0:0:0:0:
120,40,125618,1,0,0:0:0:0:
24,40,125763,1,8,0:0:0:0:
367,40,125909,6,0,L|111:40,1,246.999988693238,4|0,0:0|0:0,0:0:0:0:
200,40,126346,1,8,0:0:0:0:
512,192,126492,1,0,0:0:0:0:
424,192,126637,1,8,0:0:0:0:
424,192,126929,1,8,0:0:0:0:
512,192,127074,1,0,0:0:0:0:
160,192,127220,6,0,P|112:200|80:224,2,82.3333295644126,4|0|0,0:0|0:0|0:0,0:0:0:0:
360,104,127511,2,0,P|408:96|440:72,2,82.3333295644126,8|0|0,0:0|0:0|0:0,0:0:0:0:
144,104,127802,2,0,P|64:80|24:8,1,164.666659128825
342,192,128094,1,8,0:0:0:0:
424,192,128191,1,0,0:0:0:0:
506,192,128288,1,0,0:0:0:0:
208,272,128385,1,8,0:0:0:0:
148,283,128457,1,0,0:0:0:0:
95,254,128530,1,0,0:0:0:0:
71,198,128603,1,0,0:0:0:0:
360,104,128676,6,0,L|424:104,1,61.7499971733095,8|0,0:0|0:0,0:0:0:0:
144,104,128822,2,0,L|72:104,1,61.7499971733095
424,192,128967,2,0,L|496:192,1,61.7499971733095,8|0,0:0|0:0,0:0:0:0:
208,192,129113,2,0,L|144:192,1,61.7499971733095
472,272,129259,1,8,0:0:0:0:
392,272,129404,1,0,0:0:0:0:
512,344,129550,5,0,0:0:0:0:
450,344,129622,1,0,0:0:0:0:
388,344,129695,1,8,0:0:0:0:
120,344,129841,2,0,L|256:344,1,123.499994346619,4|0,0:0|0:0,0:0:0:0:
0,344,130132,1,8,0:0:0:0:
120,344,130278,1,0,0:0:0:0:
0,344,130424,1,8,0:0:0:0:
344,192,130569,6,0,L|88:192,1,246.999988693238,4|0,0:0|0:0,0:0:0:0:
224,192,131006,2,0,L|80:192,1,123.499994346619,8|0,0:0|0:0,0:0:0:0:
464,192,131297,1,8,0:0:0:0:
464,192,131589,1,8,0:0:0:0:
88,192,131734,2,0,B|216:192|216:192|80:192,1,246.999988693238,4|0,0:0|0:0,0:0:0:0:
272,192,132171,2,0,P|328:152|352:96,1,123.499994346619,8|0,0:0|0:0,0:0:0:0:
176,192,132463,2,0,P|232:152|256:96,1,123.499994346619
160,96,132754,1,8,0:0:0:0:
464,192,132899,6,0,P|368:224|304:368,1,246.999988693238,4|0,0:0|0:0,0:0:0:0:
392,352,133336,1,8,0:0:0:0:
216,352,133482,1,0,0:0:0:0:
512,352,133628,1,0,0:0:0:0:
392,352,133773,1,0,0:0:0:0:
280,352,133919,1,8,0:0:0:0:
0,192,134064,6,0,L|248:192,1,246.999988693238,4|0,0:0|0:0,0:0:0:0:
64,112,134501,2,0,P|16:64|16:8,1,123.499994346619,8|0,0:0|0:0,0:0:0:0:
168,8,134793,1,0,0:0:0:0:
96,8,134938,1,0,0:0:0:0:
400,8,135084,1,8,0:0:0:0:
56,192,135229,6,0,B|208:192|208:192|112:192,1,246.999988693238,4|0,0:0|0:0,0:0:0:0:
288,192,135666,2,0,P|352:224|360:280,1,123.499994346619,8|0,0:0|0:0,0:0:0:0:
184,272,135958,1,8,0:0:0:0:
184,272,136249,1,8,0:0:0:0:
256,272,136395,1,0,0:0:0:0:
128,192,136540,5,4,0:0:0:0:
92,172,136637,1,0,0:0:0:0:
75,135,136734,1,0,0:0:0:0:
288,192,136831,2,0,P|336:240|312:336,1,164.666659128825,8|0,0:0|0:0,0:0:0:0:
136,272,137123,1,0,0:0:0:0:
100,292,137220,1,0,0:0:0:0:
83,329,137317,1,0,0:0:0:0:
288,192,137414,1,8,0:0:0:0:
324,172,137511,1,0,0:0:0:0:
341,135,137608,1,0,0:0:0:0:
75,73,137705,6,0,L|75:137,1,61.7499971733095,8|0,0:0|0:0,0:0:0:0:
168,136,137851,2,0,L|168:200,1,61.7499971733095
75,73,137996,2,0,L|75:137,1,61.7499971733095,8|0,0:0|0:0,0:0:0:0:
168,136,138142,2,0,L|168:200,1,61.7499971733095
434,72,138288,2,0,L|434:136,1,61.7499971733095,8|0,0:0|0:0,0:0:0:0:
341,135,138434,2,0,L|341:199,1,61.7499971733095
434,133,138579,1,12,0:0:0:0:
168,136,138725,6,0,B|240:136|240:136|176:136,1,123.499994346619
232,136,138943,1,0,0:0:0:0:
434,133,139016,1,0,0:0:0:0:
344,184,139162,1,8,0:0:0:0:
496,184,139307,1,0,0:0:0:0:
104,256,139453,1,8,0:0:0:0:
104,256,139598,1,8,0:0:0:0:
432,264,139744,1,8,0:0:0:0:
432,264,139890,1,0,0:0:0:0:
168,136,140035,5,8,0:0:0:0:
220,162,140107,1,0,0:0:0:0:
222,220,140180,1,0,0:0:0:0:
170,249,140253,1,0,0:0:0:0:
434,133,140327,1,0,0:0:0:0:
434,133,140618,5,8,0:0:0:0:
372,141,140690,1,0,0:0:0:0:
311,150,140763,1,0,0:0:0:0:
250,158,140836,1,0,0:0:0:0:
376,56,140909,1,8,0:0:0:0:
327,94,140981,1,0,0:0:0:0:
279,132,141054,1,0,0:0:0:0:
230,170,141127,1,0,0:0:0:0:
488,56,141200,5,4,0:0:0:0:
256,192,141273,12,0,142365,0:0:0:0:
256,192,150521,5,4,0:0:0:0:
184,192,150666,1,0,2:0:0:0:
328,192,150812,1,0,2:0:0:0:
168,192,150958,1,0,2:0:0:0:
464,104,151103,1,0,2:0:0:0:
376,104,151249,1,0,2:0:0:0:
288,104,151395,1,0,2:0:0:0:
376,104,151540,1,0,2:0:0:0:
0,288,151686,6,0,B|232:288|232:288|104:288|104:288|328:288,1,570,4|0,0:0|2:0,0:0:0:0:
480,192,152851,5,4,0:0:0:0:
312,192,152996,1,0,2:0:0:0:
384,192,153142,1,0,2:0:0:0:
64,192,153288,1,0,2:0:0:0:
200,192,153433,1,0,2:0:0:0:
128,192,153579,1,0,2:0:0:0:
392,72,153725,1,0,2:0:0:0:
464,72,153870,1,0,2:0:0:0:
512,288,154016,6,0,B|280:288|280:288|408:288|408:288|184:288,1,570,4|0,0:0|2:0,0:0:0:0:
0,112,155181,6,0,L|392:112,1,380
380,112,156055,1,0,0:0:0:0:
248,112,156200,1,0,0:0:0:0:
512,272,156346,6,0,L|120:272,1,380
132,272,157220,1,0,0:0:0:0:
264,272,157365,1,0,0:0:0:0:
0,192,157511,6,0,L|192:192,1,190
448,96,158094,2,0,L|256:96,1,190
40,48,158676,6,0,L|152:48,1,95
256,144,158967,2,0,L|152:144,1,95
32,200,159259,1,0,0:0:0:0:
11,242,159331,1,0,0:0:0:0:
9,289,159404,1,0,0:0:0:0:
25,334,159477,1,0,0:0:0:0:
392,344,159550,5,0,0:0:0:0:
438,348,159622,1,0,0:0:0:0:
481,329,159695,1,0,0:0:0:0:
508,290,159768,1,0,0:0:0:0:
360,264,159841,5,4,0:0:0:0:
464,264,159987,1,0,0:0:0:0:
328,192,160132,1,8,0:0:0:0:
432,192,160278,1,0,0:0:0:0:
288,120,160424,1,0,0:0:0:0:
392,120,160570,1,0,0:0:0:0:
248,48,160715,1,8,0:0:0:0:
352,48,160861,1,0,0:0:0:0:
112,264,161006,5,0,0:0:0:0:
216,264,161152,1,0,0:0:0:0:
80,192,161297,1,8,0:0:0:0:
184,192,161443,1,0,0:0:0:0:
40,120,161589,1,0,0:0:0:0:
144,120,161735,1,0,0:0:0:0:
0,48,161880,1,8,0:0:0:0:
104,48,162026,1,0,0:0:0:0:
376,48,162171,6,0,L|240:48,2,123.499994346619,0|0|8,0:0|0:0|0:0,0:0:0:0:
144,192,162608,1,0,0:0:0:0:
184,192,162754,1,0,0:0:0:0:
440,192,162900,1,0,0:0:0:0:
336,192,163045,1,8,0:0:0:0:
440,192,163191,1,0,0:0:0:0:
48,280,163336,5,0,0:0:0:0:
160,280,163482,1,0,0:0:0:0:
280,280,163628,1,8,0:0:0:0:
400,280,163773,1,0,0:0:0:0:
512,280,163919,1,0,0:0:0:0:
184,192,164064,1,0,0:0:0:0:
440,192,164210,1,8,0:0:0:0:
336,192,164356,1,0,0:0:0:0:
512,64,164501,6,0,B|368:64|368:64|472:64,1,246.999988693238,4|8,0:0|0:0,0:0:0:0:
256,64,164938,1,0,0:0:0:0:
0,64,165084,2,0,B|144:64|144:64|40:64,1,246.999988693238,0|8,0:0|0:0,0:0:0:0:
336,192,165521,2,0,B|424:192|424:192|240:192|240:192|472:192,1,493.999977386476
461,192,166249,5,0,0:0:0:0:
416,216,166297,1,0,0:0:0:0:
368,248,166346,1,0,0:0:0:0:
320,280,166395,1,0,0:0:0:0:
392,320,166540,1,8,0:0:0:0:
433,320,166588,1,0,0:0:0:0:
474,320,166637,1,0,0:0:0:0:
424,320,166686,1,0,0:0:0:0:
144,184,166831,5,0,0:0:0:0:
102,184,166879,1,0,0:0:0:0:
61,184,166928,1,0,0:0:0:0:
112,184,166977,1,0,0:0:0:0:
344,96,167123,2,0,L|408:96,3,61.7499971733095,8|0|0|0,0:0|0:0|0:0|0:0,0:0:0:0:
464,96,167414,5,0,0:0:0:0:
480,133,167462,1,0,0:0:0:0:
490,173,167511,1,0,0:0:0:0:
492,214,167559,1,0,0:0:0:0:
486,255,167608,1,0,0:0:0:0:
472,294,167656,1,0,0:0:0:0:
452,329,167705,1,0,0:0:0:0:
320,328,167778,1,0,0:0:0:0:
168,328,167851,1,0,0:0:0:0:
24,328,167924,1,0,0:0:0:0:
24,248,167996,5,4,0:0:0:0:
264,248,168215,1,4,0:0:0:0:
48,208,168433,1,4,0:0:0:0:
288,208,168579,1,4,0:0:0:0:
80,168,168797,1,4,0:0:0:0:
320,168,169016,1,4,0:0:0:0:
112,120,169162,2,0,L|368:120,1,246.999988693238,4|8,0:0|0:0,0:0:0:0:
288,192,169744,6,0,L|296:136,1,47.5
368,176,169890,6,0,L|376:120,1,47.5
296,192,170035,6,0,L|304:136,1,47.5,8|0,0:0|0:0,0:0:0:0:
376,176,170181,6,0,L|384:120,1,47.5
168,328,170327,6,0,L|176:272,1,47.5
248,312,170473,6,0,L|256:256,1,47.5
176,328,170618,6,0,L|184:272,1,47.5,8|0,0:0|0:0,0:0:0:0:
256,312,170764,6,0,L|264:256,1,47.5
72,192,170909,6,0,L|80:136,1,47.5
152,176,171055,6,0,L|160:120,1,47.5
80,192,171200,6,0,L|88:136,1,47.5,8|0,0:0|0:0,0:0:0:0:
160,176,171346,6,0,L|168:120,1,47.5
328,56,171492,2,0,L|280:72,1,47.5
200,40,171637,2,0,L|272:48,1,47.5
344,56,171783,2,0,L|296:72,1,47.5,8|0,0:0|0:0,0:0:0:0:
216,40,171928,2,0,L|288:48,1,47.5
360,56,172074,2,0,L|312:72,1,47.5
232,40,172219,2,0,L|304:48,1,47.5
464,72,172365,1,8,0:0:0:0:
352,152,172511,1,0,0:0:0:0:
472,192,172657,6,0,L|504:240,1,47.5
304,232,172802,1,0,0:0:0:0:
268,244,172874,1,0,0:0:0:0:
245,273,172947,1,8,0:0:0:0:
240,311,173020,1,0,0:0:0:0:
256,345,173093,1,0,0:0:0:0:
287,365,173166,1,0,0:0:0:0:
504,304,173239,2,0,L|288:304,1,190,0|8,0:0|0:0,0:0:0:0:
314,304,173822,5,4,0:0:0:0:
424,304,173967,1,0,0:0:0:0:
80,192,174113,1,8,0:0:0:0:
192,192,174259,1,0,0:0:0:0:
496,80,174404,1,0,0:0:0:0:
360,80,174550,1,0,0:0:0:0:
224,80,174696,1,8,0:0:0:0:
504,176,174841,6,0,P|504:232|384:304,1,190
376,304,175205,1,0,0:0:0:0:
104,280,175278,2,0,L|208:280,1,95,8|0,0:0|0:0,0:0:0:0:
360,216,175569,2,0,L|248:216,1,95
288,216,175788,1,0,0:0:0:0:
504,176,175861,2,0,P|440:128|432:112,1,95,8|0,0:0|0:0,0:0:0:0:
120,80,176152,6,0,L|224:80,2,95,4|0|8,0:0|0:0|0:0,0:0:0:0:
368,80,176589,1,0,0:0:0:0:
272,80,176734,1,0,0:0:0:0:
504,176,176880,1,0,0:0:0:0:
208,288,177026,1,8,0:0:0:0:
320,288,177171,1,0,0:0:0:0:
104,160,177317,5,8,0:0:0:0:
45,183,177414,1,0,0:0:0:0:
0,227,177511,1,0,0:0:0:0:
176,224,177608,1,8,0:0:0:0:
133,270,177705,1,0,0:0:0:0:
113,329,177802,1,0,0:0:0:0:
320,224,177899,1,8,0:0:0:0:
320,287,177996,1,0,0:0:0:0:
320,350,178093,1,0,0:0:0:0:
240,152,178191,1,8,0:0:0:0:
504,80,178336,6,0,P|384:64|328:168,1,246.999988693238,4|0,0:0|0:0,0:0:0:0:
45,183,178773,1,8,0:0:0:0:
45,183,178919,1,8,0:0:0:0:
45,183,179064,1,0,0:0:0:0:
184,184,179210,1,0,0:0:0:0:
96,184,179356,1,8,0:0:0:0:
416,288,179501,6,0,L|160:288,1,246.999988693238,4|0,0:0|0:0,0:0:0:0:
296,184,179938,1,8,0:0:0:0:
184,184,180084,1,0,0:0:0:0:
480,184,180229,1,0,0:0:0:0:
480,72,180521,1,8,0:0:0:0:
64,72,180666,6,0,B|192:72|192:72|112:88|96:136|112:208|216:208,1,370.499983039857,4|8,0:0|0:0,0:0:0:0:
96,208,181249,1,0,0:0:0:0:
368,208,181395,2,0,L|232:208,2,123.499994346619,0|0|8,0:0|0:0|0:0,0:0:0:0:
56,304,181831,2,0,B|168:304|168:304|120:304|120:304|208:304,1,246.999988693238,4|0,0:0|0:0,0:0:0:0:
128,304,182268,1,8,0:0:0:0:
280,304,182414,1,0,0:0:0:0:
8,304,182560,1,0,0:0:0:0:
8,232,182851,1,8,0:0:0:0:
256,232,182996,1,0,0:0:0:0:
504,232,183142,6,0,P|472:176|472:160,2,82.3333295644126,4|0|0,0:0|0:0|0:0,0:0:0:0:
376,304,183433,2,0,P|472:304|504:240,1,164.666659128825,8|0,0:0|0:0,0:0:0:0:
256,232,183725,2,0,P|224:240|176:288,1,82.3333295644126,8|0,0:0|0:0,0:0:0:0:
400,208,183919,1,0,0:0:0:0:
456,168,184016,1,8,0:0:0:0:
488,112,184113,1,0,0:0:0:0:
480,56,184210,1,0,0:0:0:0:
152,48,184307,6,0,L|152:112,1,61.7499971733095,8|0,0:0|0:0,0:0:0:0:
416,104,184453,2,0,L|416:176,1,61.7499971733095
216,232,184598,2,0,L|216:296,1,61.7499971733095,8|0,0:0|0:0,0:0:0:0:
296,240,184744,2,0,L|296:304,1,61.7499971733095
80,160,184890,2,0,L|80:240,1,61.7499971733095,8|0,0:0|0:0,0:0:0:0:
400,208,185035,2,0,L|400:288,1,61.7499971733095
200,128,185181,1,12,0:0:0:0:
288,128,185327,6,0,B|96:128|96:128|152:128,1,246.999988693238
176,128,185691,1,0,0:0:0:0:
416,128,185763,2,0,P|464:136|496:200,1,123.499994346619,8|0,0:0|0:0,0:0:0:0:
216,232,186055,1,8,0:0:0:0:
440,296,186200,1,8,0:0:0:0:
120,336,186346,1,8,0:0:0:0:
456,32,186492,6,0,B|352:32|352:32|408:32|408:32|312:32,1,246.999988693238,4|0,0:0|0:0,0:0:0:0:
208,128,186929,2,0,L|336:128,1,123.499994346619,8|0,0:0|0:0,0:0:0:0:
176,192,187220,1,8,0:0:0:0:
176,192,187511,1,8,0:0:0:0:
440,296,187657,6,0,B|360:296|360:296|320:264|320:264|128:264,1,308.749985866547,4|0,0:0|0:0,0:0:0:0:
328,192,188094,2,0,L|464:192,1,123.499994346619,8|0,0:0|0:0,0:0:0:0:
288,112,188385,2,0,L|424:112,2,123.499994346619,0|0|8,0:0|0:0|0:0,0:0:0:0:
512,24,188822,6,0,L|256:24,1,246.999988693238,4|0,0:0|0:0,0:0:0:0:
352,24,189259,1,0,0:0:0:0:
168,112,189404,1,0,0:0:0:0:
480,112,189550,1,0,0:0:0:0:
448,128,189696,1,0,0:0:0:0:
424,144,189841,1,0,0:0:0:0:
104,240,189987,6,0,L|352:240,1,246.999988693238,4|0,0:0|0:0,0:0:0:0:
112,320,190424,2,0,P|32:288|24:240,1,123.499994346619,8|0,0:0|0:0,0:0:0:0:
216,176,190715,1,0,0:0:0:0:
128,176,190861,1,0,0:0:0:0:
216,176,191006,1,8,0:0:0:0:
496,64,191152,6,0,L|240:64,1,246.999988693238,4|0,0:0|0:0,0:0:0:0:
328,64,191589,1,8,0:0:0:0:
408,64,191734,1,8,0:0:0:0:
48,64,191880,1,8,0:0:0:0:
480,192,192171,1,0,0:0:0:0:
397,192,192463,6,0,L|480:192,2,82.3333295644126
280,192,192754,2,0,P|232:216|192:328,1,164.666659128825,8|0,0:0|0:0,0:0:0:0:
312,336,193045,2,0,L|312:248,1,82.3333295644126
72,192,193239,1,0,0:0:0:0:
72,192,193336,2,0,L|72:104,1,82.3333295644126,8|0,0:0|0:0,0:0:0:0:
280,88,193530,1,0,0:0:0:0:
280,88,193628,6,0,L|304:144,1,61.7499971733095,8|0,0:0|0:0,0:0:0:0:
464,96,193773,2,0,L|496:160,1,61.7499971733095
248,288,193919,2,0,L|224:344,1,61.7499971733095,8|0,0:0|0:0,0:0:0:0:
64,296,194064,2,0,L|32:360,1,61.7499971733095
280,88,194210,2,0,L|304:144,1,61.7499971733095,8|0,0:0|0:0,0:0:0:0:
464,96,194355,2,0,L|496:160,1,61.7499971733095
72,192,194501,1,8,0:0:0:0:
160,192,194647,1,4,0:0:0:0:
32,192,194793,5,0,0:0:0:0:
93,192,194865,1,0,0:0:0:0:
155,192,194938,1,8,0:0:0:0:
48,192,195084,1,8,0:0:0:0:
384,192,195229,1,0,0:0:0:0:
304,192,195375,1,8,0:0:0:0:
424,192,195521,1,0,0:0:0:0:
104,288,195666,1,8,0:0:0:0:
440,288,195812,1,0,0:0:0:0:
120,288,195958,6,0,L|320:288,1,185.249991519928,4|0,0:0|0:0,0:0:0:0:
48,288,196249,1,8,0:0:0:0:
48,288,196540,1,8,0:0:0:0:
171,288,196612,1,0,0:0:0:0:
295,288,196685,1,0,0:0:0:0:
418,288,196758,1,0,0:0:0:0:
260,192,196831,1,8,0:0:0:0:
137,192,196904,1,0,0:0:0:0:
13,192,196977,1,0,0:0:0:0:
56,192,197050,1,0,0:0:0:0:
376,192,197123,1,4,0:0:0:0:
256,192,197196,12,0,199453,0:0:0:0:
256,192,206443,5,4,0:0:0:0:
317,192,206515,1,0,0:0:0:0:
379,192,206588,1,0,0:0:0:0:
441,192,206661,1,0,0:0:0:0:
504,192,206734,1,8,0:0:0:0:
379,192,206880,1,0,0:0:0:0:
504,192,207026,1,0,0:0:0:0:
80,56,207171,1,0,0:0:0:0:
216,56,207317,1,8,0:0:0:0:
0,192,207463,6,0,L|192:192,1,190
112,192,207899,1,8,0:0:0:0:
424,288,208045,1,0,0:0:0:0:
344,288,208191,1,0,0:0:0:0:
480,288,208336,1,0,0:0:0:0:
144,288,208482,1,8,0:0:0:0:
232,288,208628,1,0,0:0:0:0:
120,136,208773,5,0,0:0:0:0:
186,136,208845,1,0,0:0:0:0:
253,136,208918,1,0,0:0:0:0:
319,136,208991,1,0,0:0:0:0:
472,136,209064,2,0,L|392:64,1,95,8|0,0:0|0:0,0:0:0:0:
40,136,209356,2,0,L|120:64,1,95
0,64,209647,1,8,0:0:0:0:
344,64,209793,6,0,L|144:64,1,190,4|0,0:0|0:0,0:0:0:0:
248,192,210229,1,8,0:0:0:0:
144,192,210375,1,0,0:0:0:0:
384,192,210521,1,0,0:0:0:0:
72,192,210666,1,0,0:0:0:0:
464,192,210812,1,8,0:0:0:0:
464,280,211103,5,0,0:0:0:0:
416,280,211175,1,0,0:0:0:0:
274,280,211248,1,0,0:0:0:0:
224,280,211321,1,0,0:0:0:0:
84,280,211394,1,8,0:0:0:0:
184,192,211540,1,0,0:0:0:0:
88,88,211686,1,0,0:0:0:0:
224,88,211831,1,0,0:0:0:0:
88,88,211977,1,8,0:0:0:0:
414,88,212123,6,0,L|206:88,1,190
456,184,212560,2,0,L|432:288,1,95,8|0,0:0|0:0,0:0:0:0:
272,256,212851,2,0,L|328:360,1,95
152,344,213142,2,0,L|200:248,1,95,8|0,0:0|0:0,0:0:0:0:
80,224,213433,5,0,0:0:0:0:
110,188,213505,1,0,0:0:0:0:
111,142,213578,1,0,0:0:0:0:
82,105,213651,1,0,0:0:0:0:
352,88,213725,2,0,L|232:88,1,95,8|0,0:0|0:0,0:0:0:0:
208,88,213943,1,0,0:0:0:0:
456,184,214016,6,0,L|496:232,1,47.5
320,192,214162,2,0,L|304:240,1,47.5
464,328,214307,2,0,L|496:368,1,47.5
152,344,214453,6,0,P|96:288|176:224,1,190,4|0,0:0|0:0,0:0:0:0:
192,224,214817,1,0,0:0:0:0:
416,207,214890,1,8,0:0:0:0:
456,184,214962,1,0,0:0:0:0:
473,141,215035,1,0,0:0:0:0:
458,97,215108,1,0,0:0:0:0:
208,88,215181,5,8,0:0:0:0:
168,111,215253,1,8,0:0:0:0:
151,154,215326,1,0,0:0:0:0:
166,198,215399,1,0,0:0:0:0:
384,296,215472,2,8,L|376:344,1,47.5
152,344,215618,2,8,L|144:280,1,47.5
416,207,215763,6,0,L|416:112,1,95,6|0,0:0|0:0,0:0:0:0:
264,232,216055,2,0,L|264:136,1,95
440,320,216346,2,0,L|440:216,1,95
312,336,216637,2,0,L|312:240,1,95
24,192,216929,6,0,L|24:96,1,95
192,40,217220,2,0,L|192:144,1,95
96,200,217511,2,0,L|96:312,1,95
424,64,217802,2,0,L|424:168,1,95
168,192,218094,6,0,L|168:288,1,95,2|0,0:0|0:0,0:0:0:0:
288,232,218385,2,0,L|288:336,1,95
432,240,218676,2,0,L|432:344,1,95
112,64,218967,2,0,L|112:160,1,95
232,104,219258,6,0,L|232:208,1,95
40,152,219549,2,0,L|40:256,1,95
464,304,219841,2,0,L|360:312,2,95,2|0|0,0:0|0:0|0:0,0:0:0:0:
56,312,220278,1,4,0:0:0:0:
256,192,220351,12,0,228579,0:0:0:0:
