osu file format v14

[General]
AudioFilename: audio.mp3
AudioLeadIn: 0
PreviewTime: 0
Countdown: 0
SampleSet: None
StackLeniency: 0.7
Mode: 3
LetterboxInBreaks: 0
StoryFireInFront: 0
SpecialStyle: 0
WidescreenStoryboard: 0

[Editor]
Bookmarks: 0
DistanceSpacing: 1
BeatDivisor: 2
GridSize: 4
TimelineZoom: 1

[Metadata]
Title:8.39
TitleUnicode:8.39
Artist:Luna、Miku
ArtistUnicode:Luna、Miku
Creator:TangHaiYin
Version:4k LN Miku
Source:Malody
Tags:LN
BeatmapID:4584154
BeatmapSetID:2171838

[Difficulty]
HPDrainRate:8
CircleSize:4
OverallDifficulty:8
ApproachRate:5
SliderMultiplier:1.4
SliderTickRate:1

[Events]
//Background and Video events
0,0,"Miku.jpg",0,0
//Break Periods
//Storyboard Layer 0 (Background)
//Storyboard Layer 1 (Fail)
//Storyboard Layer 2 (Pass)
//Storyboard Layer 3 (Foreground)
//Storyboard Layer 4 (Overlay)
//Storyboard Sound Samples

[TimingPoints]
-127,277.777777777778,4,2,0,100,1,0

[HitObjects]
192,384,429,5,0,0:0:0:0:
320,384,429,1,0,0:0:0:0:
64,384,984,1,0,0:0:0:0:
320,384,984,128,0,1123:0:0:0:0:
192,384,1054,1,0,0:0:0:0:
448,384,1123,1,0,0:0:0:0:
64,384,1192,1,0,0:0:0:0:
192,384,1192,128,0,1331:0:0:0:0:
320,384,1262,1,0,0:0:0:0:
448,384,1331,128,0,1470:0:0:0:0:
320,384,1401,1,0,0:0:0:0:
64,384,1470,128,0,1609:0:0:0:0:
192,384,1470,1,0,0:0:0:0:
448,384,1540,1,0,0:0:0:0:
320,384,1609,1,0,0:0:0:0:
192,384,1679,128,0,1887:0:0:0:0:
448,384,1679,1,0,0:0:0:0:
64,384,2373,1,0,0:0:0:0:
320,384,2373,128,0,2512:0:0:0:0:
64,384,2512,128,0,2651:0:0:0:0:
192,384,2512,1,0,0:0:0:0:
448,384,2512,128,0,2651:0:0:0:0:
192,384,2651,128,0,2790:0:0:0:0:
320,384,2651,1,0,0:0:0:0:
320,384,2790,128,0,2929:0:0:0:0:
448,384,2790,1,0,0:0:0:0:
64,384,2929,128,0,3067:0:0:0:0:
192,384,2929,1,0,0:0:0:0:
320,384,3067,1,0,0:0:0:0:
448,384,3067,1,0,0:0:0:0:
192,384,3137,1,0,0:0:0:0:
64,384,3206,1,0,0:0:0:0:
192,384,3206,128,0,3345:0:0:0:0:
448,384,3206,1,0,0:0:0:0:
320,384,3276,1,0,0:0:0:0:
448,384,3345,1,0,0:0:0:0:
64,384,3415,1,0,0:0:0:0:
192,384,3415,128,0,3623:0:0:0:0:
320,384,3415,1,0,0:0:0:0:
64,384,3623,1,0,0:0:0:0:
320,384,3623,128,0,4040:0:0:0:0:
448,384,3623,1,0,0:0:0:0:
192,384,4040,128,0,4317:0:0:0:0:
448,384,4040,128,0,4317:0:0:0:0:
64,384,4317,128,0,4595:0:0:0:0:
320,384,4317,128,0,4595:0:0:0:0:
192,384,4595,128,0,4873:0:0:0:0:
448,384,4595,128,0,4873:0:0:0:0:
64,384,4873,1,0,0:0:0:0:
320,384,4873,1,0,0:0:0:0:
64,384,5429,1,0,0:0:0:0:
448,384,5429,128,0,5567:0:0:0:0:
192,384,5567,128,0,5706:0:0:0:0:
320,384,5567,1,0,0:0:0:0:
64,384,5706,128,0,5845:0:0:0:0:
320,384,5706,128,0,5845:0:0:0:0:
192,384,5845,128,0,6192:0:0:0:0:
448,384,5845,128,0,6192:0:0:0:0:
64,384,6192,128,0,6401:0:0:0:0:
320,384,6308,1,0,0:0:0:0:
448,384,6308,1,0,0:0:0:0:
448,384,6401,1,0,0:0:0:0:
64,384,6817,128,0,7095:0:0:0:0:
192,384,6817,1,0,0:0:0:0:
192,384,7095,128,0,7373:0:0:0:0:
320,384,7095,1,0,0:0:0:0:
320,384,7373,128,0,7651:0:0:0:0:
448,384,7373,1,0,0:0:0:0:
64,384,7651,1,0,0:0:0:0:
448,384,7651,128,0,7929:0:0:0:0:
64,384,7929,1,0,0:0:0:0:
192,384,7929,1,0,0:0:0:0:
320,384,7929,128,0,7998:0:0:0:0:
64,384,7998,1,0,0:0:0:0:
64,384,8484,128,0,8762:0:0:0:0:
192,384,8484,1,0,0:0:0:0:
320,384,8554,1,0,0:0:0:0:
448,384,8623,1,0,0:0:0:0:
320,384,8692,1,0,0:0:0:0:
192,384,8762,1,0,0:0:0:0:
448,384,8762,128,0,8970:0:0:0:0:
64,384,8831,1,0,0:0:0:0:
192,384,8901,1,0,0:0:0:0:
64,384,8970,128,0,9179:0:0:0:0:
320,384,8970,1,0,0:0:0:0:
448,384,9040,1,0,0:0:0:0:
192,384,9179,1,0,0:0:0:0:
320,384,9179,1,0,0:0:0:0:
448,384,9179,1,0,0:0:0:0:
64,384,9804,128,0,9942:0:0:0:0:
192,384,9942,128,0,10081:0:0:0:0:
320,384,10081,128,0,10220:0:0:0:0:
448,384,10220,1,0,0:0:0:0:
192,384,10290,128,0,10567:0:0:0:0:
320,384,10290,1,0,0:0:0:0:
64,384,10567,1,0,0:0:0:0:
320,384,10567,1,0,0:0:0:0:
448,384,10567,128,0,10845:0:0:0:0:
64,384,11262,1,0,0:0:0:0:
320,384,11262,128,0,11540:0:0:0:0:
192,384,11331,1,0,0:0:0:0:
448,384,11331,1,0,0:0:0:0:
64,384,11540,1,0,0:0:0:0:
192,384,11540,128,0,11817:0:0:0:0:
448,384,11540,1,0,0:0:0:0:
64,384,11817,1,0,0:0:0:0:
320,384,11817,128,0,11956:0:0:0:0:
192,384,11956,1,0,0:0:0:0:
448,384,11956,128,0,12095:0:0:0:0:
320,384,12095,1,0,0:0:0:0:
192,384,12165,1,0,0:0:0:0:
64,384,12234,1,0,0:0:0:0:
192,384,12304,1,0,0:0:0:0:
320,384,12373,128,0,12512:0:0:0:0:
448,384,12373,1,0,0:0:0:0:
64,384,12512,128,0,12859:0:0:0:0:
192,384,12512,1,0,0:0:0:0:
192,384,12859,128,0,13137:0:0:0:0:
320,384,12859,128,0,13137:0:0:0:0:
64,384,13137,128,0,13415:0:0:0:0:
448,384,13137,128,0,13415:0:0:0:0:
192,384,13415,128,0,13692:0:0:0:0:
320,384,13415,1,0,0:0:0:0:
64,384,13692,1,0,0:0:0:0:
320,384,13692,1,0,0:0:0:0:
448,384,13692,1,0,0:0:0:0:
64,384,14317,1,0,0:0:0:0:
320,384,14317,128,0,14595:0:0:0:0:
448,384,14317,1,0,0:0:0:0:
192,384,14387,1,0,0:0:0:0:
64,384,14456,1,0,0:0:0:0:
64,384,14595,128,0,14804:0:0:0:0:
192,384,14595,1,0,0:0:0:0:
448,384,14595,1,0,0:0:0:0:
192,384,14804,1,0,0:0:0:0:
320,384,14804,128,0,15081:0:0:0:0:
448,384,15081,128,0,15290:0:0:0:0:
64,384,15290,128,0,15706:0:0:0:0:
192,384,15290,1,0,0:0:0:0:
320,384,15290,1,0,0:0:0:0:
192,384,15706,1,0,0:0:0:0:
320,384,15706,1,0,0:0:0:0:
448,384,15706,128,0,15984:0:0:0:0:
64,384,15984,1,0,0:0:0:0:
192,384,15984,1,0,0:0:0:0:
320,384,15984,128,0,16262:0:0:0:0:
64,384,16262,1,0,0:0:0:0:
192,384,16262,128,0,16540:0:0:0:0:
448,384,16262,1,0,0:0:0:0:
64,384,16540,128,0,16817:0:0:0:0:
192,384,16817,1,0,0:0:0:0:
320,384,16817,128,0,17234:0:0:0:0:
448,384,16817,128,0,17234:0:0:0:0:
192,384,17651,1,0,0:0:0:0:
320,384,17651,1,0,0:0:0:0:
64,384,17929,128,0,18484:0:0:0:0:
448,384,17929,128,0,18484:0:0:0:0:
192,384,18484,128,0,22651:0:0:0:0:
320,384,18484,128,0,22651:0:0:0:0:
64,384,18762,1,0,0:0:0:0:
448,384,18762,1,0,0:0:0:0:
64,384,19040,1,0,0:0:0:0:
448,384,19040,1,0,0:0:0:0:
64,384,19595,1,0,0:0:0:0:
448,384,19595,1,0,0:0:0:0:
64,384,20706,1,0,0:0:0:0:
448,384,20706,1,0,0:0:0:0:
64,384,21123,1,0,0:0:0:0:
448,384,21123,1,0,0:0:0:0:
64,384,21540,1,0,0:0:0:0:
448,384,21540,1,0,0:0:0:0:
64,384,21956,1,0,0:0:0:0:
448,384,21956,1,0,0:0:0:0:
64,384,22373,1,0,0:0:0:0:
448,384,22373,1,0,0:0:0:0:
64,384,22651,1,0,0:0:0:0:
448,384,22651,1,0,0:0:0:0:
192,384,22790,1,0,0:0:0:0:
320,384,22790,1,0,0:0:0:0:
64,384,22929,1,0,0:0:0:0:
192,384,22929,1,0,0:0:0:0:
320,384,22929,1,0,0:0:0:0:
448,384,22929,1,0,0:0:0:0:
192,384,23484,1,0,0:0:0:0:
320,384,23484,1,0,0:0:0:0:
448,384,23484,128,0,24040:0:0:0:0:
64,384,24040,128,0,24317:0:0:0:0:
192,384,24040,1,0,0:0:0:0:
320,384,24040,1,0,0:0:0:0:
192,384,24317,1,0,0:0:0:0:
320,384,24317,128,0,24595:0:0:0:0:
64,384,24595,1,0,0:0:0:0:
192,384,24595,128,0,25151:0:0:0:0:
448,384,24595,1,0,0:0:0:0:
64,384,25151,1,0,0:0:0:0:
320,384,25151,1,0,0:0:0:0:
448,384,25151,1,0,0:0:0:0:
64,384,25429,128,0,25706:0:0:0:0:
320,384,25429,1,0,0:0:0:0:
192,384,25706,1,0,0:0:0:0:
448,384,25706,128,0,25984:0:0:0:0:
64,384,25984,128,0,26262:0:0:0:0:
320,384,25984,1,0,0:0:0:0:
192,384,26262,1,0,0:0:0:0:
448,384,26262,128,0,26540:0:0:0:0:
64,384,26540,128,0,26817:0:0:0:0:
320,384,26540,1,0,0:0:0:0:
192,384,26817,1,0,0:0:0:0:
320,384,26817,128,0,27095:0:0:0:0:
64,384,27095,1,0,0:0:0:0:
192,384,27095,1,0,0:0:0:0:
448,384,27095,128,0,27512:0:0:0:0:
64,384,27512,1,0,0:0:0:0:
192,384,27512,128,0,27929:0:0:0:0:
320,384,27512,1,0,0:0:0:0:
64,384,27929,1,0,0:0:0:0:
320,384,27929,128,0,28484:0:0:0:0:
448,384,27929,1,0,0:0:0:0:
64,384,28484,1,0,0:0:0:0:
192,384,28484,128,0,29040:0:0:0:0:
448,384,28484,1,0,0:0:0:0:
64,384,29040,1,0,0:0:0:0:
320,384,29040,128,0,29595:0:0:0:0:
448,384,29040,1,0,0:0:0:0:
64,384,29595,128,0,29873:0:0:0:0:
192,384,29873,128,0,30151:0:0:0:0:
320,384,30151,128,0,30429:0:0:0:0:
448,384,30429,128,0,30706:0:0:0:0:
320,384,30706,128,0,30984:0:0:0:0:
192,384,30984,128,0,31262:0:0:0:0:
64,384,31262,128,0,31540:0:0:0:0:
192,384,31540,128,0,31956:0:0:0:0:
320,384,31540,128,0,31956:0:0:0:0:
64,384,31956,1,0,0:0:0:0:
448,384,31956,128,0,32373:0:0:0:0:
64,384,32373,128,0,32929:0:0:0:0:
192,384,32373,1,0,0:0:0:0:
320,384,32373,128,0,32929:0:0:0:0:
192,384,32929,128,0,33206:0:0:0:0:
320,384,33206,1,0,0:0:0:0:
448,384,33206,128,0,33484:0:0:0:0:
64,384,33484,1,0,0:0:0:0:
192,384,33484,1,0,0:0:0:0:
320,384,33484,128,0,33762:0:0:0:0:
320,384,34040,1,0,0:0:0:0:
448,384,34040,128,0,34317:0:0:0:0:
192,384,34317,1,0,0:0:0:0:
320,384,34317,128,0,34595:0:0:0:0:
64,384,34595,1,0,0:0:0:0:
192,384,34595,128,0,34873:0:0:0:0:
64,384,34873,128,0,35151:0:0:0:0:
192,384,35151,1,0,0:0:0:0:
320,384,35151,128,0,35429:0:0:0:0:
448,384,35151,128,0,35429:0:0:0:0:
64,384,35984,128,0,36262:0:0:0:0:
192,384,35984,128,0,36262:0:0:0:0:
320,384,35984,128,0,36262:0:0:0:0:
448,384,35984,128,0,36262:0:0:0:0:
64,384,36401,1,0,0:0:0:0:
192,384,36401,128,0,36679:0:0:0:0:
448,384,36401,1,0,0:0:0:0:
320,384,36540,128,0,36817:0:0:0:0:
448,384,36679,1,0,0:0:0:0:
64,384,36817,128,0,37095:0:0:0:0:
320,384,36956,1,0,0:0:0:0:
320,384,37095,128,0,37373:0:0:0:0:
448,384,37095,128,0,37373:0:0:0:0:
192,384,37234,1,0,0:0:0:0:
64,384,37373,128,0,37651:0:0:0:0:
192,384,37929,1,0,0:0:0:0:
320,384,37929,128,0,38206:0:0:0:0:
448,384,37929,1,0,0:0:0:0:
64,384,38206,128,0,38484:0:0:0:0:
192,384,38206,1,0,0:0:0:0:
320,384,38484,128,0,38623:0:0:0:0:
448,384,38484,1,0,0:0:0:0:
64,384,38623,128,0,38901:0:0:0:0:
192,384,38623,1,0,0:0:0:0:
192,384,38901,128,0,39179:0:0:0:0:
448,384,38901,1,0,0:0:0:0:
64,384,39179,1,0,0:0:0:0:
320,384,39179,1,0,0:0:0:0:
448,384,39179,128,0,39595:0:0:0:0:
64,384,39595,128,0,39873:0:0:0:0:
192,384,39595,1,0,0:0:0:0:
192,384,39873,128,0,40151:0:0:0:0:
320,384,39873,1,0,0:0:0:0:
448,384,39873,1,0,0:0:0:0:
64,384,40151,1,0,0:0:0:0:
320,384,40151,128,0,40429:0:0:0:0:
448,384,40151,1,0,0:0:0:0:
64,384,40429,1,0,0:0:0:0:
192,384,40429,1,0,0:0:0:0:
448,384,40429,1,0,0:0:0:0:
64,384,40984,1,0,0:0:0:0:
448,384,40984,128,0,41192:0:0:0:0:
192,384,41192,1,0,0:0:0:0:
320,384,41192,128,0,41401:0:0:0:0:
192,384,41401,128,0,41817:0:0:0:0:
448,384,41401,1,0,0:0:0:0:
64,384,41817,1,0,0:0:0:0:
320,384,41817,128,0,41956:0:0:0:0:
448,384,41817,1,0,0:0:0:0:
64,384,42373,1,0,0:0:0:0:
320,384,42373,128,0,42581:0:0:0:0:
192,384,42581,128,0,42929:0:0:0:0:
64,384,42929,128,0,43137:0:0:0:0:
448,384,42929,1,0,0:0:0:0:
192,384,43137,1,0,0:0:0:0:
320,384,43137,128,0,43484:0:0:0:0:
192,384,43484,1,0,0:0:0:0:
448,384,43484,128,0,43762:0:0:0:0:
64,384,43762,128,0,44040:0:0:0:0:
320,384,43762,128,0,44040:0:0:0:0:
192,384,44040,1,0,0:0:0:0:
448,384,44040,1,0,0:0:0:0:
192,384,44132,1,0,0:0:0:0:
448,384,44132,1,0,0:0:0:0:
192,384,44225,1,0,0:0:0:0:
448,384,44225,1,0,0:0:0:0:
192,384,44317,1,0,0:0:0:0:
448,384,44317,1,0,0:0:0:0:
192,384,44410,1,0,0:0:0:0:
448,384,44410,1,0,0:0:0:0:
192,384,44503,1,0,0:0:0:0:
448,384,44503,1,0,0:0:0:0:
192,384,44595,1,0,0:0:0:0:
448,384,44595,1,0,0:0:0:0:
192,384,44688,1,0,0:0:0:0:
448,384,44688,1,0,0:0:0:0:
64,384,45151,1,0,0:0:0:0:
320,384,45151,1,0,0:0:0:0:
448,384,45151,1,0,0:0:0:0:
192,384,45290,128,0,45706:0:0:0:0:
64,384,45706,1,0,0:0:0:0:
448,384,45706,1,0,0:0:0:0:
320,384,45845,128,0,46123:0:0:0:0:
64,384,46123,1,0,0:0:0:0:
448,384,46123,1,0,0:0:0:0:
192,384,46262,128,0,46401:0:0:0:0:
320,384,46262,128,0,46401:0:0:0:0:
192,384,46679,1,0,0:0:0:0:
448,384,46679,128,0,47095:0:0:0:0:
64,384,47095,128,0,47373:0:0:0:0:
320,384,47095,1,0,0:0:0:0:
192,384,47373,1,0,0:0:0:0:
320,384,47373,128,0,47512:0:0:0:0:
64,384,47512,1,0,0:0:0:0:
192,384,47512,128,0,47790:0:0:0:0:
448,384,47512,1,0,0:0:0:0:
320,384,47790,1,0,0:0:0:0:
64,384,48067,128,0,48484:0:0:0:0:
192,384,48484,1,0,0:0:0:0:
320,384,48484,128,0,48762:0:0:0:0:
192,384,48762,128,0,49040:0:0:0:0:
448,384,48762,1,0,0:0:0:0:
64,384,49040,1,0,0:0:0:0:
448,384,49040,128,0,49317:0:0:0:0:
64,384,49317,128,0,49595:0:0:0:0:
320,384,49317,1,0,0:0:0:0:
64,384,49873,1,0,0:0:0:0:
320,384,49873,128,0,50151:0:0:0:0:
448,384,49873,1,0,0:0:0:0:
192,384,50151,1,0,0:0:0:0:
448,384,50151,128,0,50567:0:0:0:0:
192,384,50290,128,0,50567:0:0:0:0:
320,384,50290,1,0,0:0:0:0:
320,384,50567,128,0,50706:0:0:0:0:
64,384,50706,128,0,51262:0:0:0:0:
448,384,50706,1,0,0:0:0:0:
192,384,51262,1,0,0:0:0:0:
320,384,51262,128,0,51540:0:0:0:0:
448,384,51262,1,0,0:0:0:0:
64,384,51540,128,0,51817:0:0:0:0:
192,384,51540,1,0,0:0:0:0:
320,384,51817,1,0,0:0:0:0:
448,384,51817,128,0,52095:0:0:0:0:
64,384,52095,1,0,0:0:0:0:
192,384,52095,128,0,52234:0:0:0:0:
320,384,52234,128,0,52373:0:0:0:0:
448,384,52234,1,0,0:0:0:0:
64,384,52651,128,0,52790:0:0:0:0:
192,384,52651,1,0,0:0:0:0:
320,384,52790,1,0,0:0:0:0:
448,384,52790,128,0,52929:0:0:0:0:
192,384,53206,1,0,0:0:0:0:
448,384,53206,128,0,53484:0:0:0:0:
64,384,53484,128,0,53762:0:0:0:0:
320,384,53484,1,0,0:0:0:0:
64,384,54040,1,0,0:0:0:0:
320,384,54040,128,0,54317:0:0:0:0:
64,384,54317,128,0,54526:0:0:0:0:
192,384,54317,1,0,0:0:0:0:
320,384,54387,1,0,0:0:0:0:
448,384,54456,1,0,0:0:0:0:
320,384,54526,1,0,0:0:0:0:
192,384,54595,1,0,0:0:0:0:
64,384,54665,1,0,0:0:0:0:
192,384,54734,1,0,0:0:0:0:
320,384,54734,128,0,54873:0:0:0:0:
192,384,54873,128,0,55151:0:0:0:0:
448,384,54873,1,0,0:0:0:0:
64,384,55151,1,0,0:0:0:0:
320,384,55151,128,0,55290:0:0:0:0:
448,384,55151,1,0,0:0:0:0:
64,384,55290,128,0,55429:0:0:0:0:
192,384,55290,1,0,0:0:0:0:
192,384,55706,128,0,55984:0:0:0:0:
320,384,55706,1,0,0:0:0:0:
448,384,55706,1,0,0:0:0:0:
64,384,55845,1,0,0:0:0:0:
320,384,55984,1,0,0:0:0:0:
64,384,56262,1,0,0:0:0:0:
320,384,56262,1,0,0:0:0:0:
448,384,56262,128,0,56401:0:0:0:0:
192,384,56401,128,0,56679:0:0:0:0:
64,384,56540,1,0,0:0:0:0:
448,384,56540,1,0,0:0:0:0:
320,384,56679,128,0,56956:0:0:0:0:
192,384,56817,1,0,0:0:0:0:
64,384,56956,128,0,57373:0:0:0:0:
448,384,56956,1,0,0:0:0:0:
320,384,57373,1,0,0:0:0:0:
448,384,57373,128,0,57512:0:0:0:0:
64,384,57512,1,0,0:0:0:0:
192,384,57512,1,0,0:0:0:0:
320,384,57512,128,0,57929:0:0:0:0:
64,384,58484,1,0,0:0:0:0:
448,384,58484,128,0,58623:0:0:0:0:
192,384,58623,128,0,58901:0:0:0:0:
320,384,58762,128,0,59040:0:0:0:0:
448,384,58901,1,0,0:0:0:0:
192,384,59040,1,0,0:0:0:0:
64,384,59179,1,0,0:0:0:0:
192,384,59317,128,0,59595:0:0:0:0:
320,384,59456,128,0,59734:0:0:0:0:
448,384,59595,1,0,0:0:0:0:
192,384,59734,1,0,0:0:0:0:
64,384,59873,1,0,0:0:0:0:
192,384,60012,1,0,0:0:0:0:
320,384,60151,128,0,60567:0:0:0:0:
192,384,61262,128,0,61817:0:0:0:0:
320,384,61262,128,0,61817:0:0:0:0:
64,384,61817,128,0,62373:0:0:0:0:
448,384,61817,128,0,62373:0:0:0:0:
448,384,62929,1,0,0:0:0:0:
320,384,63067,128,0,63345:0:0:0:0:
192,384,63206,128,0,63484:0:0:0:0:
64,384,63345,1,0,0:0:0:0:
320,384,63484,1,0,0:0:0:0:
448,384,63623,1,0,0:0:0:0:
320,384,63762,128,0,64040:0:0:0:0:
192,384,63901,128,0,64179:0:0:0:0:
64,384,64040,1,0,0:0:0:0:
320,384,64179,1,0,0:0:0:0:
64,384,64595,1,0,0:0:0:0:
448,384,64595,1,0,0:0:0:0:
192,384,64734,1,0,0:0:0:0:
320,384,64734,1,0,0:0:0:0:
448,384,64734,1,0,0:0:0:0:
192,384,64873,128,0,65151:0:0:0:0:
320,384,64873,1,0,0:0:0:0:
448,384,65151,1,0,0:0:0:0:
192,384,65290,1,0,0:0:0:0:
320,384,65290,128,0,65567:0:0:0:0:
64,384,65567,1,0,0:0:0:0:
448,384,65567,128,0,65845:0:0:0:0:
192,384,65706,1,0,0:0:0:0:
192,384,65845,1,0,0:0:0:0:
64,384,65984,1,0,0:0:0:0:
320,384,65984,128,0,66262:0:0:0:0:
64,384,66262,128,0,67095:0:0:0:0:
448,384,66262,128,0,67095:0:0:0:0:
192,384,67095,1,0,0:0:0:0:
320,384,67095,1,0,0:0:0:0:
64,384,67373,1,0,0:0:0:0:
448,384,67373,1,0,0:0:0:0:
192,384,67442,1,0,0:0:0:0:
320,384,67512,128,0,67651:0:0:0:0:
448,384,67581,1,0,0:0:0:0:
192,384,67651,1,0,0:0:0:0:
192,384,67720,128,0,67859:0:0:0:0:
64,384,67790,1,0,0:0:0:0:
320,384,67859,1,0,0:0:0:0:
320,384,67929,128,0,68067:0:0:0:0:
448,384,67998,1,0,0:0:0:0:
64,384,68067,1,0,0:0:0:0:
192,384,68137,1,0,0:0:0:0:
64,384,68206,1,0,0:0:0:0:
320,384,68206,128,0,68484:0:0:0:0:
448,384,68206,1,0,0:0:0:0:
64,384,68484,1,0,0:0:0:0:
448,384,68484,128,0,68623:0:0:0:0:
192,384,68623,1,0,0:0:0:0:
320,384,68623,128,0,68762:0:0:0:0:
64,384,68762,128,0,69040:0:0:0:0:
192,384,69040,1,0,0:0:0:0:
320,384,69040,128,0,69317:0:0:0:0:
64,384,69317,1,0,0:0:0:0:
448,384,69317,128,0,69595:0:0:0:0:
192,384,69595,128,0,69873:0:0:0:0:
320,384,69595,128,0,69873:0:0:0:0:
64,384,69873,1,0,0:0:0:0:
448,384,69873,1,0,0:0:0:0:
64,384,70012,1,0,0:0:0:0:
192,384,70012,1,0,0:0:0:0:
320,384,70012,1,0,0:0:0:0:
448,384,70012,1,0,0:0:0:0:
64,384,70290,1,0,0:0:0:0:
320,384,70290,128,0,70429:0:0:0:0:
64,384,70429,128,0,70567:0:0:0:0:
192,384,70429,1,0,0:0:0:0:
192,384,70567,128,0,70706:0:0:0:0:
320,384,70567,1,0,0:0:0:0:
64,384,70706,1,0,0:0:0:0:
448,384,70706,128,0,70845:0:0:0:0:
192,384,70845,128,0,71123:0:0:0:0:
320,384,70845,1,0,0:0:0:0:
448,384,70984,1,0,0:0:0:0:
64,384,71123,1,0,0:0:0:0:
320,384,71123,1,0,0:0:0:0:
192,384,71401,128,0,71540:0:0:0:0:
448,384,71401,128,0,71540:0:0:0:0:
64,384,71470,128,0,71609:0:0:0:0:
320,384,71540,128,0,71679:0:0:0:0:
448,384,71609,128,0,71748:0:0:0:0:
64,384,71679,1,0,0:0:0:0:
192,384,71679,128,0,71817:0:0:0:0:
320,384,71748,1,0,0:0:0:0:
64,384,71817,128,0,71956:0:0:0:0:
448,384,71817,1,0,0:0:0:0:
192,384,71887,1,0,0:0:0:0:
320,384,71956,128,0,72095:0:0:0:0:
448,384,72026,1,0,0:0:0:0:
64,384,72234,1,0,0:0:0:0:
192,384,72234,1,0,0:0:0:0:
320,384,72234,128,0,72373:0:0:0:0:
448,384,72304,1,0,0:0:0:0:
192,384,72373,128,0,72512:0:0:0:0:
320,384,72442,1,0,0:0:0:0:
64,384,72512,128,0,72651:0:0:0:0:
192,384,72581,1,0,0:0:0:0:
320,384,72651,1,0,0:0:0:0:
448,384,72651,128,0,72790:0:0:0:0:
64,384,72720,1,0,0:0:0:0:
192,384,72790,128,0,73067:0:0:0:0:
320,384,72790,128,0,73067:0:0:0:0:
448,384,72859,1,0,0:0:0:0:
64,384,72929,1,0,0:0:0:0:
448,384,72998,1,0,0:0:0:0:
64,384,73067,1,0,0:0:0:0:
192,384,73206,128,0,73415:0:0:0:0:
320,384,73206,128,0,73276:0:0:0:0:
448,384,73276,128,0,73345:0:0:0:0:
320,384,73345,1,0,0:0:0:0:
64,384,73415,1,0,0:0:0:0:
320,384,73415,128,0,73484:0:0:0:0:
64,384,73484,128,0,73623:0:0:0:0:
192,384,73484,1,0,0:0:0:0:
448,384,73554,1,0,0:0:0:0:
192,384,73623,1,0,0:0:0:0:
320,384,73623,128,0,74040:0:0:0:0:
64,384,73762,1,0,0:0:0:0:
448,384,73762,1,0,0:0:0:0:
64,384,73901,1,0,0:0:0:0:
192,384,74040,128,0,74317:0:0:0:0:
448,384,74040,1,0,0:0:0:0:
64,384,74317,1,0,0:0:0:0:
448,384,74317,128,0,74595:0:0:0:0:
192,384,74456,1,0,0:0:0:0:
64,384,74595,1,0,0:0:0:0:
320,384,74595,1,0,0:0:0:0:
192,384,74734,128,0,75012:0:0:0:0:
64,384,74873,1,0,0:0:0:0:
320,384,74873,1,0,0:0:0:0:
192,384,75151,1,0,0:0:0:0:
448,384,75151,1,0,0:0:0:0:
320,384,75290,128,0,75567:0:0:0:0:
192,384,75429,1,0,0:0:0:0:
448,384,75429,1,0,0:0:0:0:
192,384,75706,1,0,0:0:0:0:
448,384,75706,1,0,0:0:0:0:
64,384,75845,128,0,76123:0:0:0:0:
320,384,75845,1,0,0:0:0:0:
192,384,75984,1,0,0:0:0:0:
320,384,75984,1,0,0:0:0:0:
192,384,76123,1,0,0:0:0:0:
448,384,76123,1,0,0:0:0:0:
64,384,76262,1,0,0:0:0:0:
320,384,76262,1,0,0:0:0:0:
192,384,76401,1,0,0:0:0:0:
448,384,76401,128,0,76679:0:0:0:0:
64,384,76540,1,0,0:0:0:0:
192,384,76540,1,0,0:0:0:0:
64,384,76679,1,0,0:0:0:0:
320,384,76679,1,0,0:0:0:0:
192,384,76817,1,0,0:0:0:0:
320,384,76817,1,0,0:0:0:0:
192,384,76956,1,0,0:0:0:0:
448,384,76956,128,0,77373:0:0:0:0:
192,384,77373,1,0,0:0:0:0:
320,384,77373,1,0,0:0:0:0:
64,384,77512,128,0,77929:0:0:0:0:
320,384,77512,1,0,0:0:0:0:
192,384,77929,1,0,0:0:0:0:
320,384,77929,1,0,0:0:0:0:
192,384,78067,128,0,78901:0:0:0:0:
320,384,78067,128,0,78901:0:0:0:0:
64,384,79179,128,0,79456:0:0:0:0:
320,384,79179,1,0,0:0:0:0:
320,384,79317,128,0,79595:0:0:0:0:
448,384,79317,1,0,0:0:0:0:
192,384,79456,1,0,0:0:0:0:
448,384,79456,128,0,79734:0:0:0:0:
64,384,79595,1,0,0:0:0:0:
192,384,79595,128,0,79873:0:0:0:0:
320,384,79873,128,0,80012:0:0:0:0:
448,384,79873,1,0,0:0:0:0:
64,384,80012,1,0,0:0:0:0:
192,384,80012,128,0,80151:0:0:0:0:
320,384,80151,128,0,80290:0:0:0:0:
448,384,80151,1,0,0:0:0:0:
64,384,80290,1,0,0:0:0:0:
192,384,80290,1,0,0:0:0:0:
448,384,80290,128,0,80567:0:0:0:0:
64,384,80429,1,0,0:0:0:0:
192,384,80429,128,0,80567:0:0:0:0:
64,384,80567,128,0,80845:0:0:0:0:
320,384,80567,1,0,0:0:0:0:
448,384,80637,1,0,0:0:0:0:
192,384,80706,1,0,0:0:0:0:
320,384,80776,1,0,0:0:0:0:
192,384,80845,1,0,0:0:0:0:
320,384,80845,128,0,80984:0:0:0:0:
64,384,81123,1,0,0:0:0:0:
320,384,81123,128,0,81401:0:0:0:0:
192,384,81192,128,0,81331:0:0:0:0:
448,384,81192,1,0,0:0:0:0:
64,384,81262,128,0,81540:0:0:0:0:
448,384,81331,128,0,81470:0:0:0:0:
192,384,81401,1,0,0:0:0:0:
320,384,81470,128,0,81679:0:0:0:0:
448,384,81540,1,0,0:0:0:0:
64,384,81679,1,0,0:0:0:0:
192,384,81679,128,0,81956:0:0:0:0:
320,384,82095,1,0,0:0:0:0:
448,384,82095,128,0,82234:0:0:0:0:
64,384,82234,1,0,0:0:0:0:
192,384,82234,1,0,0:0:0:0:
320,384,82234,128,0,82512:0:0:0:0:
64,384,82512,128,0,82929:0:0:0:0:
192,384,82512,1,0,0:0:0:0:
448,384,82512,1,0,0:0:0:0:
192,384,82651,1,0,0:0:0:0:
448,384,82651,1,0,0:0:0:0:
192,384,82790,1,0,0:0:0:0:
320,384,82790,1,0,0:0:0:0:
320,384,82929,128,0,83067:0:0:0:0:
448,384,82929,1,0,0:0:0:0:
64,384,83067,1,0,0:0:0:0:
192,384,83067,128,0,83484:0:0:0:0:
448,384,83067,1,0,0:0:0:0:
320,384,83206,1,0,0:0:0:0:
320,384,83345,1,0,0:0:0:0:
64,384,83484,1,0,0:0:0:0:
448,384,83484,128,0,83623:0:0:0:0:
192,384,83623,1,0,0:0:0:0:
320,384,83623,128,0,84040:0:0:0:0:
64,384,83762,1,0,0:0:0:0:
64,384,83901,1,0,0:0:0:0:
448,384,83901,1,0,0:0:0:0:
64,384,84040,128,0,84179:0:0:0:0:
192,384,84040,1,0,0:0:0:0:
448,384,84040,128,0,84179:0:0:0:0:
64,384,84317,1,0,0:0:0:0:
192,384,84317,1,0,0:0:0:0:
320,384,84317,1,0,0:0:0:0:
448,384,84317,1,0,0:0:0:0:
64,384,84595,128,0,84873:0:0:0:0:
320,384,84595,1,0,0:0:0:0:
192,384,84873,1,0,0:0:0:0:
320,384,84873,128,0,85151:0:0:0:0:
192,384,85151,128,0,85429:0:0:0:0:
448,384,85151,1,0,0:0:0:0:
64,384,85429,1,0,0:0:0:0:
448,384,85429,128,0,85706:0:0:0:0:
64,384,85706,128,0,86262:0:0:0:0:
320,384,85706,128,0,86262:0:0:0:0:
192,384,86262,128,0,86794:0:0:0:0:
448,384,86262,128,0,86817:0:0:0:0:
192,384,86817,128,0,87929:0:0:0:0:
320,384,86817,128,0,87929:0:0:0:0:
64,384,87373,1,0,0:0:0:0:
448,384,87373,1,0,0:0:0:0:
64,384,87651,1,0,0:0:0:0:
448,384,87651,1,0,0:0:0:0:
64,384,87929,1,0,0:0:0:0:
448,384,87929,1,0,0:0:0:0:
64,384,88206,1,0,0:0:0:0:
192,384,88206,1,0,0:0:0:0:
320,384,88206,1,0,0:0:0:0:
448,384,88206,1,0,0:0:0:0:
64,384,88484,128,0,88762:0:0:0:0:
192,384,88762,128,0,89040:0:0:0:0:
320,384,89040,128,0,89317:0:0:0:0:
448,384,89179,1,0,0:0:0:0:
64,384,89317,1,0,0:0:0:0:
192,384,89317,1,0,0:0:0:0:
448,384,89317,128,0,90845:0:0:0:0:
64,384,89873,1,0,0:0:0:0:
192,384,89873,1,0,0:0:0:0:
320,384,89873,128,0,90429:0:0:0:0:
64,384,90429,1,0,0:0:0:0:
192,384,90429,128,0,90706:0:0:0:0:
64,384,90706,128,0,91262:0:0:0:0:
320,384,90706,1,0,0:0:0:0:
192,384,90984,1,0,0:0:0:0:
320,384,90984,1,0,0:0:0:0:
448,384,90984,1,0,0:0:0:0:
192,384,91262,128,0,91540:0:0:0:0:
320,384,91262,128,0,91540:0:0:0:0:
448,384,91262,128,0,91540:0:0:0:0:
64,384,91540,128,0,92095:0:0:0:0:
192,384,92095,128,0,92373:0:0:0:0:
320,384,92095,1,0,0:0:0:0:
448,384,92095,1,0,0:0:0:0:
64,384,92373,1,0,0:0:0:0:
320,384,92373,128,0,92929:0:0:0:0:
448,384,92373,1,0,0:0:0:0:
64,384,92929,1,0,0:0:0:0:
192,384,92929,1,0,0:0:0:0:
448,384,92929,128,0,93206:0:0:0:0:
64,384,93206,1,0,0:0:0:0:
192,384,93206,1,0,0:0:0:0:
320,384,93206,128,0,93484:0:0:0:0:
64,384,93484,1,0,0:0:0:0:
192,384,93484,128,0,93762:0:0:0:0:
448,384,93484,1,0,0:0:0:0:
64,384,93762,128,0,94317:0:0:0:0:
320,384,93762,1,0,0:0:0:0:
448,384,93762,128,0,94317:0:0:0:0:
192,384,94317,1,0,0:0:0:0:
320,384,94317,128,0,94873:0:0:0:0:
64,384,94873,1,0,0:0:0:0:
192,384,94873,128,0,95151:0:0:0:0:
448,384,94873,1,0,0:0:0:0:
64,384,95151,128,0,95429:0:0:0:0:
320,384,95151,1,0,0:0:0:0:
448,384,95151,1,0,0:0:0:0:
192,384,95429,1,0,0:0:0:0:
320,384,95429,1,0,0:0:0:0:
448,384,95429,128,0,95706:0:0:0:0:
64,384,95706,128,0,95984:0:0:0:0:
192,384,95706,128,0,95984:0:0:0:0:
320,384,95706,128,0,95984:0:0:0:0:
448,384,95984,128,0,96540:0:0:0:0:
64,384,96540,1,0,0:0:0:0:
192,384,96540,1,0,0:0:0:0:
320,384,96540,128,0,96817:0:0:0:0:
64,384,96817,1,0,0:0:0:0:
192,384,96817,128,0,97095:0:0:0:0:
448,384,96817,1,0,0:0:0:0:
448,384,97373,128,0,97651:0:0:0:0:
320,384,97651,128,0,97929:0:0:0:0:
192,384,97929,128,0,98206:0:0:0:0:
64,384,98067,1,0,0:0:0:0:
64,384,98206,128,0,99734:0:0:0:0:
320,384,98206,1,0,0:0:0:0:
448,384,98206,1,0,0:0:0:0:
192,384,98762,128,0,99317:0:0:0:0:
320,384,98762,1,0,0:0:0:0:
448,384,98762,1,0,0:0:0:0:
320,384,99317,128,0,99595:0:0:0:0:
448,384,99317,1,0,0:0:0:0:
192,384,99595,1,0,0:0:0:0:
448,384,99595,128,0,100151:0:0:0:0:
64,384,99873,1,0,0:0:0:0:
192,384,99873,1,0,0:0:0:0:
320,384,99873,1,0,0:0:0:0:
64,384,100151,128,0,100429:0:0:0:0:
192,384,100151,128,0,100429:0:0:0:0:
320,384,100151,128,0,100429:0:0:0:0:
448,384,100429,128,0,100984:0:0:0:0:
64,384,100984,1,0,0:0:0:0:
192,384,100984,1,0,0:0:0:0:
320,384,100984,128,0,101262:0:0:0:0:
64,384,101262,1,0,0:0:0:0:
192,384,101262,128,0,101817:0:0:0:0:
448,384,101262,1,0,0:0:0:0:
64,384,101817,128,0,102095:0:0:0:0:
320,384,101817,1,0,0:0:0:0:
448,384,101817,1,0,0:0:0:0:
192,384,102095,128,0,102373:0:0:0:0:
320,384,102095,1,0,0:0:0:0:
448,384,102095,1,0,0:0:0:0:
64,384,102373,1,0,0:0:0:0:
320,384,102373,128,0,102651:0:0:0:0:
448,384,102373,1,0,0:0:0:0:
64,384,102651,128,0,103206:0:0:0:0:
192,384,102651,1,0,0:0:0:0:
448,384,102651,128,0,103206:0:0:0:0:
192,384,103206,128,0,103762:0:0:0:0:
320,384,103206,128,0,103762:0:0:0:0:
64,384,103762,1,0,0:0:0:0:
448,384,103762,128,0,104040:0:0:0:0:
64,384,104040,1,0,0:0:0:0:
192,384,104040,1,0,0:0:0:0:
320,384,104040,128,0,104317:0:0:0:0:
64,384,104317,1,0,0:0:0:0:
192,384,104317,128,0,104595:0:0:0:0:
448,384,104317,1,0,0:0:0:0:
64,384,104595,128,0,104873:0:0:0:0:
320,384,104595,1,0,0:0:0:0:
448,384,104595,1,0,0:0:0:0:
192,384,104873,128,0,105429:0:0:0:0:
320,384,104873,128,0,105429:0:0:0:0:
448,384,104873,1,0,0:0:0:0:
64,384,105429,128,0,105706:0:0:0:0:
448,384,105429,1,0,0:0:0:0:
192,384,105706,1,0,0:0:0:0:
320,384,105706,1,0,0:0:0:0:
448,384,105706,128,0,106262:0:0:0:0:
64,384,106262,1,0,0:0:0:0:
192,384,106262,1,0,0:0:0:0:
320,384,106262,128,0,106540:0:0:0:0:
64,384,106540,1,0,0:0:0:0:
192,384,106540,128,0,107095:0:0:0:0:
448,384,106540,1,0,0:0:0:0:
64,384,107095,1,0,0:0:0:0:
320,384,107095,1,0,0:0:0:0:
448,384,107095,1,0,0:0:0:0:
64,384,107512,1,0,0:0:0:0:
320,384,107512,128,0,107651:0:0:0:0:
192,384,107651,128,0,107790:0:0:0:0:
448,384,107651,1,0,0:0:0:0:
64,384,107790,128,0,107929:0:0:0:0:
320,384,107790,128,0,107929:0:0:0:0:
448,384,107929,128,0,108067:0:0:0:0:
192,384,108067,128,0,108345:0:0:0:0:
320,384,108067,1,0,0:0:0:0:
64,384,108345,1,0,0:0:0:0:
320,384,108345,128,0,108484:0:0:0:0:
192,384,108484,1,0,0:0:0:0:
448,384,108484,128,0,108623:0:0:0:0:
64,384,109040,1,0,0:0:0:0:
320,384,109040,128,0,109317:0:0:0:0:
448,384,109040,1,0,0:0:0:0:
64,384,109317,128,0,109595:0:0:0:0:
192,384,109317,1,0,0:0:0:0:
448,384,109317,1,0,0:0:0:0:
320,384,109595,1,0,0:0:0:0:
448,384,109595,128,0,109734:0:0:0:0:
192,384,109734,1,0,0:0:0:0:
320,384,109734,128,0,110012:0:0:0:0:
64,384,110012,1,0,0:0:0:0:
192,384,110012,128,0,110290:0:0:0:0:
320,384,110290,1,0,0:0:0:0:
448,384,110290,128,0,110429:0:0:0:0:
64,384,110429,1,0,0:0:0:0:
192,384,110429,1,0,0:0:0:0:
320,384,110429,128,0,110567:0:0:0:0:
64,384,110567,128,0,110706:0:0:0:0:
192,384,110567,1,0,0:0:0:0:
192,384,110706,128,0,110984:0:0:0:0:
320,384,110706,1,0,0:0:0:0:
64,384,110984,1,0,0:0:0:0:
320,384,110984,128,0,111262:0:0:0:0:
448,384,110984,1,0,0:0:0:0:
64,384,111262,128,0,111540:0:0:0:0:
192,384,111262,1,0,0:0:0:0:
448,384,111262,128,0,111540:0:0:0:0:
192,384,111540,128,0,111817:0:0:0:0:
320,384,111540,1,0,0:0:0:0:
64,384,112095,1,0,0:0:0:0:
192,384,112095,128,0,112373:0:0:0:0:
448,384,112095,1,0,0:0:0:0:
64,384,112373,128,0,112512:0:0:0:0:
320,384,112373,128,0,112512:0:0:0:0:
448,384,112373,1,0,0:0:0:0:
192,384,112512,1,0,0:0:0:0:
448,384,112512,128,0,112929:0:0:0:0:
64,384,112929,128,0,113206:0:0:0:0:
192,384,112929,1,0,0:0:0:0:
320,384,112929,1,0,0:0:0:0:
192,384,113206,1,0,0:0:0:0:
320,384,113206,128,0,113484:0:0:0:0:
448,384,113206,1,0,0:0:0:0:
64,384,113484,1,0,0:0:0:0:
192,384,113484,128,0,113623:0:0:0:0:
448,384,113484,1,0,0:0:0:0:
64,384,113623,128,0,113762:0:0:0:0:
448,384,113623,128,0,113762:0:0:0:0:
192,384,113762,128,0,114040:0:0:0:0:
320,384,113762,1,0,0:0:0:0:
64,384,114040,1,0,0:0:0:0:
320,384,114040,128,0,114179:0:0:0:0:
64,384,114179,1,0,0:0:0:0:
192,384,114179,1,0,0:0:0:0:
448,384,114179,128,0,114595:0:0:0:0:
64,384,114595,128,0,114873:0:0:0:0:
192,384,114595,1,0,0:0:0:0:
320,384,114595,1,0,0:0:0:0:
192,384,114873,128,0,115151:0:0:0:0:
320,384,114873,1,0,0:0:0:0:
64,384,115151,1,0,0:0:0:0:
448,384,115151,128,0,115429:0:0:0:0:
64,384,115429,128,0,115984:0:0:0:0:
192,384,115429,1,0,0:0:0:0:
320,384,115429,128,0,115984:0:0:0:0:
192,384,115984,1,0,0:0:0:0:
448,384,115984,1,0,0:0:0:0:
64,384,116540,1,0,0:0:0:0:
192,384,116540,128,0,116679:0:0:0:0:
320,384,116540,1,0,0:0:0:0:
448,384,116540,1,0,0:0:0:0:
64,384,116679,1,0,0:0:0:0:
320,384,116679,128,0,116817:0:0:0:0:
64,384,116817,128,0,116956:0:0:0:0:
192,384,116817,1,0,0:0:0:0:
448,384,116817,1,0,0:0:0:0:
192,384,116956,1,0,0:0:0:0:
320,384,116956,1,0,0:0:0:0:
448,384,116956,128,0,117095:0:0:0:0:
64,384,117095,1,0,0:0:0:0:
192,384,117095,128,0,117234:0:0:0:0:
320,384,117095,1,0,0:0:0:0:
320,384,117234,128,0,117373:0:0:0:0:
448,384,117234,1,0,0:0:0:0:
64,384,117373,128,0,117651:0:0:0:0:
192,384,117373,1,0,0:0:0:0:
448,384,117373,128,0,117651:0:0:0:0:
64,384,117929,1,0,0:0:0:0:
320,384,117929,1,0,0:0:0:0:
448,384,117929,128,0,118206:0:0:0:0:
64,384,118206,1,0,0:0:0:0:
192,384,118206,128,0,118484:0:0:0:0:
320,384,118484,128,0,118623:0:0:0:0:
448,384,118484,1,0,0:0:0:0:
64,384,118623,128,0,118762:0:0:0:0:
448,384,118623,128,0,118762:0:0:0:0:
192,384,118762,1,0,0:0:0:0:
320,384,118762,128,0,118901:0:0:0:0:
192,384,118901,128,0,119179:0:0:0:0:
448,384,118901,1,0,0:0:0:0:
64,384,119179,1,0,0:0:0:0:
320,384,119179,128,0,119595:0:0:0:0:
448,384,119179,1,0,0:0:0:0:
192,384,119595,1,0,0:0:0:0:
448,384,119595,128,0,119873:0:0:0:0:
192,384,119873,1,0,0:0:0:0:
320,384,119873,128,0,120151:0:0:0:0:
64,384,120151,1,0,0:0:0:0:
192,384,120151,128,0,120429:0:0:0:0:
64,384,120429,128,0,120567:0:0:0:0:
448,384,120429,1,0,0:0:0:0:
192,384,120706,1,0,0:0:0:0:
320,384,120706,1,0,0:0:0:0:
448,384,120706,128,0,120984:0:0:0:0:
64,384,120984,1,0,0:0:0:0:
192,384,120984,128,0,121262:0:0:0:0:
320,384,120984,1,0,0:0:0:0:
64,384,121262,1,0,0:0:0:0:
320,384,121262,128,0,121401:0:0:0:0:
448,384,121331,1,0,0:0:0:0:
64,384,121401,128,0,121540:0:0:0:0:
192,384,121401,1,0,0:0:0:0:
448,384,121470,1,0,0:0:0:0:
192,384,121540,128,0,121679:0:0:0:0:
320,384,121540,1,0,0:0:0:0:
448,384,121609,1,0,0:0:0:0:
64,384,121679,1,0,0:0:0:0:
320,384,121679,1,0,0:0:0:0:
448,384,121679,128,0,121817:0:0:0:0:
64,384,122373,1,0,0:0:0:0:
320,384,122373,128,0,122651:0:0:0:0:
448,384,122373,1,0,0:0:0:0:
64,384,122651,1,0,0:0:0:0:
192,384,122651,128,0,122929:0:0:0:0:
64,384,122929,128,0,123206:0:0:0:0:
448,384,122929,1,0,0:0:0:0:
192,384,123206,1,0,0:0:0:0:
320,384,123206,1,0,0:0:0:0:
448,384,123206,128,0,123484:0:0:0:0:
64,384,123484,1,0,0:0:0:0:
192,384,123484,128,0,124040:0:0:0:0:
64,384,123762,1,0,0:0:0:0:
320,384,123762,1,0,0:0:0:0:
320,384,123901,1,0,0:0:0:0:
448,384,123901,1,0,0:0:0:0:
64,384,124040,128,0,124873:0:0:0:0:
320,384,124040,1,0,0:0:0:0:
448,384,124040,128,0,124873:0:0:0:0:
192,384,124317,1,0,0:0:0:0:
320,384,124317,1,0,0:0:0:0:
192,384,124595,1,0,0:0:0:0:
320,384,124595,1,0,0:0:0:0:
192,384,124873,128,0,125151:0:0:0:0:
320,384,124873,128,0,125151:0:0:0:0:
64,384,125706,128,0,125845:0:0:0:0:
320,384,125706,1,0,0:0:0:0:
192,384,125845,128,0,125984:0:0:0:0:
448,384,125845,128,0,125984:0:0:0:0:
64,384,125984,128,0,126123:0:0:0:0:
320,384,125984,1,0,0:0:0:0:
320,384,126123,128,0,126262:0:0:0:0:
192,384,126262,1,0,0:0:0:0:
448,384,126262,128,0,126401:0:0:0:0:
64,384,126401,1,0,0:0:0:0:
320,384,126401,128,0,126817:0:0:0:0:
192,384,126817,128,0,127095:0:0:0:0:
448,384,126817,1,0,0:0:0:0:
64,384,127095,128,0,127373:0:0:0:0:
320,384,127095,1,0,0:0:0:0:
192,384,127373,128,0,127651:0:0:0:0:
448,384,127373,1,0,0:0:0:0:
64,384,127651,128,0,128206:0:0:0:0:
320,384,127651,128,0,128206:0:0:0:0:
192,384,128206,1,0,0:0:0:0:
448,384,128206,128,0,128762:0:0:0:0:
192,384,128762,128,0,129317:0:0:0:0:
320,384,128762,128,0,129317:0:0:0:0:
192,384,129873,1,0,0:0:0:0:
448,384,129873,128,0,130151:0:0:0:0:
64,384,130151,1,0,0:0:0:0:
320,384,130151,128,0,130429:0:0:0:0:
192,384,130429,128,0,130706:0:0:0:0:
448,384,130429,1,0,0:0:0:0:
64,384,130706,128,0,131262:0:0:0:0:
320,384,130706,1,0,0:0:0:0:
448,384,130706,1,0,0:0:0:0:
192,384,131262,1,0,0:0:0:0:
320,384,131262,128,0,131817:0:0:0:0:
64,384,131817,1,0,0:0:0:0:
192,384,131817,128,0,132373:0:0:0:0:
448,384,131817,128,0,132373:0:0:0:0:
64,384,132512,1,0,0:0:0:0:
320,384,132512,128,0,132651:0:0:0:0:
64,384,132651,128,0,132790:0:0:0:0:
192,384,132651,1,0,0:0:0:0:
192,384,132790,128,0,132929:0:0:0:0:
320,384,132790,1,0,0:0:0:0:
64,384,132929,1,0,0:0:0:0:
448,384,132929,128,0,133067:0:0:0:0:
192,384,133067,128,0,133345:0:0:0:0:
320,384,133067,1,0,0:0:0:0:
448,384,133206,1,0,0:0:0:0:
64,384,133345,1,0,0:0:0:0:
320,384,133345,1,0,0:0:0:0:
192,384,133623,128,0,133762:0:0:0:0:
448,384,133623,128,0,133762:0:0:0:0:
64,384,133692,128,0,133831:0:0:0:0:
320,384,133762,128,0,133901:0:0:0:0:
448,384,133831,128,0,133970:0:0:0:0:
64,384,133901,1,0,0:0:0:0:
192,384,133901,128,0,134040:0:0:0:0:
320,384,133970,1,0,0:0:0:0:
64,384,134040,128,0,134179:0:0:0:0:
448,384,134040,1,0,0:0:0:0:
192,384,134109,1,0,0:0:0:0:
320,384,134179,128,0,134317:0:0:0:0:
448,384,134248,1,0,0:0:0:0:
64,384,134456,1,0,0:0:0:0:
192,384,134456,1,0,0:0:0:0:
320,384,134456,128,0,134595:0:0:0:0:
448,384,134526,1,0,0:0:0:0:
192,384,134595,128,0,134734:0:0:0:0:
320,384,134665,1,0,0:0:0:0:
64,384,134734,128,0,134873:0:0:0:0:
192,384,134804,1,0,0:0:0:0:
320,384,134873,1,0,0:0:0:0:
448,384,134873,128,0,135012:0:0:0:0:
64,384,134942,1,0,0:0:0:0:
192,384,135012,128,0,135290:0:0:0:0:
320,384,135012,128,0,135290:0:0:0:0:
448,384,135081,1,0,0:0:0:0:
64,384,135151,1,0,0:0:0:0:
448,384,135220,1,0,0:0:0:0:
64,384,135290,1,0,0:0:0:0:
192,384,135429,128,0,135637:0:0:0:0:
320,384,135429,128,0,135498:0:0:0:0:
448,384,135498,128,0,135567:0:0:0:0:
320,384,135567,1,0,0:0:0:0:
64,384,135637,1,0,0:0:0:0:
320,384,135637,128,0,135706:0:0:0:0:
64,384,135706,128,0,135845:0:0:0:0:
192,384,135706,1,0,0:0:0:0:
448,384,135776,1,0,0:0:0:0:
192,384,135845,1,0,0:0:0:0:
320,384,135845,128,0,136262:0:0:0:0:
64,384,135984,1,0,0:0:0:0:
448,384,135984,1,0,0:0:0:0:
64,384,136123,1,0,0:0:0:0:
192,384,136262,128,0,136540:0:0:0:0:
448,384,136262,1,0,0:0:0:0:
64,384,136540,1,0,0:0:0:0:
448,384,136540,128,0,136817:0:0:0:0:
192,384,136679,1,0,0:0:0:0:
64,384,136817,1,0,0:0:0:0:
320,384,136817,1,0,0:0:0:0:
192,384,136956,128,0,137234:0:0:0:0:
64,384,137095,1,0,0:0:0:0:
320,384,137095,1,0,0:0:0:0:
192,384,137373,1,0,0:0:0:0:
448,384,137373,1,0,0:0:0:0:
320,384,137512,128,0,137790:0:0:0:0:
192,384,137651,1,0,0:0:0:0:
448,384,137651,1,0,0:0:0:0:
192,384,137929,1,0,0:0:0:0:
448,384,137929,1,0,0:0:0:0:
64,384,138067,128,0,138345:0:0:0:0:
320,384,138067,1,0,0:0:0:0:
192,384,138206,1,0,0:0:0:0:
320,384,138206,1,0,0:0:0:0:
192,384,138345,1,0,0:0:0:0:
448,384,138345,1,0,0:0:0:0:
64,384,138484,1,0,0:0:0:0:
320,384,138484,1,0,0:0:0:0:
192,384,138623,1,0,0:0:0:0:
448,384,138623,128,0,138901:0:0:0:0:
64,384,138762,1,0,0:0:0:0:
192,384,138762,1,0,0:0:0:0:
64,384,138901,1,0,0:0:0:0:
320,384,138901,1,0,0:0:0:0:
192,384,139040,1,0,0:0:0:0:
320,384,139040,1,0,0:0:0:0:
192,384,139179,1,0,0:0:0:0:
448,384,139179,128,0,139595:0:0:0:0:
192,384,139595,1,0,0:0:0:0:
320,384,139595,1,0,0:0:0:0:
64,384,139734,128,0,140151:0:0:0:0:
320,384,139734,1,0,0:0:0:0:
192,384,140151,1,0,0:0:0:0:
320,384,140151,1,0,0:0:0:0:
192,384,140290,128,0,141123:0:0:0:0:
320,384,140290,128,0,141123:0:0:0:0:
64,384,141401,128,0,141679:0:0:0:0:
320,384,141401,1,0,0:0:0:0:
320,384,141540,128,0,141817:0:0:0:0:
448,384,141540,1,0,0:0:0:0:
192,384,141679,1,0,0:0:0:0:
448,384,141679,128,0,141956:0:0:0:0:
64,384,141817,1,0,0:0:0:0:
192,384,141817,128,0,142095:0:0:0:0:
320,384,142095,128,0,142234:0:0:0:0:
448,384,142095,1,0,0:0:0:0:
64,384,142234,1,0,0:0:0:0:
192,384,142234,128,0,142373:0:0:0:0:
320,384,142373,128,0,142512:0:0:0:0:
448,384,142373,1,0,0:0:0:0:
64,384,142512,1,0,0:0:0:0:
192,384,142512,1,0,0:0:0:0:
448,384,142512,128,0,142790:0:0:0:0:
64,384,142651,1,0,0:0:0:0:
192,384,142651,128,0,142790:0:0:0:0:
64,384,142790,128,0,143067:0:0:0:0:
320,384,142790,1,0,0:0:0:0:
448,384,142859,1,0,0:0:0:0:
192,384,142929,1,0,0:0:0:0:
320,384,142998,1,0,0:0:0:0:
192,384,143067,1,0,0:0:0:0:
320,384,143067,128,0,143206:0:0:0:0:
64,384,143345,1,0,0:0:0:0:
320,384,143345,128,0,143623:0:0:0:0:
192,384,143415,128,0,143554:0:0:0:0:
448,384,143415,1,0,0:0:0:0:
64,384,143484,128,0,143762:0:0:0:0:
448,384,143554,128,0,143692:0:0:0:0:
192,384,143623,1,0,0:0:0:0:
320,384,143692,128,0,143901:0:0:0:0:
448,384,143762,1,0,0:0:0:0:
64,384,143901,1,0,0:0:0:0:
192,384,143901,128,0,144179:0:0:0:0:
320,384,144317,1,0,0:0:0:0:
448,384,144317,128,0,144456:0:0:0:0:
64,384,144456,1,0,0:0:0:0:
192,384,144456,1,0,0:0:0:0:
320,384,144456,128,0,144734:0:0:0:0:
64,384,144734,128,0,145151:0:0:0:0:
192,384,144734,1,0,0:0:0:0:
448,384,144734,1,0,0:0:0:0:
192,384,144873,1,0,0:0:0:0:
448,384,144873,1,0,0:0:0:0:
192,384,145012,1,0,0:0:0:0:
320,384,145012,1,0,0:0:0:0:
320,384,145151,128,0,145290:0:0:0:0:
448,384,145151,1,0,0:0:0:0:
64,384,145290,1,0,0:0:0:0:
192,384,145290,128,0,145706:0:0:0:0:
448,384,145290,1,0,0:0:0:0:
320,384,145429,1,0,0:0:0:0:
320,384,145567,1,0,0:0:0:0:
64,384,145706,1,0,0:0:0:0:
448,384,145706,128,0,145845:0:0:0:0:
192,384,145845,1,0,0:0:0:0:
320,384,145845,128,0,146262:0:0:0:0:
64,384,145984,1,0,0:0:0:0:
64,384,146123,1,0,0:0:0:0:
448,384,146123,1,0,0:0:0:0:
64,384,146262,128,0,146401:0:0:0:0:
192,384,146262,1,0,0:0:0:0:
448,384,146262,128,0,146401:0:0:0:0:
64,384,146540,1,0,0:0:0:0:
192,384,146540,1,0,0:0:0:0:
320,384,146540,1,0,0:0:0:0:
448,384,146540,1,0,0:0:0:0:
64,384,146817,128,0,147095:0:0:0:0:
320,384,146817,1,0,0:0:0:0:
192,384,147095,1,0,0:0:0:0:
320,384,147095,128,0,147373:0:0:0:0:
192,384,147373,128,0,147651:0:0:0:0:
448,384,147373,1,0,0:0:0:0:
64,384,147651,1,0,0:0:0:0:
448,384,147651,128,0,147929:0:0:0:0:
64,384,147929,128,0,148484:0:0:0:0:
320,384,147929,128,0,148484:0:0:0:0:
192,384,148484,128,0,149017:0:0:0:0:
448,384,148484,128,0,149040:0:0:0:0:
192,384,149040,128,0,150151:0:0:0:0:
320,384,149040,128,0,150151:0:0:0:0:
64,384,149317,1,0,0:0:0:0:
448,384,149317,1,0,0:0:0:0:
64,384,149873,1,0,0:0:0:0:
448,384,149873,1,0,0:0:0:0:
64,384,150429,1,0,0:0:0:0:
192,384,150429,1,0,0:0:0:0:
320,384,150429,1,0,0:0:0:0:
448,384,150429,1,0,0:0:0:0:
64,384,150706,1,0,0:0:0:0:
320,384,150706,128,0,150984:0:0:0:0:
448,384,150706,1,0,0:0:0:0:
64,384,150984,128,0,151262:0:0:0:0:
192,384,150984,1,0,0:0:0:0:
448,384,150984,1,0,0:0:0:0:
192,384,151262,1,0,0:0:0:0:
320,384,151262,1,0,0:0:0:0:
448,384,151262,128,0,151401:0:0:0:0:
192,384,151401,128,0,153206:0:0:0:0:
320,384,151401,1,0,0:0:0:0:
64,384,152095,128,0,152234:0:0:0:0:
320,384,152165,128,0,152304:0:0:0:0:
448,384,152234,128,0,152373:0:0:0:0:
64,384,152304,128,0,152442:0:0:0:0:
320,384,152373,128,0,152512:0:0:0:0:
448,384,152442,128,0,152512:0:0:0:0:
64,384,152512,128,0,152651:0:0:0:0:
448,384,152581,128,0,152720:0:0:0:0:
320,384,152651,128,0,152790:0:0:0:0:
64,384,152720,128,0,152790:0:0:0:0:
448,384,152790,128,0,152929:0:0:0:0:
64,384,152859,128,0,152998:0:0:0:0:
320,384,152929,128,0,153067:0:0:0:0:
448,384,152998,128,0,153137:0:0:0:0:
64,384,153067,128,0,153206:0:0:0:0:
320,384,153137,128,0,153206:0:0:0:0:
448,384,153206,128,0,153345:0:0:0:0:
320,384,153276,128,0,153415:0:0:0:0:
192,384,153345,128,0,153484:0:0:0:0:
64,384,153415,128,0,153554:0:0:0:0:
448,384,153484,128,0,153623:0:0:0:0:
192,384,153554,128,0,153692:0:0:0:0:
320,384,153554,128,0,153692:0:0:0:0:
64,384,153762,1,0,0:0:0:0:
192,384,153762,1,0,0:0:0:0:
320,384,153762,1,0,0:0:0:0:
448,384,153762,1,0,0:0:0:0:
64,384,153831,128,0,153970:0:0:0:0:
320,384,153901,128,0,154040:0:0:0:0:
192,384,153970,128,0,154109:0:0:0:0:
448,384,154040,128,0,154179:0:0:0:0:
320,384,154179,128,0,154317:0:0:0:0:
64,384,154248,128,0,154387:0:0:0:0:
192,384,154317,128,0,154456:0:0:0:0:
448,384,154387,128,0,154526:0:0:0:0:
320,384,154456,128,0,154595:0:0:0:0:
192,384,154595,128,0,154734:0:0:0:0:
320,384,154734,128,0,155012:0:0:0:0:
192,384,154873,1,0,0:0:0:0:
64,384,155012,1,0,0:0:0:0:
448,384,155012,1,0,0:0:0:0:
192,384,155429,1,0,0:0:0:0:
320,384,155429,1,0,0:0:0:0:
64,384,155567,1,0,0:0:0:0:
192,384,155567,1,0,0:0:0:0:
320,384,155567,1,0,0:0:0:0:
448,384,155567,1,0,0:0:0:0:
320,384,155984,128,0,157095:0:0:0:0:
448,384,156054,128,0,156192:0:0:0:0:
192,384,156123,128,0,156262:0:0:0:0:
64,384,156192,128,0,156331:0:0:0:0:
448,384,156262,128,0,156401:0:0:0:0:
192,384,156331,128,0,156401:0:0:0:0:
64,384,156401,128,0,156470:0:0:0:0:
192,384,156470,128,0,156540:0:0:0:0:
448,384,156540,128,0,156679:0:0:0:0:
64,384,156609,128,0,156748:0:0:0:0:
192,384,156679,128,0,156817:0:0:0:0:
448,384,156748,128,0,156817:0:0:0:0:
64,384,156817,128,0,156887:0:0:0:0:
448,384,156887,128,0,157026:0:0:0:0:
192,384,156956,128,0,157026:0:0:0:0:
64,384,157026,128,0,157165:0:0:0:0:
448,384,157095,128,0,157234:0:0:0:0:
192,384,157165,128,0,157304:0:0:0:0:
320,384,157234,128,0,157373:0:0:0:0:
448,384,157304,128,0,157373:0:0:0:0:
192,384,157373,128,0,157442:0:0:0:0:
64,384,157442,128,0,157581:0:0:0:0:
448,384,157512,128,0,157651:0:0:0:0:
320,384,157581,128,0,157720:0:0:0:0:
192,384,157651,128,0,157720:0:0:0:0:
448,384,157720,128,0,157790:0:0:0:0:
64,384,157790,128,0,157859:0:0:0:0:
192,384,157859,128,0,157998:0:0:0:0:
448,384,157929,128,0,157998:0:0:0:0:
320,384,157998,128,0,158137:0:0:0:0:
448,384,158137,128,0,158206:0:0:0:0:
64,384,158206,128,0,158484:0:0:0:0:
320,384,158206,1,0,0:0:0:0:
192,384,158484,128,0,158623:0:0:0:0:
448,384,158484,1,0,0:0:0:0:
64,384,158623,1,0,0:0:0:0:
320,384,158623,128,0,159040:0:0:0:0:
64,384,159040,1,0,0:0:0:0:
192,384,159040,128,0,159595:0:0:0:0:
448,384,159040,128,0,159595:0:0:0:0:
320,384,159595,128,0,160012:0:0:0:0:
64,384,160012,128,0,160290:0:0:0:0:
448,384,160012,1,0,0:0:0:0:
192,384,160290,1,0,0:0:0:0:
64,384,160429,1,0,0:0:0:0:
192,384,160429,1,0,0:0:0:0:
320,384,160429,128,0,160706:0:0:0:0:
448,384,160429,128,0,160706:0:0:0:0:
64,384,160706,128,0,160984:0:0:0:0:
192,384,160706,128,0,160984:0:0:0:0:
192,384,161262,1,0,0:0:0:0:
448,384,161262,128,0,161540:0:0:0:0:
192,384,161540,128,0,161956:0:0:0:0:
320,384,161540,1,0,0:0:0:0:
64,384,161956,1,0,0:0:0:0:
320,384,161956,128,0,162373:0:0:0:0:
192,384,162373,1,0,0:0:0:0:
320,384,162651,128,0,162790:0:0:0:0:
448,384,162651,1,0,0:0:0:0:
192,384,162790,128,0,162929:0:0:0:0:
64,384,162929,128,0,163067:0:0:0:0:
448,384,163067,128,0,163484:0:0:0:0:
64,384,163484,128,0,163762:0:0:0:0:
320,384,163484,1,0,0:0:0:0:
192,384,163762,128,0,164040:0:0:0:0:
448,384,163762,1,0,0:0:0:0:
64,384,164040,1,0,0:0:0:0:
320,384,164040,128,0,164317:0:0:0:0:
192,384,164317,1,0,0:0:0:0:
448,384,164317,128,0,164595:0:0:0:0:
64,384,164595,1,0,0:0:0:0:
320,384,164595,128,0,164873:0:0:0:0:
64,384,164873,128,0,165012:0:0:0:0:
192,384,165012,128,0,165151:0:0:0:0:
320,384,165151,128,0,165290:0:0:0:0:
448,384,165290,128,0,165706:0:0:0:0:
64,384,165706,1,0,0:0:0:0:
192,384,165706,1,0,0:0:0:0:
448,384,165984,128,0,166262:0:0:0:0:
320,384,166262,128,0,166540:0:0:0:0:
192,384,166540,128,0,166817:0:0:0:0:
64,384,166817,128,0,167095:0:0:0:0:
448,384,167095,128,0,167234:0:0:0:0:
320,384,167234,128,0,167373:0:0:0:0:
192,384,167373,128,0,167512:0:0:0:0:
64,384,167512,128,0,167929:0:0:0:0:
320,384,167929,1,0,0:0:0:0:
448,384,167929,1,0,0:0:0:0:
64,384,168484,1,0,0:0:0:0:
192,384,168484,1,0,0:0:0:0:
64,384,169179,1,0,0:0:0:0:
320,384,169179,128,0,169595:0:0:0:0:
192,384,169595,128,0,169873:0:0:0:0:
448,384,169595,1,0,0:0:0:0:
64,384,170012,1,0,0:0:0:0:
320,384,170012,1,0,0:0:0:0:
192,384,170151,1,0,0:0:0:0:
448,384,170151,1,0,0:0:0:0:
64,384,170290,128,0,170567:0:0:0:0:
320,384,170567,1,0,0:0:0:0:
448,384,170567,1,0,0:0:0:0:
64,384,170984,1,0,0:0:0:0:
320,384,170984,128,0,171262:0:0:0:0:
64,384,171262,128,0,171401:0:0:0:0:
192,384,171262,1,0,0:0:0:0:
192,384,171401,128,0,171817:0:0:0:0:
448,384,171401,1,0,0:0:0:0:
64,384,171817,1,0,0:0:0:0:
448,384,171817,128,0,171956:0:0:0:0:
192,384,171956,1,0,0:0:0:0:
320,384,171956,128,0,172373:0:0:0:0:
192,384,172373,1,0,0:0:0:0:
64,384,172512,128,0,172929:0:0:0:0:
192,384,172929,1,0,0:0:0:0:
320,384,172929,1,0,0:0:0:0:
448,384,173067,128,0,173484:0:0:0:0:
64,384,173484,1,0,0:0:0:0:
192,384,173623,128,0,174040:0:0:0:0:
448,384,174040,1,0,0:0:0:0:
320,384,174179,128,0,174595:0:0:0:0:
448,384,174595,1,0,0:0:0:0:
192,384,174734,128,0,175151:0:0:0:0:
64,384,175151,1,0,0:0:0:0:
320,384,175290,128,0,175706:0:0:0:0:
64,384,175706,1,0,0:0:0:0:
448,384,175706,1,0,0:0:0:0:
192,384,175845,128,0,176679:0:0:0:0:
64,384,176956,1,0,0:0:0:0:
320,384,176956,128,0,177095:0:0:0:0:
192,384,177095,1,0,0:0:0:0:
448,384,177095,128,0,177373:0:0:0:0:
192,384,177373,128,0,177512:0:0:0:0:
320,384,177373,1,0,0:0:0:0:
64,384,177512,128,0,177790:0:0:0:0:
448,384,177512,1,0,0:0:0:0:
192,384,177790,1,0,0:0:0:0:
320,384,177790,128,0,178067:0:0:0:0:
64,384,178067,1,0,0:0:0:0:
448,384,178067,128,0,178206:0:0:0:0:
320,384,178206,128,0,178345:0:0:0:0:
192,384,178345,128,0,178484:0:0:0:0:
64,384,178484,128,0,178623:0:0:0:0:
448,384,178623,128,0,178901:0:0:0:0:
64,384,178901,128,0,179040:0:0:0:0:
192,384,178901,1,0,0:0:0:0:
320,384,178901,1,0,0:0:0:0:
192,384,179040,128,0,179179:0:0:0:0:
320,384,179040,1,0,0:0:0:0:
64,384,179179,1,0,0:0:0:0:
448,384,179179,128,0,179456:0:0:0:0:
64,384,179456,128,0,179873:0:0:0:0:
320,384,179456,1,0,0:0:0:0:
192,384,179873,1,0,0:0:0:0:
320,384,179873,128,0,180151:0:0:0:0:
64,384,180151,1,0,0:0:0:0:
448,384,180151,128,0,180290:0:0:0:0:
64,384,180290,1,0,0:0:0:0:
192,384,180290,128,0,180567:0:0:0:0:
320,384,180290,1,0,0:0:0:0:
320,384,180706,128,0,180776:0:0:0:0:
64,384,180776,128,0,180845:0:0:0:0:
448,384,180776,128,0,180845:0:0:0:0:
192,384,180845,128,0,180915:0:0:0:0:
448,384,180915,128,0,180984:0:0:0:0:
320,384,180984,128,0,181123:0:0:0:0:
64,384,181123,128,0,181401:0:0:0:0:
192,384,181123,1,0,0:0:0:0:
192,384,181401,1,0,0:0:0:0:
448,384,181401,128,0,181817:0:0:0:0:
64,384,181817,1,0,0:0:0:0:
192,384,181817,1,0,0:0:0:0:
320,384,181817,1,0,0:0:0:0:
64,384,182373,128,0,182651:0:0:0:0:
320,384,182373,1,0,0:0:0:0:
192,384,182651,1,0,0:0:0:0:
320,384,182651,128,0,182929:0:0:0:0:
64,384,182929,1,0,0:0:0:0:
448,384,182929,128,0,183206:0:0:0:0:
320,384,183484,128,0,184040:0:0:0:0:
448,384,183484,1,0,0:0:0:0:
64,384,184040,1,0,0:0:0:0:
192,384,184040,128,0,184595:0:0:0:0:
64,384,184595,128,0,185429:0:0:0:0:
448,384,184595,128,0,185429:0:0:0:0:
64,384,185845,1,0,0:0:0:0:
320,384,185845,128,0,185984:0:0:0:0:
64,384,185984,128,0,186262:0:0:0:0:
192,384,185984,1,0,0:0:0:0:
192,384,186262,128,0,186540:0:0:0:0:
320,384,186262,1,0,0:0:0:0:
64,384,186401,1,0,0:0:0:0:
448,384,186401,128,0,186679:0:0:0:0:
64,384,186540,1,0,0:0:0:0:
320,384,186540,1,0,0:0:0:0:
192,384,186679,1,0,0:0:0:0:
320,384,186679,128,0,186956:0:0:0:0:
64,384,186956,1,0,0:0:0:0:
192,384,186956,128,0,187234:0:0:0:0:
320,384,187234,1,0,0:0:0:0:
448,384,187234,128,0,187373:0:0:0:0:
64,384,187373,128,0,187651:0:0:0:0:
320,384,187373,1,0,0:0:0:0:
448,384,187929,128,0,188067:0:0:0:0:
64,384,187998,128,0,188067:0:0:0:0:
320,384,188067,128,0,188206:0:0:0:0:
192,384,188137,128,0,188206:0:0:0:0:
448,384,188206,128,0,188345:0:0:0:0:
64,384,188276,128,0,188345:0:0:0:0:
64,384,188415,128,0,188484:0:0:0:0:
320,384,188415,128,0,188484:0:0:0:0:
192,384,188484,128,0,188623:0:0:0:0:
448,384,188554,128,0,188623:0:0:0:0:
320,384,188623,128,0,188762:0:0:0:0:
448,384,188831,128,0,188970:0:0:0:0:
64,384,188901,128,0,189179:0:0:0:0:
192,384,188970,128,0,189040:0:0:0:0:
320,384,189109,128,0,189179:0:0:0:0:
192,384,189179,128,0,189595:0:0:0:0:
448,384,189248,128,0,189317:0:0:0:0:
320,384,189387,128,0,189456:0:0:0:0:
64,384,189526,128,0,189595:0:0:0:0:
448,384,189595,128,0,189734:0:0:0:0:
192,384,189665,128,0,189734:0:0:0:0:
320,384,189734,128,0,189873:0:0:0:0:
64,384,189804,128,0,189873:0:0:0:0:
64,384,190012,128,0,190151:0:0:0:0:
320,384,190081,128,0,190220:0:0:0:0:
192,384,190151,128,0,190290:0:0:0:0:
448,384,190220,128,0,190359:0:0:0:0:
64,384,190290,128,0,190706:0:0:0:0:
320,384,190359,128,0,190498:0:0:0:0:
192,384,190429,128,0,190567:0:0:0:0:
448,384,190567,128,0,190706:0:0:0:0:
320,384,190706,128,0,190845:0:0:0:0:
192,384,190845,128,0,191123:0:0:0:0:
320,384,191123,1,0,0:0:0:0:
64,384,191401,128,0,191540:0:0:0:0:
320,384,191401,1,0,0:0:0:0:
448,384,191401,128,0,191817:0:0:0:0:
320,384,191540,128,0,191679:0:0:0:0:
192,384,191817,128,0,191956:0:0:0:0:
320,384,191956,128,0,192234:0:0:0:0:
64,384,192095,128,0,192234:0:0:0:0:
64,384,192373,128,0,192651:0:0:0:0:
192,384,192442,128,0,192512:0:0:0:0:
448,384,192512,1,0,0:0:0:0:
320,384,192581,128,0,192651:0:0:0:0:
192,384,192651,128,0,192929:0:0:0:0:
448,384,192651,1,0,0:0:0:0:
448,384,192720,128,0,192790:0:0:0:0:
320,384,192790,1,0,0:0:0:0:
320,384,192929,128,0,193206:0:0:0:0:
448,384,192998,128,0,193067:0:0:0:0:
64,384,193206,1,0,0:0:0:0:
192,384,193206,1,0,0:0:0:0:
448,384,193206,128,0,193484:0:0:0:0:
64,384,193484,128,0,194317:0:0:0:0:
192,384,193484,128,0,194317:0:0:0:0:
320,384,193484,1,0,0:0:0:0:
64,384,194595,1,0,0:0:0:0:
320,384,194595,128,0,194734:0:0:0:0:
192,384,194734,1,0,0:0:0:0:
448,384,194734,128,0,194873:0:0:0:0:
192,384,194873,128,0,195012:0:0:0:0:
320,384,194873,1,0,0:0:0:0:
64,384,195012,128,0,195151:0:0:0:0:
448,384,195012,1,0,0:0:0:0:
320,384,195081,1,0,0:0:0:0:
192,384,195151,128,0,195290:0:0:0:0:
448,384,195220,1,0,0:0:0:0:
320,384,195290,1,0,0:0:0:0:
448,384,195290,128,0,195429:0:0:0:0:
320,384,195429,128,0,195567:0:0:0:0:
192,384,195498,1,0,0:0:0:0:
64,384,195567,1,0,0:0:0:0:
448,384,195567,128,0,195845:0:0:0:0:
64,384,195845,128,0,195984:0:0:0:0:
320,384,195915,128,0,195984:0:0:0:0:
192,384,195984,128,0,196123:0:0:0:0:
448,384,196054,128,0,196123:0:0:0:0:
320,384,196123,128,0,196262:0:0:0:0:
64,384,196192,128,0,196262:0:0:0:0:
448,384,196262,128,0,196401:0:0:0:0:
192,384,196331,128,0,196401:0:0:0:0:
320,384,196401,128,0,196540:0:0:0:0:
64,384,196470,128,0,196540:0:0:0:0:
448,384,196540,128,0,196679:0:0:0:0:
192,384,196609,128,0,196679:0:0:0:0:
320,384,196679,128,0,196817:0:0:0:0:
64,384,196748,128,0,196817:0:0:0:0:
192,384,196817,128,0,196956:0:0:0:0:
448,384,196887,128,0,196956:0:0:0:0:
64,384,196956,128,0,197165:0:0:0:0:
320,384,196956,128,0,197026:0:0:0:0:
192,384,197095,128,0,197165:0:0:0:0:
320,384,197165,128,0,197373:0:0:0:0:
448,384,197234,128,0,197304:0:0:0:0:
64,384,197304,128,0,197373:0:0:0:0:
192,384,197373,128,0,197651:0:0:0:0:
64,384,197651,128,0,197790:0:0:0:0:
192,384,197790,128,0,197929:0:0:0:0:
320,384,197929,128,0,198206:0:0:0:0:
64,384,198206,128,0,198345:0:0:0:0:
192,384,198206,128,0,198345:0:0:0:0:
448,384,198206,128,0,198345:0:0:0:0:
192,384,198484,128,0,198623:0:0:0:0:
64,384,198623,128,0,198762:0:0:0:0:
448,384,198623,128,0,198762:0:0:0:0:
320,384,198762,128,0,198901:0:0:0:0:
192,384,198901,128,0,199040:0:0:0:0:
64,384,199040,128,0,199248:0:0:0:0:
192,384,199248,128,0,200151:0:0:0:0:
320,384,199248,128,0,200151:0:0:0:0:
64,384,199317,1,0,0:0:0:0:
448,384,199317,1,0,0:0:0:0:
64,384,199456,1,0,0:0:0:0:
448,384,199456,1,0,0:0:0:0:
64,384,199595,1,0,0:0:0:0:
448,384,199595,1,0,0:0:0:0:
64,384,199734,1,0,0:0:0:0:
448,384,199734,1,0,0:0:0:0:
64,384,199873,1,0,0:0:0:0:
448,384,199873,1,0,0:0:0:0:
64,384,199942,1,0,0:0:0:0:
448,384,199942,1,0,0:0:0:0:
64,384,200012,1,0,0:0:0:0:
448,384,200012,1,0,0:0:0:0:
64,384,200081,1,0,0:0:0:0:
448,384,200081,1,0,0:0:0:0:
64,384,200151,1,0,0:0:0:0:
448,384,200151,1,0,0:0:0:0:
64,384,200220,1,0,0:0:0:0:
448,384,200220,1,0,0:0:0:0:
64,384,200290,1,0,0:0:0:0:
448,384,200290,1,0,0:0:0:0:
64,384,200359,1,0,0:0:0:0:
448,384,200359,1,0,0:0:0:0:
64,384,200429,128,0,200567:0:0:0:0:
192,384,200429,128,0,200567:0:0:0:0:
320,384,200429,128,0,200567:0:0:0:0:
448,384,200429,128,0,200567:0:0:0:0:
64,384,201262,1,0,0:0:0:0:
192,384,201262,1,0,0:0:0:0:
448,384,201262,128,0,201540:0:0:0:0:
64,384,201540,1,0,0:0:0:0:
320,384,201540,128,0,201817:0:0:0:0:
64,384,201817,1,0,0:0:0:0:
192,384,201817,128,0,202095:0:0:0:0:
448,384,201817,1,0,0:0:0:0:
64,384,202095,128,0,202373:0:0:0:0:
448,384,202095,1,0,0:0:0:0:
192,384,202373,128,0,202929:0:0:0:0:
448,384,202373,128,0,202929:0:0:0:0:
64,384,202929,1,0,0:0:0:0:
320,384,202929,128,0,203206:0:0:0:0:
192,384,203206,1,0,0:0:0:0:
448,384,203206,128,0,203484:0:0:0:0:
64,384,203484,128,0,204040:0:0:0:0:
320,384,203484,128,0,204040:0:0:0:0:
192,384,204040,128,0,204317:0:0:0:0:
64,384,204317,1,0,0:0:0:0:
448,384,204317,128,0,204595:0:0:0:0:
64,384,204595,1,0,0:0:0:0:
192,384,204595,128,0,207651:0:0:0:0:
320,384,204595,128,0,207651:0:0:0:0:
64,384,204873,1,0,0:0:0:0:
448,384,204873,1,0,0:0:0:0:
448,384,205151,1,0,0:0:0:0:
64,384,205290,1,0,0:0:0:0:
448,384,205567,1,0,0:0:0:0:
448,384,205706,1,0,0:0:0:0:
64,384,205984,1,0,0:0:0:0:
64,384,206123,1,0,0:0:0:0:
64,384,206401,1,0,0:0:0:0:
448,384,206401,1,0,0:0:0:0:
64,384,206540,1,0,0:0:0:0:
448,384,206540,1,0,0:0:0:0:
64,384,206679,1,0,0:0:0:0:
448,384,206679,1,0,0:0:0:0:
64,384,206817,1,0,0:0:0:0:
448,384,206817,1,0,0:0:0:0:
64,384,207095,1,0,0:0:0:0:
448,384,207095,1,0,0:0:0:0:
64,384,207234,1,0,0:0:0:0:
448,384,207234,1,0,0:0:0:0:
64,384,207373,1,0,0:0:0:0:
448,384,207373,1,0,0:0:0:0:
64,384,207512,1,0,0:0:0:0:
448,384,207512,1,0,0:0:0:0:
64,384,207651,1,0,0:0:0:0:
448,384,207651,1,0,0:0:0:0:
64,384,207929,128,0,208206:0:0:0:0:
448,384,207929,128,0,208206:0:0:0:0:
192,384,208206,128,0,208345:0:0:0:0:
320,384,208345,128,0,208623:0:0:0:0:
448,384,208623,128,0,208762:0:0:0:0:
320,384,208762,128,0,209040:0:0:0:0:
64,384,209040,1,0,0:0:0:0:
192,384,209040,128,0,209317:0:0:0:0:
448,384,209040,1,0,0:0:0:0:
64,384,209317,128,0,209456:0:0:0:0:
320,384,209456,128,0,209595:0:0:0:0:
192,384,209595,128,0,209734:0:0:0:0:
448,384,209734,128,0,209873:0:0:0:0:
64,384,210151,128,0,210429:0:0:0:0:
192,384,210429,128,0,210706:0:0:0:0:
320,384,210706,128,0,210984:0:0:0:0:
448,384,210984,128,0,211262:0:0:0:0:
64,384,211262,128,0,211817:0:0:0:0:
320,384,211262,128,0,211817:0:0:0:0:
192,384,211817,128,0,212373:0:0:0:0:
448,384,211817,128,0,212373:0:0:0:0:
64,384,212373,128,0,212929:0:0:0:0:
320,384,212373,128,0,212929:0:0:0:0:
192,384,212929,128,0,213206:0:0:0:0:
320,384,213206,128,0,213484:0:0:0:0:
64,384,213484,128,0,216262:0:0:0:0:
448,384,213484,128,0,216262:0:0:0:0:
192,384,213762,1,0,0:0:0:0:
320,384,213762,1,0,0:0:0:0:
192,384,214179,1,0,0:0:0:0:
320,384,214179,1,0,0:0:0:0:
192,384,214595,1,0,0:0:0:0:
320,384,214595,1,0,0:0:0:0:
192,384,215012,1,0,0:0:0:0:
320,384,215012,1,0,0:0:0:0:
192,384,215429,1,0,0:0:0:0:
320,384,215429,1,0,0:0:0:0:
192,384,215706,1,0,0:0:0:0:
320,384,215706,1,0,0:0:0:0:
192,384,215984,1,0,0:0:0:0:
320,384,216123,1,0,0:0:0:0:
192,384,216262,1,0,0:0:0:0:
64,384,216401,1,0,0:0:0:0:
192,384,216401,1,0,0:0:0:0:
320,384,216401,1,0,0:0:0:0:
448,384,216401,1,0,0:0:0:0:
64,384,216817,128,0,217234:0:0:0:0:
192,384,217234,1,0,0:0:0:0:
320,384,217373,128,0,217929:0:0:0:0:
448,384,217929,1,0,0:0:0:0:
64,384,218206,128,0,218345:0:0:0:0:
192,384,218345,128,0,218484:0:0:0:0:
320,384,218484,128,0,218623:0:0:0:0:
448,384,218623,128,0,218762:0:0:0:0:
448,384,219040,128,0,219317:0:0:0:0:
320,384,219317,128,0,219595:0:0:0:0:
192,384,219595,128,0,219873:0:0:0:0:
64,384,219873,128,0,220151:0:0:0:0:
192,384,220151,128,0,220706:0:0:0:0:
448,384,220151,128,0,220706:0:0:0:0:
64,384,220706,128,0,221262:0:0:0:0:
320,384,220706,128,0,221262:0:0:0:0:
192,384,221262,128,0,221817:0:0:0:0:
448,384,221262,128,0,221817:0:0:0:0:
320,384,221817,128,0,222095:0:0:0:0:
192,384,222095,128,0,222373:0:0:0:0:
64,384,222373,128,0,225151:0:0:0:0:
448,384,222373,128,0,225151:0:0:0:0:
192,384,222651,1,0,0:0:0:0:
320,384,222651,1,0,0:0:0:0:
192,384,223206,1,0,0:0:0:0:
320,384,223206,1,0,0:0:0:0:
192,384,223762,1,0,0:0:0:0:
320,384,223762,1,0,0:0:0:0:
192,384,224040,1,0,0:0:0:0:
320,384,224040,1,0,0:0:0:0:
192,384,224317,1,0,0:0:0:0:
320,384,224317,1,0,0:0:0:0:
192,384,224595,1,0,0:0:0:0:
320,384,224595,1,0,0:0:0:0:
192,384,225151,1,0,0:0:0:0:
320,384,225151,1,0,0:0:0:0:
64,384,225429,1,0,0:0:0:0:
192,384,225429,1,0,0:0:0:0:
320,384,225429,1,0,0:0:0:0:
448,384,225429,1,0,0:0:0:0:
64,384,225706,128,0,226262:0:0:0:0:
192,384,225706,1,0,0:0:0:0:
320,384,225706,1,0,0:0:0:0:
448,384,225706,1,0,0:0:0:0:
192,384,226262,128,0,226540:0:0:0:0:
320,384,226262,1,0,0:0:0:0:
448,384,226262,1,0,0:0:0:0:
64,384,226540,1,0,0:0:0:0:
320,384,226540,128,0,226817:0:0:0:0:
448,384,226540,1,0,0:0:0:0:
64,384,226817,1,0,0:0:0:0:
192,384,226817,1,0,0:0:0:0:
448,384,226817,128,0,227095:0:0:0:0:
64,384,227095,128,0,227651:0:0:0:0:
192,384,227095,1,0,0:0:0:0:
320,384,227095,1,0,0:0:0:0:
192,384,227651,1,0,0:0:0:0:
320,384,227651,1,0,0:0:0:0:
448,384,227651,128,0,227929:0:0:0:0:
64,384,227929,128,0,228206:0:0:0:0:
192,384,228206,128,0,228484:0:0:0:0:
320,384,228484,128,0,228762:0:0:0:0:
448,384,228762,128,0,229040:0:0:0:0:
64,384,229040,128,0,229595:0:0:0:0:
320,384,229040,128,0,229595:0:0:0:0:
192,384,229595,128,0,230151:0:0:0:0:
448,384,229595,128,0,230151:0:0:0:0:
64,384,230151,128,0,230706:0:0:0:0:
320,384,230151,128,0,230706:0:0:0:0:
192,384,230706,128,0,230984:0:0:0:0:
320,384,230984,128,0,231262:0:0:0:0:
64,384,231262,128,0,234040:0:0:0:0:
448,384,231262,128,0,234040:0:0:0:0:
192,384,231540,1,0,0:0:0:0:
320,384,231540,1,0,0:0:0:0:
192,384,232095,1,0,0:0:0:0:
320,384,232095,1,0,0:0:0:0:
192,384,232651,1,0,0:0:0:0:
320,384,232651,1,0,0:0:0:0:
192,384,232929,1,0,0:0:0:0:
320,384,232929,1,0,0:0:0:0:
192,384,233206,1,0,0:0:0:0:
320,384,233206,1,0,0:0:0:0:
192,384,233484,1,0,0:0:0:0:
320,384,233484,1,0,0:0:0:0:
192,384,234040,1,0,0:0:0:0:
320,384,234040,1,0,0:0:0:0:
64,384,234317,1,0,0:0:0:0:
192,384,234317,1,0,0:0:0:0:
320,384,234317,1,0,0:0:0:0:
448,384,234317,1,0,0:0:0:0:
64,384,234595,1,0,0:0:0:0:
192,384,234595,1,0,0:0:0:0:
320,384,234595,1,0,0:0:0:0:
448,384,234595,128,0,234873:0:0:0:0:
64,384,234873,1,0,0:0:0:0:
192,384,234873,1,0,0:0:0:0:
320,384,234873,128,0,235151:0:0:0:0:
64,384,235151,1,0,0:0:0:0:
192,384,235151,128,0,235429:0:0:0:0:
448,384,235151,1,0,0:0:0:0:
64,384,235429,128,0,235706:0:0:0:0:
320,384,235429,1,0,0:0:0:0:
448,384,235429,1,0,0:0:0:0:
192,384,235706,128,0,235984:0:0:0:0:
320,384,235706,1,0,0:0:0:0:
448,384,235706,1,0,0:0:0:0:
64,384,235984,1,0,0:0:0:0:
320,384,235984,128,0,236540:0:0:0:0:
448,384,235984,128,0,236540:0:0:0:0:
64,384,236540,128,0,237095:0:0:0:0:
192,384,236540,128,0,237095:0:0:0:0:
320,384,237095,1,0,0:0:0:0:
448,384,237095,128,0,237373:0:0:0:0:
64,384,237373,1,0,0:0:0:0:
192,384,237373,1,0,0:0:0:0:
320,384,237373,128,0,237651:0:0:0:0:
64,384,237651,1,0,0:0:0:0:
192,384,237651,128,0,237929:0:0:0:0:
448,384,237651,1,0,0:0:0:0:
64,384,237929,128,0,238484:0:0:0:0:
320,384,237929,1,0,0:0:0:0:
448,384,237929,1,0,0:0:0:0:
192,384,238484,128,0,238762:0:0:0:0:
320,384,238762,128,0,239040:0:0:0:0:
448,384,239040,128,0,239595:0:0:0:0:
64,384,239595,1,0,0:0:0:0:
192,384,239873,1,0,0:0:0:0:
320,384,240151,128,0,240429:0:0:0:0:
448,384,240429,1,0,0:0:0:0:
320,384,240706,1,0,0:0:0:0:
192,384,240984,128,0,241262:0:0:0:0:
64,384,241540,1,0,0:0:0:0:
192,384,241817,128,0,242373:0:0:0:0:
320,384,242373,128,0,242651:0:0:0:0:
448,384,242929,1,0,0:0:0:0:
320,384,243206,1,0,0:0:0:0:
64,384,243484,1,0,0:0:0:0:
192,384,243484,1,0,0:0:0:0:
448,384,243484,128,0,244040:0:0:0:0:
64,384,244040,1,0,0:0:0:0:
192,384,244317,1,0,0:0:0:0:
64,384,244595,1,0,0:0:0:0:
320,384,244595,1,0,0:0:0:0:
448,384,244595,1,0,0:0:0:0:
192,384,244873,1,0,0:0:0:0:
192,384,245151,1,0,0:0:0:0:
64,384,245429,1,0,0:0:0:0:
320,384,245429,128,0,245706:0:0:0:0:
448,384,245429,1,0,0:0:0:0:
448,384,245984,1,0,0:0:0:0:
320,384,246262,128,0,246817:0:0:0:0:
64,384,246817,128,0,247095:0:0:0:0:
192,384,247095,1,0,0:0:0:0:
448,384,247095,1,0,0:0:0:0:
320,384,247373,1,0,0:0:0:0:
192,384,247651,1,0,0:0:0:0:
320,384,247929,128,0,248484:0:0:0:0:
64,384,248484,1,0,0:0:0:0:
320,384,248762,1,0,0:0:0:0:
64,384,249040,1,0,0:0:0:0:
448,384,249317,1,0,0:0:0:0:
320,384,249595,1,0,0:0:0:0:
192,384,249873,128,0,250429:0:0:0:0:
448,384,250429,1,0,0:0:0:0:
320,384,250706,1,0,0:0:0:0:
192,384,251123,1,0,0:0:0:0:
64,384,251401,128,0,251956:0:0:0:0:
320,384,251956,1,0,0:0:0:0:
192,384,252234,1,0,0:0:0:0:
320,384,252512,128,0,253206:0:0:0:0:
448,384,252512,1,0,0:0:0:0:
64,384,253206,1,0,0:0:0:0:
192,384,253484,1,0,0:0:0:0:
320,384,253762,1,0,0:0:0:0:
448,384,254040,1,0,0:0:0:0:
320,384,254317,1,0,0:0:0:0:
192,384,254595,128,0,255151:0:0:0:0:
64,384,255151,1,0,0:0:0:0:
448,384,255151,1,0,0:0:0:0:
320,384,255429,1,0,0:0:0:0:
192,384,255845,1,0,0:0:0:0:
320,384,256123,128,0,256817:0:0:0:0:
192,384,256817,1,0,0:0:0:0:
320,384,257095,1,0,0:0:0:0:
192,384,257512,1,0,0:0:0:0:
320,384,257512,1,0,0:0:0:0:
64,384,258206,1,0,0:0:0:0:
192,384,258623,1,0,0:0:0:0:
320,384,259109,1,0,0:0:0:0:
