osu file format v14

[General]
AudioFilename: audio.mp3
AudioLeadIn: 0
PreviewTime: 23697
Countdown: 1
SampleSet: None
StackLeniency: 0.7
Mode: 0
LetterboxInBreaks: 0
WidescreenStoryboard: 0

[Editor]
Bookmarks: 83127
DistanceSpacing: 0.8
BeatDivisor: 4
GridSize: 32
TimelineZoom: 2.4

[Metadata]
Title:Tell Me (English Version)
TitleUnicode:Tell Me (English Version)
Artist:Luna feat. rachie
ArtistUnicode:Luna feat. rachie
Creator:Rdzeniu
Version:what do I do
Source:
Tags:
BeatmapID:1640445
BeatmapSetID:781019

[Difficulty]
HPDrainRate:4
CircleSize:4
OverallDifficulty:8.5
ApproachRate:9.7
SliderMultiplier:2.4
SliderTickRate:1

[Events]
//Background and Video events
0,0,"68111251_p0.jpg",0,0
//Break Periods
//Storyboard Layer 0 (Background)
//Storyboard Layer 1 (Fail)
//Storyboard Layer 2 (Pass)
//Storyboard Layer 3 (Foreground)
//Storyboard Sound Samples

[TimingPoints]
0,370.278943470748,4,2,0,60,1,0
9256,-83.3333333333333,4,2,0,60,0,0
11478,-100,4,2,0,60,0,0
11848,-76.9230769230769,4,2,0,60,0,0
12219,-100,4,2,0,60,0,0
13330,-200,4,2,0,60,0,0
13700,-100,4,2,0,60,0,0
22957,-200,4,2,0,60,0,0
23142,-100,4,2,0,60,0,0
24068,-90.9090909090909,4,2,0,60,0,0
48506,-76.9230769230769,4,2,0,60,0,0
49895,-100,4,2,0,60,0,0
52024,-76.9230769230769,4,2,0,60,0,0
52949,-100,4,2,0,60,0,0
57578,-1000,4,2,0,60,0,0
58874,-100,4,2,0,60,0,0
59244,-66.6666666666667,4,2,0,60,0,0
59614,-50,4,2,0,60,0,0
70723,-66.6666666666667,4,2,0,60,0,0
71093,-76.9230769230769,4,2,0,60,0,0
71278,-100,4,2,0,60,0,0
71463,-50,4,2,0,60,0,0
75722,-66.6666666666667,4,2,0,60,0,0
76277,-50,4,2,0,60,0,0

[HitObjects]
75,135,370,6,0,B|161:151|220:109|229:109|279:108|286:111|316:154|317:161|285:178,1,240
196,350,1110,1,0,0:0:0:0:
379,43,1481,1,0,0:0:0:0:
385,52,2129,6,0,L|416:84,2,30
253,141,2406,1,0,0:0:0:0:
497,137,2591,2,0,B|383:197|262:215|262:215|302:268|405:257,1,360
485,60,3332,1,0,0:0:0:0:
145,152,3702,1,0,0:0:0:0:
483,275,4073,1,0,0:0:0:0:
161,379,4443,2,0,B|256:348|341:362|347:360|360:337|363:328|346:299,1,240
204,192,4998,5,0,0:0:0:0:
146,270,5091,1,0,0:0:0:0:
111,172,5183,2,0,P|147:114|224:100,1,120
253,278,5554,1,0,0:0:0:0:
111,172,5739,2,0,L|44:127,1,60
253,278,5924,2,0,L|278:332,1,60
313,113,6109,2,0,L|331:39,1,60
482,211,6294,2,0,B|473:305|438:291|428:386,1,180
409,381,6665,6,0,P|332:362|308:257,1,180
418,114,7035,1,0,0:0:0:0:
154,354,7405,1,0,0:0:0:0:
140,343,8146,6,0,L|138:215,1,120
134,49,8516,1,0,0:0:0:0:
138,223,8886,2,0,L|140:343,1,120
53,179,9256,6,0,P|82:147|136:132,1,71.9999978027344
212,162,9442,2,0,L|213:119,2,35.9999989013672
213,256,9627,1,0,0:0:0:0:
212,34,9812,1,0,0:0:0:0:
212,34,9997,2,0,P|325:79|362:171,1,215.999993408203
292,309,10367,2,0,L|350:232,1,71.9999978027344
434,121,10552,2,0,P|327:81|279:164,1,215.999993408203
447,291,10923,1,0,0:0:0:0:
195,141,11108,1,0,0:0:0:0:
193,148,11478,6,0,B|264:236|141:279|239:351,1,210
238,351,11848,2,0,P|125:328|129:146,1,311.999985717774
363,163,12404,1,0,0:0:0:0:
180,239,12589,1,0,0:0:0:0:
363,335,12774,1,0,0:0:0:0:
426,263,12867,1,0,0:0:0:0:
441,168,12959,2,0,P|437:134|408:98,1,60
204,162,13144,2,0,P|208:128|237:92,1,60
319,268,13330,2,0,L|206:316,1,120
40,180,13885,6,0,L|58:122,1,60
171,82,14070,2,0,L|210:35,1,60
333,52,14255,2,0,L|387:24,1,60
285,126,14440,2,0,P|228:177|223:257,1,120
321,220,14718,1,0,0:0:0:0:
285,126,14811,2,0,B|249:65|249:65|236:45|200:31,1,120
135,204,15181,6,0,L|110:26,1,180
14,151,15551,2,0,L|30:296,1,120
43,368,15829,1,0,0:0:0:0:
116,293,15921,2,0,L|159:232,1,60
221,360,16107,2,0,L|255:311,1,60
363,246,16292,2,0,P|394:207|255:156,1,240
191,261,16847,5,0,0:0:0:0:
191,261,16940,1,0,0:0:0:0:
191,261,17032,1,0,0:0:0:0:
320,192,17217,2,0,L|248:231,1,60
108,71,17403,2,0,P|205:66|229:184,1,180
102,172,17773,2,0,L|155:144,1,60
301,66,17958,2,0,L|353:37,1,60
417,227,18143,6,0,L|286:302,1,120
224,247,18421,1,0,0:0:0:0:
203,340,18513,2,0,L|133:303,1,60
15,253,18699,2,0,L|92:238,1,60
245,204,18884,1,0,0:0:0:0:
29,144,19069,1,0,0:0:0:0:
245,94,19254,6,0,B|341:101|420:54|424:54|454:86|454:90|449:111|449:115|427:132,1,240
312,217,19809,1,0,0:0:0:0:
444,311,19995,2,0,L|446:240,1,60
349,327,20180,2,0,P|317:338|269:332,1,60
194,327,20364,1,0,0:0:0:0:
242,169,20550,1,0,0:0:0:0:
291,338,20735,2,0,P|231:345|156:295,1,120
359,85,21105,6,0,L|364:295,1,180
463,354,21476,2,0,L|463:261,1,60
464,108,21661,2,0,L|464:201,1,60
464,200,21846,1,0,0:0:0:0:
466,21,22031,1,0,0:0:0:0:
284,175,22216,6,0,P|338:147|381:74,1,120
194,45,22587,1,0,0:0:0:0:
125,262,22772,1,0,0:0:0:0:
334,210,22957,2,0,L|293:143,1,60
269,339,23327,2,0,P|220:253|200:178,1,120
117,332,23697,2,0,P|97:232|121:161,1,180
315,210,24068,6,0,P|275:152|195:131,1,132.00000402832
176,260,24438,1,0,0:0:0:0:
377,279,24623,2,0,P|356:202|311:150,1,132.00000402832
248,316,24993,1,0,0:0:0:0:
436,344,25178,2,0,B|436:273|475:218|479:213|474:186|472:179|435:149,1,198.000006042481
368,229,25549,1,0,0:0:0:0:
370,67,25734,1,0,0:0:0:0:
304,282,25919,1,0,0:0:0:0:
432,21,26104,1,0,0:0:0:0:
247,81,26289,6,0,L|313:142,1,66.0000020141602
477,82,26474,2,0,L|428:126,1,66.0000020141602
242,193,26660,2,0,L|290:237,1,66.0000020141602
472,192,26845,2,0,L|423:236,1,66.0000020141602
320,338,27030,6,0,B|427:338|420:303|522:293,1,198.000006042481
423,236,27400,1,0,0:0:0:0:
426,352,27585,2,0,P|347:307|311:190,1,198.000006042481
428,126,27956,1,0,0:0:0:0:
211,17,28141,2,0,B|161:141|249:141|213:293,1,264.000008056641
89,167,28696,1,0,0:0:0:0:
298,289,28881,2,0,P|243:356|141:308,1,198.000006042481
217,274,29252,2,0,L|104:176,1,132.00000402832
219,127,29529,2,0,L|207:175,2,33.0000010070801
370,335,29807,5,0,0:0:0:0:
401,202,29992,2,0,L|434:45,1,132.00000402832
348,352,30362,1,0,0:0:0:0:
317,219,30547,2,0,L|289:89,1,132.00000402832
38,58,30918,2,0,P|29:99|45:148,1,66.0000020141602,0|0,2:3|2:3,2:3:0:0:
36,198,31103,2,0,P|99:219|191:215,1,132.00000402832
293,182,31473,1,0,0:0:0:0:
293,182,31658,1,0,0:0:0:0:
251,306,31843,1,0,0:0:0:0:
370,362,32029,6,0,L|411:286,1,66.0000020141602
493,276,32214,2,0,P|452:224|361:217,1,132.00000402832
477,151,32491,1,0,0:0:0:0:
165,58,32769,1,0,0:0:0:0:
168,185,32954,2,0,L|168:333,1,132.00000402832
52,246,33325,1,0,0:0:0:0:
166,317,33510,2,0,L|330:256,1,132.00000402832
164,54,33880,1,0,0:0:0:0:
256,192,34065,12,0,35176,0:0:0:0:
160,96,35731,5,0,0:0:0:0:
160,96,35917,2,0,L|128:256,1,132.00000402832
228,366,36287,1,0,0:0:0:0:
228,366,36473,2,0,L|260:206,1,132.00000402832
289,50,36842,1,0,0:0:0:0:
384,201,37027,2,0,P|417:146|285:51,1,264.000008056641
96,163,37583,6,0,L|168:122,1,66.0000020141602
269,180,37768,2,0,L|197:221,1,66.0000020141602
49,234,37953,2,0,L|121:193,1,66.0000020141602
222,251,38138,6,0,L|150:292,1,66.0000020141602
15,161,38323,1,0,0:0:0:0:
262,88,38509,1,0,0:0:0:0:
239,338,38694,1,0,0:0:0:0:
32,124,38879,2,0,P|81:79|150:51,1,132.00000402832
181,227,39249,1,0,0:0:0:0:
82,79,39434,2,0,P|142:50|216:43,1,132.00000402832
181,227,39804,1,0,0:0:0:0:
363,82,39989,6,0,B|403:134|414:169|414:169|371:206,1,132.00000402832
251,128,40360,1,0,0:0:0:0:
459,235,40545,1,0,0:0:0:0:
224,314,40730,2,0,B|169:258|186:194,1,132.00000402832
386,347,41100,1,0,0:0:0:0:
401,177,41286,2,0,P|335:198|301:260,1,132.00000402832
131,344,41656,1,0,0:0:0:0:
131,344,41841,6,0,B|103:333|103:333|97:284|129:203,1,132.00000402832
184,54,42211,1,0,0:0:0:0:
82,129,42396,2,0,P|125:77|194:53,1,132.00000402832
334,139,42767,1,0,0:0:0:0:
182,342,42952,2,0,B|134:293|134:293|237:289|237:185|301:218,1,264.000008056641
245,378,43507,1,0,0:0:0:0:
144,206,43692,1,0,0:0:0:0:
344,195,43878,1,0,0:0:0:0:
157,314,44063,6,0,B|141:274|64:278|70:200,1,132.00000402832
65,180,44340,2,0,P|107:132|188:136,1,132.00000402832
237,213,44618,1,0,0:0:0:0:
255,75,44803,2,0,P|202:29|129:39,1,132.00000402832
312,178,45174,1,0,0:0:0:0:
208,34,45359,2,0,P|137:32|88:87,1,132.00000402832
355,119,45729,1,0,0:0:0:0:
256,192,45914,12,0,47025,0:0:0:0:
371,240,47210,6,0,P|368:160|306:72,1,132.00000402832
212,95,47580,1,0,0:0:0:0:
212,95,47673,1,0,0:0:0:0:
212,95,47765,1,0,0:0:0:0:
120,228,47951,2,0,L|133:265,4,33.0000010070801
56,86,48321,1,0,0:0:0:0:
212,95,48506,6,0,L|313:119,1,77.9999964294435
286,111,48876,1,0,0:0:0:0:
459,207,49061,2,0,L|384:189,1,77.9999964294435
304,302,49432,6,0,L|380:321,1,77.9999964294435
211,277,49617,2,0,L|110:253,1,77.9999964294435
21,130,49895,6,0,P|109:98|174:168,1,180
260,122,50357,2,0,L|246:202,1,60
335,237,50543,2,0,L|349:157,1,60
439,165,50728,2,0,L|416:303,1,120
362,338,51005,2,0,L|388:392,1,60
282,315,51283,2,0,L|170:371,1,120
186,259,51653,2,0,L|120:153,1,120
261,69,52024,6,0,L|352:34,1,77.9999964294435
495,208,52394,2,0,L|404:173,1,77.9999964294435
215,202,52579,2,0,L|287:173,1,77.9999964294435
357,330,52949,2,0,P|304:354|232:344,1,120
406,262,53320,1,0,0:0:0:0:
170,302,53505,5,0,0:0:0:0:
124,263,53597,1,0,0:0:0:0:
100,209,53690,1,0,0:0:0:0:
216,98,53875,1,0,0:0:0:0:
318,163,54060,1,0,0:0:0:0:
392,56,54245,5,0,0:0:0:0:
438,95,54337,1,0,0:0:0:0:
462,149,54430,1,0,0:0:0:0:
402,291,54616,1,0,0:0:0:0:
247,290,54801,1,0,0:0:0:0:
166,147,54986,5,0,0:0:0:0:
120,186,55078,1,0,0:0:0:0:
96,240,55171,1,0,0:0:0:0:
28,96,55356,1,0,0:0:0:0:
224,89,55541,1,0,0:0:0:0:
290,270,55726,5,0,0:0:0:0:
336,231,55818,1,0,0:0:0:0:
360,177,55911,1,0,0:0:0:0:
126,92,56097,1,0,0:0:0:0:
390,82,56282,1,0,0:0:0:0:
83,177,56467,1,0,0:0:0:0:
416,254,56652,6,0,P|438:225|452:188,1,60
475,134,56837,2,0,L|425:132,4,30
282,32,57208,2,0,L|332:34,4,30
199,64,57485,1,0,0:0:0:0:
172,148,57578,2,0,L|186:170,1,24
265,220,58041,1,0,0:0:0:0:
363,260,58133,1,0,0:0:0:0:
464,217,58226,1,0,0:0:0:0:
465,97,58318,1,0,0:0:0:0:
284,309,58504,5,0,0:0:0:0:
457,70,58689,1,0,0:0:0:0:
161,58,58874,2,0,L|117:111,3,60
215,5,59244,6,0,B|242:-9|242:-9|281:60|239:178|146:219,1,270.000010299683
93,253,59614,2,0,P|187:198|339:233,1,240
374,297,59892,1,0,0:0:0:0:
320,374,59985,2,0,P|300:257|357:154,1,240
426,93,60262,1,0,0:0:0:0:
503,147,60355,2,0,P|386:166|283:109,1,240
236,28,60633,1,0,0:0:0:0:
236,28,60910,6,0,B|153:210|153:210|191:274,1,240
299,251,61188,1,0,0:0:0:0:
396,171,61281,1,0,0:0:0:0:
20,132,61466,1,0,0:0:0:0:
173,244,61651,2,0,P|139:303|68:319,1,120
86,224,61836,2,0,P|120:165|191:149,1,120
256,177,62021,2,0,P|157:140|106:17,1,240
311,73,62392,2,0,B|451:158|453:164|475:223|478:229|458:265,1,240
322,204,62762,5,0,0:0:0:0:
217,263,62854,2,0,B|226:293|229:296|251:317|257:319|308:323,1,120
62,200,63132,1,0,0:0:0:0:
172,152,63224,2,0,B|162:121|159:118|137:97|131:95|80:91,1,120
81,91,63502,1,0,0:0:0:0:
258,38,63595,2,0,B|317:139|266:259|271:269|386:286|398:283|415:208,1,360
397,134,63965,5,0,0:0:0:0:
451,62,64058,1,0,0:0:0:0:
510,127,64150,1,0,0:0:0:0:
493,210,64243,2,0,P|451:309|412:332,1,120
289,309,64428,2,0,P|251:262|240:204,1,120
258,38,64613,1,0,0:0:0:0:
258,38,64798,6,0,P|142:99|175:210,1,240
229,126,65076,1,0,0:0:0:0:
311,171,65169,2,0,L|335:42,1,120
417,249,65354,1,0,0:0:0:0:
364,315,65447,1,0,0:0:0:0:
290,352,65539,1,0,0:0:0:0:
118,119,65724,5,0,0:0:0:0:
63,181,65816,1,0,0:0:0:0:
40,262,65909,1,0,0:0:0:0:
115,168,66094,5,0,0:3:0:0:
120,251,66186,1,0,0:3:0:0:
161,323,66279,1,0,0:3:0:0:
251,159,66465,6,0,B|204:25|199:23|157:26|154:28|132:52|128:57|114:106,1,240
333,161,66835,2,0,B|380:27|385:25|427:28|430:30|452:54|456:59|470:108,1,240
469,180,67113,1,0,0:0:0:0:
441,266,67205,1,0,0:0:0:0:
266,358,67390,2,0,P|300:314|319:253,1,120
73,250,67575,1,0,0:0:0:0:
288,140,67761,2,0,P|316:198|315:271,1,120
220,217,67946,2,0,P|201:92|306:36,2,240
97,67,68501,5,0,0:0:0:0:
417,130,68686,1,0,0:0:0:0:
387,207,68778,1,0,0:0:0:0:
318,252,68871,1,0,0:0:0:0:
56,153,69057,1,0,0:0:0:0:
86,230,69149,1,0,0:0:0:0:
155,275,69242,1,0,0:0:0:0:
106,43,69519,6,0,P|159:89|194:168,1,120
395,18,69797,2,0,P|342:64|307:143,1,120
310,211,69982,2,0,P|411:168|492:35,2,240
262,43,70445,1,0,0:0:0:0:
214,306,70538,2,0,L|217:379,2,60
172,43,70723,2,0,L|106:43,2,60.0000022888184
61,117,70908,6,0,P|119:140|195:139,1,135.000005149841
363,196,71093,2,0,P|307:210|248:201,1,116.999994644165
73,245,71278,2,0,P|126:255|170:254,1,90
317,358,71463,6,0,L|52:357,1,240
27,270,71741,1,0,0:0:0:0:
38,180,71833,1,0,0:0:0:0:
278,271,72019,5,0,0:0:0:0:
205,229,72111,1,0,0:0:0:0:
165,156,72204,1,0,0:0:0:0:
476,235,72389,2,0,B|411:273|372:342|372:342|322:328|291:282,1,240
178,75,72759,6,0,B|241:95|270:191|270:191|321:199|367:123,1,240
404,82,73037,1,0,0:0:0:0:
328,22,73130,1,0,0:0:0:0:
57,111,73315,2,0,B|73:124|106:128|106:128|191:137|199:226|199:226|155:226,1,240
69,203,73592,1,0,0:0:0:0:
160,226,73685,6,0,B|237:219|302:237,1,120
501,322,73870,2,0,B|441:272|408:213,1,120
342,20,74055,2,0,B|354:62|347:139,1,120
350,337,74240,2,0,P|220:249|218:158,1,240
70,132,74611,1,0,0:0:0:0:
69,203,74703,1,0,0:0:0:0:
69,275,74796,1,0,0:0:0:0:
121,106,74981,5,0,0:0:0:0:
120,201,75073,1,0,0:0:0:0:
120,297,75166,1,0,0:0:0:0:
259,191,75351,5,0,0:0:0:0:
257,202,75443,1,0,0:0:0:0:
250,212,75536,1,0,0:0:0:0:
239,215,75628,1,0,0:0:0:0:
231,213,75722,6,0,P|251:118|348:118,1,180.000006866455
382,348,76092,1,0,0:0:0:0:
468,165,76277,2,0,B|475:127|442:102|442:102|346:149|266:112|266:112|290:64|347:46,1,360
441,105,76647,6,0,B|472:119|469:163|469:163|358:197|316:297,1,240
380,341,76925,5,0,0:0:0:0:
413,245,77017,1,0,0:0:0:0:
334,183,77110,1,0,0:0:0:0:
249,238,77202,1,0,0:0:0:0:
211,332,77295,1,0,0:0:0:0:
115,362,77388,6,0,P|38:246|77:140,1,240
139,233,77666,1,0,0:0:0:0:
63,156,77758,2,0,P|153:82|268:104,1,240
366,112,78036,1,0,0:0:0:0:
290,189,78128,2,0,P|380:262|495:240,1,240
403,168,78406,5,0,0:0:0:0:
182,351,78684,1,0,0:0:0:0:
95,105,78869,1,0,0:0:0:0:
176,92,78961,1,0,0:0:0:0:
251,128,79054,1,0,0:0:0:0:
79,334,79239,6,0,P|164:249|280:322,1,240
489,159,79609,1,0,0:0:0:0:
360,82,79795,2,0,P|309:69|267:20,1,120
267,174,79980,2,0,P|210:190|173:236,1,120
173,74,80165,2,0,P|122:61|80:12,1,120
84,148,80350,6,0,P|73:309|152:375,1,240
212,320,80628,1,0,0:0:0:0:
281,252,80720,1,0,0:0:0:0:
289,373,80905,5,0,0:0:0:0:
364,316,80997,1,0,0:0:0:0:
392,226,81090,1,0,0:0:0:0:
173,236,81276,5,0,0:0:0:0:
162,140,81368,1,0,0:0:0:0:
248,84,81461,2,0,P|337:73|487:159,2,240
304,240,82016,5,0,0:0:0:0:
326,153,82109,1,0,0:0:0:0:
390,211,82201,2,0,P|331:328|239:311,1,240
166,248,82479,1,0,0:0:0:0:
160,151,82572,2,0,P|75:226|117:331,1,240
390,211,82873,1,0,0:0:0:0:
111,77,83150,1,0,0:0:0:0:
