osu file format v14

[General]
AudioFilename: audio.mp3
AudioLeadIn: 0
PreviewTime: 220352
Countdown: 0
SampleSet: Soft
StackLeniency: 0.7
Mode: 0
LetterboxInBreaks: 0
WidescreenStoryboard: 1

[Editor]
DistanceSpacing: 1.6
BeatDivisor: 6
GridSize: 4
TimelineZoom: 1.7

[Metadata]
Title:Lazurite
TitleUnicode:ラズライト
Artist:*Luna feat. Yuaru
ArtistUnicode:*Luna feat. ゆある
Creator:xChippy
Version:Insane
Source:
Tags:Dream of Lazurite ラズライトの夢 Bibi Haluo basyauma records female vocalist japanese rock
BeatmapID:2366454
BeatmapSetID:1133005

[Difficulty]
HPDrainRate:6
CircleSize:4.2
OverallDifficulty:7
ApproachRate:9
SliderMultiplier:1.8
SliderTickRate:1

[Events]
//Background and Video events
0,0,"Ot2yRZG.jpg",0,0
//Break Periods
2,113949,120371
2,198393,204260
//Storyboard Layer 0 (Background)
//Storyboard Layer 1 (Fail)
//Storyboard Layer 2 (Pass)
//Storyboard Layer 3 (Foreground)
//Storyboard Layer 4 (Overlay)
//Storyboard Sound Samples

[TimingPoints]
416,555.555555555556,4,2,1,22,1,0
416,-200,4,2,1,22,0,0
9304,-142.857142857143,4,2,1,30,0,0
11527,-142.857142857143,4,2,1,40,0,0
13749,-142.857142857143,4,2,1,50,0,0
15971,-142.857142857143,4,2,1,60,0,0
18124,-142.857142857143,4,2,1,5,0,0
18193,-100,4,2,1,70,0,0
19374,-100,4,2,1,70,0,0
19443,-100,4,2,1,70,0,0
19652,-100,4,2,1,70,0,0
19721,-100,4,2,1,70,0,0
23818,-100,4,2,1,70,0,0
23887,-100,4,2,1,70,0,0
24096,-100,4,2,1,70,0,0
24165,-100,4,2,1,70,0,0
27082,-142.857142857143,4,2,1,40,0,0
35416,-125,4,2,1,50,0,0
35902,-125,4,2,1,5,0,0
35971,-100,4,2,2,60,0,0
44860,-200,4,2,1,30,0,0
48471,-200,4,2,1,30,0,0
49304,-200,4,2,1,30,0,0
53749,-100,4,2,1,60,0,0
58193,-200,4,2,1,30,0,0
61249,-200,4,2,1,60,0,0
61990,-100,4,2,1,40,0,0
62267,-100,4,2,1,50,0,0
62638,-100,4,2,1,60,0,0
62846,-100,4,2,1,5,0,0
62916,-100,4,2,1,60,0,0
63124,-100,4,2,1,5,0,0
63193,-100,4,2,1,60,0,0
63402,-100,4,2,1,5,0,0
63471,-100,4,2,1,60,0,0
64860,-90.9090909090909,4,2,1,80,0,0
66041,-90.9090909090909,4,2,1,5,0,0
66110,-90.9090909090909,4,2,1,90,0,0
68124,-90.9090909090909,4,2,1,5,0,0
68193,-90.9090909090909,4,2,1,90,0,0
74929,-90.9090909090909,4,2,1,5,0,0
74999,-90.9090909090909,4,2,1,90,0,0
77013,-90.9090909090909,4,2,1,5,0,0
77082,-90.9090909090909,4,2,1,90,0,0
79374,-90.9090909090909,4,2,1,5,0,0
79443,-90.9090909090909,4,2,1,90,0,0
84860,-90.9090909090909,4,2,1,40,0,0
87082,-100,4,2,1,70,0,0
88263,-100,4,2,1,70,0,0
88332,-100,4,2,1,70,0,0
88541,-100,4,2,1,70,0,0
88610,-100,4,2,1,70,0,0
92707,-100,4,2,1,70,0,0
92776,-100,4,2,1,70,0,0
92985,-100,4,2,1,70,0,0
93054,-100,4,2,1,70,0,0
95971,-142.857142857143,4,2,1,40,0,0
102360,-142.857142857143,4,2,1,5,0,0
102499,-200,4,2,1,40,0,0
104304,-111.111111111111,4,2,1,50,0,0
104791,-111.111111111111,4,2,1,50,0,0
104860,-100,4,2,2,60,0,0
113749,-200,4,2,1,25,0,0
117777,-200,4,2,1,5,0,0
118193,-200,4,2,1,25,0,0
120207,-200,4,2,1,5,0,0
120277,-200,4,2,1,25,0,0
121249,-200,4,2,1,30,0,0
121527,-200,4,2,1,35,0,0
121804,-200,4,2,1,40,0,0
122082,-125,4,2,1,50,0,0
122638,-100,4,2,1,60,0,0
127082,-200,4,2,1,30,0,0
129304,-100,4,2,1,60,0,0
130138,-200,4,2,1,60,0,0
130786,-100,4,2,1,60,0,0
130878,-100,4,2,1,40,0,0
131156,-100,4,2,1,50,0,0
131527,-133.333333333333,4,2,1,60,0,0
132291,-133.333333333333,4,2,1,60,0,0
132360,-100,4,2,1,60,0,0
133749,-90.9090909090909,4,2,1,80,0,0
134929,-90.9090909090909,4,2,1,5,0,0
134999,-90.9090909090909,4,2,1,90,0,0
137013,-90.9090909090909,4,2,1,5,0,0
137082,-90.9090909090909,4,2,1,90,0,0
141457,-90.9090909090909,4,2,1,5,0,0
141527,-90.9090909090909,4,2,1,90,0,0
143818,-90.9090909090909,4,2,1,5,0,0
143888,-90.9090909090909,4,2,1,90,0,0
145902,-90.9090909090909,4,2,1,5,0,0
145971,-90.9090909090909,4,2,1,90,0,0
148263,-90.9090909090909,4,2,1,5,0,0
148332,-90.9090909090909,4,2,1,90,0,0
151527,-133.333333333333,4,2,1,60,0,0
155971,-100,4,2,1,70,0,0
156179,-100,4,2,1,5,0,0
156249,-100,4,2,1,70,0,0
158402,-100,4,2,1,5,0,0
158471,-100,4,2,1,70,0,0
160624,-100,4,2,1,5,0,0
160693,-100,4,2,1,70,0,0
162846,-100,4,2,1,5,0,0
162916,-100,4,2,1,70,0,0
165068,-100,4,2,1,5,0,0
165138,-100,4,2,1,70,0,0
167291,-100,4,2,1,5,0,0
167360,-100,4,2,1,70,0,0
169513,-100,4,2,1,5,0,0
169582,-100,4,2,1,70,0,0
171596,-100,4,2,1,5,0,0
171666,-100,4,2,1,70,0,0
171735,-100,4,2,1,5,0,0
171804,-100,4,2,1,70,0,0
171874,-100,4,2,1,5,0,0
171943,-100,4,2,1,70,0,0
172013,-100,4,2,1,5,0,0
172082,-100,4,2,1,70,0,0
172152,-100,4,2,1,5,0,0
172221,-100,4,2,1,70,0,0
172291,-100,4,2,1,5,0,0
172360,-100,4,2,1,70,0,0
173193,-100,4,2,1,50,0,0
173749,-83.3333333333333,4,2,1,50,0,0
174166,-142.857142857143,4,2,1,30,0,0
174582,-142.857142857143,4,2,1,30,0,0
174652,-142.857142857143,4,2,1,5,0,0
174721,-142.857142857143,4,2,1,35,0,0
174999,-142.857142857143,4,2,1,5,0,0
175138,-83.3333333333333,4,2,1,90,0,0
175346,-83.3333333333333,4,2,1,5,0,0
175416,-83.3333333333333,4,2,1,90,0,0
175554,-100,4,2,1,90,0,0
175902,-100,4,2,1,90,0,0
175971,-90.9090909090909,4,2,1,70,0,0
176527,-83.3333333333333,4,2,1,80,0,0
177082,-83.3333333333333,4,2,1,80,0,0
178124,-83.3333333333333,4,2,1,80,0,0
178193,-83.3333333333333,4,2,1,80,0,0
182360,-83.3333333333333,4,2,1,50,0,0
182638,-142.857142857143,4,2,1,30,0,0
183054,-142.857142857143,4,2,1,5,0,0
183193,-76.9230769230769,4,2,1,90,0,0
183263,-76.9230769230769,4,2,1,80,0,0
184513,-76.9230769230769,4,2,1,5,0,0
184582,-142.857142857143,4,2,1,40,0,0
184791,-142.857142857143,4,2,1,5,0,0
184860,-76.9230769230769,4,2,1,90,0,0
186804,-142.857142857143,4,2,1,90,0,0
187013,-142.857142857143,4,2,1,90,0,0
187082,-142.857142857143,4,2,1,30,0,0
187638,-142.857142857143,4,2,1,5,0,0
187777,-142.857142857143,4,2,1,30,0,0
188193,-142.857142857143,4,2,1,5,0,0
188332,-200,4,2,1,30,0,0
188610,-142.857142857143,4,2,1,30,0,0
188679,-142.857142857143,4,2,1,5,0,0
188749,-142.857142857143,4,2,1,30,0,0
188888,-142.857142857143,4,2,1,5,0,0
189027,-142.857142857143,4,2,1,30,0,0
189166,-142.857142857143,4,2,1,5,0,0
189304,-142.857142857143,4,2,1,30,0,0
189860,-142.857142857143,4,2,1,5,0,0
189999,-142.857142857143,4,2,1,30,0,0
190138,-90.9090909090909,4,2,1,60,0,0
192777,-111.111111111111,4,2,1,60,0,0
193124,-111.111111111111,4,2,1,5,0,0
193193,-90.9090909090909,4,2,1,60,0,0
193749,-111.111111111111,4,2,1,40,0,0
194582,-200,4,2,1,80,0,0
195230,-100,4,2,1,80,0,0
195323,-100,4,2,1,40,0,0
195601,-100,4,2,1,50,0,0
195971,-100,4,2,1,60,0,0
196179,-100,4,2,1,5,0,0
196249,-100,4,2,1,60,0,0
196457,-100,4,2,1,5,0,0
196527,-100,4,2,1,60,0,0
196735,-100,4,2,1,5,0,0
196804,-200,4,2,1,40,0,0
204860,-90.9090909090909,4,2,1,60,0,0
207082,-125,4,2,1,40,0,0
220416,-200,4,2,1,30,0,0
220624,-200,4,2,1,5,0,0
220693,-200,4,2,1,30,0,0
220902,-200,4,2,1,5,0,0
220971,-66.6666666666667,4,2,1,90,0,0
221249,-83.3333333333333,4,2,1,50,0,0
221388,-83.3333333333333,4,2,1,80,0,0
223471,-76.9230769230769,4,2,1,90,0,0
223679,-76.9230769230769,4,2,1,5,0,0
223749,-76.9230769230769,4,2,1,90,0,0
224443,-83.3333333333333,4,2,1,90,0,0
224791,-83.3333333333333,4,2,1,5,0,0
224860,-83.3333333333333,4,2,1,90,0,0
230485,-83.3333333333333,4,2,1,5,0,0
230554,-83.3333333333333,4,2,1,90,0,0
232568,-83.3333333333333,4,2,1,5,0,0
232638,-83.3333333333333,4,2,1,90,0,0
234929,-83.3333333333333,4,2,1,5,0,0
234999,-83.3333333333333,4,2,1,90,0,0
236179,-83.3333333333333,4,2,1,5,0,0
236249,-83.3333333333333,4,2,1,90,0,0
236804,-83.3333333333333,4,2,1,90,0,0
237013,-83.3333333333333,4,2,1,90,0,0
237082,-83.3333333333333,4,2,1,90,0,0
238193,-142.857142857143,4,2,1,30,0,0
238749,-142.857142857143,4,2,1,5,0,0
238888,-142.857142857143,4,2,1,30,0,0
239304,-142.857142857143,4,2,1,5,0,0
239443,-200,4,2,1,30,0,0
239721,-200,4,2,1,30,0,0
239791,-200,4,2,1,5,0,0
239860,-142.857142857143,4,2,1,30,0,0
239999,-142.857142857143,4,2,1,5,0,0
240138,-142.857142857143,4,2,1,30,0,0
240277,-142.857142857143,4,2,1,5,0,0
240416,-142.857142857143,4,2,1,30,0,0
240971,-142.857142857143,4,2,1,5,0,0
241110,-142.857142857143,4,2,1,30,0,0
241249,-90.9090909090909,4,2,1,60,0,0
243888,-111.111111111111,4,2,1,60,0,0
244235,-111.111111111111,4,2,1,5,0,0
244304,-111.111111111111,4,2,1,60,0,0
244860,-111.111111111111,4,2,1,40,0,0
247082,-100,4,2,1,60,0,0
257568,-100,4,2,1,60,0,0
257638,-100,4,2,1,60,0,0
257846,-100,4,2,1,5,0,0
257916,-100,4,2,1,60,0,0
258124,-100,4,2,1,5,0,0
258193,-100,4,2,1,60,0,0
260346,-100,4,2,1,60,0,0
260416,-100,4,2,1,60,0,0
262568,-100,4,2,1,5,0,0
262638,-100,4,2,1,60,0,0

[Colours]
Combo1 : 216,216,216
Combo2 : 0,128,255
Combo3 : 128,204,255

[HitObjects]
128,288,9304,6,0,L|122:245,1,31.4999990386963,10|0,0:0|0:0,0:0:0:0:
163,199,9582,1,0,0:0:0:0:
163,199,9721,1,0,0:0:0:0:
123,256,9860,2,0,L|127:287,1,31.4999990386963,0|0,1:0|0:0,0:0:0:0:
194,309,10138,1,0,1:0:0:0:
63,218,10277,6,0,L|75:143,1,62.9999980773926,8|0,0:0|0:0,0:0:0:0:
1,125,10693,2,0,L|4:141,4,15.7499995193482,0|0|0|0|0,0:0|0:0|0:0|0:0|1:0,0:0:0:0:
63,218,11249,1,0,0:0:0:0:
0,256,11388,1,8,0:0:0:0:
62,292,11527,5,2,0:0:0:0:
135,254,11666,2,0,L|179:258,1,31.4999990386963,8|0,0:0|0:0,0:0:0:0:
229,225,11943,2,0,P|235:242|236:264,1,31.4999990386963,0|0,0:0|1:0,0:0:0:0:
300,287,12221,2,0,P|306:270|307:248,1,31.4999990386963,0|0,0:0|1:0,0:0:0:0:
301,177,12499,6,0,P|301:151|318:114,1,62.9999980773926,8|0,0:0|0:0,0:0:0:0:
375,168,12916,1,0,1:0:0:0:
375,168,13054,1,0,0:0:0:0:
438,208,13193,1,8,0:0:0:0:
438,208,13332,1,0,0:0:0:0:
495,168,13471,1,0,0:0:0:0:
495,168,13610,1,8,0:0:0:0:
430,279,13749,6,0,L|441:346,1,62.9999980773926,2|0,1:2|0:0,0:0:0:0:
367,325,14166,1,0,0:0:0:0:
285,379,14304,1,0,1:0:0:0:
285,379,14443,1,0,0:0:0:0:
292,304,14582,1,0,0:0:0:0:
194,334,14721,6,0,L|183:267,1,62.9999980773926,8|0,0:0|0:0,0:0:0:0:
219,209,15138,1,0,0:0:0:0:
219,209,15277,1,0,0:0:0:0:
162,152,15416,1,0,1:0:0:0:
162,152,15554,1,0,0:0:0:0:
95,181,15693,2,0,L|52:189,1,31.4999990386963,0|0,0:0|1:0,0:0:0:0:
40,280,15971,6,0,P|86:278|128:304,1,94.499997116089,10|0,0:0|0:0,0:0:0:0:
126,301,16527,2,0,P|152:262|195:245,1,94.499997116089,2|0,0:0|0:0,0:0:0:0:
260,218,17082,6,0,P|264:239|267:260,1,31.4999990386963,2|0,0:0|0:0,0:0:0:0:
244,317,17360,2,0,L|223:312,2,20.9999993591309,0|0|0,3:0|0:0|0:0,0:0:0:0:
331,295,17638,2,0,P|342:263|344:221,1,62.9999980773926,8|0,0:0|0:0,0:0:0:0:
316,160,18054,1,0,0:0:0:0:
428,212,18193,6,0,P|385:234|341:233,1,90,4|0,0:0|0:0,0:0:0:0:
272,220,18610,1,0,3:0:0:0:
336,360,18749,2,0,P|308:352|274:352,1,45,10|0,0:0|0:0,0:0:0:0:
283,351,19027,1,8,0:0:0:0:
200,216,19166,6,0,P|164:221|127:239,1,67.5,4|0,0:0|0:0,0:0:0:0:
124,244,19443,2,0,P|144:215|159:176,1,67.5,0|0,3:0|0:0,0:0:0:0:
161,154,19721,1,0,0:0:0:0:
64,184,19860,1,10,0:0:0:0:
64,184,19999,1,0,0:0:0:0:
0,151,20138,1,2,0:0:0:0:
0,151,20277,1,0,0:0:0:0:
161,154,20416,5,4,0:0:0:0:
227,201,20554,2,0,P|277:208|331:216,1,90,0|0,3:0|3:0,0:0:0:0:
432,168,20971,1,10,0:0:0:0:
432,168,21110,1,0,0:0:0:0:
356,322,21249,2,0,L|346:265,1,45,4|0,0:0|0:0,0:0:0:0:
316,213,21527,6,0,L|321:163,3,30,8|8|8|0,3:0|3:0|3:0|3:0,0:0:0:0:
360,124,21943,1,0,0:0:0:0:
316,213,22082,1,10,0:0:0:0:
356,322,22221,1,4,0:0:0:0:
278,287,22360,1,0,0:0:0:0:
278,287,22499,1,0,0:0:0:0:
103,352,22638,6,0,P|104:307|108:261,1,90,4|0,0:0|0:0,0:0:0:0:
65,205,23054,1,0,3:0:0:0:
185,157,23193,2,0,P|193:185|193:219,1,45,10|0,0:0|0:0,0:0:0:0:
193,207,23471,1,0,0:0:0:0:
344,244,23610,6,0,P|339:280|321:317,1,67.5,4|0,0:0|0:0,0:0:0:0:
316,320,23888,2,0,P|345:300|384:285,1,67.5,0|0,3:0|0:0,0:0:0:0:
406,283,24166,1,0,0:0:0:0:
296,184,24304,1,10,0:0:0:0:
296,184,24443,1,0,0:0:0:0:
360,151,24582,1,2,0:0:0:0:
360,151,24721,1,0,0:0:0:0:
199,154,24860,5,4,0:0:0:0:
133,201,24999,2,0,P|83:208|29:216,1,90,0|0,3:0|3:0,0:0:0:0:
204,236,25416,1,10,0:0:0:0:
204,236,25554,1,2,0:0:0:0:
16,231,25693,2,0,L|73:241,1,45,6|0,0:0|0:0,0:0:0:0:
115,285,25971,6,0,L|155:279,3,30,8|0|0|0,3:2|3:0|3:0|3:0,0:0:0:0:
212,312,26388,1,0,3:0:0:0:
337,259,26527,1,10,0:0:0:0:
357,323,26666,1,0,0:0:0:0:
404,274,26804,1,2,0:0:0:0:
365,286,26943,1,2,0:0:0:0:
465,261,27082,6,0,P|423:268|400:274,1,62.9999980773926,4|0,0:0|0:0,0:0:0:0:
357,323,27499,1,0,0:0:0:0:
263,361,27638,2,0,P|236:359|220:357,2,31.4999990386963,2|0|0,1:2|0:0|0:0,0:0:0:0:
213,250,28054,6,0,P|180:260|146:267,1,62.9999980773926,8|0,0:0|0:0,0:0:0:0:
84,290,28471,2,0,L|78:261,3,20.9999993591309,0|0|0|2,1:0|0:0|0:0|1:2,0:0:0:0:
55,126,29027,1,0,0:0:0:0:
137,185,29166,1,8,0:0:0:0:
66,198,29304,5,2,0:0:0:0:
127,115,29443,1,8,0:0:0:0:
193,140,29582,1,0,0:0:0:0:
260,118,29721,2,0,L|302:123,1,31.4999990386963,0|2,0:0|1:2,0:0:0:0:
325,184,29999,2,0,L|367:179,1,31.4999990386963,0|0,0:0|0:0,0:0:0:0:
456,148,30277,6,0,P|475:173|476:209,1,62.9999980773926,8|0,0:0|0:0,0:0:0:0:
428,255,30693,2,0,L|397:252,1,31.4999990386963,0|0,0:0|0:0,0:0:0:0:
356,180,30971,2,0,L|324:184,1,31.4999990386963,2|0,1:2|0:0,0:0:0:0:
264,222,31249,1,0,0:0:0:0:
272,137,31388,1,8,0:0:0:0:
149,101,31527,6,0,P|150:138|170:171,1,62.9999980773926,6|0,3:2|0:0,0:0:0:0:
193,224,31943,1,0,0:0:0:0:
139,301,32082,2,0,P|159:297|181:290,1,31.4999990386963,2|0,1:2|0:0,0:0:0:0:
236,319,32360,1,0,1:0:0:0:
336,280,32499,6,0,P|366:282|397:293,1,62.9999980773926,8|0,0:0|0:0,0:0:0:0:
461,327,32916,2,0,P|464:314|469:291,1,31.4999990386963,0|0,0:0|0:0,0:0:0:0:
427,229,33193,2,0,P|434:219|449:199,1,31.4999990386963,10|0,0:0|0:0,0:0:0:0:
433,118,33471,1,8,0:0:0:0:
433,118,33610,1,8,0:0:0:0:
312,196,33749,5,0,3:0:0:0:
255,160,34027,1,0,3:0:0:0:
224,220,34304,1,0,3:0:0:0:
280,258,34582,1,0,3:0:0:0:
312,196,34860,1,0,3:0:0:0:
312,196,35045,2,0,L|346:199,3,20.9999993591309,0|0|0|0,3:0|3:0|3:0|3:0,0:0:0:0:
392,244,35416,6,0,B|411:213|401:177|401:177|417:211|446:218,1,126,4|0,0:0|0:0,0:0:0:0:
510,201,35971,6,0,P|481:216|475:281,1,90,6|0,3:2|0:0,0:0:0:0:
486,333,36388,1,0,0:0:0:0:
324,264,36527,2,0,P|324:291|341:317,1,45,8|0,0:0|0:0,0:0:0:0:
412,356,36804,6,0,L|311:343,1,90,2|0,3:2|0:0,0:0:0:0:
257,312,37221,1,0,0:0:0:0:
136,272,37360,2,0,L|77:282,1,45,6|0,3:2|0:0,0:0:0:0:
206,254,37638,1,8,0:0:0:0:
224,165,37777,2,0,L|204:261,1,90,6|0,3:2|0:0,0:0:0:0:
365,158,38193,6,0,P|346:184|280:181,1,90,2|0,3:2|0:0,0:0:0:0:
224,165,38610,1,0,0:0:0:0:
269,335,38749,2,0,P|242:331|218:310,1,45,8|0,0:0|0:0,0:0:0:0:
124,368,39027,6,0,L|137:267,1,90,6|0,3:2|0:0,0:0:0:0:
168,213,39443,1,0,1:0:0:0:
208,92,39582,2,0,L|198:33,1,45,0|0,0:0|0:0,0:0:0:0:
200,47,39791,1,0,1:0:0:0:
200,47,39860,1,8,0:0:0:0:
285,75,39999,1,8,0:0:0:0:
365,75,40138,1,0,3:0:0:0:
434,33,40277,1,0,3:0:0:0:
334,171,40416,6,0,P|372:168|428:196,1,90,6|0,3:2|0:0,0:0:0:0:
463,243,40832,1,0,0:0:0:0:
331,315,40971,2,0,P|368:304|383:304,1,45,8|0,0:0|0:0,0:0:0:0:
334,171,41249,6,0,P|372:168|428:196,1,90,2|0,3:2|0:0,0:0:0:0:
463,243,41666,1,0,0:0:0:0:
284,228,41804,2,0,P|261:231|240:239,1,45,6|0,3:2|0:0,0:0:0:0:
331,315,42082,1,8,0:0:0:0:
168,212,42221,2,0,P|122:235|94:282,1,90,6|0,3:2|0:0,0:0:0:0:
4,152,42638,6,0,P|54:159|105:165,1,90,2|0,3:2|0:0,0:0:0:0:
158,137,43054,1,0,0:0:0:0:
240,80,43193,2,0,P|270:75|300:72,1,45,8|0,0:0|0:0,0:0:0:0:
232,167,43471,6,0,P|281:163|323:184,1,90,2|0,3:2|0:0,0:0:0:0:
383,211,43888,2,0,P|389:192|387:164,2,45,0|0|0,1:0|0:0|0:0,0:0:0:0:
307,304,44304,1,0,1:0:0:0:
307,304,44443,1,0,3:0:0:0:
374,278,44582,1,0,3:0:0:0:
428,327,44721,1,0,3:0:0:0:
383,211,44860,5,4,0:0:0:0:
314,186,45138,1,2,0:0:0:0:
314,186,45277,1,2,0:0:0:0:
242,200,45554,1,2,0:0:0:0:
242,200,45693,1,2,0:0:0:0:
152,64,46249,5,2,0:0:0:0:
152,64,46666,1,2,0:0:0:0:
242,200,47082,5,2,0:0:0:0:
314,186,47360,1,2,0:0:0:0:
314,186,47499,1,2,0:0:0:0:
383,211,47777,1,2,0:0:0:0:
383,211,47916,6,0,P|410:223|374:240,1,90,2|0,0:0|0:0,0:0:0:0:
129,173,49304,5,2,0:0:0:0:
198,198,49582,1,2,0:0:0:0:
198,198,49721,1,2,0:0:0:0:
270,184,49999,1,2,0:0:0:0:
270,184,50138,1,2,0:0:0:0:
360,320,50693,5,2,0:0:0:0:
360,320,51110,1,2,0:0:0:0:
270,184,51527,5,2,0:0:0:0:
270,184,51804,2,0,L|268:161,1,22.5,2|2,0:0|0:0,0:0:0:0:
256,256,52082,5,0,1:0:0:0:
364,296,52360,1,0,1:0:0:0:
346,169,52638,5,8,0:0:0:0:
364,296,52916,1,8,0:0:0:0:
404,229,53054,1,0,3:0:0:0:
432,335,53193,5,8,0:0:0:0:
364,296,53332,1,8,0:0:0:0:
286,309,53471,1,0,3:0:0:0:
237,372,53610,1,0,3:0:0:0:
100,276,53749,6,0,P|141:272|187:296,1,90,6|0,0:0|0:0,0:0:0:0:
286,309,54166,2,0,P|262:274|260:222,1,90,2|0,3:2|0:0,0:0:0:0:
216,120,54582,2,0,P|198:157|153:185,1,90,6|0,3:2|0:0,0:0:0:0:
32,164,54999,5,8,3:0:0:0:
99,140,55138,1,8,3:0:0:0:
88,211,55277,1,8,3:0:0:0:
32,164,55416,2,0,L|27:115,1,45,0|0,3:0|3:0,0:0:0:0:
84,68,55693,2,0,L|89:19,1,45,0|0,3:0|3:0,0:0:0:0:
216,120,55971,6,0,P|256:119|303:96,1,90,6|0,3:2|0:0,0:0:0:0:
404,92,56388,2,0,P|385:128|382:180,1,90,2|0,3:2|0:0,0:0:0:0:
340,276,56804,2,0,P|320:242|276:213,1,90,6|0,3:2|3:0,0:0:0:0:
278,214,57175,6,0,P|257:219|232:222,1,30,0|0,3:0|3:0,0:0:0:0:
225,313,57360,2,0,B|180:292|180:292|136:298,1,90,8|0,0:0|3:0,0:0:0:0:
16,236,57777,2,0,B|51:217|51:217|101:221,1,90,12|0,0:0|0:0,0:0:0:0:
192,168,58193,5,6,0:0:0:0:
203,96,58471,1,2,0:0:0:0:
203,96,58610,1,2,0:0:0:0:
151,42,58888,1,2,0:0:0:0:
151,42,59027,1,2,0:0:0:0:
256,40,59582,5,2,0:0:0:0:
260,44,59999,1,2,0:0:0:0:
287,148,60416,5,2,0:0:0:0:
225,193,60693,1,2,0:0:0:0:
225,193,60832,1,2,0:0:0:0:
288,244,61110,1,2,0:0:0:0:
288,244,61249,6,0,B|234:293|176:256,1,120,4|8,0:0|0:0,0:0:0:0:
160,259,62082,6,8,L|115:272,3,30,8|8|8|8,0:0|0:0|0:0|3:2,0:0:0:0:
114,304,62453,1,8,3:2:0:0:
114,304,62545,1,8,3:2:0:0:
114,304,62638,6,0,P|103:268|114:226,1,67.5,4|0,0:0|0:0,0:0:0:0:
9,153,62916,2,0,P|45:161|76:192,1,67.5,4|0,0:0|0:0,0:0:0:0:
198,142,63193,2,0,P|172:169|130:181,1,67.5,4|0,0:0|0:0,0:0:0:0:
160,68,63471,6,0,P|205:64|288:126,1,135,4|0,0:0|3:0,0:0:0:0:
403,108,64027,2,0,L|397:163,1,45,8|0,0:0|3:0,0:0:0:0:
379,310,64304,1,8,0:0:0:0:
442,274,64443,1,0,3:0:0:0:
290,255,64582,1,0,3:0:0:0:
326,193,64721,1,0,0:0:0:0:
174,233,64860,6,0,P|146:227|109:231,1,49.5000015106202,6|0,0:0|0:0,0:0:0:0:
60,188,65138,2,0,P|32:194|0:213,1,49.5000015106202,0|0,0:0|3:0,0:0:0:0:
111,56,65416,2,0,P|133:105|125:158,1,99.0000030212403,10|8,0:0|0:0,0:0:0:0:
256,124,65832,6,0,P|255:170|229:210,1,74.2500022659302,4|0,0:0|0:0,0:0:0:0:
243,194,66110,2,0,P|279:164|335:158,1,99.0000030212403,0|0,3:0|0:0,0:0:0:0:
420,124,66527,2,0,P|424:172|426:193,1,49.5000015106202,10|0,0:0|0:0,0:0:0:0:
484,228,66804,1,2,0:0:0:0:
484,228,66943,1,0,0:0:0:0:
384,244,67082,6,0,P|354:251|321:269,1,49.5000015106202,2|0,3:2|3:0,0:0:0:0:
273,216,67360,2,0,P|248:235|226:265,1,49.5000015106202,0|0,0:0|3:0,0:0:0:0:
303,88,67638,1,10,0:0:0:0:
329,157,67777,1,0,0:0:0:0:
236,249,67916,6,0,P|185:248|144:221,1,99.0000030212403,4|8,0:0|0:0,0:0:0:0:
303,367,68378,1,8,3:0:0:0:
312,352,68471,2,0,L|301:286,1,66.0000020141602,0|0,3:0|3:2,0:0:0:0:
312,274,68749,1,10,0:0:0:0:
236,196,68888,2,0,P|185:197|144:224,1,99.0000030212403,4|0,0:0|0:0,0:0:0:0:
199,64,69304,6,0,P|240:118|236:195,1,148.50000453186,6|0,0:0|3:0,0:0:0:0:
98,236,69860,2,0,P|132:225|161:219,1,49.5000015106202,8|0,0:0|0:0,0:0:0:0:
207,263,70138,1,2,0:0:0:0:
134,349,70277,6,0,P|169:353|198:360,1,49.5000015106202,0|0,3:0|0:0,0:0:0:0:
64,310,70554,1,0,3:0:0:0:
18,253,70693,2,0,L|27:192,1,49.5000015106202,2|0,0:0|0:0,0:0:0:0:
24,80,70971,1,10,0:0:0:0:
95,53,71110,1,0,0:0:0:0:
161,91,71249,2,0,L|168:139,1,49.5000015106202,2|0,0:0|0:0,0:0:0:0:
276,240,71527,5,2,3:2:0:0:
244,168,71666,2,0,P|289:164|348:206,1,99.0000030212403,0|0,3:0|3:0,0:0:0:0:
199,276,72082,2,0,L|191:227,1,49.5000015106202,10|2,0:0|0:0,0:0:0:0:
374,125,72360,6,0,P|416:140|452:203,1,99.0000030212403,4|0,0:0|3:0,0:0:0:0:
415,247,72777,1,0,0:0:0:0:
296,116,72916,2,0,L|305:59,1,49.5000015106202,10|0,0:0|0:0,0:0:0:0:
223,139,73193,1,10,0:0:0:0:
279,190,73332,1,0,3:0:0:0:
168,242,73471,1,2,3:2:0:0:
240,255,73610,1,0,3:0:0:0:
123,384,73749,6,0,P|161:377|190:384,1,49.5000015106202,6|0,0:0|0:0,0:0:0:0:
228,330,74027,2,0,P|265:340|288:358,1,49.5000015106202,0|0,0:0|3:0,0:0:0:0:
99,271,74304,1,10,0:0:0:0:
99,271,74582,1,8,0:0:0:0:
121,162,74721,6,0,P|155:189|163:260,1,99.0000030212403,4|0,0:0|3:0,0:0:0:0:
163,313,75138,1,0,0:0:0:0:
99,271,75277,1,0,0:0:0:0:
248,216,75416,2,0,P|285:225|307:235,1,49.5000015106202,10|0,0:0|0:0,0:0:0:0:
352,176,75693,2,0,P|381:199|397:218,1,49.5000015106202,2|0,0:0|0:0,0:0:0:0:
260,116,75971,5,2,3:2:0:0:
195,84,76110,2,0,P|165:107|149:126,1,49.5000015106202,0|0,3:0|0:0,0:0:0:0:
260,40,76388,1,0,3:0:0:0:
157,115,76527,1,10,0:0:0:0:
91,97,76666,1,0,0:0:0:0:
180,232,76804,6,0,P|132:236|71:273,2,99.0000030212403,6|8|0,0:0|0:0|3:0,0:0:0:0:
248,264,77499,1,0,0:0:0:0:
356,200,77638,1,10,0:0:0:0:
280,332,77777,1,4,0:0:0:0:
350,316,77916,1,0,0:0:0:0:
411,352,78054,1,0,0:0:0:0:
248,264,78193,6,0,P|212:264|145:298,1,99.0000030212403,4|0,0:0|0:0,0:0:0:0:
56,352,78610,1,0,3:0:0:0:
66,214,78749,2,0,L|74:149,1,49.5000015106202,8|0,0:0|0:0,0:0:0:0:
72,164,79027,1,2,0:0:0:0:
155,289,79166,6,0,P|191:290|225:305,1,74.2500022659302,0|0,3:0|0:0,0:0:0:0:
225,305,79443,2,0,P|197:266|195:215,1,99.0000030212403,0|0,3:0|0:0,0:0:0:0:
133,96,79860,2,0,L|194:109,1,49.5000015106202,10|0,0:0|0:0,0:0:0:0:
251,124,80138,1,2,0:0:0:0:
320,105,80277,1,0,0:0:0:0:
272,244,80416,5,0,3:0:0:0:
371,262,80554,2,0,L|475:244,1,99.0000030212403,0|0,3:0|3:0,0:0:0:0:
329,196,80971,1,8,0:0:0:0:
272,244,81110,1,0,0:0:0:0:
69,131,81249,6,0,P|99:184|96:232,1,99.0000030212403,6|10,0:0|0:0,0:0:0:0:
124,320,81666,1,0,3:0:0:0:
192,344,81804,2,0,L|248:336,1,49.5000015106202,0|0,3:0|3:0,0:0:0:0:
99,221,82082,2,0,L|212:237,1,99.0000030212403,14|0,0:0|0:0,0:0:0:0:
272,244,82499,1,2,0:0:0:0:
456,192,82638,5,4,0:0:0:0:
256,192,82707,12,2,84860,0:0:0:0:
220,152,85416,5,8,0:0:0:0:
292,176,85693,1,8,0:0:0:0:
272,248,85971,1,8,0:0:0:0:
203,228,86249,1,8,0:0:0:0:
203,228,86388,1,8,0:0:0:0:
245,200,86527,1,0,0:0:0:0:
47,236,87082,6,0,P|90:214|134:215,1,90,4|0,0:0|0:0,0:0:0:0:
203,228,87499,1,0,3:0:0:0:
151,100,87638,2,0,P|179:108|213:108,1,45,10|0,0:0|0:0,0:0:0:0:
264,84,87916,1,8,0:0:0:0:
386,165,88054,6,0,P|381:201|363:238,1,67.5,4|0,0:0|0:0,0:0:0:0:
358,241,88332,2,0,P|387:221|426:206,1,67.5,0|0,3:0|0:0,0:0:0:0:
448,204,88610,1,0,0:0:0:0:
366,327,88749,1,10,0:0:0:0:
366,327,88888,1,0,0:0:0:0:
430,294,89027,1,2,0:0:0:0:
430,294,89166,1,0,0:0:0:0:
351,154,89304,5,4,0:0:0:0:
285,201,89443,2,0,P|235:208|181:216,1,90,0|0,3:0|3:0,0:0:0:0:
80,168,89860,1,10,0:0:0:0:
80,168,89999,1,0,0:0:0:0:
156,322,90138,2,0,L|166:265,1,45,4|0,0:0|0:0,0:0:0:0:
195,213,90416,6,0,L|190:163,3,30,8|8|8|0,3:0|3:0|3:0|3:0,0:0:0:0:
144,120,90832,1,0,0:0:0:0:
195,213,90971,1,10,0:0:0:0:
156,322,91110,1,4,0:0:0:0:
228,295,91249,1,0,0:0:0:0:
228,295,91388,1,0,0:0:0:0:
382,315,91527,6,0,P|381:270|377:224,1,90,4|0,0:0|0:0,0:0:0:0:
420,168,91943,1,0,3:0:0:0:
300,120,92082,2,0,P|292:148|292:182,1,45,10|0,0:0|0:0,0:0:0:0:
290,163,92360,1,0,0:0:0:0:
168,244,92499,6,0,P|173:280|191:317,1,67.5,4|0,0:0|0:0,0:0:0:0:
196,320,92777,2,0,P|167:300|128:285,1,67.5,0|0,3:0|0:0,0:0:0:0:
106,283,93054,1,0,0:0:0:0:
207,175,93193,1,10,0:0:0:0:
207,175,93332,1,0,0:0:0:0:
143,142,93471,1,2,0:0:0:0:
143,142,93610,1,0,0:0:0:0:
304,88,93749,5,4,0:0:0:0:
370,135,93888,2,0,P|420:142|474:150,1,90,0|0,3:0|3:0,0:0:0:0:
299,170,94304,1,10,0:0:0:0:
299,170,94443,1,0,0:0:0:0:
328,4,94582,2,0,L|271:14,1,45,6|0,0:0|0:0,0:0:0:0:
215,70,94860,5,2,0:0:0:0:
199,138,94999,1,2,0:0:0:0:
299,170,95138,1,2,0:0:0:0:
308,203,95277,1,0,0:0:0:0:
248,280,95416,5,2,0:0:0:0:
228,344,95554,1,0,0:0:0:0:
181,295,95693,1,2,0:0:0:0:
220,307,95832,1,0,0:0:0:0:
256,120,95971,6,0,P|260:92|264:56,1,62.9999980773926,6|0,0:0|0:0,0:0:0:0:
209,11,96388,1,0,0:0:0:0:
338,53,96527,2,0,L|370:46,1,31.4999990386963,2|0,1:2|0:0,0:0:0:0:
439,58,96804,1,0,0:0:0:0:
333,150,96943,6,0,P|368:151|396:167,1,62.9999980773926,8|0,0:0|0:0,0:0:0:0:
460,193,97360,2,0,L|469:167,4,15.7499995193482,0|0|0|0|2,1:0|0:0|0:0|0:0|1:2,0:0:0:0:
375,291,97916,1,0,0:0:0:0:
466,329,98054,1,8,0:0:0:0:
439,262,98193,5,2,0:0:0:0:
402,357,98332,1,8,0:0:0:0:
375,291,98471,1,0,0:0:0:0:
312,257,98610,2,0,P|302:279|305:294,1,31.4999990386963,0|2,0:0|1:2,0:0:0:0:
246,332,98888,2,0,P|236:320|233:305,1,31.4999990386963,0|0,0:0|0:0,0:0:0:0:
260,198,99166,6,0,P|290:184|325:184,1,62.9999980773926,8|0,0:0|0:0,0:0:0:0:
392,179,99582,2,0,L|398:145,1,31.4999990386963,0|0,0:0|0:0,0:0:0:0:
323,103,99860,2,0,L|317:69,1,31.4999990386963,2|0,1:2|0:0,0:0:0:0:
368,24,100138,1,0,0:0:0:0:
323,103,100277,1,8,0:0:0:0:
444,232,100416,6,0,P|418:250|387:253,1,62.9999980773926,6|0,3:2|0:0,0:0:0:0:
392,179,100832,1,0,0:0:0:0:
316,256,100971,1,2,1:2:0:0:
265,206,101110,2,0,P|282:193|304:191,1,31.4999990386963,0|0,0:0|0:0,0:0:0:0:
408,108,101388,1,8,0:0:0:0:
408,108,101804,6,0,P|356:73|288:70,1,125.999996154785,0|0,0:0|0:0,0:0:0:0:
200,16,102499,6,0,P|135:23|63:89,1,157.5,4|0,0:0|0:0,0:0:0:0:
63,193,103749,6,0,L|68:233,2,30,8|8|8,3:2|3:2|3:2,0:0:0:0:
9,274,104304,2,0,P|76:260|142:305,1,141.749995674133,4|0,0:0|0:0,0:0:0:0:
154,321,104860,6,0,L|53:343,1,90,6|0,3:2|0:0,0:0:0:0:
2,376,105277,1,0,0:0:0:0:
200,256,105416,2,0,L|251:267,1,45,8|0,0:0|0:0,0:0:0:0:
141,200,105693,6,0,P|184:180|236:188,1,90,2|0,3:2|0:0,0:0:0:0:
296,208,106110,1,0,0:0:0:0:
372,116,106249,2,0,P|365:139|362:170,1,45,6|0,3:2|0:0,0:0:0:0:
208,68,106527,1,8,0:0:0:0:
215,139,106666,2,0,P|218:162|228:192,1,45,6|0,3:2|0:0,0:0:0:0:
296,208,106943,1,0,0:0:0:0:
392,260,107082,6,0,P|359:267|310:310,1,90,2|0,3:2|0:0,0:0:0:0:
392,340,107499,1,0,0:0:0:0:
188,300,107638,2,0,L|137:308,1,45,8|0,0:0|0:0,0:0:0:0:
59,323,107916,6,0,L|74:228,1,90,6|0,3:2|0:0,0:0:0:0:
46,136,108332,1,0,1:0:0:0:
110,170,108471,1,0,0:0:0:0:
179,146,108610,1,0,0:0:0:0:
311,177,108749,2,0,L|371:189,1,45,8|8,0:0|0:0,0:0:0:0:
417,229,109027,1,0,3:0:0:0:
350,260,109166,1,0,3:0:0:0:
173,235,109304,6,0,P|213:228|263:255,1,90,6|0,3:2|0:0,0:0:0:0:
292,313,109721,1,0,0:0:0:0:
311,177,109860,2,0,L|317:129,1,45,8|0,0:0|0:0,0:0:0:0:
432,91,110138,6,0,P|392:84|313:138,1,135,2|0,3:2|0:0,0:0:0:0:
230,79,110693,2,0,L|179:91,1,45,6|0,3:2|0:0,0:0:0:0:
16,56,110971,1,8,0:0:0:0:
58,117,111110,2,0,P|51:143|33:168,1,45,6|0,3:2|0:0,0:0:0:0:
81,220,111388,1,0,0:0:0:0:
19,317,111527,6,0,P|64:324|114:335,1,90,2|0,3:2|0:0,0:0:0:0:
177,313,111943,1,0,0:0:0:0:
296,369,112082,2,0,L|288:319,1,45,8|0,0:0|0:0,0:0:0:0:
210,241,112360,6,0,L|226:136,1,90,2|0,3:2|0:0,0:0:0:0:
234,85,112777,2,0,L|242:135,1,45,0|0,1:0|0:0,0:0:0:0:
314,113,113054,1,0,0:0:0:0:
405,150,113193,1,0,1:0:0:0:
469,116,113332,2,0,L|515:127,2,45,0|0|0,3:0|3:0|3:0,0:0:0:0:
234,85,113749,5,4,0:0:0:0:
276,180,120971,5,0,1:0:0:0:
350,168,121249,1,0,1:0:0:0:
424,202,121527,1,8,0:0:0:0:
492,184,121804,1,8,0:0:0:0:
424,202,121943,5,8,3:0:0:0:
276,180,122082,2,0,L|238:187,1,36,8|8,0:0|0:0,0:0:0:0:
176,232,122360,2,0,L|138:225,1,36,0|0,3:0|3:0,0:0:0:0:
75,129,122638,6,0,P|115:128|162:105,1,90,6|0,0:0|0:0,0:0:0:0:
263,101,123054,2,0,P|244:137|241:189,1,90,2|0,3:2|0:0,0:0:0:0:
201,287,123471,2,0,P|181:253|137:224,1,90,6|0,3:2|0:0,0:0:0:0:
91,172,123888,5,8,3:0:0:0:
17,188,124027,1,8,3:0:0:0:
67,240,124166,1,8,3:0:0:0:
91,172,124304,2,0,L|86:123,1,45,0|0,3:0|3:0,0:0:0:0:
164,52,124582,2,0,L|159:96,1,45,0|0,3:0|3:0,0:0:0:0:
256,168,124860,6,0,P|296:167|343:144,1,90,6|0,3:2|0:0,0:0:0:0:
444,140,125277,2,0,P|425:176|422:228,1,90,2|0,3:2|0:0,0:0:0:0:
380,324,125693,2,0,P|360:290|316:261,1,90,6|0,3:2|3:0,0:0:0:0:
244,272,126064,6,0,L|205:281,1,30,0|0,3:0|3:0,0:0:0:0:
198,289,126249,2,0,L|139:283,1,45,8|0,0:0|0:0,0:0:0:0:
52,336,126527,1,0,3:0:0:0:
153,284,126666,2,0,P|190:301|212:345,1,90,12|0,0:0|0:0,0:0:0:0:
168,208,127082,5,6,0:0:0:0:
236,186,127360,1,2,0:0:0:0:
236,186,127499,1,2,0:0:0:0:
307,205,127777,1,2,0:0:0:0:
307,205,127916,1,2,0:0:0:0:
362,268,128471,5,2,0:0:0:0:
362,268,128888,1,2,0:0:0:0:
362,268,129304,6,0,L|368:214,1,45,6|0,3:2|3:0,0:0:0:0:
296,164,129582,2,0,L|291:119,1,45,0|0,3:0|3:0,0:0:0:0:
368,48,129860,1,0,3:0:0:0:
368,48,129999,1,0,3:0:0:0:
212,148,130138,6,0,P|155:169|91:170,1,120,4|8,0:0|0:0,0:0:0:0:
79,159,130971,6,8,L|92:204,3,30,8|8|0|8,0:0|0:0|0:0|3:2,0:0:0:0:
164,220,131341,1,8,3:2:0:0:
164,220,131434,1,8,3:2:0:0:
164,220,131527,6,0,P|175:242|179:263,1,33.7500012874604,2|0,0:0|0:0,0:0:0:0:
255,233,131804,2,0,P|255:257|250:278,1,33.7500012874604,2|0,0:0|0:0,0:0:0:0:
334,294,132082,2,0,P|324:316|310:333,1,33.7500012874604,2|0,0:0|3:0,0:0:0:0:
318,323,132291,1,0,3:0:0:0:
318,323,132360,6,0,P|353:331|377:336,1,45,12|0,0:0|0:0,0:0:0:0:
435,316,132638,1,0,3:0:0:0:
320,176,132777,2,0,P|355:167|372:163,1,45,12|0,0:0|3:0,0:0:0:0:
432,140,133054,1,0,3:0:0:0:
308,68,133193,5,12,0:0:0:0:
308,68,133332,1,0,0:0:0:0:
243,104,133471,1,0,3:0:0:0:
170,99,133610,1,0,0:0:0:0:
4,0,133749,6,0,P|22:21|36:56,1,49.5000015106202,6|0,0:0|0:0,0:0:0:0:
98,74,134027,2,0,P|105:101|104:138,1,49.5000015106202,0|0,0:0|3:0,0:0:0:0:
0,256,134304,2,0,P|43:225|97:222,1,99.0000030212403,10|8,0:0|0:0,0:0:0:0:
232,168,134721,6,0,P|276:180|308:215,1,74.2500022659302,4|0,0:0|0:0,0:0:0:0:
297,197,134999,2,0,P|326:193|355:190,1,49.5000015106202,0|0,3:0|0:0,0:0:0:0:
404,144,135277,1,0,0:0:0:0:
300,280,135416,2,0,P|328:284|357:287,1,49.5000015106202,10|0,0:0|0:0,0:0:0:0:
420,276,135693,1,2,0:0:0:0:
496,317,135832,1,0,0:0:0:0:
496,317,135902,1,0,0:0:0:0:
496,317,135971,6,0,P|505:294|510:270,1,49.5000015106202,2|0,3:2|3:0,0:0:0:0:
458,205,136249,2,0,P|457:180|451:156,1,49.5000015106202,0|0,0:0|3:0,0:0:0:0:
300,280,136527,1,10,0:0:0:0:
300,280,136804,6,0,P|249:281|208:308,2,99.0000030212403,6|8|0,0:0|0:0|3:0,0:0:0:0:
336,348,137499,1,0,0:0:0:0:
308,205,137638,1,10,0:0:0:0:
420,120,137777,2,0,P|471:121|512:148,1,99.0000030212403,4|0,0:0|0:0,0:0:0:0:
308,205,138193,6,0,P|301:134|290:42,1,148.50000453186,4|0,0:0|3:0,0:0:0:0:
196,113,138749,2,0,P|162:102|133:96,1,49.5000015106202,8|0,0:0|0:0,0:0:0:0:
76,104,139027,1,2,0:0:0:0:
165,211,139166,6,0,P|130:215|101:222,1,49.5000015106202,0|0,3:0|0:0,0:0:0:0:
232,248,139443,1,0,3:0:0:0:
308,252,139582,2,0,P|340:264|366:279,1,49.5000015106202,2|0,0:0|0:0,0:0:0:0:
497,331,139860,1,10,0:0:0:0:
426,358,139999,1,0,0:0:0:0:
360,320,140138,2,0,L|353:272,1,49.5000015106202,2|0,0:0|0:0,0:0:0:0:
292,164,140416,5,0,3:0:0:0:
324,92,140554,2,0,P|279:88|220:130,1,99.0000030212403,0|0,3:0|3:0,0:0:0:0:
396,128,140971,2,0,L|404:79,1,49.5000015106202,10|0,0:0|0:0,0:0:0:0:
340,232,141249,6,0,P|382:247|418:310,1,99.0000030212403,4|0,0:0|3:0,0:0:0:0:
411,359,141666,1,0,0:0:0:0:
264,260,141804,2,0,L|255:203,1,49.5000015106202,10|0,0:0|0:0,0:0:0:0:
138,116,142082,1,10,0:0:0:0:
204,153,142221,1,0,3:0:0:0:
107,228,142360,1,2,3:2:0:0:
180,225,142499,1,0,3:0:0:0:
95,377,142638,6,0,P|130:361|160:361,1,49.5000015106202,4|0,0:0|0:0,0:0:0:0:
185,300,142916,2,0,P|223:301|249:313,1,49.5000015106202,0|0,0:0|3:0,0:0:0:0:
368,244,143193,1,10,0:0:0:0:
368,244,143471,1,8,0:0:0:0:
344,135,143610,6,0,P|310:162|302:233,1,99.0000030212403,4|0,0:0|3:0,0:0:0:0:
304,286,144027,1,0,0:0:0:0:
368,244,144166,1,0,0:0:0:0:
232,252,144304,2,0,P|195:261|173:271,1,49.5000015106202,10|0,0:0|0:0,0:0:0:0:
136,320,144582,1,2,0:0:0:0:
67,294,144721,1,0,0:0:0:0:
67,294,144791,1,0,0:0:0:0:
67,294,144860,5,0,3:0:0:0:
184,265,144999,2,0,P|208:269|231:278,1,49.5000015106202,0|0,3:0|0:0,0:0:0:0:
120,228,145277,1,0,3:0:0:0:
240,168,145416,1,10,0:0:0:0:
308,192,145554,1,0,0:0:0:0:
412,136,145693,6,0,P|391:179|397:238,2,99.0000030212403,6|8|0,0:0|0:0|3:0,0:0:0:0:
448,68,146388,1,0,0:0:0:0:
334,115,146527,1,10,0:0:0:0:
512,260,146666,2,0,P|486:248|450:246,1,49.5000015106202,4|0,0:0|0:0,0:0:0:0:
393,229,146943,1,0,0:0:0:0:
334,115,147082,6,0,P|290:137|241:139,1,99.0000030212403,4|0,0:0|0:0,0:0:0:0:
144,112,147499,1,0,3:0:0:0:
197,15,147638,2,0,L|205:80,1,49.5000015106202,10|0,0:0|0:0,0:0:0:0:
203,65,147916,1,2,0:0:0:0:
98,180,148054,6,0,P|131:194|168:195,1,74.2500022659302,0|0,3:0|0:0,0:0:0:0:
168,194,148332,2,0,P|126:217|102:262,1,99.0000030212403,0|0,3:0|0:0,0:0:0:0:
156,356,148749,2,0,L|217:343,1,49.5000015106202,10|0,0:0|0:0,0:0:0:0:
274,328,149027,1,2,0:0:0:0:
340,364,149166,1,0,0:0:0:0:
283,252,149304,5,0,3:0:0:0:
392,272,149443,2,0,L|281:248,1,99.0000030212403,0|0,3:0|3:0,0:0:0:0:
143,218,149860,1,10,0:0:0:0:
207,181,149999,1,0,0:0:0:0:
384,186,150138,2,0,P|358:176|332:174,1,49.5000015106202,4|0,0:0|0:0,0:0:0:0:
248,112,150416,5,10,0:0:0:0:
257,36,150554,2,0,P|229:37|204:47,1,49.5000015106202,0|8,3:0|3:0,0:0:0:0:
328,88,150832,1,0,3:0:0:0:
136,16,150971,2,0,P|97:46|81:111,1,99.0000030212403,14|0,0:0|0:0,0:0:0:0:
108,160,151388,1,0,0:0:0:0:
24,276,151527,6,0,B|165:264|105:381|270:368,1,270.000010299683,4|0,0:0|0:0,0:0:0:0:
268,376,152916,6,0,P|257:323|261:239,1,135.000005149842,4|0,0:0|3:0,0:0:0:0:
252,173,153541,1,0,3:0:0:0:
252,172,153610,2,0,L|283:168,1,16.8750006437302,0|0,3:0|3:0,0:0:0:0:
348,184,153749,6,0,P|347:161|343:139,2,45.0000017166138,12|8|8,3:2|0:0|0:0,0:0:0:0:
428,256,154304,5,8,0:0:0:0:
274,320,154490,5,8,0:0:0:0:
425,371,154675,5,8,0:0:0:0:
260,242,154860,2,0,P|214:244|139:304,1,135.000005149842,8|0,0:0|0:0,0:0:0:0:
88,45,155971,6,0,P|105:87|107:138,1,90,6|2,0:0|3:2,0:0:0:0:
74,201,156388,1,2,0:0:0:0:
123,319,156527,1,8,0:0:0:0:
16,298,156666,2,0,P|41:289|75:287,1,45,2|0,0:0|0:0,0:0:0:0:
180,240,156943,6,0,P|206:242|238:254,1,45,2|0,3:2|0:0,0:0:0:0:
123,319,157221,1,0,3:0:0:0:
204,360,157360,1,2,0:0:0:0:
273,342,157499,2,0,L|328:349,1,45,2|8,0:0|0:0,0:0:0:0:
388,370,157777,2,0,P|392:321|372:276,1,90,2|0,0:0|0:0,0:0:0:0:
450,190,158193,6,0,L|349:205,1,90,4|2,0:0|3:2,0:0:0:0:
300,256,158610,1,2,3:2:0:0:
183,215,158749,1,8,0:0:0:0:
255,322,158888,2,0,L|263:376,1,45,2|0,3:2|0:0,0:0:0:0:
256,184,159166,6,0,L|264:130,1,45,14|0,0:0|0:0,0:0:0:0:
320,72,159443,2,0,L|362:105,1,45,2|0,0:0|3:0,0:0:0:0:
382,185,159721,2,0,L|328:196,1,45,2|8,0:0|0:0,0:0:0:0:
183,215,159999,1,10,0:0:0:0:
247,259,160138,1,2,3:2:0:0:
176,288,160277,1,0,3:0:0:0:
27,218,160416,6,0,P|59:234|130:241,1,90,6|2,3:2|3:2,0:0:0:0:
183,215,160832,1,2,3:2:0:0:
128,68,160971,1,8,0:0:0:0:
91,159,161110,2,0,P|116:147|146:141,1,45,2|0,0:0|0:0,0:0:0:0:
238,69,161388,6,0,P|265:70|295:78,1,45,2|0,3:2|0:0,0:0:0:0:
206,138,161666,1,0,3:0:0:0:
271,168,161804,1,2,0:0:0:0:
341,150,161943,2,0,L|390:161,1,45,2|8,0:0|0:0,0:0:0:0:
312,263,162221,2,0,P|350:237|396:237,1,90,2|0,0:0|0:0,0:0:0:0:
506,180,162638,6,0,P|525:209|528:271,1,90,6|2,3:2|3:2,0:0:0:0:
492,327,163054,1,2,3:2:0:0:
372,306,163193,1,8,0:0:0:0:
312,263,163332,2,0,L|255:278,1,45,2|0,0:0|0:0,0:0:0:0:
424,162,163610,6,0,P|374:141|320:147,1,90,6|0,3:2|3:0,0:0:0:0:
256,144,164027,2,0,L|262:105,2,30,8|8|8,0:0|0:0|0:0,0:0:0:0:
207,207,164304,5,8,0:0:0:0:
192,210,164397,5,8,0:0:0:0:
177,214,164490,5,0,3:0:0:0:
163,219,164582,6,0,L|169:258,2,30,0|0|0,3:2|3:0|3:0,0:0:0:0:
55,157,164860,6,0,P|93:155|141:131,1,90,6|2,3:2|3:2,0:0:0:0:
192,80,165277,1,2,0:0:0:0:
163,219,165416,1,8,0:0:0:0:
237,215,165554,2,0,P|262:221|291:233,1,45,2|0,0:0|0:0,0:0:0:0:
392,140,165832,6,0,P|412:156|433:179,1,45,2|0,3:2|0:0,0:0:0:0:
479,263,166110,1,0,3:0:0:0:
420,306,166249,1,2,0:0:0:0:
347,296,166388,2,0,P|322:302|293:314,1,45,2|8,0:0|0:0,0:0:0:0:
280,227,166666,2,0,P|230:209|188:212,1,90,2|0,0:0|0:0,0:0:0:0:
128,296,167082,6,0,L|113:195,1,90,6|2,3:2|3:2,0:0:0:0:
162,145,167499,1,2,3:2:0:0:
121,28,167638,1,8,0:0:0:0:
252,133,167777,2,0,L|306:141,1,45,2|0,3:2|0:0,0:0:0:0:
92,112,168054,6,0,L|38:120,1,45,14|0,0:0|0:0,0:0:0:0:
0,195,168332,2,0,L|33:237,1,45,2|0,0:0|3:0,0:0:0:0:
115,260,168610,2,0,L|126:206,1,45,2|8,0:0|0:0,0:0:0:0:
184,161,168888,1,10,0:0:0:0:
255,183,169027,1,2,3:2:0:0:
199,232,169166,1,0,3:0:0:0:
180,360,169304,6,0,P|212:344|283:337,1,90,6|2,3:2|3:2,0:0:0:0:
336,348,169721,1,2,3:2:0:0:
391,201,169860,1,8,0:0:0:0:
428,292,169999,2,0,P|403:280|373:274,1,45,2|0,0:0|0:0,0:0:0:0:
281,202,170277,6,0,P|254:203|224:211,1,45,2|0,3:2|0:0,0:0:0:0:
145,264,170554,1,0,3:0:0:0:
167,196,170693,1,2,3:2:0:0:
128,135,170832,2,0,L|139:86,1,45,2|8,0:0|0:0,0:0:0:0:
9,229,171110,2,0,P|46:205|91:207,1,90,2|2,0:0|0:0,0:0:0:0:
212,96,171527,6,0,P|240:102|268:110,1,45,6|0,0:0|3:0,0:0:0:0:
328,120,171804,1,2,3:2:0:0:
189,297,171943,6,0,P|217:291|245:283,1,45,14|0,0:0|3:0,0:0:0:0:
308,274,172221,1,2,3:2:0:0:
474,157,172360,6,0,B|367:142|412:215|298:200,1,180,6|0,0:0|0:0,0:0:0:0:
293,198,173008,2,0,L|334:188,1,30,0|0,3:0|3:0,0:0:0:0:
223,174,173193,5,8,0:0:0:0:
208,179,173286,5,0,3:0:0:0:
197,189,173378,5,0,3:0:0:0:
188,201,173471,6,0,L|193:234,2,30,0|0|0,3:0|3:0|3:0,0:0:0:0:
120,310,173749,6,0,P|177:313|224:358,1,107.999996704102,6|6,0:0|0:0,0:0:0:0:
215,342,174166,6,0,P|238:297|283:275,1,94.499997116089,0|0,0:0|0:0,0:0:0:0:
341,224,174721,2,0,B|358:253|358:253|357:289,1,62.9999980773926,0|0,0:0|0:0,0:0:0:0:
472,128,175138,6,0,P|443:151|386:153,1,80.9999975280763,4|0,0:0|0:0,0:0:0:0:
400,156,175416,1,8,0:0:0:0:
236,166,175554,2,0,P|190:160|139:113,1,112.5,4|0,0:0|0:0,0:0:0:0:
78,64,175971,6,0,P|117:111|99:198,1,148.50000453186,4|0,0:0|3:0,0:0:0:0:
241,384,176527,6,0,P|263:325|351:296,1,161.999995056153,12|0,0:0|0:0,0:0:0:0:
447,76,177082,6,0,P|385:86|316:25,1,161.999995056153,14|0,0:0|0:0,0:0:0:0:
399,8,177638,5,12,0:0:0:0:
312,184,177777,2,0,B|243:197|277:243|194:261,1,134.999995880127,0|0,3:0|0:0,0:0:0:0:
139,304,178193,6,0,P|127:266|128:233,1,53.9999983520508,4|0,0:0|0:0,0:0:0:0:
126,252,178471,1,0,0:0:0:0:
299,132,178610,2,0,P|311:170|310:203,1,53.9999983520508,2|8,3:2|0:0,0:0:0:0:
324,264,178888,1,0,0:0:0:0:
324,264,179027,1,0,0:0:0:0:
224,104,179166,6,0,P|186:108|167:115,1,53.9999983520508,2|0,3:2|0:0,0:0:0:0:
232,180,179443,2,0,P|206:187|179:189,1,53.9999983520508,2|0,3:2|0:0,0:0:0:0:
180,189,179721,1,0,0:0:0:0:
324,264,179860,2,0,P|349:256|376:254,1,53.9999983520508,8|0,0:0|0:0,0:0:0:0:
449,232,180138,2,0,L|455:272,3,26.9999991760254,0|0|0|0,0:0|0:0|0:0|0:0,0:0:0:0:
458,280,180416,6,0,L|465:205,1,53.9999983520508,2|2,3:2|3:2,0:0:0:0:
440,156,180693,1,0,0:0:0:0:
487,75,180832,1,2,3:2:0:0:
360,168,180971,1,8,0:0:0:0:
289,141,181110,1,2,0:0:0:0:
118,67,181249,6,0,P|159:75|203:175,1,161.999995056153,4|0,0:0|0:0,0:0:0:0:
136,210,181804,2,0,L|64:220,1,53.9999983520508,0|0,3:0|0:0,0:0:0:0:
296,248,182082,2,0,L|224:238,1,53.9999983520508,14|0,0:0|0:0,0:0:0:0:
368,208,182360,1,10,0:0:0:0:
368,208,182499,1,10,0:0:0:0:
442,221,182638,6,0,P|478:256|488:298,1,94.499997116089,0|0,0:0|0:0,0:0:0:0:
484,20,183193,6,0,B|405:32|405:32|389:46|373:54,1,116.999994644165,4|0,1:0|0:0,0:0:0:0:
207,48,183610,2,0,P|236:55|261:78,1,58.4999973220826,2|0,3:2|0:0,0:0:0:0:
360,124,183888,2,0,P|330:131|305:154,1,58.4999973220826,2|0,3:2|0:0,0:0:0:0:
368,196,184166,1,0,0:0:0:0:
132,137,184304,2,0,P|90:180|94:256,1,116.999994644165,8|0,0:0|0:0,0:0:0:0:
86,235,184860,6,0,P|56:185|3:165,1,116.999994644165,4|0,0:0|0:0,0:0:0:0:
3,165,185277,1,2,3:2:0:0:
212,68,185416,6,0,P|158:88|129:137,1,116.999994644165,12|2,0:0|3:2,0:0:0:0:
128,137,185832,1,2,0:0:0:0:
240,232,185971,5,14,0:0:0:0:
273,296,186110,2,0,B|282:180,1,116.999994644165,0|0,3:0|3:0,0:0:0:0:
212,68,186527,5,10,0:0:0:0:
278,104,186666,1,0,3:0:0:0:
340,64,186804,2,0,L|387:75,1,47.2499985580445,0|0,0:0|0:0,0:0:0:0:
408,81,187082,5,6,0:0:0:0:
476,127,187360,1,2,0:0:0:0:
476,127,187499,1,2,0:0:0:0:
407,156,187777,1,2,0:0:0:0:
407,156,187916,1,2,0:0:0:0:
332,132,188332,6,0,P|308:125|280:126,1,45,2|0,0:0|0:0,0:0:0:0:
214,117,188749,2,0,P|215:135|221:157,1,31.4999990386963,2|0,0:0|0:0,0:0:0:0:
140,156,189027,2,0,P|138:137|133:116,1,31.4999990386963,2|0,0:0|0:0,0:0:0:0:
184,216,189304,5,2,0:0:0:0:
132,268,189582,1,2,0:0:0:0:
132,268,189721,1,2,0:0:0:0:
204,287,189999,1,2,0:0:0:0:
300,228,190138,6,0,L|409:244,1,99.0000030212403,4|0,0:0|0:0,0:0:0:0:
464,288,190554,1,0,3:0:0:0:
412,164,190693,5,8,0:0:0:0:
438,94,190832,1,0,3:0:0:0:
332,32,190971,6,0,L|277:43,1,49.5000015106202,14|8,0:0|0:0,0:0:0:0:
188,16,191249,1,0,3:0:0:0:
224,112,191388,1,0,3:0:0:0:
157,246,191527,6,0,P|205:216|260:217,1,99.0000030212403,6|0,0:0|0:0,0:0:0:0:
347,104,191943,2,0,P|348:160|320:207,1,99.0000030212403,6|0,0:0|0:0,0:0:0:0:
374,344,192360,2,0,P|324:317|297:269,1,99.0000030212403,6|0,0:0|0:0,0:0:0:0:
328,197,192777,1,2,0:0:0:0:
301,282,192916,2,0,P|264:308|220:311,1,80.9999975280763,0|8,3:0|0:0,0:0:0:0:
112,240,193471,1,0,0:0:0:0:
112,240,193749,6,0,P|65:250|34:274,1,80.9999975280763,2|0,0:0|0:0,0:0:0:0:
38,268,194166,2,0,P|52:235|48:191,1,80.9999975280763,2|0,0:0|0:0,0:0:0:0:
88,76,194582,6,0,B|212:101,1,120,4|8,0:0|0:0,0:0:0:0:
206,108,195416,6,8,L|161:121,3,30,8|8|0|8,0:0|0:0|0:0|3:2,0:0:0:0:
264,48,195786,1,8,3:2:0:0:
264,48,195878,1,8,3:2:0:0:
264,48,195971,5,4,0:0:0:0:
160,272,196249,1,4,0:0:0:0:
352,272,196527,1,4,0:0:0:0:
260,16,196804,1,4,0:0:0:0:
256,192,196874,12,4,198193,0:0:0:0:
144,80,204860,5,4,0:0:0:0:
368,80,205277,1,4,0:0:0:0:
256,284,205693,1,4,0:0:0:0:
256,284,206110,5,0,3:0:0:0:
328,253,206249,2,0,P|356:244|392:240,1,49.5000015106202,8|0,0:0|3:0,0:0:0:0:
420,156,206527,2,0,P|449:159|483:171,1,49.5000015106202,10|2,0:0|3:2,0:0:0:0:
328,68,206804,1,2,0:0:0:0:
400,84,206943,1,0,1:0:0:0:
220,122,207082,6,0,P|165:134|123:220,1,144,4|8,0:0|1:0,0:0:0:0:
136,276,208749,1,8,1:0:0:0:
208,260,209860,5,8,1:0:0:0:
280,280,210971,1,8,1:0:0:0:
340,324,212082,5,8,1:0:0:0:
368,256,213193,1,8,1:0:0:0:
348,184,214304,5,8,1:0:0:0:
288,136,215416,1,8,1:0:0:0:
256,204,215971,5,6,0:0:0:0:
256,192,216041,12,0,217638,0:0:0:0:
40,84,218193,6,0,P|48:107|53:135,1,36,0|0,1:0|0:0,0:0:0:0:
111,247,218471,2,0,P|117:230|122:213,1,36,0|0,1:0|0:0,0:0:0:0:
223,103,218749,6,0,P|231:126|236:154,1,36,0|0,1:0|0:0,0:0:0:0:
296,313,219027,2,0,P|302:296|306:278,1,36,0|0,1:0|0:0,0:0:0:0:
341,167,219304,5,0,1:0:0:0:
166,355,219582,1,0,1:0:0:0:
102,113,219860,1,0,1:0:0:0:
228,304,220138,1,0,1:0:0:0:
293,266,220416,6,0,L|322:273,2,22.5,2|0|0,0:0|0:0|0:0,0:0:0:0:
228,304,220832,1,0,0:0:0:0:
452,152,220971,6,0,P|405:185|403:275,1,135.000005149842,4|0,0:0|0:0,0:0:0:0:
295,164,221388,2,0,P|262:176|233:185,1,53.9999983520508,2|0,3:2|0:0,0:0:0:0:
356,320,221666,1,2,3:2:0:0:
395,257,221804,1,0,0:0:0:0:
464,280,221943,1,0,0:0:0:0:
272,360,222082,2,0,P|224:334|166:335,1,107.999996704102,8|2,0:0|0:0,0:0:0:0:
148,337,222429,1,0,0:0:0:0:
134,337,222499,1,0,0:0:0:0:
121,333,222568,1,0,0:0:0:0:
108,327,222638,5,2,3:2:0:0:
0,281,222777,1,0,3:0:0:0:
69,258,222916,2,0,L|12:265,1,53.9999983520508,0|0,0:0|3:0,0:0:0:0:
128,204,223193,1,10,0:0:0:0:
195,232,223332,1,0,0:0:0:0:
347,86,223471,6,0,P|314:131|316:208,2,116.999994644165,6|8|8,0:0|0:0|3:0,0:0:0:0:
412,48,224166,1,0,0:0:0:0:
508,108,224304,1,8,0:0:0:0:
345,16,224443,1,4,0:0:0:0:
278,51,224582,2,0,L|188:71,1,80.9999975280763,2|0,0:0|0:0,0:0:0:0:
130,87,224860,6,0,P|175:92|222:150,1,107.999996704102,4|0,0:0|0:0,0:0:0:0:
72,132,225277,1,0,3:0:0:0:
269,192,225416,1,8,0:0:0:0:
197,212,225554,1,0,0:0:0:0:
249,264,225693,1,0,0:0:0:0:
157,342,225832,6,0,P|186:330|215:330,1,53.9999983520508,2|0,3:2|0:0,0:0:0:0:
320,300,226110,2,0,P|351:301|377:313,1,53.9999983520508,2|0,3:2|0:0,0:0:0:0:
440,344,226388,1,0,0:0:0:0:
313,188,226527,2,0,P|261:222|253:288,1,107.999996704102,10|2,0:0|0:0,0:0:0:0:
239,254,226874,1,0,0:0:0:0:
225,250,226943,1,0,0:0:0:0:
211,247,227013,1,0,0:0:0:0:
197,247,227082,5,2,3:2:0:0:
100,300,227221,1,0,3:0:0:0:
125,233,227360,1,0,0:0:0:0:
44,145,227499,2,0,P|72:160|108:167,1,53.9999983520508,0|10,3:0|0:0,0:0:0:0:
97,90,227777,1,0,0:0:0:0:
0,326,227916,6,0,P|40:303|118:306,1,107.999996704102,6|0,0:0|3:0,0:0:0:0:
174,315,228332,1,0,0:0:0:0:
308,290,228471,2,0,L|317:347,1,53.9999983520508,10|0,0:0|0:0,0:0:0:0:
235,267,228749,1,10,0:0:0:0:
291,216,228888,1,0,3:0:0:0:
180,164,229027,1,2,3:2:0:0:
252,151,229166,1,0,3:0:0:0:
135,22,229304,6,0,P|173:29|202:22,1,53.9999983520508,6|0,0:0|0:0,0:0:0:0:
240,76,229582,2,0,P|277:66|300:48,1,53.9999983520508,0|0,0:0|3:0,0:0:0:0:
111,135,229860,1,10,0:0:0:0:
111,135,230138,1,8,0:0:0:0:
196,252,230277,6,0,P|240:251|284:280,1,80.9999975280763,4|0,0:0|0:0,0:0:0:0:
272,267,230554,2,0,P|254:239|246:204,1,53.9999983520508,0|0,3:0|0:0,0:0:0:0:
296,163,230832,1,0,0:0:0:0:
218,321,230971,1,10,0:0:0:0:
288,343,231110,1,0,0:0:0:0:
345,295,231249,1,2,0:0:0:0:
357,298,231318,1,0,0:0:0:0:
370,301,231388,1,0,0:0:0:0:
382,305,231457,1,0,0:0:0:0:
400,310,231527,5,0,3:0:0:0:
481,281,231666,2,0,P|486:255|476:221,1,53.9999983520508,0|0,3:0|0:0,0:0:0:0:
464,361,231943,1,0,3:0:0:0:
407,206,232082,1,10,0:0:0:0:
460,153,232221,1,0,0:0:0:0:
392,40,232360,6,0,P|342:61|289:61,2,107.999996704102,6|8|0,0:0|0:0|3:0,0:0:0:0:
464,72,233054,1,0,0:0:0:0:
336,184,233193,2,0,L|278:175,1,53.9999983520508,10|4,0:0|0:0,0:0:0:0:
228,130,233471,1,0,0:0:0:0:
164,162,233610,1,0,0:0:0:0:
32,68,233749,6,0,P|58:114|62:167,1,107.999996704102,4|0,0:0|0:0,0:0:0:0:
163,87,234166,1,0,3:0:0:0:
222,214,234304,2,0,P|220:241|209:268,1,53.9999983520508,10|0,0:0|0:0,0:0:0:0:
164,320,234582,1,0,0:0:0:0:
320,240,234721,6,0,P|321:206|298:160,1,80.9999975280763,0|0,3:0|0:0,0:0:0:0:
302,165,234999,2,0,P|341:193|405:195,1,107.999996704102,0|0,3:0|0:0,0:0:0:0:
512,276,235416,2,0,L|451:289,1,53.9999983520508,10|0,0:0|0:0,0:0:0:0:
388,300,235693,1,2,0:0:0:0:
374,304,235763,1,0,0:0:0:0:
361,312,235832,1,0,0:0:0:0:
351,321,235902,1,0,0:0:0:0:
342,332,235971,6,0,L|274:326,1,53.9999983520508,0|0,3:0|0:0,0:0:0:0:
204,212,236249,2,0,L|136:218,1,53.9999983520508,10|0,0:0|0:0,0:0:0:0:
340,88,236527,2,0,L|272:82,1,53.9999983520508,10|0,0:0|0:0,0:0:0:0:
48,24,236804,2,0,P|77:54|78:113,1,80.9999975280763,4|0,0:0|0:0,0:0:0:0:
41,160,237082,6,0,L|-4:155,5,35.9999989013672,8|8|8|8|8|8,0:0|0:0|0:0|0:0|0:0|0:0,0:0:0:0:
83,91,237638,5,8,3:0:0:0:
117,83,237730,5,8,3:0:0:0:
148,101,237823,5,8,3:0:0:0:
164,132,237916,5,0,3:0:0:0:
156,167,238008,5,0,3:0:0:0:
135,196,238101,5,0,3:0:0:0:
104,208,238193,5,4,0:0:0:0:
40,248,238471,1,2,0:0:0:0:
40,248,238610,1,2,0:0:0:0:
107,287,238888,1,2,0:0:0:0:
107,287,239027,1,2,0:0:0:0:
180,132,239443,6,0,P|204:125|232:126,1,45,2|0,0:0|0:0,0:0:0:0:
298,117,239860,2,0,P|297:135|291:157,1,31.4999990386963,2|0,0:0|0:0,0:0:0:0:
372,156,240138,2,0,P|374:137|379:116,1,31.4999990386963,2|0,0:0|0:0,0:0:0:0:
328,216,240416,5,2,0:0:0:0:
380,268,240693,1,2,0:0:0:0:
380,268,240832,1,2,0:0:0:0:
308,287,241110,1,2,0:0:0:0:
212,228,241249,6,0,L|103:244,1,99.0000030212403,4|0,0:0|0:0,0:0:0:0:
48,288,241666,1,0,3:0:0:0:
100,164,241804,5,8,0:0:0:0:
74,94,241943,1,0,3:0:0:0:
180,32,242082,6,0,L|235:43,1,49.5000015106202,12|8,0:0|0:0,0:0:0:0:
320,16,242360,1,0,3:0:0:0:
284,112,242499,1,0,3:0:0:0:
346,234,242638,6,0,P|298:204|243:205,1,99.0000030212403,4|0,0:0|0:0,0:0:0:0:
152,94,243054,2,0,P|151:150|179:197,1,99.0000030212403,4|0,0:0|0:0,0:0:0:0:
130,332,243471,2,0,P|180:305|207:257,1,99.0000030212403,4|0,0:0|0:0,0:0:0:0:
170,187,243888,1,2,0:0:0:0:
202,270,244027,2,0,P|219:309|255:335,1,80.9999975280763,0|8,3:0|0:0,0:0:0:0:
360,360,244443,1,8,0:0:0:0:
360,360,244582,1,0,0:0:0:0:
300,212,244860,6,0,P|341:236|363:268,1,80.9999975280763,2|0,0:0|0:0,0:0:0:0:
361,261,245277,2,0,P|357:225|375:184,1,80.9999975280763,2|0,0:0|0:0,0:0:0:0:
463,139,245693,2,0,B|409:127|402:86|402:86|380:120|321:103,1,161.999995056153,4|0,0:0|0:0,0:0:0:0:
267,137,246341,5,0,3:0:0:0:
267,137,246434,5,0,3:0:0:0:
267,137,246527,6,0,L|221:145,2,26.9999991760254,8|0|0,0:0|3:0|3:0,0:0:0:0:
168,125,246804,5,0,0:0:0:0:
146,162,246897,5,0,3:0:0:0:
162,202,246990,5,0,3:0:0:0:
199,234,247082,6,0,P|199:279|169:327,1,90,4|2,0:0|0:0,0:0:0:0:
268,304,247499,2,0,P|291:308|315:314,1,45,2|0,3:2|0:0,0:0:0:0:
372,360,247777,1,2,0:0:0:0:
376,238,247916,6,0,P|375:193|406:144,1,90,10|0,0:0|0:0,0:0:0:0:
322,108,248332,2,0,P|353:140|409:153,1,90,2|0,3:2|0:0,0:0:0:0:
296,196,248749,2,0,L|247:211,1,45,10|0,0:0|0:0,0:0:0:0:
312,313,249027,1,2,3:2:0:0:
241,294,249166,1,2,0:0:0:0:
77,362,249304,5,10,0:0:0:0:
139,326,249443,2,0,L|188:341,1,45,0|0,3:0|0:0,0:0:0:0:
312,313,249721,2,0,P|350:313|395:341,1,90,0|0,3:0|0:0,0:0:0:0:
176,250,250138,6,0,P|160:205|169:156,1,90,10|0,0:0|0:0,0:0:0:0:
168,84,250554,2,0,L|219:99,1,45,2|0,3:2|0:0,0:0:0:0:
165,163,250832,1,0,3:0:0:0:
109,275,250971,1,10,0:2:0:0:
138,343,251110,1,0,0:0:0:0:
205,314,251249,1,2,0:0:0:0:
176,250,251388,1,0,0:0:0:0:
336,332,251527,5,6,0:0:0:0:
355,258,251666,2,0,P|316:258|267:291,1,90,0|2,0:0|3:2,0:0:0:0:
176,250,252082,2,0,L|117:262,1,45,0|0,0:0|0:0,0:0:0:0:
256,376,252360,6,0,L|162:356,1,90,10|0,0:0|0:0,0:0:0:0:
72,367,252777,2,0,P|56:321|66:272,1,90,2|0,3:2|0:0,0:0:0:0:
121,139,253193,1,10,0:0:0:0:
179,181,253332,1,0,0:0:0:0:
137,239,253471,1,2,0:0:0:0:
78,199,253610,1,0,0:0:0:0:
192,104,253749,5,10,0:0:0:0:
256,69,253888,2,0,P|286:73|316:86,1,45,0|0,3:0|0:0,0:0:0:0:
363,35,254166,2,0,P|396:41|444:92,1,90,0|0,3:0|0:0,0:0:0:0:
344,176,254582,2,0,P|313:180|284:193,1,45,10|0,0:0|0:0,0:0:0:0:
335,250,254860,5,0,0:0:0:0:
236,298,254999,2,0,L|181:290,1,45,0|0,3:0|0:0,0:0:0:0:
131,327,255277,1,0,0:0:0:0:
91,163,255416,1,10,0:0:0:0:
152,123,255554,1,0,3:0:0:0:
199,179,255693,1,0,3:0:0:0:
138,220,255832,1,0,3:0:0:0:
88,88,255971,5,6,0:0:0:0:
17,89,256110,2,0,L|73:81,1,45,2|0,3:2|0:0,0:0:0:0:
232,28,256388,1,0,3:0:0:0:
161,27,256527,2,0,L|217:35,1,45,2|0,0:0|0:0,0:0:0:0:
336,100,256804,6,0,P|358:131|349:192,1,90,8|0,0:0|0:0,0:0:0:0:
264,216,257221,2,0,P|216:224|171:271,1,112.5,2|0,3:2|0:0,0:0:0:0:
171,283,257638,2,0,P|203:287|237:309,1,67.5,10|0,0:0|0:0,0:0:0:0:
232,304,257916,1,2,0:0:0:0:
384,296,258193,5,4,0:0:0:0:
385,367,258332,2,0,L|377:311,1,45,2|0,3:2|0:0,0:0:0:0:
324,152,258610,1,0,3:0:0:0:
323,223,258749,2,0,L|331:167,1,45,2|0,0:0|0:0,0:0:0:0:
405,46,259027,6,0,P|373:64|308:60,1,90,8|0,0:0|0:0,0:0:0:0:
253,122,259443,2,0,P|216:124|159:93,1,90,2|0,3:2|3:0,0:0:0:0:
28,208,259860,2,0,B|111:196|86:261|173:249,1,157.5,10|0,0:0|0:0,0:0:0:0:
173,248,260416,5,6,0:0:0:0:
172,177,260554,2,0,L|180:233,1,45,2|0,3:2|0:0,0:0:0:0:
72,132,260832,1,0,3:0:0:0:
73,61,260971,2,0,L|65:117,1,45,2|0,0:0|0:0,0:0:0:0:
216,88,261249,6,0,P|257:70|313:73,1,90,8|0,0:0|0:0,0:0:0:0:
383,36,261666,2,0,L|439:56,1,45,2|0,3:2|0:0,0:0:0:0:
383,114,261943,1,0,0:0:0:0:
459,207,262082,1,10,0:0:0:0:
389,187,262221,1,0,0:0:0:0:
371,258,262360,1,2,0:0:0:0:
442,277,262499,1,0,0:0:0:0:
276,204,262638,5,14,0:0:0:0:
204,194,262777,2,0,L|155:200,1,45,0|0,3:0|0:0,0:0:0:0:
55,250,263054,2,0,L|6:244,1,45,0|0,3:0|0:0,0:0:0:0:
128,269,263332,1,0,3:0:0:0:
224,340,263471,5,6,0:0:0:0:
298,317,263610,2,0,L|347:323,1,45,0|0,3:0|3:0,0:0:0:0:
240,267,263888,1,0,3:0:0:0:
221,199,264027,1,2,3:2:0:0:
245,133,264166,1,0,3:0:0:0:
134,25,264304,5,8,0:0:0:0:
100,86,264443,1,0,3:0:0:0:
100,156,264582,1,2,3:2:0:0:
133,217,264721,1,0,3:0:0:0:
298,317,264860,5,6,0:0:0:0:
256,192,264929,12,2,271619,0:0:0:0:
