osu file format v14

[General]
AudioFilename: audio.mp3
AudioLeadIn: 0
PreviewTime: 220352
Countdown: 0
SampleSet: Soft
StackLeniency: 0.7
Mode: 0
LetterboxInBreaks: 0
WidescreenStoryboard: 0

[Editor]
DistanceSpacing: 1.2
BeatDivisor: 8
GridSize: 4
TimelineZoom: 1.800001

[Metadata]
Title:Lazurite
TitleUnicode:ラズライト
Artist:*Luna feat. Yuaru
ArtistUnicode:*Luna feat. ゆある
Creator:xChippy
Version:Blue
Source:
Tags:Dream of Lazurite ラズライトの夢 Bibi Haluo basyauma records female vocalist japanese rock
BeatmapID:2366453
BeatmapSetID:1133005

[Difficulty]
HPDrainRate:7.2
CircleSize:4.4
OverallDifficulty:8.6
ApproachRate:9.3
SliderMultiplier:2.1
SliderTickRate:1

[Events]
//Background and Video events
0,0,"Ot2yRZG.jpg",0,0
//Break Periods
2,198393,204306
//Storyboard Layer 0 (Background)
//Storyboard Layer 1 (Fail)
//Storyboard Layer 2 (Pass)
//Storyboard Layer 3 (Foreground)
//Storyboard Layer 4 (Overlay)
//Storyboard Sound Samples

[TimingPoints]
416,555.555555555556,4,2,1,22,1,0
416,-333.333333333333,4,2,1,22,0,0
9304,-200,4,2,1,30,0,0
11527,-166.666666666667,4,2,1,40,0,0
13749,-142.857142857143,4,2,1,50,0,0
15971,-125,4,2,1,60,0,0
16527,-111.111111111111,4,2,1,60,0,0
17082,-111.111111111111,4,2,1,60,0,0
17638,-200,4,2,1,60,0,0
18124,-200,4,2,1,5,0,0
18193,-83.3333333333333,4,2,1,70,0,0
27082,-200,4,2,1,40,0,0
35416,-111.111111111111,4,2,1,50,0,0
35902,-111.111111111111,4,2,1,5,0,0
35971,-100,4,2,2,60,0,0
44860,-200,4,2,1,30,0,0
48471,-200,4,2,1,30,0,0
49304,-200,4,2,1,30,0,0
53749,-100,4,2,1,60,0,0
58193,-200,4,2,1,30,0,0
61249,-100,4,2,1,60,0,0
61990,-100,4,2,1,40,0,0
62267,-100,4,2,1,50,0,0
62638,-100,4,2,1,60,0,0
62846,-100,4,2,1,5,0,0
62916,-100,4,2,1,60,0,0
63124,-100,4,2,1,5,0,0
63193,-100,4,2,1,60,0,0
63402,-100,4,2,1,5,0,0
63471,-100,4,2,1,60,0,0
64860,-83.3333333333333,4,2,1,80,0,0
66041,-83.3333333333333,4,2,1,5,0,0
66110,-83.3333333333333,4,2,1,90,0,0
68124,-83.3333333333333,4,2,1,5,0,0
68193,-83.3333333333333,4,2,1,90,0,0
74929,-83.3333333333333,4,2,1,5,0,0
74999,-83.3333333333333,4,2,1,90,0,0
77013,-83.3333333333333,4,2,1,5,0,0
77082,-83.3333333333333,4,2,1,90,0,0
79374,-83.3333333333333,4,2,1,5,0,0
79443,-83.3333333333333,4,2,1,90,0,0
84860,-83.3333333333333,4,2,1,40,0,0
87082,-83.3333333333333,4,2,1,70,0,0
95971,-200,4,2,1,40,0,0
102360,-200,4,2,1,5,0,0
102499,-333.333333333333,4,2,1,40,0,0
104304,-111.111111111111,4,2,1,50,0,0
104860,-100,4,2,2,60,0,0
113749,-250,4,2,1,25,0,0
117777,-250,4,2,1,5,0,0
118193,-250,4,2,1,25,0,0
120207,-250,4,2,1,5,0,0
120277,-250,4,2,1,25,0,0
121249,-250,4,2,1,30,0,0
121527,-250,4,2,1,35,0,0
121804,-250,4,2,1,40,0,0
122082,-250,4,2,1,50,0,0
122638,-100,4,2,1,60,0,0
127082,-200,4,2,1,30,0,0
129304,-100,4,2,1,60,0,0
130878,-100,4,2,1,40,0,0
131156,-100,4,2,1,50,0,0
131527,-133.333333333333,4,2,1,60,0,0
132291,-133.333333333333,4,2,1,60,0,0
132360,-100,4,2,1,60,0,0
133749,-83.3333333333333,4,2,1,80,0,0
134929,-83.3333333333333,4,2,1,5,0,0
134999,-83.3333333333333,4,2,1,90,0,0
137013,-83.3333333333333,4,2,1,5,0,0
137082,-83.3333333333333,4,2,1,90,0,0
141457,-83.3333333333333,4,2,1,5,0,0
141527,-83.3333333333333,4,2,1,90,0,0
143818,-83.3333333333333,4,2,1,5,0,0
143888,-83.3333333333333,4,2,1,90,0,0
145902,-83.3333333333333,4,2,1,5,0,0
145971,-83.3333333333333,4,2,1,90,0,0
148263,-83.3333333333333,4,2,1,5,0,0
148332,-83.3333333333333,4,2,1,90,0,0
151527,-133.333333333333,4,2,1,60,0,0
155971,-90.9090909090909,4,2,1,70,0,0
156179,-90.9090909090909,4,2,1,5,0,0
156249,-90.9090909090909,4,2,1,70,0,0
158402,-90.9090909090909,4,2,1,5,0,0
158471,-90.9090909090909,4,2,1,70,0,0
160624,-90.9090909090909,4,2,1,5,0,0
160693,-90.9090909090909,4,2,1,70,0,0
162846,-90.9090909090909,4,2,1,5,0,0
162916,-90.9090909090909,4,2,1,70,0,0
165068,-90.9090909090909,4,2,1,5,0,0
165138,-90.9090909090909,4,2,1,70,0,0
167291,-90.9090909090909,4,2,1,5,0,0
167360,-90.9090909090909,4,2,1,70,0,0
169513,-90.9090909090909,4,2,1,5,0,0
169582,-90.9090909090909,4,2,1,70,0,0
171596,-90.9090909090909,4,2,1,5,0,0
171666,-90.9090909090909,4,2,1,70,0,0
171735,-90.9090909090909,4,2,1,5,0,0
171804,-90.9090909090909,4,2,1,70,0,0
171874,-90.9090909090909,4,2,1,5,0,0
171943,-90.9090909090909,4,2,1,70,0,0
172013,-90.9090909090909,4,2,1,5,0,0
172082,-90.9090909090909,4,2,1,70,0,0
172152,-90.9090909090909,4,2,1,5,0,0
172221,-90.9090909090909,4,2,1,70,0,0
172291,-90.9090909090909,4,2,1,5,0,0
172360,-90.9090909090909,4,2,1,70,0,0
173193,-100,4,2,1,50,0,0
173749,-83.3333333333333,4,2,1,50,0,0
174166,-142.857142857143,4,2,1,30,0,0
174652,-142.857142857143,4,2,1,5,0,0
174721,-142.857142857143,4,2,1,35,0,0
174999,-142.857142857143,4,2,1,5,0,0
175138,-76.9230769230769,4,2,1,90,0,0
175346,-76.9230769230769,4,2,1,5,0,0
175416,-76.9230769230769,4,2,1,90,0,0
175554,-100,4,2,1,90,0,0
175971,-90.9090909090909,4,2,1,70,0,0
176527,-83.3333333333333,4,2,1,80,0,0
177082,-76.9230769230769,4,2,1,80,0,0
182360,-76.9230769230769,4,2,1,50,0,0
182638,-142.857142857143,4,2,1,30,0,0
183054,-142.857142857143,4,2,1,5,0,0
183193,-58.8235294117647,4,2,1,90,0,0
183263,-71.4285714285714,4,2,1,80,0,0
184513,-71.4285714285714,4,2,1,5,0,0
184582,-142.857142857143,4,2,1,40,0,0
184791,-142.857142857143,4,2,1,5,0,0
184860,-71.4285714285714,4,2,1,90,0,0
187082,-142.857142857143,4,2,1,30,0,0
187638,-142.857142857143,4,2,1,5,0,0
187777,-142.857142857143,4,2,1,30,0,0
188193,-142.857142857143,4,2,1,5,0,0
188332,-200,4,2,1,30,0,0
188679,-200,4,2,1,5,0,0
188749,-142.857142857143,4,2,1,30,0,0
188888,-142.857142857143,4,2,1,5,0,0
189027,-142.857142857143,4,2,1,30,0,0
189166,-142.857142857143,4,2,1,5,0,0
189304,-142.857142857143,4,2,1,30,0,0
189860,-142.857142857143,4,2,1,5,0,0
189999,-142.857142857143,4,2,1,30,0,0
190138,-90.9090909090909,4,2,1,60,0,0
192777,-111.111111111111,4,2,1,60,0,0
193124,-111.111111111111,4,2,1,5,0,0
193193,-90.9090909090909,4,2,1,60,0,0
193749,-111.111111111111,4,2,1,40,0,0
194582,-90.9090909090909,4,2,1,80,0,0
195323,-90.9090909090909,4,2,1,40,0,0
195601,-90.9090909090909,4,2,1,50,0,0
195971,-100,4,2,1,60,0,0
196179,-100,4,2,1,5,0,0
196249,-100,4,2,1,60,0,0
196457,-100,4,2,1,5,0,0
196527,-100,4,2,1,60,0,0
196735,-100,4,2,1,5,0,0
196804,-200,4,2,1,40,0,0
204860,-90.9090909090909,4,2,1,60,0,0
207082,-125,4,2,1,40,0,0
207360,-166.666666666667,4,2,1,40,0,0
220416,-333.333333333333,4,2,1,30,0,0
220624,-333.333333333333,4,2,1,5,0,0
220693,-200,4,2,1,30,0,0
220902,-200,4,2,1,5,0,0
220971,-40,4,2,1,90,0,0
221249,-66.6666666666667,4,2,1,50,0,0
221388,-66.6666666666667,4,2,1,80,0,0
223471,-50,4,2,1,90,0,0
223679,-50,4,2,1,5,0,0
223749,-50,4,2,1,90,0,0
224443,-100,4,2,1,90,0,0
224791,-100,4,2,1,5,0,0
224860,-83.3333333333333,4,2,1,90,0,0
230485,-83.3333333333333,4,2,1,5,0,0
230554,-83.3333333333333,4,2,1,90,0,0
232568,-83.3333333333333,4,2,1,5,0,0
232638,-83.3333333333333,4,2,1,90,0,0
234929,-83.3333333333333,4,2,1,5,0,0
234999,-83.3333333333333,4,2,1,90,0,0
236179,-83.3333333333333,4,2,1,5,0,0
236249,-83.3333333333333,4,2,1,90,0,0
236804,-66.6666666666667,4,2,1,90,0,0
237082,-83.3333333333333,4,2,1,90,0,0
238193,-142.857142857143,4,2,1,30,0,0
238749,-142.857142857143,4,2,1,5,0,0
238888,-142.857142857143,4,2,1,30,0,0
239304,-142.857142857143,4,2,1,5,0,0
239443,-200,4,2,1,30,0,0
239791,-200,4,2,1,5,0,0
239860,-142.857142857143,4,2,1,30,0,0
239999,-142.857142857143,4,2,1,5,0,0
240138,-142.857142857143,4,2,1,30,0,0
240277,-142.857142857143,4,2,1,5,0,0
240416,-142.857142857143,4,2,1,30,0,0
240971,-142.857142857143,4,2,1,5,0,0
241110,-142.857142857143,4,2,1,30,0,0
241249,-90.9090909090909,4,2,1,60,0,0
243888,-111.111111111111,4,2,1,60,0,0
244235,-111.111111111111,4,2,1,5,0,0
244304,-111.111111111111,4,2,1,60,0,0
244860,-111.111111111111,4,2,1,40,0,0
247082,-100,4,2,1,60,0,0
257846,-100,4,2,1,5,0,0
257916,-100,4,2,1,60,0,0
258124,-100,4,2,1,5,0,0
258193,-100,4,2,1,60,0,0
262568,-100,4,2,1,5,0,0
262638,-100,4,2,1,60,0,0

[Colours]
Combo1 : 216,216,216
Combo2 : 0,128,255
Combo3 : 128,204,255

[HitObjects]
145,158,9304,6,0,L|137:122,1,26.25,10|0,0:0|0:0,0:0:0:0:
81,187,9582,1,0,0:0:0:0:
57,251,9721,1,0,0:0:0:0:
191,273,9860,1,0,1:0:0:0:
126,295,9999,2,0,L|134:331,1,26.25,0|0,0:0|1:0,0:0:0:0:
175,189,10277,2,0,L|164:138,1,52.5,8|0,0:0|0:0,0:0:0:0:
246,162,10693,2,0,L|241:141,4,13.125,0|0|0|0|0,0:0|0:0|0:0|0:0|1:0,0:0:0:0:
242,149,11249,5,0,0:0:0:0:
302,267,11388,1,8,0:0:0:0:
315,198,11527,5,2,0:0:0:0:
385,125,11666,1,8,0:0:0:0:
416,189,11804,5,0,0:0:0:0:
457,130,11943,2,0,L|492:113,1,31.4999990386963,0|0,0:0|1:0,0:0:0:0:
343,184,12221,2,0,L|308:201,1,31.4999990386963,0|0,0:0|1:0,0:0:0:0:
215,302,12499,6,0,L|219:239,1,62.9999980773926,8|0,0:0|0:0,0:0:0:0:
270,124,12916,2,0,L|257:160,1,31.4999990386963,0|0,1:0|0:0,0:0:0:0:
174,122,13193,5,8,0:0:0:0:
187,150,13332,1,0,0:0:0:0:
112,196,13471,5,0,0:0:0:0:
141,206,13610,1,8,0:0:0:0:
215,302,13749,5,2,1:2:0:0:
283,286,13888,1,0,0:0:0:0:
299,353,14027,1,0,0:0:0:0:
231,371,14166,1,0,0:0:0:0:
283,286,14304,2,0,P|309:279|333:281,1,36.749998878479,0|0,1:0|0:0,0:0:0:0:
384,312,14582,1,0,0:0:0:0:
361,218,14721,2,0,P|398:219|433:231,1,73.4999977569581,8|0,0:0|0:0,0:0:0:0:
485,282,15138,5,0,0:0:0:0:
483,319,15276,1,0,0:0:0:0:
318,278,15416,5,0,1:0:0:0:
314,338,15554,1,0,0:0:0:0:
161,263,15693,5,0,0:0:0:0:
154,355,15831,1,0,1:0:0:0:
86,290,15971,6,0,P|121:265|171:265,1,84,10|0,0:0|0:0,0:0:0:0:
209,204,16388,1,0,0:0:0:0:
204,46,16527,6,0,P|208:88|183:132,1,94.499997116089,2|0,0:0|0:0,0:0:0:0:
209,204,16943,1,0,0:0:0:0:
347,287,17082,6,0,P|307:269|282:225,1,94.499997116089,2|0,0:0|3:0,0:0:0:0:
310,158,17453,2,0,L|303:122,1,31.4999990386963,0|0,0:0|0:0,0:0:0:0:
289,52,17638,2,0,P|333:63|382:76,1,91.875,8|0,0:0|0:0,0:0:0:0:
197,184,18193,6,0,P|247:151|326:169,1,125.999996154785,4|0,0:0|0:0,0:0:0:0:
373,193,18610,1,0,3:0:0:0:
479,135,18749,1,10,0:0:0:0:
442,193,18888,1,0,0:0:0:0:
464,258,19027,1,8,0:0:0:0:
336,363,19166,6,0,P|368:351|407:346,1,62.9999980773926,4|0,0:0|0:0,0:0:0:0:
357,215,19443,2,0,P|325:227|286:232,1,62.9999980773926,0|0,3:0|0:0,0:0:0:0:
231,204,19721,1,0,0:0:0:0:
128,265,19860,1,10,0:0:0:0:
162,204,19999,1,0,0:0:0:0:
181,317,20138,1,2,0:0:0:0:
154,335,20207,1,0,0:0:0:0:
122,343,20277,1,0,0:0:0:0:
92,331,20346,1,0,0:0:0:0:
67,311,20416,5,4,0:0:0:0:
112,159,20554,2,0,P|40:157|-9:203,1,125.999996154785,0|0,3:0|3:0,0:0:0:0:
162,204,20971,1,10,0:0:0:0:
112,159,21110,1,0,0:0:0:0:
236,32,21249,2,0,P|249:66|245:116,1,62.9999980773926,4|0,0:0|0:0,0:0:0:0:
233,179,21527,5,8,3:0:0:0:
253,184,21619,5,8,3:0:0:0:
273,190,21712,5,8,3:0:0:0:
294,198,21804,5,0,3:0:0:0:
364,181,21943,1,0,0:0:0:0:
481,254,22082,1,10,0:0:0:0:
329,264,22221,2,0,L|399:274,1,62.9999980773926,4|0,0:0|0:0,0:0:0:0:
351,337,22499,1,0,0:0:0:0:
117,238,22638,6,0,P|168:202|239:205,1,125.999996154785,4|0,0:0|0:0,0:0:0:0:
168,295,23054,1,0,3:0:0:0:
28,356,23193,2,0,P|59:362|92:367,1,62.9999980773926,10|0,0:0|0:0,0:0:0:0:
158,379,23471,1,0,0:0:0:0:
54,248,23610,6,0,P|85:241|118:237,1,62.9999980773926,4|0,0:0|0:0,0:0:0:0:
229,201,23888,2,0,P|222:170|218:138,1,62.9999980773926,0|0,3:0|0:0,0:0:0:0:
168,89,24166,1,0,0:0:0:0:
291,158,24304,1,10,0:0:0:0:
229,201,24443,1,0,0:0:0:0:
361,149,24582,5,2,0:0:0:0:
358,130,24652,1,0,0:0:0:0:
356,110,24721,1,0,0:0:0:0:
354,90,24791,1,0,0:0:0:0:
351,70,24860,5,4,0:0:0:0:
426,175,24999,2,0,P|354:170|300:215,1,125.999996154785,0|0,3:0|3:0,0:0:0:0:
478,10,25416,1,10,0:0:0:0:
351,70,25554,1,2,0:0:0:0:
164,25,25693,5,6,0:0:0:0:
223,61,25832,1,0,0:0:0:0:
113,119,25971,5,8,3:2:0:0:
117,139,26064,5,0,3:0:0:0:
123,159,26156,5,0,3:0:0:0:
129,179,26249,5,0,3:0:0:0:
79,228,26388,1,0,3:0:0:0:
195,259,26527,5,10,0:0:0:0:
129,283,26666,1,0,0:0:0:0:
178,330,26804,1,2,0:0:0:0:
167,295,26943,1,2,0:0:0:0:
288,312,27082,6,0,P|333:316|345:317,1,52.5,4|0,0:0|0:0,0:0:0:0:
402,290,27499,1,0,0:0:0:0:
380,156,27638,1,2,1:2:0:0:
358,221,27777,2,0,L|322:213,1,26.25
460,200,28055,2,0,L|511:211,1,52.5,8|0,0:0|0:0,0:0:0:0:
449,120,28471,2,0,L|470:125,3,17.5,0|0|0|2,1:0|0:0|0:0|1:2,0:0:0:0:
438,117,29026,5,0,0:0:0:0:
389,238,29166,1,8,0:0:0:0:
376,169,29304,5,2,0:0:0:0:
299,92,29443,1,8,0:0:0:0:
269,162,29582,5,0,0:0:0:0:
222,101,29721,2,0,L|190:87,1,26.25,0|2,0:0|1:2,0:0:0:0:
299,92,29999,2,0,L|326:71,1,26.25
268,161,30277,2,0,L|275:216,1,52.5,8|0,0:0|0:0,0:0:0:0:
291,279,30693,5,0,0:0:0:0:
225,260,30832,1,0,0:0:0:0:
220,311,30971,5,2,1:2:0:0:
293,291,31110,1,0,0:0:0:0:
298,231,31249,5,0,0:0:0:0:
218,209,31388,1,8,0:0:0:0:
85,311,31526,5,6,3:2:0:0:
96,377,31665,1,0,0:0:0:0:
164,359,31804,1,0,0:0:0:0:
148,292,31943,1,0,0:0:0:0:
85,311,32082,2,0,L|54:307,1,26.25,2|0,1:2|0:0,0:0:0:0:
148,292,32359,1,0,1:0:0:0:
57,157,32499,2,0,L|109:150,1,52.5,8|0,0:0|0:0,0:0:0:0:
157,199,32916,5,0,0:0:0:0:
176,133,33055,1,0,0:0:0:0:
89,77,33194,5,10,0:0:0:0:
109,150,33333,1,0,0:0:0:0:
228,180,33471,5,8,0:0:0:0:
89,220,33611,1,8,0:0:0:0:
176,133,33749,5,0,3:0:0:0:
239,106,34027,1,0,3:0:0:0:
312,106,34304,1,0,3:0:0:0:
385,134,34582,1,0,3:0:0:0:
429,205,34860,1,0,3:0:0:0:
312,106,35045,5,0,3:0:0:0:
294,106,35138,5,0,3:0:0:0:
277,113,35230,5,0,3:0:0:0:
262,123,35323,5,0,3:0:0:0:
203,179,35416,6,0,B|175:160|179:104|179:104|161:156|125:161,1,165.374994953156,4|0,0:0|0:0,0:0:0:0:
351,147,35971,6,0,P|309:114|256:126,1,105,6|0,3:2|0:0,0:0:0:0:
203,179,36388,1,0,0:0:0:0:
225,6,36527,2,0,P|191:14|173:42,1,52.5,8|0,0:0|0:0,0:0:0:0:
351,147,36804,6,0,P|309:114|256:126,1,105,2|0,3:2|0:0,0:0:0:0:
203,179,37221,1,0,0:0:0:0:
38,111,37360,2,0,P|43:144|48:180,1,52.5,6|0,3:2|0:0,0:0:0:0:
184,305,37638,1,8,0:0:0:0:
195,230,37777,2,0,P|200:197|205:161,1,52.5,6|0,3:2|0:0,0:0:0:0:
195,237,38054,1,0,0:0:0:0:
320,346,38193,6,0,P|352:310|417:309,1,105,2|0,3:2|0:0,0:0:0:0:
474,332,38610,1,0,0:0:0:0:
449,186,38749,2,0,P|454:219|458:248,1,52.5,8|0,0:0|0:0,0:0:0:0:
281,277,39027,6,0,P|229:273|194:235,1,105,6|0,3:2|0:0,0:0:0:0:
54,297,39443,1,0,1:0:0:0:
65,224,39582,2,0,P|69:196|71:165,1,52.5,0|0,0:0|0:0,0:0:0:0:
70,171,39791,1,0,1:0:0:0:
70,171,39860,1,8,0:0:0:0:
35,112,39999,1,8,0:0:0:0:
95,80,40138,1,0,3:0:0:0:
131,137,40277,1,0,3:0:0:0:
88,316,40416,6,0,P|130:283|183:295,1,105,6|0,3:2|0:0,0:0:0:0:
235,343,40833,1,0,0:0:0:0:
198,181,40972,2,0,P|232:189|250:217,1,52.5,8|0,0:0|0:0,0:0:0:0:
88,316,41249,6,0,P|130:283|183:295,1,105,2|0,3:2|0:0,0:0:0:0:
243,201,41666,1,0,0:0:0:0:
286,350,41805,2,0,P|253:345|217:340,1,52.5,6|0,3:2|0:0,0:0:0:0:
114,220,42083,1,8,0:0:0:0:
191,208,42222,2,0,P|224:203|260:198,1,52.5,6|0,3:2|0:0,0:0:0:0:
185,209,42499,1,0,0:0:0:0:
48,64,42638,6,0,P|87:91|150:78,1,105,2|0,3:2|0:0,0:0:0:0:
217,97,43055,1,0,0:0:0:0:
328,4,43194,2,0,P|333:37|337:66,1,52.5,8|0,0:0|0:0,0:0:0:0:
484,135,43471,6,0,P|444:107|381:120,1,105,2|0,3:2|0:0,0:0:0:0:
271,199,43888,2,0,P|276:166|280:137,1,52.5,0|0,1:0|0:0,0:0:0:0:
278,147,44166,1,0,0:0:0:0:
256,275,44304,5,0,1:0:0:0:
278,147,44443,1,0,3:0:0:0:
317,224,44582,1,0,3:0:0:0:
225,203,44721,1,0,3:0:0:0:
443,43,44860,5,4,0:0:0:0:
440,28,45138,1,2,0:0:0:0:
314,50,45277,5,2,0:0:0:0:
317,35,45555,1,2,0:0:0:0:
186,28,45693,5,2,0:0:0:0:
195,38,46249,1,2,0:0:0:0:
195,52,46666,1,2,0:0:0:0:
129,297,47082,5,2,0:0:0:0:
132,312,47360,1,2,0:0:0:0:
258,290,47499,5,2,0:0:0:0:
255,305,47777,1,2,0:0:0:0:
386,312,47916,6,0,P|428:294|470:296,1,78.75,2|0,0:0|0:0,0:0:0:0:
460,293,48471,2,0,L|468:258,3,26.25,0|0|0|0,0:0|0:0|0:0|0:0,0:0:0:0:
413,213,49027,2,0,L|406:180,1,26.25,2|0,0:0|0:0,0:0:0:0:
304,71,49304,5,2,0:0:0:0:
289,74,49582,1,2,0:0:0:0:
169,123,49721,5,2,0:0:0:0:
154,120,49999,1,2,0:0:0:0:
23,75,50137,5,2,0:0:0:0:
30,89,50693,1,2,0:0:0:0:
31,109,51110,1,2,0:0:0:0:
21,280,51527,6,0,P|58:268|83:268,1,52.5,2|2,0:0|0:0,0:0:0:0:
141,278,51943,1,2,0:0:0:0:
64,340,52082,5,0,1:0:0:0:
127,150,52360,1,0,1:0:0:0:
264,304,52638,5,8,0:0:0:0:
64,340,52916,1,8,0:0:0:0:
141,278,53054,1,0,3:0:0:0:
264,304,53193,5,8,0:0:0:0:
211,251,53332,1,8,0:0:0:0:
189,180,53471,1,0,3:0:0:0:
218,112,53610,1,0,3:0:0:0:
196,344,53749,6,0,P|248:320|309:323,1,105,6|0,0:0|0:0,0:0:0:0:
380,184,54166,2,0,P|328:208|267:205,1,105,2|0,3:2|0:0,0:0:0:0:
130,104,54582,2,0,P|138:131|141:172,1,52.5,6|0,3:2|0:0,0:0:0:0:
108,221,54860,5,0,0:0:0:0:
194,334,54999,1,8,3:0:0:0:
259,299,55138,1,8,3:0:0:0:
195,261,55277,1,8,3:0:0:0:
186,346,55416,5,0,3:0:0:0:
254,329,55554,1,0,3:0:0:0:
242,254,55693,1,0,3:0:0:0:
170,269,55832,1,0,3:0:0:0:
348,206,55971,6,0,P|369:162|358:100,1,105,6|0,3:2|0:0,0:0:0:0:
203,87,56388,2,0,P|182:131|193:193,1,105,2|0,3:2|0:0,0:0:0:0:
334,287,56804,2,0,L|401:277,1,52.5,6|0,3:2|0:0,0:0:0:0:
464,192,57082,5,0,3:0:0:0:
439,188,57175,5,0,3:0:0:0:
414,184,57267,5,0,3:0:0:0:
389,178,57360,6,0,L|322:188,1,52.5,8|0,0:0|0:0,0:0:0:0:
256,240,57638,1,0,3:0:0:0:
437,302,57777,2,0,L|309:282,1,105,12|0,0:0|0:0,0:0:0:0:
256,240,58193,5,6,0:0:0:0:
252,224,58471,1,2,0:0:0:0:
263,139,58610,5,2,0:0:0:0:
268,123,58888,1,2,0:0:0:0:
256,32,59027,5,2,0:0:0:0:
256,32,59582,1,2,0:0:0:0:
256,32,59999,1,2,0:0:0:0:
256,32,60416,5,2,0:0:0:0:
251,48,60694,1,2,0:0:0:0:
240,133,60833,5,2,0:0:0:0:
244,149,61111,1,2,0:0:0:0:
336,368,61249,6,0,B|276:360|276:360|238:377|238:377|175:369,1,157.5,4|0,0:0|0:0,0:0:0:0:
114,333,61804,2,0,L|108:291,1,35,0|0,0:0|0:0,0:0:0:0:
43,274,61990,5,8,0:0:0:0:
71,290,62082,5,8,0:0:0:0:
109,298,62175,5,8,0:0:0:0:
149,297,62267,5,8,0:0:0:0:
197,281,62360,5,8,3:2:0:0:
197,281,62453,5,8,3:2:0:0:
197,281,62545,5,8,3:2:0:0:
197,281,62638,6,0,P|197:244|179:198,1,78.75,4|0,0:0|0:0,0:0:0:0:
167,132,62916,6,0,P|203:133|250:115,1,78.75,4|0,0:0|0:0,0:0:0:0:
322,87,63193,6,0,P|321:123|340:170,1,78.75,4|0,0:0|0:0,0:0:0:0:
380,252,63471,6,0,P|336:250|280:273,1,105,4|0,0:0|0:0,0:0:0:0:
259,191,63888,5,0,3:0:0:0:
408,151,64027,2,0,P|431:154|466:165,1,52.5,8|0,0:0|3:0,0:0:0:0:
247,21,64304,1,8,0:0:0:0:
394,84,64443,1,0,3:0:0:0:
259,191,64582,1,0,3:0:0:0:
0,72,64721,5,0,0:0:0:0:
0,72,64791,1,0,0:0:0:0:
0,72,64860,1,6,0:0:0:0:
71,48,64999,1,0,0:0:0:0:
145,61,65138,1,0,0:0:0:0:
198,114,65277,1,0,3:0:0:0:
288,276,65416,1,10,0:0:0:0:
288,276,65693,5,8,0:0:0:0:
128,250,65832,2,0,P|176:239|218:273,1,94.499997116089,4|0,0:0|0:0,0:0:0:0:
303,201,66110,2,0,P|330:212|356:246,1,62.9999980773926,0|0,3:0|0:0,0:0:0:0:
288,276,66388,1,0,0:0:0:0:
460,208,66527,2,0,P|462:176|450:147,1,62.9999980773926,10|0,0:0|0:0,0:0:0:0:
340,128,66804,5,2,0:0:0:0:
301,121,66874,1,0,0:0:0:0:
264,116,66943,1,0,0:0:0:0:
226,111,67013,1,0,0:0:0:0:
189,107,67082,5,2,3:2:0:0:
78,201,67221,1,0,3:0:0:0:
146,224,67360,1,0,0:0:0:0:
64,332,67499,1,0,3:0:0:0:
130,152,67638,1,10,0:0:0:0:
63,132,67777,1,0,0:0:0:0:
222,330,67916,2,0,B|260:325|260:325|282:330|282:330|320:321,1,94.499997116089,4|0,0:0|0:0,0:0:0:0:
393,363,68193,5,8,0:0:0:0:
402,313,68285,5,8,3:0:0:0:
379,268,68378,5,8,3:0:0:0:
339,236,68471,5,0,3:0:0:0:
387,223,68563,5,0,3:0:0:0:
428,193,68656,5,0,3:2:0:0:
438,143,68749,5,10,0:0:0:0:
265,51,68888,2,0,P|313:67|329:147,1,125.999996154785,4|0,0:0|0:0,0:0:0:0:
504,266,69304,6,0,B|444:245|412:278|412:278|394:231|324:236,1,188.999994232178,6|0,0:0|3:0,0:0:0:0:
441,113,69860,2,0,L|428:202,1,62.9999980773926,8|0,0:0|0:0,0:0:0:0:
365,138,70138,1,2,0:0:0:0:
247,4,70277,6,0,L|262:93,1,62.9999980773926,0|0,3:0|0:0,0:0:0:0:
365,138,70554,1,0,3:0:0:0:
298,174,70693,1,2,0:0:0:0:
361,214,70832,1,0,0:0:0:0:
132,78,70971,1,10,0:0:0:0:
197,117,71110,1,0,0:0:0:0:
131,154,71249,5,2,0:0:0:0:
116,188,71318,1,0,0:0:0:0:
116,226,71388,1,0,0:0:0:0:
130,260,71457,1,0,0:0:0:0:
156,286,71527,5,2,3:2:0:0:
288,240,71666,1,0,3:0:0:0:
348,289,71804,1,0,0:0:0:0:
221,215,71943,2,0,L|286:225,1,62.9999980773926,0|10,3:0|0:0,0:0:0:0:
361,214,72221,1,2,0:0:0:0:
240,48,72360,6,0,L|383:70,1,125.999996154785,4|0,0:0|3:0,0:0:0:0:
438,47,72777,1,0,0:0:0:0:
295,141,72916,5,10,0:0:0:0:
221,125,73054,1,0,0:0:0:0:
205,283,73193,5,10,0:0:0:0:
308,262,73332,1,0,3:0:0:0:
364,67,73471,5,2,3:2:0:0:
153,88,73610,1,0,3:0:0:0:
268,342,73749,5,6,0:0:0:0:
342,338,73888,1,0,0:0:0:0:
407,300,74027,1,0,0:0:0:0:
437,231,74166,1,0,3:0:0:0:
364,67,74305,1,10,0:0:0:0:
364,67,74582,5,8,0:0:0:0:
221,98,74721,2,0,P|260:121|304:110,1,94.499997116089,4|0,0:0|0:0,0:0:0:0:
412,129,74999,1,0,3:0:0:0:
351,170,75138,1,0,0:0:0:0:
304,110,75277,1,0,0:0:0:0:
336,281,75416,1,10,0:0:0:0:
398,237,75554,1,0,0:0:0:0:
280,222,75693,5,2,0:0:0:0:
242,230,75763,1,0,0:0:0:0:
205,238,75832,1,0,0:0:0:0:
168,247,75902,1,0,0:0:0:0:
132,257,75971,5,2,3:2:0:0:
17,165,76110,1,0,3:0:0:0:
77,115,76249,1,0,0:0:0:0:
7,23,76388,1,0,3:0:0:0:
86,191,76527,1,10,0:0:0:0:
28,241,76666,1,0,0:0:0:0:
216,70,76805,2,0,B|256:61|256:61|275:66|275:66|309:60,1,94.499997116089,6|0,0:0|0:0,0:0:0:0:
364,0,77082,5,8,0:0:0:0:
387,40,77175,5,8,3:0:0:0:
388,90,77267,5,8,3:0:0:0:
357,129,77360,5,0,3:0:0:0:
406,118,77452,5,0,3:0:0:0:
455,131,77545,5,0,3:2:0:0:
497,159,77638,5,10,0:0:0:0:
352,231,77777,1,4,0:0:0:0:
462,320,77916,1,0,0:0:0:0:
433,251,78054,1,0,0:0:0:0:
506,64,78193,6,0,P|446:92|372:84,1,125.999996154785,4|0,0:0|0:0,0:0:0:0:
284,144,78610,1,0,3:0:0:0:
181,23,78749,2,0,P|177:54|173:86,1,62.9999980773926,8|0,0:0|0:0,0:0:0:0:
212,150,79027,1,2,0:0:0:0:
53,110,79166,6,0,P|61:156|71:213,1,94.499997116089,0|0,3:0|0:0,0:0:0:0:
86,204,79443,2,0,P|115:186|159:188,1,62.9999980773926,0|0,3:0|0:0,0:0:0:0:
212,150,79721,1,0,0:0:0:0:
147,305,79860,1,10,0:0:0:0:
80,277,79999,1,0,0:0:0:0:
191,243,80138,5,2,0:0:0:0:
226,248,80207,1,0,0:0:0:0:
264,253,80277,1,0,0:0:0:0:
301,259,80346,1,0,0:0:0:0:
339,263,80416,5,0,3:0:0:0:
418,215,80554,2,0,L|488:227,1,62.9999980773926,0|0,3:0|0:0,0:0:0:0:
436,292,80832,1,0,3:0:0:0:
481,153,80971,1,8,0:0:0:0:
453,82,81110,1,0,0:0:0:0:
436,292,81249,1,6,0:0:0:0:
480,225,81388,1,0,0:0:0:0:
252,248,81527,6,0,P|241:215|230:183,1,62.9999980773926,10|0,0:0|3:0,0:0:0:0:
264,84,81804,1,0,3:0:0:0:
304,152,81943,1,0,3:0:0:0:
127,329,82082,6,0,L|148:264,1,62.9999980773926,14|0,0:0|0:0,0:0:0:0:
146,268,82360,1,0,0:0:0:0:
99,193,82499,1,2,0:0:0:0:
99,193,82568,1,0,0:0:0:0:
99,193,82638,5,4,0:0:0:0:
256,192,82707,12,2,84860,0:0:0:0:
45,65,85416,5,8,0:0:0:0:
112,67,85693,1,8,0:0:0:0:
184,94,85971,1,8,0:0:0:0:
239,159,86249,5,8,0:0:0:0:
45,65,86388,1,8,0:0:0:0:
290,215,87082,6,0,P|240:182|161:200,1,125.999996154785,4|0,0:0|0:0,0:0:0:0:
109,209,87499,1,0,3:0:0:0:
109,78,87638,2,0,P|117:108|122:139,1,62.9999980773926,10|0,0:0|0:0,0:0:0:0:
176,189,87916,1,8,0:0:0:0:
88,357,88055,6,0,P|120:345|159:340,1,62.9999980773926,4|0,0:0|0:0,0:0:0:0:
109,209,88332,2,0,P|77:221|38:226,1,62.9999980773926,0|0,3:0|0:0,0:0:0:0:
176,189,88610,1,0,0:0:0:0:
259,285,88749,1,10,0:0:0:0:
243,217,88888,1,0,0:0:0:0:
224,354,89027,1,2,0:0:0:0:
240,360,89096,1,0,0:0:0:0:
258,365,89166,1,0,0:0:0:0:
276,362,89235,1,0,0:0:0:0:
293,356,89305,5,4,0:0:0:0:
371,255,89443,2,0,P|299:253|250:299,1,125.999996154785,0|0,3:0|3:0,0:0:0:0:
390,370,89860,1,10,0:0:0:0:
329,325,89999,1,0,0:0:0:0:
433,208,90138,2,0,P|446:242|442:292,1,62.9999980773926,4|0,0:0|0:0,0:0:0:0:
258,284,90416,5,8,3:0:0:0:
238,279,90508,5,8,3:0:0:0:
218,273,90601,5,8,3:0:0:0:
195,267,90693,5,0,3:0:0:0:
125,285,90832,1,0,0:0:0:0:
5,242,90971,1,10,0:0:0:0:
145,207,91110,2,0,L|70:222,1,62.9999980773926,4|0,0:0|0:0,0:0:0:0:
125,285,91388,1,0,0:0:0:0:
297,185,91527,6,0,P|320:127|301:58,1,125.999996154785,4|0,0:0|0:0,0:0:0:0:
229,149,91943,1,0,3:0:0:0:
125,285,92082,2,0,P|112:256|99:225,1,62.9999980773926,10|0,0:0|0:0,0:0:0:0:
72,163,92360,1,0,0:0:0:0:
210,280,92499,6,0,P|222:251|235:220,1,62.9999980773926,4|0,0:0|0:0,0:0:0:0:
86,352,92777,2,0,P|62:331|37:308,1,62.9999980773926,0|0,3:0|0:0,0:0:0:0:
1,251,93055,1,0,0:0:0:0:
210,280,93193,1,10,0:0:0:0:
149,315,93332,1,0,0:0:0:0:
280,295,93471,5,2,0:0:0:0:
283,276,93541,1,0,0:0:0:0:
285,256,93610,1,0,0:0:0:0:
287,236,93680,1,0,0:0:0:0:
290,216,93749,5,4,0:0:0:0:
326,377,93888,2,0,P|254:382|200:337,1,125.999996154785,0|0,3:0|3:0,0:0:0:0:
228,156,94305,1,10,0:0:0:0:
285,256,94443,1,0,0:0:0:0:
128,370,94582,2,0,P|121:335|114:289,1,62.9999980773926,6|0,0:0|0:0,0:0:0:0:
20,200,94860,5,2,0:0:0:0:
98,174,94999,1,2,0:0:0:0:
166,249,95138,5,2,0:0:0:0:
238,274,95277,1,0,0:0:0:0:
301,211,95416,5,2,0:0:0:0:
368,192,95555,1,0,0:0:0:0:
415,255,95693,5,2,0:0:0:0:
465,272,95832,1,0,0:0:0:0:
512,160,95971,5,6,0:0:0:0:
512,160,96249,1,0,0:0:0:0:
438,130,96388,1,0,0:0:0:0:
304,163,96527,1,2,1:2:0:0:
368,192,96666,2,0,L|373:166,1,26.25
364,27,96944,2,0,L|353:78,1,52.5,8|0,0:0|0:0,0:0:0:0:
289,33,97360,2,0,L|287:46,4,13.125,0|0|0|0|2,1:0|0:0|0:0|0:0|1:2,0:0:0:0:
103,46,97915,5,0,0:0:0:0:
224,95,98054,1,8,0:0:0:0:
155,108,98193,5,2,0:0:0:0:
78,185,98332,1,8,0:0:0:0:
148,215,98470,5,0,0:0:0:0:
87,262,98610,2,0,L|73:294,1,26.25,0|2,0:0|1:2,0:0:0:0:
78,185,98888,2,0,L|57:158,1,26.25
148,215,99166,2,0,L|203:208,1,52.5,8|0,0:0|0:0,0:0:0:0:
265,225,99582,5,0,0:0:0:0:
246,159,99721,1,0,0:0:0:0:
297,154,99860,5,2,1:2:0:0:
277,227,99999,1,0,0:0:0:0:
217,232,100138,5,0,0:0:0:0:
194,121,100277,1,8,0:0:0:0:
347,250,100416,5,6,3:2:0:0:
410,227,100555,1,0,0:0:0:0:
447,170,100694,1,0,0:0:0:0:
459,103,100833,1,0,0:0:0:0:
482,234,100971,2,0,L|508:230,2,26.25,2|0|0,1:2|0:0|0:0,0:0:0:0:
309,129,101388,5,8,0:0:0:0:
309,129,101804,6,0,B|278:126|263:101|263:101|247:125|210:124,1,105
256,231,102499,6,0,B|279:214|279:214|259:185|259:185|231:205|231:205|243:217,1,110.249996635437,4|0,0:0|0:0,0:0:0:0:
176,263,103749,5,8,3:2:0:0:
256,231,103934,5,8,3:2:0:0:
352,279,104119,5,8,3:2:0:0:
97,281,104304,6,0,B|133:286|151:338|151:338|147:282|175:263,1,165.374994953156,4|0,0:0|0:0,0:0:0:0:
144,201,104860,6,0,P|186:234|239:222,1,105,6|0,3:2|0:0,0:0:0:0:
297,198,105277,1,0,0:0:0:0:
225,366,105416,2,0,P|244:349|270:345,1,52.5,8|0,0:0|0:0,0:0:0:0:
144,201,105693,2,0,P|186:234|239:222,1,105,2|0,3:2|0:0,0:0:0:0:
297,198,106110,1,0,0:0:0:0:
153,77,106249,6,0,P|158:110|163:146,1,52.5,6|0,3:2|0:0,0:0:0:0:
290,269,106527,1,8,0:0:0:0:
297,198,106666,2,0,P|302:165|307:129,1,52.5,6|0,3:2|0:0,0:0:0:0:
290,269,106943,1,0,0:0:0:0:
372,328,107082,6,0,P|409:315|434:313,1,52.5,2|0,3:2|0:0,0:0:0:0:
410,235,107360,2,0,P|449:238|472:247,1,52.5,0|0,0:0|0:0,0:0:0:0:
304,146,107638,1,8,0:0:0:0:
367,121,107777,1,0,0:0:0:0:
200,72,107916,6,0,P|148:76|113:114,1,105,6|0,3:2|0:0,0:0:0:0:
28,20,108332,1,0,1:0:0:0:
39,93,108471,2,0,P|43:121|45:152,1,52.5,0|0,0:0|0:0,0:0:0:0:
44,146,108679,5,0,1:0:0:0:
44,146,108749,1,8,0:0:0:0:
8,211,108888,1,8,0:0:0:0:
70,249,109027,1,0,3:0:0:0:
112,190,109166,1,0,3:0:0:0:
19,343,109304,6,0,P|68:321|128:327,1,105,6|0,3:2|0:0,0:0:0:0:
166,372,109721,1,0,0:0:0:0:
190,234,109860,2,0,L|203:161,1,52.5,8|0,0:0|0:0,0:0:0:0:
19,343,110138,6,0,P|68:321|128:327,1,105,2|0,3:2|0:0,0:0:0:0:
166,372,110554,1,0,0:0:0:0:
190,234,110693,2,0,L|203:161,1,52.5,6|0,3:2|0:0,0:0:0:0:
59,75,110971,1,8,0:0:0:0:
66,146,111110,2,0,P|71:179|76:215,1,52.5,6|0,3:2|0:0,0:0:0:0:
59,75,111387,1,0,0:0:0:0:
182,182,111527,6,0,P|232:185|287:150,1,105,2|0,3:2|0:0,0:0:0:0:
345,173,111943,1,0,0:0:0:0:
274,43,112082,2,0,L|342:52,1,52.5,8|0,0:0|0:0,0:0:0:0:
219,108,112360,1,2,3:2:0:0:
170,59,112499,1,0,0:0:0:0:
103,41,112638,5,0,0:0:0:0:
35,54,112777,2,0,L|25:-4,1,52.5,0|0,1:0|0:0,0:0:0:0:
83,114,113055,1,0,0:0:0:0:
61,242,113193,1,0,1:0:0:0:
83,114,113332,5,0,3:0:0:0:
118,191,113471,1,0,3:0:0:0:
34,171,113610,1,0,3:0:0:0:
172,113,113749,6,0,P|205:118|237:137,1,63,4|2,0:0|0:0,0:0:0:0:
118,191,114582,2,0,P|162:184|222:233,1,126,2|0,0:0|0:0,0:0:0:0:
282,196,115693,6,0,L|330:188,1,42,2|0,0:0|0:0,0:0:0:0:
379,230,116249,1,2,0:0:0:0:
335,284,116527,1,2,0:0:0:0:
379,230,116804,2,0,P|406:235|433:260,1,63,2|0,0:0|0:0,0:0:0:0:
431,258,117360,2,0,P|440:228|463:207,1,63,2|0,0:0|0:0,0:0:0:0:
398,136,118193,6,0,L|405:163,1,21,2|2,0:0|0:0,0:0:0:0:
405,170,118471,2,0,L|415:128,1,42,2|2,0:0|0:0,0:0:0:0:
367,78,119027,2,0,L|300:95,1,63,2|0,0:0|0:0,0:0:0:0:
288,93,119582,1,2,0:0:0:0:
225,54,119860,2,0,B|205:74|205:74|191:47,1,52.5,2|0,0:0|0:0,0:0:0:0:
211,40,120277,6,0,P|254:16|314:22,1,105,2|0,0:0|1:0,0:0:0:0:
308,19,121249,1,0,1:0:0:0:
383,67,121527,1,8,0:0:0:0:
494,35,121805,1,8,0:0:0:0:
452,93,121943,1,8,3:0:0:0:
497,219,122082,5,8,0:0:0:0:
456,163,122221,1,8,0:0:0:0:
452,93,122360,1,0,3:0:0:0:
494,35,122499,1,0,3:0:0:0:
380,145,122638,6,0,P|327:153|278:123,1,105,6|0,0:0|0:0,0:0:0:0:
339,306,123054,2,0,P|293:329|242:321,1,105,2|0,3:2|0:0,0:0:0:0:
84,190,123471,2,0,L|93:252,1,52.5,6|0,3:2|0:0,0:0:0:0:
58,302,123749,5,0,0:0:0:0:
194,241,123888,1,8,3:0:0:0:
259,276,124027,1,8,3:0:0:0:
195,314,124166,1,8,3:0:0:0:
186,229,124305,5,0,3:0:0:0:
254,246,124443,1,0,3:0:0:0:
242,321,124582,1,0,3:0:0:0:
170,306,124721,1,0,3:0:0:0:
115,129,124860,6,0,P|160:105|211:113,1,105,6|0,3:2|0:0,0:0:0:0:
73,290,125276,2,0,P|123:281|169:305,1,105,2|0,3:2|0:0,0:0:0:0:
370,244,125693,2,0,L|361:182,1,52.5,6|0,3:2|0:0,0:0:0:0:
358,67,125971,5,0,3:0:0:0:
361,91,126064,5,0,3:0:0:0:
365,115,126156,5,0,3:0:0:0:
369,139,126249,6,0,L|361:191,1,52.5,8|0,0:0|0:0,0:0:0:0:
256,240,126527,1,0,3:0:0:0:
352,35,126666,6,0,L|372:161,1,105,12|0,0:0|0:0,0:0:0:0:
373,228,127082,5,6,0:0:0:0:
357,224,127360,1,2,0:0:0:0:
272,235,127499,5,2,0:0:0:0:
256,240,127777,1,2,0:0:0:0:
165,228,127916,5,2,0:0:0:0:
143,226,128471,2,0,L|112:233,3,17.5,2|0|0|0,0:0|0:0|0:0|0:0,0:0:0:0:
50,217,128888,1,2,0:0:0:0:
256,48,129305,5,6,3:2:0:0:
297,108,129443,1,0,3:0:0:0:
244,160,129582,1,0,3:0:0:0:
183,112,129721,5,0,3:0:0:0:
315,182,129860,1,0,3:0:0:0:
247,314,129999,1,0,3:0:0:0:
113,248,130138,6,0,B|173:240|173:240|211:257|211:257|274:249,1,157.5,4|0,0:0|0:0,0:0:0:0:
350,187,130693,2,0,L|308:181,1,35,0|0,0:0|0:0,0:0:0:0:
294,117,130878,5,8,0:0:0:0:
308,144,130970,5,8,0:0:0:0:
315,182,131063,5,8,0:0:0:0:
313,223,131155,5,8,0:0:0:0:
295,270,131248,5,8,3:2:0:0:
295,270,131341,5,8,3:2:0:0:
295,270,131433,5,8,3:2:0:0:
295,270,131527,6,0,L|254:282,1,39.3750015020371,2|0,0:0|0:0,0:0:0:0:
402,322,131804,2,0,L|361:334,1,39.3750015020371,2|0,0:0|0:0,0:0:0:0:
446,213,132082,2,0,L|405:225,1,39.3750015020371,2|0,0:0|3:0,0:0:0:0:
404,231,132291,5,0,3:0:0:0:
404,231,132360,2,0,P|386:186|402:131,1,105,12|0,0:0|3:0,0:0:0:0:
312,20,132777,1,12,0:0:0:0:
272,80,132916,2,0,P|258:105|254:146,1,52.5,0|0,3:0|3:0,0:0:0:0:
192,288,133193,1,12,0:0:0:0:
160,164,133332,1,0,0:0:0:0:
152,356,133471,1,0,3:0:0:0:
404,231,133610,5,0,0:0:0:0:
404,231,133680,1,0,0:0:0:0:
404,231,133749,1,6,0:0:0:0:
340,272,133888,1,0,0:0:0:0:
268,296,134027,1,0,0:0:0:0:
192,288,134166,1,0,3:0:0:0:
88,124,134305,1,10,0:0:0:0:
88,124,134582,5,8,0:0:0:0:
235,61,134721,2,0,P|185:55|143:89,1,94.499997116089,4|0,0:0|0:0,0:0:0:0:
88,124,134999,1,0,3:0:0:0:
84,49,135138,1,0,0:0:0:0:
157,153,135277,1,0,0:0:0:0:
0,245,135416,2,0,L|73:228,1,62.9999980773926,10|0,0:0|0:0,0:0:0:0:
134,249,135693,5,2,0:0:0:0:
172,257,135763,1,0,0:0:0:0:
209,265,135832,1,0,0:0:0:0:
246,274,135902,1,0,0:0:0:0:
282,284,135971,5,2,3:2:0:0:
418,229,136110,1,0,3:0:0:0:
358,279,136249,1,0,0:0:0:0:
420,363,136388,1,0,3:0:0:0:
346,205,136527,2,0,P|343:169|361:130,1,62.9999980773926,10|0,0:0|0:0,0:0:0:0:
181,322,136805,2,0,B|174:284|174:284|179:261|179:261|167:206,1,94.499997116089,6|0,0:0|0:0,0:0:0:0:
133,157,137082,5,8,0:0:0:0:
183,148,137175,5,8,3:0:0:0:
228,171,137267,5,8,3:0:0:0:
260,211,137360,5,0,3:0:0:0:
280,166,137453,5,0,3:0:0:0:
323,139,137545,5,0,3:2:0:0:
373,133,137638,5,10,0:0:0:0:
512,80,137777,2,0,P|461:113|449:174,1,125.999996154785,4|0,0:0|0:0,0:0:0:0:
359,310,138193,6,0,B|300:289|268:322|268:322|250:275|195:279,1,188.999994232178,4|0,0:0|3:0,0:0:0:0:
8,218,138749,2,0,L|21:129,1,62.9999980773926,8|0,0:0|0:0,0:0:0:0:
84,193,139027,1,2,0:0:0:0:
195,278,139166,6,0,L|180:189,1,62.9999980773926,0|0,3:0|0:0,0:0:0:0:
360,164,139443,1,0,3:0:0:0:
293,200,139582,1,2,0:0:0:0:
356,240,139721,1,0,0:0:0:0:
127,104,139860,1,10,0:0:0:0:
192,143,139999,1,0,0:0:0:0:
121,180,140138,5,2,0:0:0:0:
97,208,140207,1,0,0:0:0:0:
87,245,140277,1,0,0:0:0:0:
92,282,140346,1,0,0:0:0:0:
110,313,140416,5,0,3:0:0:0:
241,203,140555,1,0,3:0:0:0:
192,143,140693,1,0,0:0:0:0:
250,265,140832,2,0,L|240:200,1,62.9999980773926,0|10,3:0|0:0,0:0:0:0:
271,133,141110,1,0,0:0:0:0:
403,328,141249,6,0,P|342:298|295:309,1,94.499997116089,4|0,0:0|0:0,0:0:0:0:
250,265,141527,2,0,P|228:290|224:328,1,62.9999980773926,0|0,3:0|0:0,0:0:0:0:
82,197,141805,5,10,0:0:0:0:
54,286,141943,1,0,0:0:0:0:
196,149,142082,5,10,0:0:0:0:
250,265,142221,1,0,3:0:0:0:
323,68,142360,5,2,3:2:0:0:
454,168,142499,1,0,3:0:0:0:
274,4,142638,5,4,0:0:0:0:
201,16,142777,1,0,0:0:0:0:
141,61,142916,1,0,0:0:0:0:
120,134,143055,1,0,3:0:0:0:
144,316,143194,1,10,0:0:0:0:
144,316,143471,5,8,0:0:0:0:
349,276,143610,2,0,P|310:271|261:293,1,94.499997116089,4|0,0:0|0:0,0:0:0:0:
215,357,143888,1,0,3:0:0:0:
176,239,144027,1,0,0:0:0:0:
144,316,144166,1,0,0:0:0:0:
28,137,144305,1,10,0:0:0:0:
61,204,144443,1,0,0:0:0:0:
102,140,144582,5,2,0:0:0:0:
140,132,144652,1,0,0:0:0:0:
177,124,144721,1,0,0:0:0:0:
214,115,144791,1,0,0:0:0:0:
250,105,144860,5,0,3:0:0:0:
365,197,144999,1,0,3:0:0:0:
305,247,145138,1,0,0:0:0:0:
375,339,145277,1,0,3:0:0:0:
296,171,145416,1,10,0:0:0:0:
354,121,145555,1,0,0:0:0:0:
476,283,145694,2,0,B|433:277|433:277|416:282|416:282|374:277,1,94.499997116089,6|0,0:0|0:0,0:0:0:0:
323,339,145971,5,8,0:0:0:0:
302,297,146064,5,8,3:0:0:0:
305,247,146156,5,8,3:0:0:0:
338,210,146249,5,0,3:0:0:0:
293,233,146341,5,0,3:0:0:0:
243,242,146434,5,0,3:2:0:0:
193,233,146527,5,10,0:0:0:0:
33,185,146666,1,4,0:0:0:0:
101,158,146804,1,0,0:0:0:0:
91,230,146943,1,0,0:0:0:0:
0,16,147082,6,0,P|60:44|134:36,1,125.999996154785,4|0,0:0|0:0,0:0:0:0:
211,92,147499,1,0,3:0:0:0:
327,3,147638,2,0,P|331:34|335:66,1,62.9999980773926,10|0,0:0|0:0,0:0:0:0:
283,116,147916,1,2,0:0:0:0:
458,73,148055,6,0,P|450:119|440:176,1,94.499997116089,0|0,3:0|0:0,0:0:0:0:
438,189,148332,2,0,P|405:172|362:171,1,62.9999980773926,0|0,3:0|0:0,0:0:0:0:
306,190,148610,1,0,0:0:0:0:
172,137,148749,1,10,0:0:0:0:
118,190,148888,1,0,0:0:0:0:
184,228,149027,5,2,0:0:0:0:
220,225,149096,1,0,0:0:0:0:
258,222,149166,1,0,0:0:0:0:
295,219,149235,1,0,0:0:0:0:
333,215,149305,5,0,3:0:0:0:
255,310,149443,2,0,L|247:378,1,62.9999980773926,0|0,3:0|0:0,0:0:0:0:
179,332,149721,1,0,3:0:0:0:
330,349,149860,1,10,0:0:0:0:
394,307,149999,1,0,0:0:0:0:
179,332,150138,1,4,0:0:0:0:
248,372,150277,1,0,0:0:0:0:
268,188,150416,6,0,L|260:120,1,62.9999980773926,10|0,0:0|3:0,0:0:0:0:
204,236,150693,1,8,3:0:0:0:
336,152,150832,1,0,3:0:0:0:
124,20,150971,6,0,L|116:88,1,62.9999980773926,14|0,0:0|0:0,0:0:0:0:
48,44,151249,1,0,0:0:0:0:
197,168,151388,1,0,0:0:0:0:
197,168,151457,1,0,0:0:0:0:
197,168,151527,6,0,B|311:122|349:193|287:251|207:222|249:119|299:83|378:108,1,315.000012016297,4|0,0:0|0:0,0:0:0:0:
488,376,152916,6,0,P|449:374|419:349,1,78.7500030040742,4|0,0:0|0:0,0:0:0:0:
373,278,153471,1,0,3:0:0:0:
377,239,153541,1,0,3:0:0:0:
407,263,153610,1,0,3:0:0:0:
390,264,153679,1,0,3:0:0:0:
390,264,153749,5,12,3:2:0:0:
249,313,153934,5,8,0:0:0:0:
87,225,154119,5,8,0:0:0:0:
267,262,154304,5,8,0:0:0:0:
441,154,154490,5,8,0:0:0:0:
243,194,154675,5,8,0:0:0:0:
56,104,154860,5,8,0:0:0:0:
50,100,155416,1,0,0:0:0:0:
50,100,155971,6,0,P|102:94|159:84,1,86.6250026435853,6|0,0:0|0:0,0:0:0:0:
163,78,156249,1,2,3:2:0:0:
254,93,156388,2,0,P|252:57|239:29,1,57.7500017623902,2|8,0:0|0:0,0:0:0:0:
402,9,156666,2,0,P|402:37|411:64,1,57.7500017623902,2|0,0:0|0:0,0:0:0:0:
341,199,156943,6,0,P|379:169|452:164,1,115.50000352478,2|0,3:2|3:0,0:0:0:0:
506,195,157360,1,2,0:0:0:0:
385,269,157499,2,0,L|325:279,1,57.7500017623902,2|8,0:0|0:0,0:0:0:0:
208,175,157777,2,0,L|264:184,1,57.7500017623902,2|0,0:0|3:0,0:0:0:0:
341,199,158054,1,0,0:0:0:0:
120,234,158193,6,0,P|118:191|108:127,1,86.6250026435853,4|0,0:0|0:0,0:0:0:0:
106,119,158471,1,2,3:2:0:0:
223,50,158610,2,0,P|257:59|279:74,1,57.7500017623902,2|8,3:2|0:0,0:0:0:0:
418,129,158888,2,0,P|384:138|362:153,1,57.7500017623902,2|0,3:2|0:0,0:0:0:0:
208,265,159166,6,0,P|242:274|264:289,1,57.7500017623902,14|0,0:0|0:0,0:0:0:0:
368,235,159443,2,0,P|392:220|420:213,1,57.7500017623902,2|0,0:0|3:0,0:0:0:0:
480,249,159721,1,2,0:0:0:0:
305,193,159860,1,8,0:0:0:0:
208,265,159999,5,10,0:0:0:0:
145,233,160138,1,2,3:2:0:0:
202,193,160277,1,0,3:0:0:0:
49,46,160416,6,0,P|55:98|61:157,1,86.6250026435853,6|0,3:2|0:0,0:0:0:0:
63,160,160694,1,2,3:2:0:0:
5,271,160833,2,0,P|41:269|69:256,1,57.7500017623902,2|8,3:2|0:0,0:0:0:0:
144,355,161110,2,0,P|115:355|88:364,1,57.7500017623902,2|0,0:0|0:0,0:0:0:0:
256,384,161388,6,0,P|239:338|257:266,1,115.50000352478,2|0,3:2|3:0,0:0:0:0:
320,184,161805,1,2,0:0:0:0:
249,200,161944,2,0,L|189:210,1,57.7500017623902,2|8,0:0|0:0,0:0:0:0:
154,104,162222,2,0,L|210:113,1,57.7500017623902,2|0,0:0|3:0,0:0:0:0:
84,88,162499,1,0,0:0:0:0:
296,99,162638,6,0,L|206:114,1,86.6250026435853,6|0,3:2|0:0,0:0:0:0:
181,110,162916,1,2,3:2:0:0:
310,240,163054,2,0,P|320:206|315:167,1,57.7500017623902,2|8,3:2|0:0,0:0:0:0:
181,110,163332,2,0,P|171:144|176:183,1,57.7500017623902,2|0,0:0|0:0,0:0:0:0:
88,312,163610,2,0,P|138:287|202:296,1,115.50000352478,6|0,3:2|3:0,0:0:0:0:
299,340,164027,5,8,0:0:0:0:
316,305,164119,5,8,0:0:0:0:
308,267,164212,5,8,0:0:0:0:
293,231,164304,5,8,0:0:0:0:
282,193,164397,5,8,0:0:0:0:
300,158,164490,5,0,3:0:0:0:
337,151,164582,5,0,3:2:0:0:
369,171,164675,5,0,3:0:0:0:
378,208,164767,5,0,3:0:0:0:
352,237,164860,6,0,P|300:231|243:221,1,86.6250026435853,6|0,3:2|0:0,0:0:0:0:
237,220,165138,1,2,3:2:0:0:
116,334,165277,2,0,P|116:305|125:278,1,57.7500017623902,2|8,0:0|0:0,0:0:0:0:
126,127,165554,2,0,P|126:155|135:182,1,57.7500017623902,2|0,0:0|0:0,0:0:0:0:
352,237,165832,6,0,P|290:229|223:218,1,115.50000352478,2|0,3:2|3:0,0:0:0:0:
76,223,166249,1,2,0:0:0:0:
135,182,166388,2,0,P|134:153|125:126,1,57.7500017623902,2|8,0:0|0:0,0:0:0:0:
267,101,166666,2,0,P|267:129|276:156,1,57.7500017623902,2|0,0:0|3:0,0:0:0:0:
348,176,166943,1,0,0:0:0:0:
507,237,167082,6,0,P|461:235|414:267,1,86.6250026435853,6|0,3:2|0:0,0:0:0:0:
407,274,167360,1,2,3:2:0:0:
276,156,167499,2,0,P|261:180|254:208,1,57.7500017623902,2|8,3:2|0:0,0:0:0:0:
229,334,167777,2,0,P|214:309|207:281,1,57.7500017623902,2|0,3:2|0:0,0:0:0:0:
436,225,168054,6,0,P|417:246|406:273,1,57.7500017623902,14|0,0:0|0:0,0:0:0:0:
384,384,168332,2,0,P|365:362|354:335,1,57.7500017623902,2|0,0:0|3:0,0:0:0:0:
332,259,168610,1,2,0:0:0:0:
229,334,168749,1,8,0:0:0:0:
117,296,168888,5,10,0:0:0:0:
54,328,169027,1,2,3:2:0:0:
111,368,169166,1,0,3:0:0:0:
341,345,169305,6,0,P|335:293|329:234,1,86.6250026435853,6|0,3:2|0:0,0:0:0:0:
327,231,169583,1,2,3:2:0:0:
389,120,169722,2,0,P|353:122|325:135,1,57.7500017623902,2|8,3:2|0:0,0:0:0:0:
246,36,170000,2,0,P|274:35|301:26,1,57.7500017623902,2|0,0:0|0:0,0:0:0:0:
160,139,170277,6,0,P|200:160|281:153,1,115.50000352478,2|0,3:2|3:0,0:0:0:0:
389,120,170693,1,2,3:2:0:0:
401,188,170833,2,0,L|411:248,1,57.7500017623902,2|8,0:0|0:0,0:0:0:0:
247,285,171111,2,0,L|256:228,1,57.7500017623902,2|0,0:0|3:0,0:0:0:0:
268,158,171388,1,2,0:0:0:0:
136,351,171527,6,0,L|130:323,1,28.8750008811951,6|0,0:0|0:0,0:0:0:0:
48,260,171666,2,0,L|76:269,1,28.8750008811951,0|0,3:0|0:0,0:0:0:0:
173,230,171804,2,0,L|152:250,1,28.8750008811951,2|0,3:2|0:0,0:0:0:0:
6,159,171943,6,0,L|34:167,1,28.8750008811951,14|0,0:0|0:0,0:0:0:0:
178,118,172082,2,0,L|157:137,1,28.8750008811951,0|0,3:0|0:0,0:0:0:0:
126,289,172221,2,0,L|120:260,1,28.8750008811951,2|0,3:2|0:0,0:0:0:0:
147,43,172360,6,0,P|204:44|252:85,1,115.50000352478,6|0,0:0|0:0,0:0:0:0:
258,94,172730,6,0,B|271:39,2,38.5000011749268,8|0|0,0:0|3:0|0:0,0:0:0:0:
240,204,173008,5,0,3:0:0:0:
240,204,173101,5,0,3:0:0:0:
240,204,173193,6,0,L|227:148,5,35,8|0|0|0|0|0,0:0|3:0|3:0|3:0|3:0|3:0,0:0:0:0:
12,156,173749,6,0,B|53:108|53:108|115:142,1,125.999996154785,6|6,0:0|0:0,0:0:0:0:
127,147,174166,6,0,L|104:27,1,110.249996635437,0|0,0:0|0:0,0:0:0:0:
106,38,174721,2,0,B|130:68|130:68|162:53,1,73.4999977569581,0|0,0:0|0:0,0:0:0:0:
436,310,175138,6,0,P|401:281|320:290,1,102.374995313645,4|0,0:0|0:0,0:0:0:0:
281,307,175416,1,8,0:0:0:0:
422,131,175554,6,0,P|385:124|332:163,1,105,4|0,0:0|0:0,0:0:0:0:
210,298,175971,6,0,P|175:220|197:135,1,173.250005287171,4|0,0:0|3:0,0:0:0:0:
404,199,176527,6,0,P|402:292|341:366,1,188.999994232178,12|0,0:0|0:0,0:0:0:0:
56,272,177082,6,0,P|57:167|125:84,1,204.749990627289,14|0,0:0|0:0,0:0:0:0:
304,160,177638,5,12,0:0:0:0:
453,227,177777,2,0,B|363:215|363:215|339:233|316:235,1,136.499993751526,0|0,3:0|0:0,0:0:0:0:
104,252,178193,6,0,P|134:237|189:237,1,68.2499968757631,4|0,0:0|0:0,0:0:0:0:
226,269,178471,1,0,0:0:0:0:
323,235,178610,1,2,3:2:0:0:
453,321,178749,1,8,0:0:0:0:
394,356,178888,2,0,P|385:323|385:277,1,68.2499968757631,0|0,0:0|0:0,0:0:0:0:
473,312,179166,5,2,3:2:0:0:
473,312,179304,1,0,0:0:0:0:
315,334,179443,1,2,3:2:0:0:
315,334,179582,1,0,0:0:0:0:
383,289,179721,1,0,0:0:0:0:
312,167,179860,2,0,L|324:244,1,68.2499968757631,8|0,0:0|0:0,0:0:0:0:
315,334,180138,1,0,0:0:0:0:
285,350,180207,1,0,0:0:0:0:
251,357,180277,1,0,0:0:0:0:
216,350,180346,1,0,0:0:0:0:
183,331,180416,5,2,3:2:0:0:
322,234,180554,1,2,3:2:0:0:
322,234,180693,1,0,0:0:0:0:
228,180,180832,1,2,3:2:0:0:
400,256,180971,1,8,0:0:0:0:
464,204,181110,1,2,0:0:0:0:
183,331,181249,6,0,P|125:300|50:313,1,136.499993751526,4|0,0:0|0:0,0:0:0:0:
38,328,181619,5,0,0:0:0:0:
38,328,181712,5,0,0:0:0:0:
38,328,181804,6,0,L|46:250,1,68.2499968757631,0|0,3:0|0:0,0:0:0:0:
164,116,182082,2,0,L|172:194,1,68.2499968757631,14|0,0:0|0:0,0:0:0:0:
0,47,182360,5,10,0:0:0:0:
122,57,182499,1,10,0:0:0:0:
190,46,182638,6,0,P|244:54|297:29,1,110.249996635437,0|0,0:0|0:0,0:0:0:0:
146,300,183193,6,0,P|205:257|314:265,1,178.500003404617,4|0,1:0|0:0,0:0:0:0:
397,154,183610,2,0,P|427:174|463:180,1,73.4999977569581,2|0,3:2|0:0,0:0:0:0:
353,326,183888,2,0,P|388:333|418:354,1,73.4999977569581,2|0,3:2|0:0,0:0:0:0:
281,335,184166,1,0,0:0:0:0:
74,332,184304,2,0,P|70:272|67:201,1,110.249996635437,8|0,0:0|0:0,0:0:0:0:
86,157,184582,6,0,B|99:183|99:183|90:220,1,55.1249983177186,0|0,0:0|0:0,0:0:0:0:
203,68,184860,6,0,P|249:121|252:204,1,146.999995513916,4|0,0:0|0:0,0:0:0:0:
219,251,185277,1,2,3:2:0:0:
428,117,185416,6,0,P|423:187|366:247,1,146.999995513916,12|2,0:0|3:2,0:0:0:0:
315,273,185832,1,2,0:0:0:0:
203,68,185971,5,14,0:0:0:0:
136,90,186110,1,0,3:0:0:0:
163,154,186249,1,0,0:0:0:0:
230,135,186388,1,0,3:0:0:0:
112,281,186527,5,10,0:0:0:0:
55,238,186666,1,0,3:0:0:0:
18,297,186805,1,0,0:0:0:0:
72,341,186944,1,0,0:0:0:0:
183,113,187082,5,6,0:0:0:0:
320,34,187360,1,2,0:0:0:0:
313,44,187499,2,0,L|321:93,1,36.749998878479,2|0,0:0|0:0,0:0:0:0:
332,148,187777,1,2,0:0:0:0:
416,157,187916,2,0,P|378:142|332:149,1,73.4999977569581,2|0,0:0|0:0,0:0:0:0:
240,87,188332,6,0,P|202:95|180:115,1,65.625,2|0,0:0|0:0,0:0:0:0:
171,125,188749,6,0,L|175:76,1,36.749998878479,2|0,0:0|0:0,0:0:0:0:
80,120,189027,2,0,L|76:71,1,36.749998878479,2|0,0:0|0:0,0:0:0:0:
4,172,189304,5,2,0:0:0:0:
111,304,189582,1,2,0:0:0:0:
104,294,189721,2,0,L|112:245,1,36.749998878479,2|0,0:0|0:0,0:0:0:0:
123,190,189999,1,2,0:0:0:0:
264,338,190138,6,0,P|346:328|378:290,1,115.50000352478,4|0,0:0|0:0,0:0:0:0:
403,242,190554,1,0,3:0:0:0:
358,121,190693,1,8,0:0:0:0:
417,165,190832,1,0,3:0:0:0:
243,210,190971,5,14,0:0:0:0:
358,121,191110,1,8,0:0:0:0:
219,60,191249,1,0,3:0:0:0:
272,131,191388,1,0,3:0:0:0:
141,247,191527,6,0,P|189:211|251:212,1,115.50000352478,6|0,0:0|0:0,0:0:0:0:
280,316,191943,2,0,P|232:352|170:351,1,115.50000352478,6|0,0:0|0:0,0:0:0:0:
141,247,192360,1,6,0:0:0:0:
332,192,192777,5,2,0:0:0:0:
386,146,192916,2,0,P|414:169|425:234,1,94.499997116089,0|8,3:0|0:0,0:0:0:0:
427,223,193471,1,0,0:0:0:0:
265,285,193749,6,0,P|217:303|192:353,1,94.499997116089,2|0,0:0|0:0,0:0:0:0:
132,276,194166,2,0,P|178:300|195:354,1,94.499997116089,2|0,0:0|0:0,0:0:0:0:
222,166,194582,6,0,P|203:283|191:354,1,173.250005287171,4|0,0:0|0:0,0:0:0:0:
72,228,195138,2,0,L|83:176,1,38.5000011749268,0|0,0:0|0:0,0:0:0:0:
36,113,195323,5,8,0:0:0:0:
67,91,195415,5,8,0:0:0:0:
103,79,195508,5,8,0:0:0:0:
141,79,195600,5,8,0:0:0:0:
197,103,195693,5,8,3:2:0:0:
197,103,195786,5,8,3:2:0:0:
197,103,195878,5,8,3:2:0:0:
197,103,195972,6,0,P|197:140|179:186,1,78.75,4|0,0:0|0:0,0:0:0:0:
167,252,196250,6,0,P|203:251|250:269,1,78.75,4|0,0:0|0:0,0:0:0:0:
322,297,196527,6,0,P|321:261|340:214,1,78.75,4|0,0:0|0:0,0:0:0:0:
380,132,196805,6,0,P|336:134|280:111,1,105,4|0,0:0|0:0,0:0:0:0:
256,192,198193,5,4,0:0:0:0:
108,80,204860,5,4,0:0:0:0:
404,80,205277,1,4,0:0:0:0:
256,360,205693,1,4,0:0:0:0:
256,360,206110,5,0,3:0:0:0:
391,292,206249,1,8,0:0:0:0:
318,271,206388,1,0,3:0:0:0:
181,343,206527,2,0,L|157:349,12,14.4375004405975,10|2|0|0|2|0|0|0|2|0|0|0|0,0:0|0:0|0:0|0:0|3:2|0:0|0:0|0:0|0:0|0:0|0:0|0:0|1:0,0:0:0:0:
104,281,207082,6,0,P|90:255|90:203,1,63,4|0,0:0|0:0,0:0:0:0:
89,209,207360,2,0,P|104:226|111:248,1,47.2499985580445,2|0,0:0|0:0,0:0:0:0:
180,272,207638,6,0,P|196:254|266:233,1,94.499997116089,8|0,1:0|0:0,0:0:0:0:
315,170,208193,2,0,P|274:163|249:140,1,62.9999980773926,2|0,0:0|0:0,0:0:0:0:
257,150,208610,1,2,0:0:0:0:
186,86,208749,5,8,1:0:0:0:
186,86,209027,2,0,L|124:97,1,62.9999980773926,2|2,0:0|0:0,0:0:0:0:
253,48,209443,5,0,0:0:0:0:
253,48,209582,2,0,P|262:71|263:104,1,47.2499985580445,2|0,0:0|0:0,0:0:0:0:
288,160,209860,6,0,P|236:172|197:219,1,110.249996635437,8|0,1:0|0:0,0:0:0:0:
213,212,210416,2,0,P|238:214|278:244,1,62.9999980773926,2|0,0:0|0:0,0:0:0:0:
214,286,210832,1,2,0:0:0:0:
278,258,210971,6,0,P|253:260|213:290,1,62.9999980773926,8|2,1:0|0:0,0:0:0:0:
273,327,211388,1,0,0:0:0:0:
149,313,211527,5,2,0:0:0:0:
149,313,211666,1,0,0:0:0:0:
89,258,211804,2,0,P|116:242|135:237,1,47.2499985580445,2|0,0:0|0:0,0:0:0:0:
202,238,212082,6,0,P|156:237|99:190,1,110.249996635437,8|0,1:0|0:0,0:0:0:0:
97,190,212638,2,0,L|103:122,1,62.9999980773926,2|0,0:0|0:0,0:0:0:0:
29,153,213054,1,2,0:0:0:0:
27,66,213193,6,0,L|82:53,1,47.2499985580445,8|0,1:0|0:0,0:0:0:0:
86,41,213471,2,2,L|118:45,1,31.4999990386963,0|0,0:0|0:0,0:0:0:0:
197,17,213749,6,0,L|229:21,1,31.4999990386963,2|0,0:0|0:0,0:0:0:0:
181,107,214027,2,0,L|237:101,1,47.2499985580445,2|0,0:0|0:0,0:0:0:0:
293,71,214304,6,0,L|387:85,1,94.499997116089,8|0,1:0|0:0,0:0:0:0:
299,159,214860,2,0,P|267:168|242:193,1,62.9999980773926,2|0,0:0|0:0,0:0:0:0:
252,259,215277,1,2,0:0:0:0:
367,260,215416,6,0,P|348:294|349:324,1,62.9999980773926,8|2,1:0|0:0,0:0:0:0:
419,305,215832,1,0,0:0:0:0:
316,162,215971,5,6,0:0:0:0:
256,192,216041,12,0,217638,0:0:0:0:
235,26,218193,5,0,1:0:0:0:
280,45,218471,1,0,1:0:0:0:
205,106,218749,5,0,1:0:0:0:
310,137,219027,1,0,1:0:0:0:
176,210,219304,5,0,1:0:0:0:
339,251,219582,1,0,1:0:0:0:
131,328,219860,5,0,1:0:0:0:
362,371,220138,1,0,1:0:0:0:
257,211,220416,6,0,L|253:182,1,23.6249992790222,2|0,0:0|0:0,0:0:0:0:
252,179,220693,2,0,L|247:222,1,39.375,0|0,0:0|0:0,0:0:0:0:
329,316,220971,6,0,B|262:287|247:219|247:219|224:284|152:310,1,262.5,4|0,0:0|0:0,0:0:0:0:
18,309,221388,1,2,3:2:0:0:
82,286,221527,1,0,0:0:0:0:
238,360,221666,1,2,3:2:0:0:
301,384,221804,1,0,0:0:0:0:
369,375,221943,1,0,0:0:0:0:
496,218,222082,6,0,P|456:212|419:233,1,78.7500030040742,8|0,0:0|0:0,0:0:0:0:
360,280,222360,1,2,0:0:0:0:
343,242,222429,1,0,0:0:0:0:
340,202,222499,1,0,0:0:0:0:
347,164,222568,1,0,0:0:0:0:
366,128,222638,5,2,3:2:0:0:
483,49,222777,2,0,P|448:66|409:59,1,78.7500030040742,0|0,3:0|0:0,0:0:0:0:
337,20,223054,1,0,3:0:0:0:
496,187,223193,2,0,P|457:180|422:197,1,78.7500030040742,10|0,0:0|0:0,0:0:0:0:
88,188,223471,6,0,B|121:190|145:155|145:155|148:208|203:224,1,157.5,6|0,0:0|0:0,0:0:0:0:
273,235,223749,5,8,0:0:0:0:
312,288,223841,5,8,3:0:0:0:
288,347,223934,5,8,3:0:0:0:
233,359,224027,5,8,3:0:0:0:
204,311,224119,5,0,3:0:0:0:
240,267,224212,5,0,3:0:0:0:
288,294,224304,5,8,0:0:0:0:
88,188,224443,6,0,P|54:240|51:318,1,131.25,4|0,0:0|0:0,0:0:0:0:
199,381,224860,6,0,P|233:329|236:251,1,125.999996154785,4|0,0:0|0:0,0:0:0:0:
221,200,225277,1,0,3:0:0:0:
374,149,225416,2,0,L|361:238,1,62.9999980773926,8|0,0:0|0:0,0:0:0:0:
295,175,225693,1,0,0:0:0:0:
180,40,225833,2,0,L|195:129,1,62.9999980773926,2|0,3:2|0:0,0:0:0:0:
284,237,226110,2,0,L|299:148,1,62.9999980773926,2|0,3:2|0:0,0:0:0:0:
309,102,226388,1,0,0:0:0:0:
154,165,226527,1,10,0:0:0:0:
88,151,226666,1,0,0:0:0:0:
38,199,226805,5,2,0:0:0:0:
55,231,226874,1,0,0:0:0:0:
85,255,226944,1,0,0:0:0:0:
120,265,227013,1,0,0:0:0:0:
157,260,227083,5,2,3:2:0:0:
284,237,227221,1,0,3:0:0:0:
348,267,227359,1,0,0:0:0:0:
187,349,227499,2,0,L|252:339,1,62.9999980773926,0|10,3:0|0:0,0:0:0:0:
319,354,227776,1,0,0:0:0:0:
153,149,227915,6,0,L|296:171,1,125.999996154785,6|0,0:0|3:0,0:0:0:0:
342,145,228332,1,0,0:0:0:0:
495,199,228471,5,10,0:0:0:0:
511,125,228609,1,0,0:0:0:0:
332,97,228748,5,10,0:0:0:0:
353,200,228887,1,0,3:0:0:0:
184,242,229026,5,2,3:2:0:0:
206,57,229165,1,0,3:0:0:0:
40,232,229304,5,6,0:0:0:0:
110,254,229443,1,0,0:0:0:0:
184,242,229582,1,0,0:0:0:0:
237,188,229721,1,0,3:0:0:0:
267,17,229860,1,10,0:0:0:0:
267,17,230137,5,8,0:0:0:0:
308,192,230276,2,0,P|347:197|396:175,1,94.499997116089,4|0,0:0|0:0,0:0:0:0:
432,117,230554,1,0,3:0:0:0:
401,51,230693,1,0,0:0:0:0:
432,117,230832,1,0,0:0:0:0:
394,261,230971,1,10,0:0:0:0:
436,317,231109,1,0,0:0:0:0:
367,327,231248,5,2,0:0:0:0:
329,319,231318,1,0,0:0:0:0:
292,311,231387,1,0,0:0:0:0:
255,302,231457,1,0,0:0:0:0:
219,292,231526,5,0,3:0:0:0:
76,336,231665,1,0,3:0:0:0:
126,276,231804,1,0,0:0:0:0:
192,367,231943,1,0,3:0:0:0:
50,267,232082,1,10,0:0:0:0:
0,325,232221,1,0,0:0:0:0:
192,367,232360,2,0,B|208:319|208:319|184:271,1,94.499997116089,6|0,0:0|0:0,0:0:0:0:
125,217,232638,5,8,0:0:0:0:
167,196,232730,5,8,3:0:0:0:
217,199,232823,5,8,3:0:0:0:
254,232,232916,5,0,3:0:0:0:
238,184,233008,5,0,3:0:0:0:
238,133,233101,5,0,3:2:0:0:
258,87,233193,5,10,0:0:0:0:
437,5,233332,1,4,0:0:0:0:
375,37,233471,1,0,0:0:0:0:
431,75,233609,1,0,0:0:0:0:
473,278,233749,6,0,P|414:247|339:253,1,125.999996154785,4|0,0:0|0:0,0:0:0:0:
248,284,234165,1,0,3:0:0:0:
318,153,234304,2,0,P|287:157|255:161,1,62.9999980773926,10|0,0:0|0:0,0:0:0:0:
205,109,234582,1,0,0:0:0:0:
248,284,234721,6,0,P|202:276|145:266,1,94.499997116089,0|0,3:0|0:0,0:0:0:0:
90,298,234999,2,0,P|84:261|96:220,1,62.9999980773926,0|0,3:0|0:0,0:0:0:0:
152,344,235276,1,0,0:0:0:0:
296,220,235415,1,10,0:0:0:0:
364,259,235554,1,0,0:0:0:0:
445,238,235693,5,2,0:0:0:0:
442,260,235763,1,0,0:0:0:0:
441,282,235832,1,0,0:0:0:0:
439,305,235902,1,0,0:0:0:0:
479,367,235971,6,0,P|434:351|369:353,1,94.499997116089,0|0,3:0|0:0,0:0:0:0:
333,377,236249,2,0,P|355:358|393:349,1,62.9999980773926,10|0,0:0|0:0,0:0:0:0:
490,180,236527,2,0,P|463:167|424:168,1,62.9999980773926,10|0,0:0|0:0,0:0:0:0:
174,246,236804,6,0,P|196:212|244:186,1,78.7500030040742,4|0,0:0|0:0,0:0:0:0:
430,166,237082,5,8,0:0:0:0:
448,210,237175,5,8,0:0:0:0:
454,251,237267,5,8,0:0:0:0:
438,283,237360,5,8,0:0:0:0:
405,292,237453,5,8,0:0:0:0:
400,325,237545,5,8,0:0:0:0:
433,334,237638,5,8,3:0:0:0:
453,307,237730,5,8,3:0:0:0:
453,273,237823,5,8,3:0:0:0:
434,244,237916,5,0,3:0:0:0:
403,229,238008,5,0,3:0:0:0:
369,235,238101,5,0,3:0:0:0:
344,258,238193,5,4,0:0:0:0:
192,350,238471,1,2,0:0:0:0:
199,340,238610,2,0,L|191:291,1,36.749998878479,2|0,0:0|0:0,0:0:0:0:
180,236,238888,1,2,0:0:0:0:
96,227,239027,2,0,P|134:242|180:235,1,73.4999977569581,2|0,0:0|0:0,0:0:0:0:
272,297,239443,6,0,P|310:289|332:269,1,65.625,2|0,0:0|0:0,0:0:0:0:
341,259,239860,6,0,L|337:308,1,36.749998878479,2|0,0:0|0:0,0:0:0:0:
432,264,240138,2,0,L|436:313,1,36.749998878479,2|0,0:0|0:0,0:0:0:0:
508,212,240415,5,2,0:0:0:0:
401,80,240693,1,2,0:0:0:0:
408,90,240832,2,0,L|400:139,1,36.749998878479,2|0,0:0|0:0,0:0:0:0:
389,194,241110,1,2,0:0:0:0:
248,46,241249,6,0,P|166:56|134:94,1,115.50000352478,4|0,0:0|0:0,0:0:0:0:
109,142,241665,1,0,3:0:0:0:
158,261,241804,1,8,0:0:0:0:
86,218,241943,1,0,3:0:0:0:
284,163,242082,5,12,0:0:0:0:
158,261,242221,1,8,0:0:0:0:
310,331,242360,1,0,3:0:0:0:
252,254,242499,1,0,3:0:0:0:
311,66,242638,6,0,P|347:114|346:176,1,115.50000352478,4|0,0:0|0:0,0:0:0:0:
184,225,243054,2,0,P|145:183|138:126,1,115.50000352478,4|0,0:0|0:0,0:0:0:0:
311,66,243471,1,4,0:0:0:0:
75,169,243888,5,2,0:0:0:0:
54,97,244027,2,0,P|102:99|138:127,1,94.499997116089,0|8,3:0|0:0,0:0:0:0:
117,235,244443,1,8,0:0:0:0:
75,169,244582,1,0,0:0:0:0:
265,192,244860,6,0,P|247:144|197:119,1,94.499997116089,2|0,0:0|0:0,0:0:0:0:
274,59,245277,2,0,P|250:105|196:122,1,94.499997116089,2|0,0:0|0:0,0:0:0:0:
400,146,245693,6,0,P|283:129|192:119,1,188.999994232178,4|0,0:0|0:0,0:0:0:0:
121,99,246341,5,0,3:0:0:0:
121,99,246434,5,0,3:0:0:0:
121,99,246527,6,0,L|126:130,2,31.4999990386963,8|0|0,0:0|3:0|3:0,0:0:0:0:
42,142,246804,5,0,0:0:0:0:
35,179,246897,5,0,3:0:0:0:
52,213,246990,5,0,3:0:0:0:
89,244,247082,6,0,P|129:209|183:200,1,105,4|2,0:0|0:0,0:0:0:0:
288,151,247499,2,0,P|300:182|302:213,1,52.5,2|0,3:2|0:0,0:0:0:0:
283,268,247777,1,2,0:0:0:0:
452,140,247916,6,0,P|407:112|356:112,1,105,10|0,0:0|0:0,0:0:0:0:
303,201,248332,2,0,L|246:193,1,52.5,2|0,3:2|0:0,0:0:0:0:
189,224,248610,1,0,0:0:0:0:
295,358,248749,2,0,L|243:364,1,52.5,10|0,0:0|0:0,0:0:0:0:
422,296,249027,1,2,3:2:0:0:
481,330,249166,1,2,0:0:0:0:
243,364,249304,5,10,0:0:0:0:
344,300,249443,2,0,P|356:259|337:195,2,105,0|0|0,3:0|3:0|0:0,0:0:0:0:
472,176,250138,2,0,P|463:151|445:131,1,52.5,10|0,0:0|0:0,0:0:0:0:
388,94,250416,5,0,0:0:0:0:
390,212,250554,2,0,P|366:200|340:199,1,52.5,2|0,3:2|0:0,0:0:0:0:
276,224,250832,1,0,3:0:0:0:
148,188,250971,1,10,0:2:0:0:
181,247,251110,1,0,0:0:0:0:
118,274,251249,1,2,0:0:0:0:
85,214,251388,1,0,0:0:0:0:
177,22,251527,6,0,P|222:42|287:33,1,105,6|0,0:0|0:0,0:0:0:0:
384,96,251943,2,0,P|364:131|366:159,1,52.5,2|0,3:2|0:0,0:0:0:0:
435,144,252221,1,0,0:0:0:0:
221,152,252360,6,0,P|231:190|252:209,1,52.5,10|0,0:0|0:0,0:0:0:0:
294,154,252638,1,0,0:0:0:0:
136,311,252777,6,0,P|170:331|199:329,1,52.5,2|0,3:2|0:0,0:0:0:0:
190,261,253054,1,0,0:0:0:0:
294,154,253193,5,10,0:0:0:0:
363,142,253332,1,0,0:0:0:0:
429,157,253471,1,2,0:0:0:0:
477,205,253610,1,0,0:0:0:0:
294,154,253749,5,10,0:0:0:0:
204,128,253888,2,0,P|192:87|211:23,2,105,0|0|0,3:0|3:0|0:0,0:0:0:0:
356,24,254583,2,0,P|369:46|373:72,1,52.5,10|0,0:0|0:0,0:0:0:0:
363,142,254861,5,0,0:0:0:0:
512,214,254999,2,0,P|462:192|395:206,1,105,0|0,3:0|0:0,0:0:0:0:
292,264,255416,1,10,0:0:0:0:
217,232,255555,1,0,3:0:0:0:
148,290,255694,1,0,3:0:0:0:
51,238,255833,1,0,3:0:0:0:
232,344,255971,5,6,0:0:0:0:
217,232,256110,2,0,L|207:160,1,52.5,2|0,3:2|0:0,0:0:0:0:
219,248,256388,5,0,3:0:0:0:
209,179,256527,2,0,L|199:107,1,52.5,2|0,0:0|0:0,0:0:0:0:
33,119,256804,6,0,P|82:91|132:97,1,105,8|0,0:0|0:0,0:0:0:0:
304,155,257221,2,0,P|255:183|205:177,1,105,2|0,3:2|0:0,0:0:0:0:
69,311,257638,2,0,L|156:321,1,78.75,10|0,0:0|0:0,0:0:0:0:
124,336,257916,2,0,L|211:326,1,78.75,2|0,0:0|0:0,0:0:0:0:
280,344,258193,5,4,0:0:0:0:
295,232,258332,2,0,L|305:160,1,52.5,2|0,3:2|0:0,0:0:0:0:
293,248,258610,5,0,3:0:0:0:
303,179,258749,2,0,L|313:107,1,52.5,2|0,0:0|0:0,0:0:0:0:
479,119,259027,6,0,P|430:91|380:97,1,105,8|0,0:0|0:0,0:0:0:0:
256,72,259443,2,0,P|228:81|193:90,1,52.5,2|0,3:2|0:0,0:0:0:0:
68,40,259721,1,0,3:0:0:0:
175,154,259860,1,10,0:0:0:0:
116,189,259999,1,0,0:0:0:0:
164,237,260138,1,0,0:0:0:0:
224,206,260277,1,0,0:0:0:0:
48,331,260416,5,6,0:0:0:0:
160,316,260555,2,0,L|232:306,1,52.5,2|0,3:2|0:0,0:0:0:0:
144,318,260833,5,0,3:0:0:0:
213,308,260972,2,0,L|285:298,1,52.5,2|0,0:0|0:0,0:0:0:0:
410,349,261249,6,0,P|412:298|415:244,1,105,8|0,0:0|0:0,0:0:0:0:
472,102,261666,1,2,3:2:0:0:
449,166,261804,1,0,0:0:0:0:
400,117,261943,1,0,0:0:0:0:
272,184,262082,1,10,0:0:0:0:
211,152,262221,1,0,0:0:0:0:
144,167,262360,2,0,L|56:181,1,78.75,2|0,0:0|0:0,0:0:0:0:
48,192,262638,5,14,0:0:0:0:
187,269,262777,1,0,3:0:0:0:
124,306,262916,1,0,0:0:0:0:
199,218,263054,2,0,L|187:274,1,52.5,0|0,3:0|0:0,0:0:0:0:
144,167,263332,1,0,3:0:0:0:
208,0,263471,5,6,0:0:0:0:
336,68,263610,1,0,3:0:0:0:
215,149,263749,5,0,3:0:0:0:
288,135,263888,1,0,3:0:0:0:
359,168,264027,1,2,3:2:0:0:
413,224,264166,1,0,3:0:0:0:
510,304,264304,5,8,0:0:0:0:
435,292,264443,1,0,3:0:0:0:
367,324,264582,1,2,3:2:0:0:
319,384,264721,1,0,3:0:0:0:
12,192,264860,5,6,0:0:0:0:
256,192,264929,12,2,271619,0:0:0:0:
