osu file format v14

[General]
AudioFilename: audio.mp3
AudioLeadIn: 0
PreviewTime: 221874
Countdown: 0
SampleSet: Soft
StackLeniency: 0.2
Mode: 0
LetterboxInBreaks: 0
WidescreenStoryboard: 1

[Editor]
Bookmarks: 15581,30404,41698,52993,64287,75581,86875,95346,119698,138051,160640,183228,191698,222756,242522,265110,287698,319318
DistanceSpacing: 1.8
BeatDivisor: 4
GridSize: 32
TimelineZoom: 4.800003

[Metadata]
Title:Ephemera
TitleUnicode:エフェメラ
Artist:*Luna feat. Yuaru
ArtistUnicode:*Luna feat. ゆある
Creator:Megarymen
Version:Seeking Happiness
Source:
Tags:Ephemera of Asterism 惑星のエフェメラ japanese future bass electronic basyauma records female vocalist 歌い手 utaite
BeatmapID:2506254
BeatmapSetID:1203589

[Difficulty]
HPDrainRate:6
CircleSize:4.6
OverallDifficulty:8.7
ApproachRate:9.2
SliderMultiplier:1.7
SliderTickRate:1

[Events]
//Background and Video events
0,0,"EWV9uUhUYAA6IBK.jpg",0,0
//Break Periods
//Storyboard Layer 0 (Background)
Sprite,Background,Centre,"EWV9uUhUYAA6IBK.jpg",320,240
Sprite,Background,Centre,"EWV9uUhUYAA6IBK.jpg",320,240 S,0,0,331193,0.4666667 F,0,312732,331193,1,0
//Storyboard Layer 1 (Fail)
//Storyboard Layer 2 (Pass)
//Storyboard Layer 3 (Foreground)
//Storyboard Layer 4 (Overlay)
//Storyboard Sound Samples

[TimingPoints]
1463,352.941176470588,4,2,1,30,1,0
2522,-333.333333333333,4,2,1,30,0,0
6404,-333.333333333333,4,2,1,5,0,0
6426,-333.333333333333,4,2,1,30,0,0
6757,-333.333333333333,4,2,1,5,0,0
6779,-333.333333333333,4,2,1,30,0,0
7110,-222.222222222222,4,2,1,40,0,0
8169,-333.333333333333,4,2,1,40,0,0
8346,-222.222222222222,4,2,1,40,0,0
8698,-222.222222222222,4,2,1,5,0,0
8720,-222.222222222222,4,2,1,40,0,0
8962,-222.222222222222,4,2,1,5,0,0
9051,-222.222222222222,4,2,1,40,0,0
9934,-166.666666666667,4,2,1,40,0,0
10198,-166.666666666667,4,2,1,5,0,0
10286,-166.666666666667,4,2,1,40,0,0
11345,-166.666666666667,4,2,1,5,0,0
11367,-166.666666666667,4,2,1,40,0,0
11609,-166.666666666667,4,2,1,5,0,0
11698,-166.666666666667,4,2,1,40,0,0
14875,-500.000000000003,4,2,1,40,0,0
15227,-500.000000000003,4,2,1,60,0,0
15580,-74.0740740740741,4,2,1,60,0,0
17874,-74.0740740740741,4,2,1,60,0,0
17962,-74.0740740740741,4,2,1,5,0,0
18051,-74.0740740740741,4,2,1,60,0,0
18139,-74.0740740740741,4,2,1,5,0,0
18227,-74.0740740740741,4,2,1,60,0,0
18315,-74.0740740740741,4,2,1,5,0,0
18404,-74.0740740740741,4,2,1,60,0,0
23521,-74.0740740740741,4,2,1,60,0,0
23609,-74.0740740740741,4,2,1,5,0,0
23698,-74.0740740740741,4,2,1,60,0,0
23786,-74.0740740740741,4,2,1,5,0,0
23874,-74.0740740740741,4,2,1,60,0,0
23962,-74.0740740740741,4,2,1,5,0,0
24051,-50,4,2,1,60,0,0
25109,-74.0740740740741,4,2,1,60,0,0
26345,-74.0740740740741,4,2,1,60,0,0
26521,-74.0740740740741,4,2,1,5,0,0
26609,-74.0740740740741,4,2,1,80,0,0
26786,-74.0740740740741,4,2,1,5,0,0
26874,-64.5161290322581,4,2,1,80,0,0
27051,-64.5161290322581,4,2,1,5,0,0
27139,-64.5161290322581,4,2,1,80,0,0
27315,-64.5161290322581,4,2,1,5,0,0
27404,-64.5161290322581,4,2,1,80,0,0
27580,-64.5161290322581,4,2,1,5,0,0
27668,-64.5161290322581,4,2,1,80,0,0
27845,-64.5161290322581,4,2,1,5,0,0
27933,-64.5161290322581,4,2,1,80,0,0
28109,-64.5161290322581,4,2,1,5,0,0
28198,-57.1428571428571,4,2,1,80,0,0
28374,-57.1428571428571,4,2,1,5,0,0
28462,-57.1428571428571,4,2,1,80,0,0
28639,-57.1428571428571,4,2,1,5,0,0
28727,-57.1428571428571,4,2,1,80,0,0
28904,-57.1428571428571,4,2,1,5,0,0
28992,-52.6315789473684,4,2,1,80,0,0
29168,-52.6315789473684,4,2,1,5,0,0
29257,-52.6315789473684,4,2,1,80,0,0
29433,-52.6315789473684,4,2,1,5,0,0
29521,-52.6315789473684,4,2,1,80,0,0
29698,-52.6315789473684,4,2,1,5,0,0
30051,-52.6315789473684,4,2,1,40,0,0
30404,352.941176470588,4,2,2,40,1,0
30404,-100,4,2,2,40,0,0
30580,-100,4,2,1,50,0,0
36051,-100,4,2,2,50,0,0
36227,-100,4,2,1,50,0,0
39933,-166.666666666667,4,2,1,50,0,0
40198,-166.666666666667,4,2,1,5,0,0
40286,-166.666666666667,4,2,1,50,0,0
41698,-74.0740740740741,4,2,1,60,0,0
42757,-74.0740740740741,4,2,1,60,0,0
43505,-74.0740740740741,4,2,1,30,0,0
43638,-74.0740740740741,4,2,1,60,0,0
43816,-100,4,2,1,60,0,0
44522,-74.0740740740741,4,2,1,60,0,0
49463,-100,4,2,1,60,0,0
50169,-74.0740740740741,4,2,1,60,0,0
52992,-74.0740740740741,4,2,2,60,0,0
53345,-74.0740740740741,4,2,1,60,0,0
53698,-74.0740740740741,4,2,2,60,0,0
53874,-74.0740740740741,4,2,1,60,0,0
55286,-74.0740740740741,4,2,1,60,0,0
55374,-74.0740740740741,4,2,1,5,0,0
55462,-74.0740740740741,4,2,1,60,0,0
55551,-74.0740740740741,4,2,1,5,0,0
55639,-74.0740740740741,4,2,1,60,0,0
55727,-74.0740740740741,4,2,1,5,0,0
55815,-74.0740740740741,4,2,1,60,0,0
56521,-74.0740740740741,4,2,2,60,0,0
56698,-74.0740740740741,4,2,1,60,0,0
59345,-74.0740740740741,4,2,2,60,0,0
59521,-74.0740740740741,4,2,1,60,0,0
60933,-74.0740740740741,4,2,1,60,0,0
61021,-74.0740740740741,4,2,1,5,0,0
61109,-74.0740740740741,4,2,1,60,0,0
61198,-74.0740740740741,4,2,1,5,0,0
61286,-74.0740740740741,4,2,1,60,0,0
61374,-74.0740740740741,4,2,1,5,0,0
61463,-50,4,2,1,60,0,0
62521,-74.0740740740741,4,2,1,60,0,0
62962,-74.0740740740741,4,2,1,5,0,0
63051,-74.0740740740741,4,2,1,60,0,0
64287,-100,4,2,2,60,0,0
64462,-100,4,2,1,60,0,0
74874,-142.857142857143,4,2,2,60,0,0
75581,-133.333333333333,4,2,3,50,0,0
77388,-133.333333333333,4,2,3,30,0,0
77520,-133.333333333333,4,2,3,50,0,0
77698,-100,4,2,3,50,0,0
80211,-100,4,2,3,30,0,0
80344,-100,4,2,3,50,0,0
86521,-125,4,2,3,50,0,0
86609,-125,4,2,3,5,0,0
86698,-125,4,2,3,50,0,0
86786,-125,4,2,3,5,0,0
86874,-100,4,2,2,50,0,0
88639,-200,4,2,2,60,0,0
95345,-80,4,2,2,70,0,0
97461,-80,4,2,3,70,0,0
97814,-80,4,2,2,70,0,0
99579,-80,4,2,3,70,0,0
99755,-80,4,2,2,70,0,0
100639,-74.0740740740741,4,2,2,70,0,0
101697,-64.5161290322581,4,2,3,70,0,0
101873,-64.5161290322581,4,2,2,70,0,0
102757,-60.6060606060606,4,2,2,70,0,0
103814,-68.9655172413793,4,2,2,70,0,0
107697,-68.9655172413793,4,2,3,55,0,0
107873,-68.9655172413793,4,2,2,70,0,0
108050,-68.9655172413793,4,2,3,55,0,0
108226,-68.9655172413793,4,2,2,70,0,0
109461,-68.9655172413793,4,2,3,40,0,0
109638,-68.9655172413793,4,2,2,70,0,0
109814,-68.9655172413793,4,2,3,50,0,0
109991,-68.9655172413793,4,2,2,70,0,0
110167,-68.9655172413793,4,2,3,60,0,0
110344,-68.9655172413793,4,2,2,70,0,0
111226,-68.9655172413793,4,2,3,50,0,0
112638,-68.9655172413793,4,2,2,70,0,0
119698,-68.9655172413793,4,2,5,35,0,0
122168,-285.714285714286,4,2,5,35,0,0
122521,-285.714285714286,4,2,5,20,0,0
122874,-285.714285714286,4,2,5,35,0,0
126933,-285.714285714286,4,2,5,20,0,0
127286,-285.714285714286,4,2,5,35,0,0
128168,-285.714285714286,4,2,5,20,0,0
128521,-285.714285714286,4,2,5,35,0,0
132403,-285.714285714286,4,2,5,20,0,0
132756,-285.714285714286,4,2,5,35,0,0
135933,-285.714285714286,4,2,1,40,0,0
136639,-285.714285714286,4,2,1,45,0,0
136992,-285.714285714286,4,2,1,50,0,0
137345,-285.714285714286,4,2,1,25,0,0
138051,-133.333333333333,4,2,1,60,0,0
138073,-133.333333333333,4,2,50,30,0,0
138668,-133.333333333333,4,2,1,5,0,0
138757,-133.333333333333,4,2,1,60,0,0
138778,-133.333333333333,4,2,50,30,0,0
139374,-133.333333333333,4,2,1,5,0,0
139462,-133.333333333333,4,2,1,60,0,0
139484,-133.333333333333,4,2,50,30,0,0
140080,-133.333333333333,4,2,1,5,0,0
140168,-133.333333333333,4,2,1,60,0,0
140190,-133.333333333333,4,2,50,30,0,0
140786,-133.333333333333,4,2,1,5,0,0
140874,-133.333333333333,4,2,1,60,0,0
140896,-133.333333333333,4,2,50,30,0,0
141492,-133.333333333333,4,2,1,5,0,0
141580,-133.333333333333,4,2,1,60,0,0
141602,-133.333333333333,4,2,50,30,0,0
142198,-133.333333333333,4,2,1,5,0,0
142286,-133.333333333333,4,2,1,60,0,0
142308,-133.333333333333,4,2,50,30,0,0
142904,-133.333333333333,4,2,1,5,0,0
142992,-133.333333333333,4,2,1,60,0,0
143014,-133.333333333333,4,2,50,30,0,0
143609,-133.333333333333,4,2,1,5,0,0
143698,-133.333333333333,4,2,1,60,0,0
143720,-133.333333333333,4,2,50,30,0,0
144315,-133.333333333333,4,2,1,5,0,0
144404,-133.333333333333,4,2,1,60,0,0
144426,-133.333333333333,4,2,50,30,0,0
145021,-133.333333333333,4,2,1,5,0,0
145109,-133.333333333333,4,2,1,60,0,0
145131,-133.333333333333,4,2,50,30,0,0
145727,-133.333333333333,4,2,1,5,0,0
145815,-133.333333333333,4,2,1,60,0,0
145837,-133.333333333333,4,2,50,30,0,0
146433,-133.333333333333,4,2,1,5,0,0
146521,-133.333333333333,4,2,1,60,0,0
146543,-133.333333333333,4,2,50,30,0,0
147139,-133.333333333333,4,2,1,5,0,0
147227,-133.333333333333,4,2,1,60,0,0
147249,-133.333333333333,4,2,50,30,0,0
147845,-133.333333333333,4,2,1,5,0,0
147933,-133.333333333333,4,2,1,60,0,0
147955,-133.333333333333,4,2,50,30,0,0
148551,-133.333333333333,4,2,1,5,0,0
148639,-133.333333333333,4,2,1,60,0,0
148661,-133.333333333333,4,2,50,30,0,0
149257,-133.333333333333,4,2,1,5,0,0
149345,-133.333333333333,4,2,1,60,0,0
149367,-133.333333333333,4,2,50,30,0,0
149962,-133.333333333333,4,2,1,5,0,0
150051,-133.333333333333,4,2,1,60,0,0
150073,-133.333333333333,4,2,50,30,0,0
150668,-133.333333333333,4,2,1,5,0,0
150757,-133.333333333333,4,2,1,60,0,0
150778,-133.333333333333,4,2,50,30,0,0
151374,-133.333333333333,4,2,1,5,0,0
151462,-133.333333333333,4,2,1,60,0,0
151484,-133.333333333333,4,2,50,30,0,0
152080,-133.333333333333,4,2,1,5,0,0
152168,-133.333333333333,4,2,1,60,0,0
152190,-133.333333333333,4,2,50,30,0,0
152786,-133.333333333333,4,2,1,5,0,0
152874,-133.333333333333,4,2,1,60,0,0
152896,-133.333333333333,4,2,50,30,0,0
153492,-133.333333333333,4,2,1,5,0,0
153580,-133.333333333333,4,2,1,60,0,0
153602,-133.333333333333,4,2,50,30,0,0
154198,-133.333333333333,4,2,1,5,0,0
154286,-133.333333333333,4,2,1,60,0,0
154308,-133.333333333333,4,2,50,30,0,0
154904,-133.333333333333,4,2,1,5,0,0
154992,-133.333333333333,4,2,1,60,0,0
157727,-133.333333333333,4,2,1,5,0,0
157815,-133.333333333333,4,2,1,20,0,0
158521,-133.333333333333,4,2,1,30,0,0
159227,-133.333333333333,4,2,2,40,0,0
159933,-133.333333333333,4,2,2,50,0,0
160639,-133.333333333333,4,2,3,40,0,0
165580,-500,4,2,3,60,0,0
166286,-86.9565217391304,4,2,3,60,0,0
166992,-133.333333333333,4,2,3,60,0,0
169109,-125,4,2,3,60,0,0
169345,-111.111111111111,4,2,3,60,0,0
169580,-100,4,2,3,60,0,0
169815,-90.9090909090909,4,2,3,60,0,0
170051,-83.3333333333333,4,2,3,60,0,0
170286,-76.9230769230769,4,2,3,60,0,0
170521,-71.4285714285714,4,2,2,60,0,0
170757,-66.6666666666667,4,2,2,60,0,0
170992,-62.5,4,2,2,60,0,0
171227,-166.666666666667,4,2,3,60,0,0
171933,-86.9565217391304,4,2,3,60,0,0
177521,-86.9565217391304,4,2,3,5,0,0
177580,-86.9565217391304,4,2,3,60,0,0
180639,-86.9565217391304,4,2,2,60,0,0
181109,-86.9565217391304,4,2,3,60,0,0
181345,-86.9565217391304,4,2,2,60,0,0
182521,-68.9655172413793,4,2,2,60,0,0
183227,-86.9565217391304,4,2,3,60,0,0
185580,-86.9565217391304,4,2,2,60,0,0
186051,-71.4285714285714,4,2,2,60,0,0
188874,-100,4,2,3,60,0,0
190286,-100,4,2,2,60,0,0
191698,-133.333333333333,4,2,3,40,0,0
191962,-133.333333333333,4,2,3,5,0,0
192051,-133.333333333333,4,2,3,40,0,0
193374,-133.333333333333,4,2,3,5,0,0
193462,-133.333333333333,4,2,3,40,0,0
195139,-133.333333333333,4,2,3,5,0,0
195227,-133.333333333333,4,2,3,40,0,0
197257,-133.333333333333,4,2,3,5,0,0
197345,352.941176470588,4,2,1,30,1,0
197345,-200,4,2,1,30,0,0
197367,-200,4,2,5,30,0,0
197521,-200,4,2,5,15,0,0
200168,-200,4,2,1,30,0,0
200190,-200,4,2,5,30,0,0
200345,-200,4,2,5,15,0,0
202992,-200,4,2,1,35,0,0
203014,-200,4,2,5,35,0,0
203168,-200,4,2,5,15,0,0
204227,-200,4,2,5,35,0,0
204404,-200,4,2,5,15,0,0
204580,-200,4,2,5,35,0,0
204757,-200,4,2,5,15,0,0
205815,-200,4,2,1,35,0,0
205837,-200,4,2,5,35,0,0
205992,-200,4,2,5,15,0,0
208639,-200,4,2,1,40,0,0
208815,-200,4,2,5,25,0,0
209874,-200,4,2,5,45,0,0
210051,-200,4,2,5,25,0,0
211462,-200,4,2,1,45,0,0
211639,-200,4,2,5,30,0,0
212874,-200,4,2,1,30,0,0
213051,-200,4,2,5,30,0,0
214286,-200,4,2,1,45,0,0
214462,-200,4,2,5,30,0,0
215521,-200,4,2,5,45,0,0
215698,-200,4,2,5,30,0,0
215874,-200,4,2,5,45,0,0
216051,-200,4,2,5,30,0,0
217109,-200,4,2,1,50,0,0
217286,-200,4,2,5,35,0,0
217639,-200,4,2,5,40,0,0
218168,-200,4,2,5,45,0,0
218874,-200,4,2,5,50,0,0
221345,-200,4,2,1,5,0,0
222756,-66.6666666666667,4,2,4,70,0,1
228051,-66.6666666666667,4,2,2,70,0,1
228404,-66.6666666666667,4,2,4,70,0,1
231227,-62.5,4,2,4,70,0,1
231404,-58.8235294117647,4,2,4,70,0,1
231580,-55.5555555555556,4,2,4,70,0,1
231757,-52.6315789473684,4,2,4,70,0,1
231933,-40,4,2,4,70,0,1
233962,-40,4,2,4,70,0,1
234051,-66.6666666666667,4,2,4,70,0,1
235462,-80,4,2,4,70,0,1
236345,-80,4,2,4,5,0,1
236404,-80,4,2,4,70,0,1
236580,-80,4,2,4,5,0,1
236639,-80,4,2,4,70,0,1
236815,-80,4,2,4,5,0,1
236874,-66.6666666666667,4,2,4,70,0,1
239698,-60.6060606060606,4,2,4,70,0,1
241462,-133.333333333333,4,2,4,60,0,0
242433,-133.333333333333,4,2,4,60,0,0
242521,-66.6666666666667,4,2,4,60,0,1
253462,-66.6666666666667,4,2,2,60,0,1
253815,-66.6666666666667,4,2,4,60,0,1
261227,-133.333333333333,4,2,4,60,0,1
261580,-66.6666666666667,4,2,4,60,0,1
264756,-133.333333333333,4,2,1,60,0,0
265109,-74.0740740740741,4,2,1,75,0,0
276051,-74.0740740740741,4,2,2,65,0,0
276404,-74.0740740740741,4,2,1,75,0,0
284874,-50,4,2,1,60,0,0
285933,368.098159509202,4,2,1,60,1,0
285933,-74.0740740740741,4,2,1,60,0,0
287405,382.165605095541,4,2,1,60,1,0
287405,-74.0740740740741,4,2,1,60,0,0
287787,-100,4,2,5,15,0,0
288148,750,4,2,5,15,1,0
288335,731.707317073171,4,2,5,15,1,0
288700,789.473684210526,4,2,5,15,1,0
288898,750,4,2,5,15,1,0
289272,789.473684210526,4,2,5,15,1,0
289666,731.707317073171,4,2,5,15,1,0
290031,769.230769230769,4,2,5,15,1,0
290807,1411.76470588235,4,2,5,15,1,0
291152,750,4,2,5,15,1,0
291713,769.230769230769,4,2,5,15,1,0
291905,740.740740740741,4,2,5,15,1,0
292278,789.473684210526,4,2,5,15,1,0
292672,722.89156626506,4,2,5,15,1,0
293032,747.999102401077,4,2,5,15,1,0
294712,740.740740740741,4,2,5,15,1,0
295287,738.916256157635,4,2,5,15,1,0
296023,769.230769230769,4,2,5,15,1,0
296792,755.667506297229,4,2,5,15,1,0
297523,759.493670886076,4,2,5,15,1,0
298273,759.493670886076,4,2,5,15,1,0
299023,845.070422535211,4,2,5,15,1,0
299407,754.716981132075,4,2,5,15,1,0
299784,734.394124847001,4,2,5,15,1,0
300151,722.89156626506,4,2,5,15,1,0
300513,764.331210191083,4,2,5,15,1,0
301279,821.917808219178,4,2,5,15,1,0
301689,705.882352941176,4,2,5,15,1,0
302042,750,4,2,5,15,1,0
303167,-100,4,2,5,5,0,0
303352,521.739130434783,4,2,5,25,1,0
303352,-144.927536231884,4,2,5,25,0,0
303743,-144.927536231884,4,2,5,5,0,0
303919,750,4,2,5,25,1,0
304294,-100,4,2,5,5,0,0
304668,740.740740740741,4,2,5,25,1,0
305038,-100,4,2,5,5,0,0
305779,745.341614906832,4,2,5,15,1,0
305779,-100,4,2,5,15,0,0
306151,750,4,2,5,15,1,0
309151,769.230769230769,4,2,5,15,1,0
309536,750,4,2,5,15,1,0
310659,891.089108915302,4,2,5,15,1,0
310659,-66.6666666666667,4,2,5,15,0,0
311550,641.711229946524,4,2,5,15,1,0
312352,394.736842105263,4,2,5,15,1,0
312352,-200,4,2,5,15,0,0
312729,376.482399447826,4,2,5,20,1,0
312729,-100,4,2,5,20,0,0
316587,-100,4,2,5,30,0,0
317246,-100,4,2,5,40,0,0
317811,-100,4,2,5,50,0,0
318376,-100,4,2,5,60,0,0
318940,-100,4,2,5,80,0,0
319318,-100,4,2,5,35,0,0

[Colours]
Combo1 : 133,133,133
Combo2 : 219,157,199
Combo3 : 255,0,255
Combo4 : 130,200,244
Combo5 : 0,128,255
Combo6 : 255,255,128
Combo7 : 253,253,0
Combo8 : 181,181,181

[HitObjects]
91,263,1463,69,2,0:0:0:0:
61,162,1993,5,2,0:0:0:0:
91,263,2169,1,2,0:0:0:0:
171,199,2346,1,2,0:0:0:0:
224,278,2522,2,0,L|221:289,1,6.37499980545045,2|2,0:0|0:0,0:0:0:0:
306,261,2698,1,2,0:0:0:0:
317,176,3404,101,2,0:0:0:0:
306,261,3581,1,2,0:0:0:0:
396,275,3757,1,2,0:0:0:0:
396,275,4110,5,2,0:0:0:0:
446,197,4287,1,2,0:0:0:0:
446,197,4816,101,2,0:0:0:0:
396,119,4993,1,2,0:0:0:0:
441,36,5169,1,2,0:0:0:0:
337,37,5346,6,0,P|319:58|303:86,1,50.9999984436036,2|0,0:0|0:0,0:0:0:0:
306,77,6051,2,0,B|242:63|252:122|184:103,1,127.499996109009
187,103,7110,102,0,P|181:138|193:181,1,76.4999976654053,2|0,0:0|0:0,0:0:0:0:
124,21,7640,5,2,0:0:0:0:
187,103,7816,1,2,0:0:0:0:
116,173,7993,1,2,0:0:0:0:
183,245,8169,2,0,L|186:253,1,6.37499980545045,2|2,0:0|0:0,0:0:0:0:
123,299,8346,2,0,P|92:328|29:272,1,133.874995914459,2|0,0:0|0:0,0:0:0:0:
28,272,9051,101,2,0:0:0:0:
92,183,9228,1,2,0:0:0:0:
17,103,9404,1,2,0:0:0:0:
17,103,9757,5,2,0:0:0:0:
135,25,9934,2,0,P|169:35|213:66,1,76.4999976654053,2|0,0:0|0:0,0:0:0:0:
213,67,10286,1,2,0:0:0:0:
311,151,10463,2,0,L|316:90,2,50.9999984436036,2|2|2,0:0|0:0|0:0,0:0:0:0:
215,262,10993,102,0,P|306:264|394:273,1,178.499994552612,2|0,0:0|0:0,0:0:0:0:
403,279,11698,1,0,0:0:0:0:
256,192,11787,12,4,12757,0:0:0:0:
151,132,14875,6,0,L|155:107,1,22.6666666666667,2|0,0:0|0:0,0:0:0:0:
86,199,15228,37,2,0:0:0:0:
118,225,15316,1,2,0:0:0:0:
160,229,15404,1,2,0:0:0:0:
201,217,15493,1,2,0:0:0:0:
224,184,15580,6,0,B|297:166|357:204|357:204|335:201|315:207,1,172.125000656605,6|0,3:2|0:0,0:0:0:0:
315,211,15933,1,2,0:0:0:0:
412,82,16109,2,0,P|406:63|382:32,1,57.3750002188683,2|0,3:2|0:0,0:0:0:0:
286,86,16285,101,10,0:0:0:0:
439,166,16462,1,2,0:0:0:0:
326,295,16639,6,0,B|275:323|202:272|202:272|205:293|205:293|136:244|76:291,1,286.875001094341,2|0,3:2|0:0,0:0:0:0:
139,341,17168,2,0,B|179:252|168:178|168:178|112:222|50:190,1,286.875001094341,2|0,3:2|0:0,0:0:0:0:
42,180,17697,1,10,3:2:0:0:
228,80,17874,102,0,B|198:82|198:82|208:107,1,57.3750002188683,2|0,0:0|0:0,0:0:0:0:
242,187,18050,2,0,B|258:212|258:212|275:191,1,57.3750002188683,2|0,0:0|0:0,0:0:0:0:
327,122,18227,2,0,B|340:96|340:96|313:92,1,57.3750002188683,2|0,0:0|0:0,0:0:0:0:
369,281,18403,6,0,P|423:287|496:285,1,114.750000437737,2|0,3:2|0:0,0:0:0:0:
411,153,18756,1,2,0:0:0:0:
298,257,18933,2,0,P|298:292|303:323,1,57.3750002188683,2|0,3:2|0:0,0:0:0:0:
464,220,19109,101,8,0:0:0:0:
286,172,19285,1,2,0:0:0:0:
138,298,19462,6,0,B|211:245|88:170|163:91|163:91|135:107|100:87,1,286.875001094341,2|0,3:2|0:0,0:0:0:0:
210,148,19992,2,0,B|230:101|295:105|302:163|302:163|305:215|379:253|439:167,1,286.875001094341,2|0,3:2|0:0,0:0:0:0:
426,180,20521,101,10,3:2:0:0:
493,310,20697,1,0,0:0:0:0:
210,148,20874,5,2,0:0:0:0:
195,186,20962,1,2,0:0:0:0:
194,227,21050,1,2,0:0:0:0:
205,266,21138,1,2,0:0:0:0:
229,299,21227,102,0,P|306:319|345:239,1,172.125000656605,2|0,3:2|0:0,0:0:0:0:
345,231,21580,1,2,0:0:0:0:
512,366,21756,2,0,P|496:338|491:299,1,57.3750002188683,2|0,3:2|0:0,0:0:0:0:
512,214,21933,5,10,0:0:0:0:
346,242,22109,1,2,0:0:0:0:
472,35,22286,102,0,B|493:115|398:156|398:156|352:88|274:115,1,286.875001094341,2|0,3:2|0:0,0:0:0:0:
139,97,22815,2,0,B|148:165|199:193|259:183|259:183|197:147|222:66,1,286.875001094341,2|0,3:2|0:0,0:0:0:0:
223,67,23344,5,10,3:2:0:0:
327,280,23521,102,0,B|296:278|296:278|306:252,1,57.3750002188683,2|0,0:0|0:0,0:0:0:0:
341,173,23697,2,0,B|358:148|358:148|375:169,1,57.3750002188683,2|0,0:0|0:0,0:0:0:0:
427,238,23874,2,0,B|441:264|441:264|414:268,1,57.3750002188683,2|0,0:0|0:0,0:0:0:0:
211,325,24051,6,0,L|197:241,1,85,2|0,3:2|0:0,0:0:0:0:
197,241,24403,1,2,0:0:0:0:
281,2,24580,102,0,L|266:86,2,85,2|0|8,3:2|0:0|0:0,0:0:0:0:
281,2,24933,1,2,0:0:0:0:
71,82,25109,6,0,B|271:30|182:295|385:253|446:197|464:116|359:48|269:66|298:329,1,688.500002626419,2|0,3:2|0:0,0:0:0:0:
203,224,26345,102,0,P|161:194|99:203,1,114.750000437737,2|0,3:2|0:0,0:0:0:0:
37,245,26609,2,0,P|83:276|138:267,1,114.750000437737,2|0,3:2|0:0,0:0:0:0:
256,173,26874,6,0,P|336:188|371:238,1,131.750001005173,2|0,3:2|0:0,0:0:0:0:
425,331,27139,2,0,P|369:271|370:210,1,131.750001005173,2|0,3:2|0:0,0:0:0:0:
381,104,27404,2,0,P|391:184|354:233,1,131.750001005173,2|0,3:2|0:0,0:0:0:0:
283,313,27668,2,0,P|321:241|380:223,1,131.750001005173,2|0,3:2|0:0,0:0:0:0:
486,201,27933,2,0,P|412:235|354:216,1,131.750001005173,2|0,3:2|0:0,0:0:0:0:
189,22,28198,102,0,P|241:49|262:137,1,148.750001418591,2|0,3:2|0:0,0:0:0:0:
131,141,28462,2,0,P|128:82|194:20,1,148.750001418591,2|0,3:2|0:0,0:0:0:0:
263,131,28727,2,0,P|213:162|126:136,1,148.750001418591,2|0,3:2|0:0,0:0:0:0:
331,258,28992,6,0,P|383:231|406:134,1,161.499995687485,2|0,3:2|0:0,0:0:0:0:
263,131,29257,2,0,P|260:189|332:257,1,161.499995687485,2|0,3:2|0:0,0:0:0:0:
406,136,29521,2,0,P|356:104|261:133,1,161.499995687485,2|0,3:2|0:0,0:0:0:0:
263,131,30051,1,8,0:3:0:0:
263,131,30404,6,0,P|225:126|160:123,1,85,4|2,0:0|0:0,0:0:0:0:
321,216,30757,2,0,P|359:221|424:224,1,85,2|2,0:0|0:0,0:0:0:0:
494,113,31109,1,8,0:0:0:0:
494,113,31462,5,0,0:0:0:0:
336,12,31639,1,2,0:0:0:0:
286,69,31815,1,2,0:0:0:0:
330,131,31992,1,2,0:0:0:0:
280,188,32168,1,2,0:0:0:0:
309,258,32345,2,0,P|352:256|399:236,2,85,2|8|2,0:0|0:0|0:0,0:0:0:0:
233,254,32874,1,2,0:0:0:0:
268,322,33051,1,2,0:0:0:0:
93,275,33227,101,0,0:0:0:0:
187,128,33404,1,2,0:0:0:0:
188,204,33580,1,2,0:0:0:0:
112,205,33756,1,2,0:0:0:0:
111,129,33933,1,10,0:0:0:0:
111,129,34286,5,0,0:0:0:0:
221,228,34462,2,0,B|310:212|289:289|401:244,1,170,2|2,0:0|0:0,0:0:0:0:
431,98,34992,1,2,0:0:0:0:
364,173,35168,1,2,0:0:0:0:
462,194,35345,2,0,B|490:181|490:181|466:166|431:180,1,85,8|0,0:0|0:0,0:0:0:0:
253,142,35698,2,0,P|307:132|369:186,1,127.5,2|0,0:0|0:0,0:0:0:0:
370,185,36051,102,0,P|375:139|372:79,1,85,2|2,3:2|0:0,0:0:0:0:
460,0,36404,2,0,P|455:46|458:106,1,85,2|2,0:0|0:0,0:0:0:0:
496,209,36757,1,8,0:0:0:0:
496,209,37109,5,0,0:0:0:0:
344,321,37286,1,2,0:0:0:0:
316,249,37462,1,2,0:0:0:0:
357,184,37639,1,2,0:0:0:0:
329,112,37815,1,2,0:0:0:0:
386,60,37992,2,0,P|352:32|311:33,2,85,2|8|2,0:0|0:0|0:0,0:0:0:0:
433,120,38521,1,2,0:0:0:0:
470,53,38698,1,2,0:0:0:0:
357,184,38874,101,0,0:0:0:0:
47,54,39404,1,2,0:0:0:0:
215,195,39580,1,10,0:0:0:0:
175,125,39757,1,2,0:0:0:0:
131,289,39933,6,0,P|131:244|149:207,1,76.4999976654053,2|0,0:0|0:0,0:0:0:0:
151,206,40286,1,2,0:0:0:0:
248,109,40462,1,2,0:0:0:0:
248,109,40639,1,0,3:0:0:0:
138,31,40992,1,8,0:0:0:0:
33,87,41168,101,2,0:0:0:0:
45,103,41257,1,2,0:0:0:0:
55,123,41345,1,2,0:0:0:0:
63,146,41433,1,2,0:0:0:0:
70,172,41521,1,2,0:0:0:0:
70,200,41609,1,2,0:0:0:0:
64,231,41698,102,0,P|55:201|55:163,1,57.3750002188683,6|0,0:0|0:0,0:0:0:0:
121,101,41875,2,0,P|129:128|131:156,1,57.3750002188683,2|0,0:0|0:0,0:0:0:0:
196,264,42051,6,0,P|187:234|187:196,1,57.3750002188683,2|0,0:0|0:0,0:0:0:0:
253,134,42228,2,0,P|261:161|263:189,1,57.3750002188683,2|0,0:0|0:0,0:0:0:0:
328,297,42404,85,8,0:0:0:0:
328,297,42757,38,0,P|356:298|386:301,1,57.3750002188683,2|0,3:2|0:0,0:0:0:0:
512,298,42934,2,0,P|484:299|454:302,1,57.3750002188683,2|0,0:0|0:0,0:0:0:0:
327,222,43110,86,0,P|355:221|385:218,1,57.3750002188683,2|0,0:0|0:0,0:0:0:0:
512,220,43287,2,0,P|484:219|454:216,1,57.3750002188683,2|0,3:2|0:0,0:0:0:0:
402,97,43463,6,0,L|394:59,4,28.6875001094341,2|0|0|0|0,3:2|0:0|0:0|0:0|0:0,0:0:0:0:
402,97,43816,86,0,P|358:94|332:137,1,85,8|0,0:0|0:0,0:0:0:0:
236,254,44169,1,0,3:0:0:0:
246,230,44257,1,0,0:0:0:0:
247,204,44346,1,0,0:0:0:0:
239,179,44434,1,0,0:0:0:0:
227,159,44522,38,0,P|258:167|291:153,1,57.3750002188683,2|0,3:2|0:0,0:0:0:0:
155,91,44698,2,0,P|124:83|91:97,1,57.3750002188683,2|0,0:0|0:0,0:0:0:0:
185,264,44874,86,0,P|216:272|249:258,1,57.3750002188683,2|0,0:0|0:0,0:0:0:0:
113,196,45051,2,0,P|82:188|49:202,1,57.3750002188683,2|0,0:0|0:0,0:0:0:0:
48,329,45228,5,8,0:0:0:0:
48,329,45581,86,0,L|107:310,1,57.3750002188683,2|0,3:2|0:0,0:0:0:0:
172,199,45757,2,0,L|158:259,1,57.3750002188683,2|0,0:0|0:0,0:0:0:0:
222,371,45934,2,0,L|176:329,1,57.3750002188683,2|0,0:0|0:0,0:0:0:0:
179,332,46287,38,0,L|222:371,1,57.3750002188683,2|0,3:2|0:0,0:0:0:0:
265,272,46463,2,0,L|282:326,1,57.3750002188683,2|0,0:0|0:0,0:0:0:0:
369,262,46640,2,0,L|356:318,1,57.3750002188683,8|0,0:0|0:0,0:0:0:0:
464,305,46816,2,0,L|425:347,1,57.3750002188683,2|0,0:0|0:0,0:0:0:0:
356,318,46993,2,0,L|369:262,1,57.3750002188683,2|0,0:0|0:0,0:0:0:0:
282,326,47169,2,0,L|265:272,1,57.3750002188683,2|0,0:0|0:0,0:0:0:0:
146,324,47346,86,0,P|173:312|194:286,1,57.3750002188683,2|0,3:2|0:0,0:0:0:0:
94,205,47522,2,0,P|106:232|132:253,1,57.3750002188683,2|0,0:0|0:0,0:0:0:0:
213,153,47698,6,0,P|186:165|165:191,1,57.3750002188683,2|0,0:0|0:0,0:0:0:0:
265,272,47875,2,0,P|253:245|227:224,1,57.3750002188683,2|0,0:0|0:0,0:0:0:0:
71,301,48051,85,8,0:0:0:0:
71,301,48404,38,0,P|68:267|58:239,1,57.3750002188683,2|0,3:2|0:0,0:0:0:0:
121,203,48581,2,0,P|97:179|71:163,1,57.3750002188683,2|0,3:2|0:0,0:0:0:0:
96,95,48757,2,0,P|62:91|1:156,1,114.750000437737,2|0,0:0|3:0,0:0:0:0:
178,133,49110,86,0,L|180:104,4,28.6875001094341
178,133,49463,2,0,P|229:137|262:165,1,85,8|0,0:0|0:0,0:0:0:0:
343,284,49816,1,0,3:0:0:0:
341,258,49904,1,0,0:0:0:0:
348,233,49993,1,0,0:0:0:0:
362,211,50081,1,0,0:0:0:0:
380,193,50169,6,0,P|358:190|322:174,1,57.3750002188683,2|0,3:2|0:0,0:0:0:0:
211,197,50346,2,0,P|233:200|269:216,1,57.3750002188683,2|0,0:0|0:0,0:0:0:0:
388,330,50522,86,0,P|374:312|360:275,1,57.3750002188683,2|0,0:0|0:0,0:0:0:0:
265,213,50699,2,0,P|278:230|292:267,1,57.3750002188683,2|0,3:2|0:0,0:0:0:0:
239,369,50875,37,8,0:0:0:0:
239,369,51228,86,0,L|172:364,1,57.3750002188683,2|0,3:2|0:0,0:0:0:0:
327,378,51404,2,0,L|394:373,1,57.3750002188683,2|0,0:0|0:0,0:0:0:0:
455,363,51581,1,0,0:0:0:0:
455,363,51934,6,0,P|449:329|460:292,1,57.3750002188683,2|0,0:0|0:0,0:0:0:0:
496,182,52110,2,0,P|502:216|491:253,1,57.3750002188683,2|0,0:0|0:0,0:0:0:0:
344,209,52286,85,8,0:0:0:0:
344,209,52993,6,0,B|271:170|203:207|203:207|226:219,1,172.125000656605,4|0,3:2|0:0,0:0:0:0:
235,227,53346,1,2,0:0:0:0:
228,91,53522,2,0,P|222:72|198:41,1,57.3750002188683,2|0,3:2|0:0,0:0:0:0:
115,159,53698,101,10,0:0:0:0:
228,91,53875,1,2,0:0:0:0:
182,259,54051,6,0,B|216:315|283:297|283:297|339:343|389:302|389:302|396:333|424:360,1,286.875001094341,2|0,3:2|0:0,0:0:0:0:
340,253,54581,2,0,B|322:208|353:164|353:164|465:181|467:297,1,286.875001094341,2|0,3:2|0:0,0:0:0:0:
511,171,55110,1,10,3:2:0:0:
340,253,55287,102,0,B|310:251|310:251|320:226,1,57.3750002188683,2|0,0:0|0:0,0:0:0:0:
354,146,55463,2,0,B|370:121|370:121|387:142,1,57.3750002188683,2|0,0:0|0:0,0:0:0:0:
439,211,55640,2,0,B|452:237|452:237|425:241,1,57.3750002188683,2|0,0:0|0:0,0:0:0:0:
272,122,55816,6,0,P|266:68|268:-5,1,114.750000437737,2|0,3:2|0:0,0:0:0:0:
117,84,56169,1,2,0:0:0:0:
204,160,56346,2,0,P|204:125|199:94,1,57.3750002188683,2|0,3:2|0:0,0:0:0:0:
170,16,56522,101,8,0:0:0:0:
127,238,56698,1,2,0:0:0:0:
371,90,56875,6,0,B|298:143|421:218|346:297|346:297|347:257|313:227,1,286.875001094341,2|0,3:2|0:0,0:0:0:0:
205,365,57404,2,0,B|227:328|273:291|273:291|199:328|70:297,1,286.875001094341,2|0,3:2|0:0,0:0:0:0:
65,293,57934,101,10,3:2:0:0:
15,159,58110,1,0,0:0:0:0:
220,222,58287,5,2,0:0:0:0:
235,184,58375,1,2,0:0:0:0:
236,143,58463,1,2,0:0:0:0:
225,104,58551,1,2,0:0:0:0:
201,71,58640,102,0,P|124:51|85:131,1,172.125000656605,2|0,3:2|0:0,0:0:0:0:
87,136,58993,1,2,0:0:0:0:
0,18,59169,2,0,P|16:46|21:85,1,57.3750002188683,2|0,3:2|0:0,0:0:0:0:
0,170,59346,5,10,0:0:0:0:
166,142,59522,1,2,0:0:0:0:
60,268,59698,102,0,B|231:228|150:364|338:306,1,286.875001094341,2|0,3:2|0:0,0:0:0:0:
478,324,60228,2,0,B|469:256|418:228|358:238|358:238|420:274|395:355,1,286.875001094341,2|0,3:2|0:0,0:0:0:0:
282,238,60757,1,10,3:2:0:0:
351,132,60934,6,0,B|349:162|349:162|324:152,1,57.3750002188683,2|0,0:0|0:0,0:0:0:0:
244,118,61110,2,0,B|219:101|219:101|240:84,1,57.3750002188683,2|0,0:0|0:0,0:0:0:0:
309,32,61287,2,0,B|335:18|335:18|339:45,1,57.3750002188683,2|0,0:0|0:0,0:0:0:0:
218,200,61463,102,0,P|174:203|116:200,1,85,2|0,3:2|0:0,0:0:0:0:
133,201,61816,1,2,0:0:0:0:
231,382,61993,6,0,P|242:335|246:298,1,85,2|0,3:2|0:0,0:0:0:0:
245,298,62346,1,2,0:0:0:0:
355,366,62522,102,0,B|413:278|320:264|344:141|344:141|371:202,1,286.875001094341,6|0,3:2|0:0,0:0:0:0:
365,189,63051,1,0,3:0:0:0:
381,79,63228,2,0,P|377:138|369:192,1,114.750000437737,0|0,3:0|0:0,0:0:0:0:
294,315,63580,1,8,0:0:0:0:
294,315,64287,22,0,P|254:296|196:302,1,85,4|2,3:2|0:0,0:0:0:0:
73,381,64640,2,0,P|115:369|156:327,1,85,2|2,3:2|0:0,0:0:0:0:
136,179,64993,1,8,0:0:0:0:
241,132,65169,1,0,0:0:0:0:
383,159,65346,1,0,0:0:0:0:
241,132,65522,5,2,0:0:0:0:
288,249,65698,1,2,0:0:0:0:
383,159,65874,1,2,3:2:0:0:
445,270,66051,1,2,3:2:0:0:
494,175,66228,102,0,L|446:183,1,42.5,2|0,0:0|0:0,0:0:0:0:
288,249,66404,2,0,P|329:250|384:252,1,85,8|2,0:0|0:0,0:0:0:0:
476,345,66757,1,2,3:2:0:0:
455,351,66846,1,0,0:0:0:0:
433,351,66934,1,2,0:0:0:0:
412,345,67022,1,0,0:0:0:0:
392,337,67110,6,0,P|348:335|308:352,1,85,0|2,0:3|0:0,0:0:0:0:
110,353,67463,2,0,P|149:368|191:366,1,85,2|2,3:2|0:0,0:0:0:0:
336,191,67816,1,10,0:0:0:0:
233,215,67993,1,0,3:0:0:0:
209,112,68169,1,0,0:0:0:0:
186,304,68346,101,2,3:2:0:0:
307,268,68522,2,0,P|359:269|423:325,1,127.5,2|0,0:0|0:0,0:0:0:0:
475,371,68875,6,0,L|481:338,3,21.25,2|0|0|0,3:2|0:0|0:0|0:0,0:0:0:0:
482,338,69051,1,2,0:0:0:0:
512,197,69228,2,0,P|466:196|418:200,1,85,8|0,0:0|0:0,0:0:0:0:
251,269,69581,1,2,0:0:0:0:
259,249,69669,1,0,0:0:0:0:
263,228,69757,1,2,0:0:0:0:
261,206,69846,1,0,0:0:0:0:
256,185,69934,102,0,P|242:151|250:104,1,85,0|2,0:3|0:0,0:0:0:0:
344,302,70287,2,0,P|358:268|350:221,1,85,2|2,3:2|0:0,0:0:0:0:
179,347,70640,2,0,P|224:340|270:337,1,85,8|0,0:0|0:0,0:0:0:0:
471,384,70993,1,0,3:0:0:0:
479,266,71169,5,2,3:2:0:0:
427,324,71346,1,2,0:0:0:0:
383,195,71522,1,2,3:2:0:0:
323,342,71698,102,0,L|331:369,3,21.25,2|0|0|0,0:0|0:0|0:0|0:0,0:0:0:0:
321,330,71875,1,2,0:0:0:0:
143,355,72051,2,0,P|100:360|57:375,1,85,8|2,0:0|0:0,0:0:0:0:
218,259,72404,1,2,3:2:0:0:
197,253,72493,1,0,0:0:0:0:
176,246,72581,1,0,0:0:0:0:
159,232,72669,1,0,0:0:0:0:
143,217,72757,6,0,P|127:172|134:129,1,85,0|0,3:0|0:0,0:0:0:0:
226,30,73110,1,0,0:0:0:0:
109,48,73287,1,2,3:2:0:0:
232,160,73463,2,0,P|276:156|332:147,1,85,10|2,0:0|0:0,0:0:0:0:
456,40,73816,2,0,P|441:88|447:135,2,85,4|2|2,3:3|0:0|0:0,0:0:0:0:
342,3,74346,1,2,0:0:0:0:
199,42,74522,2,0,L|172:32,4,21.25
200,233,74874,70,0,B|173:199|192:168|192:168|217:124|187:98|187:98|212:70|195:34,1,208.249993644715
207,34,75581,22,0,P|222:31|245:29,1,31.8750012159348,6|0,3:2|0:0,0:0:0:0:
120,132,75757,2,0,P|105:135|82:137,1,31.8750012159348,2|0,0:0|0:0,0:0:0:0:
265,103,75934,2,0,P|280:106|303:108,1,31.8750012159348,2|0,0:0|0:0,0:0:0:0:
120,38,76110,2,0,P|105:35|82:33,1,31.8750012159348,2|0,0:0|0:0,0:0:0:0:
250,188,76287,1,8,0:0:0:0:
250,188,76640,86,0,P|271:206|298:177,1,63.7500024318696,2|0,3:2|0:0,0:0:0:0:
139,111,76993,1,0,0:0:0:0:
191,247,77169,1,0,3:0:0:0:
309,100,77346,2,0,L|303:74,4,15.9375006079674,0|0|0|0|0,3:0|0:0|0:0|0:0|0:0,0:0:0:0:
424,229,77698,2,0,P|467:226|517:221,1,85,8|0,0:0|0:0,0:0:0:0:
266,292,78051,2,0,P|309:295|359:300,1,85,0|0,3:0|0:0,0:0:0:0:
363,302,78316,1,0,0:0:0:0:
375,305,78404,22,0,B|416:299|416:299|451:341,1,85,2|0,3:2|0:0,0:0:0:0:
290,174,78757,2,0,B|331:180|331:180|366:138,1,85
126,87,79110,2,0,P|151:118|164:166,1,85,8|0,0:0|0:0,0:0:0:0:
77,363,79463,86,0,P|59:340|67:279,2,85,2|0|0,3:2|0:0|0:0,0:0:0:0:
215,276,79993,1,0,0:0:0:0:
71,213,80169,2,0,L|42:218,4,21.25,0|0|0|0|0,3:0|0:0|0:0|0:0|0:0,0:0:0:0:
170,61,80522,2,0,P|156:101|162:142,1,85,8|0,0:0|0:0,0:0:0:0:
274,255,80875,1,0,0:0:0:0:
274,229,80963,1,0,0:0:0:0:
281,204,81051,1,0,0:0:0:0:
300,187,81140,1,0,0:0:0:0:
322,175,81227,22,0,P|335:217|340:272,2,85,2|0|0,3:2|0:0|0:0,0:0:0:0:
197,90,81757,1,0,0:0:0:0:
402,128,81933,2,0,P|442:129|493:125,1,85,8|0,0:0|0:0,0:0:0:0:
218,255,82286,86,0,B|310:246|280:313|382:282,1,170,2|0,3:2|0:0,0:0:0:0:
496,236,82815,1,0,3:0:0:0:
378,198,82992,2,0,P|373:234|382:295,1,85,0|0,3:0|0:0,0:0:0:0:
469,44,83345,2,0,P|474:80|464:141,1,85,8|0,0:0|0:0,0:0:0:0:
254,29,83698,1,0,3:0:0:0:
276,37,83786,1,0,0:0:0:0:
301,41,83874,1,0,0:0:0:0:
326,39,83962,1,0,0:0:0:0:
350,32,84051,22,0,B|380:66|386:108|365:158|365:158|379:134|397:126,1,170,2|0,3:2|0:0,0:0:0:0:
498,31,84580,1,2,3:2:0:0:
387,131,84757,2,0,P|434:142|479:133,1,85,8|0,0:0|0:0,0:0:0:0:
230,210,85109,86,0,L|239:126,1,85,2|0,3:2|0:0,0:0:0:0:
222,280,85462,1,0,0:0:0:0:
116,145,85639,2,0,L|125:229,1,85,2|0,3:2|0:0,0:0:0:0:
108,75,85992,1,0,0:0:0:0:
327,202,86168,38,0,B|282:189|286:144|286:144|294:92,1,127.5,8|0,0:0|0:0,0:0:0:0:
294,81,86521,2,0,P|278:68|248:63,1,34,2|0,0:0|0:0,0:0:0:0:
185,51,86698,2,0,P|164:50|137:65,1,34,2|0,0:0|0:0,0:0:0:0:
385,86,86874,101,2,3:2:0:0:
222,144,87227,1,2,0:0:0:0:
333,255,87580,1,2,0:0:0:0:
25,314,87933,69,8,0:0:0:0:
103,163,88286,1,2,0:0:0:0:
205,298,88639,2,0,L|213:254,1,42.5,2|0,0:0|0:0,0:0:0:0:
35,85,88992,37,2,3:2:0:0:
236,116,89345,1,2,0:0:0:0:
58,217,89698,1,2,0:0:0:0:
382,92,90051,69,8,0:0:0:0:
178,80,90404,1,2,0:0:0:0:
210,281,90757,1,2,0:0:0:0:
502,209,91109,37,2,3:2:0:0:
352,347,91462,1,2,0:0:0:0:
213,197,91815,1,2,0:0:0:0:
477,108,92168,69,8,0:0:0:0:
130,381,92521,37,2,0:0:0:0:
130,381,92874,1,0,0:0:0:0:
95,179,93227,69,2,3:2:0:0:
216,7,93580,1,2,0:0:0:0:
15,9,93933,1,2,0:0:0:0:
161,151,94286,22,0,L|181:172,1,21.25,10|0,0:0|0:0,0:0:0:0:
186,160,94462,2,0,L|193:190,1,21.25,2|0,0:0|0:0,0:0:0:0:
203,174,94639,2,0,L|196:205,1,21.25,2|0,0:0|0:0,0:0:0:0:
126,242,94815,5,10,0:0:0:0:
82,195,94904,1,10,0:0:0:0:
89,131,94992,1,10,0:0:0:0:
252,59,95168,85,10,0:0:0:0:
313,85,95257,1,10,0:0:0:0:
354,134,95345,38,0,P|379:236|348:347,1,212.5,4|0,3:2|0:0,0:0:0:0:
122,211,95874,1,0,0:0:0:0:
112,180,95962,1,0,0:0:0:0:
122,149,96051,1,2,0:0:0:0:
200,264,96227,1,2,3:2:0:0:
40,68,96404,86,0,P|131:57|253:59,1,212.5,10|0,0:0|0:0,0:0:0:0:
288,194,96933,1,0,0:0:0:0:
406,37,97109,1,2,0:0:0:0:
493,113,97286,2,0,P|500:143|493:175,1,53.125
273,126,97462,6,0,B|352:100|426:142|426:142|355:160,1,212.5,4|0,3:2|0:0,0:0:0:0:
232,26,97992,1,2,0:0:0:0:
273,126,98168,1,2,3:2:0:0:
173,166,98345,1,2,0:0:0:0:
415,37,98521,86,0,P|426:88|424:160,1,106.25,10|0,0:0|0:0,0:0:0:0:
260,305,98874,2,0,P|260:252|272:201,1,106.25
287,26,99227,1,2,0:0:0:0:
162,128,99404,1,0,0:0:0:0:
0,35,99580,38,0,P|45:19|111:35,1,106.25,6|0,3:2|0:0,0:0:0:0:
222,182,99932,2,0,P|201:225|127:269,1,106.25,10|0,0:0|0:0,0:0:0:0:
94,219,100197,1,0,0:0:0:0:
96,206,100285,2,0,P|116:162|190:118,1,106.25,2|2,0:0|3:2,0:0:0:0:
406,88,100639,86,0,P|422:133|407:207,1,114.750000437737,2|0,3:2|0:0,0:0:0:0:
259,310,100992,2,0,P|215:289|171:215,1,114.750000437737,10|0,0:0|0:0,0:0:0:0:
235,166,101257,1,0,0:0:0:0:
247,168,101345,2,0,P|290:188|334:262,1,114.750000437737,2|0,0:0|0:0,0:0:0:0:
43,29,101697,6,0,P|27:74|61:162,1,131.750001005173,6|0,3:2|0:0,0:0:0:0:
248,244,102051,2,0,P|291:223|335:149,1,131.750001005173,10|0,0:0|0:0,0:0:0:0:
269,72,102316,1,0,0:0:0:0:
252,76,102404,2,0,P|208:96|164:170,1,131.750001005173,10|0,0:0|0:0,0:0:0:0:
465,127,102757,86,0,B|348:121|375:202|264:177,1,210.375002006292,2|0,3:2|0:0,0:0:0:0:
214,373,103109,2,0,B|277:274|194:257|271:173,1,210.375002006292,2|0,3:2|0:0,0:0:0:0:
125,32,103462,2,0,B|178:136|234:72|268:181,1,210.375002006292,2|0,3:2|0:0,0:0:0:0:
266,177,103815,38,0,P|313:134|330:52,1,123.250003761292,6|8,0:0|0:0,0:0:0:0:
329,60,104080,1,8,0:0:0:0:
318,44,104168,1,8,0:0:0:0:
482,97,104345,1,0,3:0:0:0:
417,10,104521,86,0,P|407:73|421:140,1,123.250003761292
459,329,104874,5,2,3:2:0:0:
478,267,105051,1,8,0:0:0:0:
298,382,105227,85,2,3:2:0:0:
340,329,105403,1,8,0:0:0:0:
213,163,105580,37,2,3:2:0:0:
284,199,105756,1,8,0:0:0:0:
151,18,105933,86,0,P|97:55|66:124,1,123.250003761292,2|8,3:2|0:0,0:0:0:0:
64,122,106198,1,8,0:0:0:0:
62,140,106286,1,8,0:0:0:0:
262,64,106462,2,0,P|278:122|266:182,2,123.250003761292,0|2|0,3:0|0:0|0:0,0:0:0:0:
153,221,106992,5,2,3:2:0:0:
191,153,107168,1,8,0:0:0:0:
260,364,107345,85,2,3:2:0:0:
241,278,107521,1,8,0:0:0:0:
388,139,107698,37,6,3:2:0:0:
417,258,107874,1,8,0:0:0:0:
133,108,108051,85,6,3:2:0:0:
309,29,108227,1,8,0:0:0:0:
332,36,108315,1,8,0:0:0:0:
347,55,108404,1,8,0:0:0:0:
253,196,108580,6,0,P|314:184|375:178,2,123.250003761292,0|2|0,3:0|0:0|0:0,0:0:0:0:
31,315,109109,85,2,3:2:0:0:
144,342,109285,2,0,P|152:305|144:268,1,61.6250018806458,8|8,0:0|0:0,0:0:0:0:
72,127,109461,37,2,3:2:0:0:
30,244,109639,1,10,0:0:0:0:
172,36,109815,85,4,3:2:0:0:
203,179,109992,1,10,0:0:0:0:
268,328,110168,6,0,P|271:251|306:197,1,123.250003761292,6|8,3:2|0:0,0:0:0:0:
306,199,110433,1,8,0:0:0:0:
320,209,110521,1,8,0:0:0:0:
368,47,110698,85,0,3:0:0:0:
444,166,110874,1,10,0:0:0:0:
505,43,111051,1,8,0:0:0:0:
180,37,111227,38,0,P|171:113|230:213,1,184.875005641937,6|0,3:2|0:0,0:0:0:0:
67,218,111580,2,0,P|145:243|207:325,1,184.875005641937,6|0,3:2|0:0,0:0:0:0:
357,187,111933,2,0,P|294:250|281:358,1,184.875005641937,6|0,3:2|0:0,0:0:0:0:
266,131,112286,86,0,P|183:118|63:232,1,246.500007522583,6|0,3:2|3:0,0:0:0:0:
401,275,112815,2,0,P|437:215|370:54,1,246.500007522583,8|0,0:0|3:0,0:0:0:0:
215,255,113345,2,0,P|283:279|277:189,1,184.875005641937,8|0,0:0|0:0,0:0:0:0:
265,178,113698,1,2,0:0:0:0:
229,166,113786,1,2,0:0:0:0:
192,170,113874,1,2,0:0:0:0:
159,188,113962,1,2,0:0:0:0:
136,218,114051,2,0,P|110:281|110:340,1,123.250003761292,2|0,0:0|0:0,0:0:0:0:
387,310,114404,6,0,P|382:249|372:168,2,123.250003761292,0|0|0,3:0|0:0|3:0,0:0:0:0:
250,87,114933,1,0,0:0:0:0:
390,99,115109,1,0,3:0:0:0:
309,214,115286,1,0,0:0:0:0:
138,204,115462,85,2,3:2:0:0:
209,222,115639,1,0,0:0:0:0:
454,245,115815,37,2,3:2:0:0:
378,236,115992,1,0,0:0:0:0:
154,333,116168,85,2,3:2:0:0:
222,311,116345,1,0,0:0:0:0:
121,104,119698,85,2,0:0:0:0:
152,170,120051,1,0,0:0:0:0:
193,110,120403,1,0,0:0:0:0:
129,258,120757,101,2,0:0:0:0:
202,250,121109,1,0,0:0:0:0:
435,159,121462,5,2,0:0:0:0:
410,229,121815,1,0,0:0:0:0:
236,64,122168,102,0,L|226:-2,1,59.4999981842042,2|0,0:0|0:0,0:0:0:0:
337,54,122874,1,0,0:0:0:0:
163,172,123933,5,2,0:0:0:0:
267,207,124286,1,0,0:0:0:0:
225,312,124639,101,2,0:0:0:0:
334,256,124992,2,0,L|341:248,2,7.43749977302552,2|2|2,0:0|0:0|0:0,0:0:0:0:
287,79,125698,5,0,0:0:0:0:
423,92,126404,101,0,0:0:0:0:
420,111,126580,1,0,0:0:0:0:
297,117,126756,6,0,B|304:150,2,29.7499990921021,2|0|0,0:0|0:0|0:0,0:0:0:0:
338,220,127286,1,0,0:0:0:0:
125,42,127815,102,0,P|132:71|139:109,1,59.4999981842042,2|0,0:0|0:0,0:0:0:0:
92,236,128521,5,0,0:0:0:0:
280,177,128874,1,0,0:0:0:0:
280,177,129580,101,2,0:0:0:0:
246,253,129933,1,0,0:0:0:0:
303,312,130286,1,0,0:0:0:0:
456,251,130639,5,2,0:0:0:0:
451,155,130992,1,0,0:0:0:0:
364,115,131345,1,0,0:0:0:0:
280,161,131698,1,0,0:0:0:0:
99,34,132051,102,0,L|164:43,1,59.4999981842042,2|0,0:0|0:0,0:0:0:0:
31,120,132757,5,0,0:0:0:0:
125,131,133109,1,0,0:0:0:0:
148,223,133462,1,0,0:0:0:0:
69,277,133815,1,0,0:0:0:0:
352,253,134168,101,0,0:0:0:0:
279,190,134521,1,0,0:0:0:0:
193,232,134874,1,0,0:0:0:0:
194,327,135227,2,0,L|196:337,2,7.43749977302552,2|2|0,0:0|0:0|0:0,0:0:0:0:
256,192,135404,12,8,137345,3:0:0:0:
133,310,138051,54,0,B|167:183|76:189|110:90,1,223.125008511544,0|0,3:0|0:0,0:0:0:0:
19,73,138757,2,0,B|78:63|78:63|164:110|164:110|235:100,1,223.125008511544,8|0,0:0|0:0,0:0:0:0:
228,100,139462,6,0,B|325:86|286:202|430:175,1,223.125008511544,0|0,3:0|0:0,0:0:0:0:
452,57,140168,2,0,B|406:16|406:16|429:101|423:193,1,223.125008511544,8|0,0:0|0:0,0:0:0:0:
424,176,140874,102,0,P|380:162|425:255,1,223.125008511544,0|0,3:0|0:0,0:0:0:0:
504,265,141580,2,0,B|469:307|397:269|397:269|416:303|416:303|394:331|402:380,1,223.125008511544,8|0,0:0|0:0,0:0:0:0:
400,366,142286,6,0,P|283:355|160:354,1,223.125008511544,0|0,3:0|0:0,0:0:0:0:
68,340,142992,2,0,B|98:379|98:379|89:342|89:342|107:236|107:236|125:268,1,223.125008511544,8|0,0:0|0:0,0:0:0:0:
120,260,143698,102,0,P|37:207|133:172,1,223.125008511544,0|0,3:0|0:0,0:0:0:0:
230,206,144404,2,0,B|250:124|209:55|209:55|197:97|156:104,1,223.125008511544,8|0,0:0|0:0,0:0:0:0:
166,102,145109,6,0,P|292:106|376:152,1,223.125008511544,0|0,3:0|0:0,0:0:0:0:
329,226,145815,2,0,B|378:218|421:244|421:244|427:196|460:153|512:144,1,223.125008511544,8|0,0:0|0:0,0:0:0:0:
494,148,146521,102,0,B|426:113|433:26|433:26|488:21|498:78,1,223.125008511544,0|0,3:0|0:0,0:0:0:0:
373,98,147227,2,0,P|304:113|169:31,1,223.125008511544,8|0,0:0|0:0,0:0:0:0:
176,42,147933,6,0,B|138:157|248:136|199:274,1,223.125008511544,0|0,3:0|0:0,0:0:0:0:
95,294,148639,2,0,B|169:304|206:254|206:254|198:309|259:362,1,223.125008511544,8|0,0:0|0:0,0:0:0:0:
239,343,149345,102,0,B|326:298|397:331|397:331|344:369,1,223.125008511544,0|0,3:0|0:0,0:0:0:0:
448,388,150051,2,0,B|487:327|444:276|444:276|398:219|411:161,1,223.125008511544,8|0,0:0|0:0,0:0:0:0:
408,183,150757,6,0,B|382:141|420:96|420:96|498:117|483:202,1,223.125008511544,0|0,3:0|0:0,0:0:0:0:
345,245,151462,2,0,B|222:270|263:172|124:187,1,223.125008511544,8|0,0:0|0:0,0:0:0:0:
139,185,152168,102,0,B|157:133|101:85|101:85|151:57|212:87,1,223.125008511544,0|0,3:0|0:0,0:0:0:0:
307,99,152874,2,0,B|273:63|273:63|279:116|250:141|250:141|275:189|255:242,1,223.125008511544,8|0,0:0|0:0,0:0:0:0:
259,227,153580,6,0,P|373:185|478:176,1,223.125008511544,0|0,3:0|0:0,0:0:0:0:
426,248,154286,2,0,B|433:202|407:161|407:161|466:101|438:29,1,223.125008511544,8|0,0:0|0:0,0:0:0:0:
442,40,154992,102,0,L|299:54,1,127.500004863739,0|0,3:0|0:0,0:0:0:0:
442,40,155698,1,8,0:0:0:0:
155,173,156404,6,0,L|298:186,1,127.500004863739,0|0,3:0|0:0,0:0:0:0:
155,173,157110,1,8,0:0:0:0:
85,367,157462,102,0,P|118:315|156:308,1,95.6250036478044,0|0,3:0|0:0,0:0:0:0:
165,308,157815,6,0,L|265:326,2,85.0000032424928,2|2|2,0:0|0:0|0:0,0:0:0:0:
44,253,158521,1,10,0:0:0:0:
84,152,158757,1,2,0:0:0:0:
157,232,158992,1,2,0:0:0:0:
117,358,159227,5,10,0:0:0:0:
157,232,159462,2,0,P|188:232|217:238,1,42.5000016212464,2|10,0:0|0:0,0:0:0:0:
35,261,159698,1,2,0:0:0:0:
192,87,159933,1,10,0:0:0:0:
317,205,160168,53,2,0:0:0:0:
384,194,160286,1,10,0:0:0:0:
373,127,160404,1,10,0:0:0:0:
306,138,160521,1,10,0:0:0:0:
317,205,160639,22,0,L|331:297,1,85.0000032424928,6|0,0:0|0:0,0:0:0:0:
342,373,160992,1,2,0:0:0:0:
282,341,161109,1,2,0:0:0:0:
224,377,161227,1,2,0:0:0:0:
140,303,161345,22,0,B|158:289|158:289|151:353,1,85.0000032424928,8|0,0:0|0:0,0:0:0:0:
24,207,161698,1,2,0:0:0:0:
81,248,161815,1,2,0:0:0:0:
134,205,161933,1,2,0:0:0:0:
198,227,162051,54,0,B|237:242|237:242|285:230,1,85.0000032424928,0|0,3:0|0:0,0:0:0:0:
415,174,162404,21,2,0:0:0:0:
362,130,162521,1,2,0:0:0:0:
345,196,162639,1,2,0:0:0:0:
484,192,162757,22,0,B|492:149|492:149|478:103,2,85.0000032424928,8|0|0,0:0|0:0|0:0,0:0:0:0:
198,104,163462,54,0,L|291:106,1,85.0000032424928,0|0,3:0|0:0,0:0:0:0:
334,34,163815,1,2,0:0:0:0:
372,95,163933,1,2,0:0:0:0:
343,161,164051,1,2,0:0:0:0:
419,236,164168,22,0,B|394:222|394:222|327:238,2,85.0000032424928,8|2|2,0:0|0:0|0:0,0:0:0:0:
346,351,164874,21,2,3:2:0:0:
130,326,165109,1,2,0:0:0:0:
155,110,165345,1,2,0:0:0:0:
357,352,165580,54,0,L|293:344,1,56.6666666666667,8|0,0:3|0:0,0:0:0:0:
181,356,166286,22,0,B|215:376|215:376|202:272,1,130.333335819244,0|0,3:0|0:0,0:0:0:0:
114,133,166639,1,2,0:0:0:0:
151,194,166757,1,2,0:0:0:0:
191,135,166874,1,2,0:0:0:0:
0,190,166992,22,0,B|29:187|29:187|45:200|45:200|86:195,1,85.0000032424928,8|2,0:0|0:0,0:0:0:0:
191,135,167345,1,2,0:0:0:0:
233,69,167462,1,2,0:0:0:0:
281,126,167580,1,2,0:0:0:0:
332,71,167698,54,0,B|376:61|376:61|419:74,1,85.0000032424928,0|0,3:0|0:0,0:0:0:0:
429,184,168051,21,2,0:0:0:0:
376,140,168168,1,2,0:0:0:0:
359,206,168286,1,2,0:0:0:0:
497,219,168404,22,0,L|503:122,2,85.0000032424928,8|0|0,0:0|0:0|0:0,0:0:0:0:
282,92,169109,54,0,P|262:99|237:126,1,45.3333333333333,2|0,3:2|0:0,0:0:0:0:
348,167,169345,2,0,P|322:160|296:165,1,50.9999984436036,2|0,0:0|0:0,0:0:0:0:
360,272,169580,2,0,P|343:243|313:225,1,56.6666666666667,2|0,0:0|0:0,0:0:0:0:
156,140,169815,22,0,P|179:148|208:179,1,62.3333352355958,10|0,0:0|0:0,0:0:0:0:
72,215,170051,2,0,P|106:205|140:212,1,67.9999979248048,2|0,3:2|0:0,0:0:0:0:
60,329,170286,2,0,P|79:295|113:275,1,73.6666632944744,2|0,3:2|0:0,0:0:0:0:
361,299,170521,22,0,P|372:346|403:371,1,79.3333309122722,10|0,3:2|0:0,0:0:0:0:
309,206,170757,2,0,P|262:191|224:206,1,85.0000032424928,10|0,3:2|0:0,0:0:0:0:
414,209,170992,2,0,P|449:175|455:135,1,90.6666666666667,10|0,3:2|0:0,0:0:0:0:
289,44,171227,54,0,B|248:119|342:133|301:228,1,169.999994812012,8|0,0:3|0:0,0:0:0:0:
134,186,171933,22,0,B|99:154|118:112|163:99|221:135|219:202|191:253,1,195.500003728867,4|2,3:2|0:0,0:0:0:0:
85,323,172521,1,2,0:0:0:0:
184,288,172639,2,0,B|138:270|138:270|171:306|153:361,1,130.333335819244,8|0,0:0|0:0,0:0:0:0:
231,377,172992,1,0,3:0:0:0:
351,217,173227,21,2,0:0:0:0:
363,283,173345,1,2,0:0:0:0:
175,174,173580,1,2,0:0:0:0:
163,240,173698,1,2,3:2:0:0:
300,49,173933,1,2,0:0:0:0:
360,145,174051,2,0,B|437:128|410:184|493:166,1,130.333335819244,8|0,0:0|0:0,0:0:0:0:
493,169,174403,2,0,P|463:205|459:235,2,65.1666679096222,2|2|2,3:2|0:0|0:0,0:0:0:0:
348,253,174757,54,0,B|383:209|383:209|382:262|419:293,1,130.333335819244,0|0,3:0|0:0,0:0:0:0:
454,328,175109,1,2,0:0:0:0:
188,264,175345,1,2,0:0:0:0:
252,342,175462,2,0,B|276:305|276:305|255:205,1,130.333335819244,8|0,0:0|0:0,0:0:0:0:
242,152,175815,1,2,0:0:0:0:
80,4,176051,1,2,0:0:0:0:
121,70,176168,22,0,P|182:82|225:31,2,130.333335819244,2|2|2,3:2|0:0|0:0,0:0:0:0:
312,133,176874,2,0,P|375:112|445:146,1,130.333335819244,10|2,0:0|0:0,0:0:0:0:
471,215,177227,1,2,0:0:0:0:
395,257,177345,2,0,P|346:255|297:216,1,97.7500018644333,2|0,0:0|0:0,0:0:0:0:
296,218,177580,22,0,P|275:241|267:279,1,65.1666679096222,2|0,3:2|0:0,0:0:0:0:
158,134,177815,2,0,P|179:157|187:195,1,65.1666679096222,2|0,0:0|0:0,0:0:0:0:
296,50,178051,2,0,P|275:73|267:111,1,65.1666679096222,2|0,0:0|0:0,0:0:0:0:
350,276,178286,1,8,0:0:0:0:
350,276,178521,54,0,L|365:347,1,65.1666679096222,2|0,0:0|0:0,0:0:0:0:
202,341,178757,2,0,L|217:270,1,65.1666679096222,2|0,0:0|0:0,0:0:0:0:
368,73,178992,2,0,P|384:93|393:139,1,65.1666679096222,2|0,3:2|0:0,0:0:0:0:
264,196,179227,2,0,P|273:172|308:141,1,65.1666679096222,2|0,0:0|0:0,0:0:0:0:
423,225,179462,2,0,P|397:228|353:213,1,65.1666679096222,2|0,0:0|0:0,0:0:0:0:
191,95,179698,1,8,0:0:0:0:
191,95,179933,22,0,L|109:104,1,65.1666679096222,2|0,0:0|0:0,0:0:0:0:
295,29,180168,2,0,L|377:38,1,65.1666679096222,2|0,3:2|0:0,0:0:0:0:
271,300,180404,21,4,0:0:0:0:
467,73,180639,1,8,0:0:0:0:
451,196,180874,1,8,0:0:0:0:
217,0,181109,53,4,0:0:0:0:
160,268,181345,1,8,0:0:0:0:
100,140,181580,1,8,0:0:0:0:
368,45,181815,22,0,L|358:109,1,65.1666679096222,10|0,0:0|0:0,0:0:0:0:
228,207,182051,2,0,L|289:184,1,65.1666679096222,10|0,0:0|0:0,0:0:0:0:
439,247,182286,2,0,L|388:205,1,65.1666679096222,10|0,0:0|0:0,0:0:0:0:
220,64,182521,22,0,L|287:119,1,82.1666691741944,10|0,0:0|0:0,0:0:0:0:
315,335,182757,2,0,L|329:249,1,82.1666691741944,10|0,0:0|0:0,0:0:0:0:
502,119,182992,2,0,L|421:149,1,82.1666691741944,10|0,0:0|0:0,0:0:0:0:
231,269,183227,54,0,B|191:270|170:293|170:293|151:268|103:264,1,130.333335819244,4|0,0:0|0:0,0:0:0:0:
43,254,183580,1,2,0:0:0:0:
133,46,183815,1,2,3:2:0:0:
235,125,183933,22,0,B|270:138|270:138|283:85|242:42,1,130.333335819244,8|0,0:0|0:0,0:0:0:0:
237,33,184286,1,2,3:2:0:0:
449,39,184521,1,2,0:0:0:0:
372,27,184639,22,0,B|338:66|360:132|360:132|374:108,1,130.333335819244,2|0,0:0|0:0,0:0:0:0:
388,110,184992,1,2,3:2:0:0:
237,313,185227,1,2,3:2:0:0:
285,222,185345,54,0,B|308:191|354:210|347:252|347:252|337:304,1,130.333335819244,8|8,0:0|0:0,0:0:0:0:
492,315,185698,21,8,0:0:0:0:
414,306,185815,1,8,0:0:0:0:
336,297,185933,1,8,0:0:0:0:
253,363,186051,22,0,B|160:388|195:298|91:330,1,158.666661824544,4|0,0:0|0:0,0:0:0:0:
108,325,186404,1,8,0:0:0:0:
116,101,186639,54,0,B|152:44|152:44|179:139|179:139|161:208,1,237.999992736817,4|8,0:0|0:0,0:0:0:0:
52,194,187109,22,0,B|104:181|160:209|160:209|105:217,1,158.666661824544,4|0,0:0|0:0,0:0:0:0:
113,215,187462,1,8,0:0:0:0:
320,257,187698,22,0,B|314:216|319:182|319:182|314:165|314:165|321:137|311:96,1,158.666661824544,4|0,0:0|0:0,0:0:0:0:
311,99,188051,1,2,0:0:0:0:
498,154,188168,2,2,P|461:166|414:156,2,79.3333309122722,10|2|2,0:0|0:0|0:0,0:0:0:0:
463,293,188521,53,2,0:0:0:0:
400,244,188639,1,2,0:0:0:0:
347,304,188757,1,2,0:0:0:0:
294,223,188874,22,0,P|239:227|215:279,1,113.333333333333,2|0,3:2|0:0,0:0:0:0:
135,326,189227,2,0,P|190:322|214:270,1,113.333333333333,2|0,0:0|0:0,0:0:0:0:
163,195,189580,2,0,P|167:250|219:274,1,113.333333333333,2|0,0:0|0:0,0:0:0:0:
265,353,189933,2,0,P|261:298|209:274,1,113.333333333333,2|0,0:0|0:0,0:0:0:0:
27,290,190286,22,0,L|120:276,1,56.6666666666667,8|0,0:0|0:0,0:0:0:0:
83,281,190639,38,0,L|55:275,1,21.25
106,197,190815,1,2,0:0:0:0:
49,66,190992,101,2,0:0:0:0:
139,112,191168,1,2,0:0:0:0:
219,104,191345,1,2,0:0:0:0:
244,81,191521,1,2,0:0:0:0:
244,81,191698,54,0,L|252:183,1,95.6250036478044,0|0,3:0|0:0,0:0:0:0:
252,186,192051,1,0,0:0:0:0:
49,247,192286,1,0,0:0:0:0:
60,240,192403,2,0,P|98:229|149:250,1,85.0000032424928,2|0,0:0|0:0,0:0:0:0:
202,283,192756,2,0,P|240:294|291:273,1,85.0000032424928,0|0,0:0|3:2,0:0:0:0:
283,281,193109,6,0,P|328:273|382:290,1,95.6250036478044,2|0,3:2|0:0,0:0:0:0:
388,294,193462,1,0,3:2:0:0:
418,186,193639,2,0,P|408:142|386:120,2,63.7500024318696,0|2|0,0:0|0:0|0:0,0:0:0:0:
325,66,194168,102,0,B|300:136|313:234|433:270|512:160|484:101|407:90|392:137,1,350.625013375283,2|0,3:2|0:0,0:0:0:0:
396,127,195227,1,2,0:0:0:0:
256,192,195933,12,0,197257,0:0:0:0:
128,248,197345,54,0,P|122:216|120:185,1,42.5,10|2,0:0|0:0,0:0:0:0:
189,189,197698,1,2,0:0:0:0:
192,200,197874,1,2,0:0:0:0:
273,218,198051,6,0,P|267:250|265:281,1,42.5,2|2,0:0|0:0,0:0:0:0:
334,277,198404,1,2,0:0:0:0:
337,266,198580,1,2,0:0:0:0:
418,248,198757,102,0,P|412:216|410:185,1,42.5,2|2,0:0|0:0,0:0:0:0:
479,189,199110,1,2,0:0:0:0:
482,200,199286,1,2,0:0:0:0:
465,114,199462,5,2,0:0:0:0:
440,73,199639,1,2,0:0:0:0:
393,67,199815,1,2,0:0:0:0:
353,91,199992,1,2,0:0:0:0:
226,180,200168,102,0,L|175:173,1,42.5,10|2,0:0|0:0,0:0:0:0:
92,160,200521,1,2,0:0:0:0:
114,163,200698,1,2,0:0:0:0:
263,260,200874,6,0,L|212:253,1,42.5,2|2,0:0|0:0,0:0:0:0:
129,240,201227,1,2,0:0:0:0:
151,243,201404,1,2,0:0:0:0:
190,332,201580,102,0,L|139:325,1,42.5,2|2,0:0|0:0,0:0:0:0:
56,312,201933,1,2,0:0:0:0:
78,315,202110,1,2,0:0:0:0:
184,218,202286,5,2,0:0:0:0:
230,208,202462,1,2,0:0:0:0:
240,254,202639,1,2,0:0:0:0:
194,264,202815,1,2,0:0:0:0:
335,144,202992,102,0,P|341:173|349:195,1,42.5,10|2,0:0|0:0,0:0:0:0:
399,258,203345,1,2,0:0:0:0:
409,198,203521,1,2,0:0:0:0:
440,102,203698,5,2,0:0:0:0:
474,132,203874,1,2,0:0:0:0:
498,92,204051,1,2,0:0:0:0:
414,23,204227,101,2,0:0:0:0:
374,48,204404,1,2,0:0:0:0:
284,84,204580,5,2,0:0:0:0:
311,122,204757,1,2,0:0:0:0:
232,182,204933,101,2,0:0:0:0:
207,142,205109,1,2,0:0:0:0:
201,95,205286,1,2,0:0:0:0:
210,49,205462,1,2,0:0:0:0:
246,19,205639,1,2,0:0:0:0:
85,40,205815,6,0,P|97:69|101:92,1,42.5,10|2,0:0|0:0,0:0:0:0:
58,157,206168,1,2,0:0:0:0:
181,102,206345,102,0,P|168:130|155:150,1,42.5,2|2,0:0|0:0,0:0:0:0:
79,165,206698,1,2,0:0:0:0:
140,249,206874,6,0,L|149:186,1,42.5,2|2,0:0|0:0,0:0:0:0:
217,290,207227,2,0,L|207:240,1,42.5,2|2,0:0|0:0,0:0:0:0:
306,281,207580,2,0,L|280:244,1,42.5,2|2,0:0|0:0,0:0:0:0:
365,201,207933,101,2,0:0:0:0:
367,154,208109,1,2,0:0:0:0:
355,108,208286,1,2,0:0:0:0:
325,71,208462,1,2,0:0:0:0:
108,110,208639,5,10,0:0:0:0:
171,198,208815,1,2,0:0:0:0:
175,127,208992,1,2,0:0:0:0:
103,184,209168,1,2,0:0:0:0:
111,291,209345,101,2,0:0:0:0:
179,267,209521,1,2,0:0:0:0:
253,288,209698,1,2,0:0:0:0:
305,344,209874,1,2,0:0:0:0:
414,236,210051,5,2,0:0:0:0:
359,293,210227,1,2,0:0:0:0:
302,238,210403,1,2,0:0:0:0:
357,181,210580,1,2,0:0:0:0:
476,78,210756,101,2,0:0:0:0:
435,144,210933,1,2,0:0:0:0:
482,200,211109,1,2,0:0:0:0:
452,264,211286,1,2,0:0:0:0:
206,93,211462,5,10,0:0:0:0:
257,155,211639,1,2,0:0:0:0:
264,234,211815,1,2,0:0:0:0:
230,306,211992,1,2,0:0:0:0:
389,247,212168,101,2,0:0:0:0:
386,170,212345,1,2,0:0:0:0:
340,108,212521,1,2,0:0:0:0:
267,82,212698,1,2,0:0:0:0:
167,234,212874,5,10,0:0:0:0:
225,184,213051,1,2,0:0:0:0:
237,253,213227,1,2,0:0:0:0:
159,168,213403,1,2,0:0:0:0:
10,188,213580,101,2,0:0:0:0:
88,201,213756,1,2,0:0:0:0:
159,168,213933,1,2,0:0:0:0:
189,96,214109,1,2,0:0:0:0:
328,218,214286,5,10,0:0:0:0:
318,146,214462,1,2,0:0:0:0:
404,218,214639,1,2,0:0:0:0:
394,146,214815,1,2,0:0:0:0:
461,31,214992,101,2,0:0:0:0:
389,60,215168,1,2,0:0:0:0:
314,54,215345,1,2,0:0:0:0:
172,78,215521,5,2,0:0:0:0:
226,136,215698,1,2,0:0:0:0:
32,196,215874,101,2,0:0:0:0:
108,190,216051,1,2,0:0:0:0:
106,308,216227,5,2,0:0:0:0:
162,258,216403,1,2,0:0:0:0:
236,279,216580,1,2,0:0:0:0:
261,350,216756,1,2,0:0:0:0:
340,342,216933,1,2,0:0:0:0:
388,106,217109,101,10,0:0:0:0:
381,182,217286,1,2,0:0:0:0:
318,137,217462,1,2,0:0:0:0:
250,50,217639,5,2,0:0:0:0:
224,122,217815,1,2,0:0:0:0:
171,70,217992,1,2,0:0:0:0:
83,167,218168,101,2,0:0:0:0:
154,173,218345,1,2,0:0:0:0:
48,282,218521,5,2,0:0:0:0:
113,238,218698,1,2,0:0:0:0:
277,282,218874,101,2,0:0:0:0:
212,229,219051,1,2,0:0:0:0:
174,384,219227,5,2,0:0:0:0:
291,348,219403,1,2,0:0:0:0:
441,384,219580,1,2,0:0:0:0:
505,243,219756,1,2,0:0:0:0:
256,192,219845,12,0,221345,0:0:0:0:
340,242,222757,22,0,L|347:172,1,63.7500024318696,6|0,0:0|0:0,0:0:0:0:
245,65,222933,2,0,L|252:135,1,63.7500024318696,2|0,0:0|0:0,0:0:0:0:
199,275,223109,38,0,L|206:205,1,63.7500024318696,2|0,0:0|0:0,0:0:0:0:
104,98,223285,2,0,L|111:168,1,63.7500024318696,2|0,0:0|0:0,0:0:0:0:
30,240,223462,1,8,0:0:0:0:
30,240,223815,102,0,P|63:238|99:250,1,63.7500024318696,2|0,3:2|0:0,0:0:0:0:
225,305,223992,2,0,P|199:283|163:272,1,63.7500024318696,2|0,0:0|0:0,0:0:0:0:
62,133,224168,70,0,P|85:155|121:169,1,63.7500024318696,2|0,0:0|0:0,0:0:0:0:
253,208,224345,2,0,P|219:207|184:193,1,63.7500024318696,2|0,3:2|0:0,0:0:0:0:
102,43,224521,2,0,P|122:69|132:105,1,63.7500024318696,2|0,3:2|0:0,0:0:0:0:
290,97,224698,2,0,P|259:110|233:138,1,63.7500024318696
101,299,224874,70,0,B|136:340|136:340|183:274|109:212,1,191.250007295609,8|0,0:0|0:0,0:0:0:0:
30,171,225227,2,0,B|150:156|96:248|232:212,1,191.250007295609,0|0,3:0|0:0,0:0:0:0:
382,111,225580,70,0,P|373:152|375:177,1,63.7500024318696,6|0,0:0|0:0,0:0:0:0:
434,333,225757,2,0,P|443:292|441:267,1,63.7500024318696,2|0,0:0|0:0,0:0:0:0:
298,230,225933,102,0,P|329:258|351:269,1,63.7500024318696,2|0,0:0|0:0,0:0:0:0:
512,200,226110,2,0,P|480:171|458:160,1,63.7500024318696,2|0,0:0|0:0,0:0:0:0:
310,91,226286,1,8,0:0:0:0:
310,91,226639,38,0,P|299:54|309:19,1,63.7500024318696,2|0,3:2|0:0,0:0:0:0:
375,172,226815,2,0,P|386:209|376:244,1,63.7500024318696,2|0,0:0|0:0,0:0:0:0:
415,76,226992,2,0,P|452:65|487:75,1,63.7500024318696,2|0,0:0|0:0,0:0:0:0:
293,194,227168,2,0,P|256:205|221:195,1,63.7500024318696,2|0,0:0|0:0,0:0:0:0:
58,110,227345,102,0,B|27:100|27:67|58:41|111:42|127:165,1,191.250007295609,2|0,3:2|0:0,0:0:0:0:
11,217,227698,2,0,B|132:200|76:293|210:264,1,191.250007295609,8|0,0:0|0:0,0:0:0:0:
261,111,228051,69,10,0:0:0:0:
330,108,228139,1,8,0:0:0:0:
373,162,228227,1,10,0:0:0:0:
356,230,228315,1,8,0:0:0:0:
288,250,228404,70,0,P|257:225|249:191,1,63.7500024318696,6|0,3:2|0:0,0:0:0:0:
396,82,228580,2,0,P|427:107|435:141,1,63.7500024318696,2|0,0:0|0:0,0:0:0:0:
267,112,228757,70,0,P|292:81|326:73,1,63.7500024318696,2|0,0:0|0:0,0:0:0:0:
435,220,228933,2,0,P|410:251|376:259,1,63.7500024318696,2|0,0:0|0:0,0:0:0:0:
201,148,229109,1,8,0:0:0:0:
201,148,229462,102,0,P|171:145|131:163,1,63.7500024318696,2|0,3:2|0:0,0:0:0:0:
40,317,229639,2,0,P|70:320|110:302,1,63.7500024318696,2|0,3:2|0:0,0:0:0:0:
136,236,229815,1,0,0:0:0:0:
123,227,229992,38,0,L|188:234,1,63.7500024318696,2|0,3:2|0:0,0:0:0:0:
246,320,230168,2,0,L|311:313,1,63.7500024318696,2|0,3:2|0:0,0:0:0:0:
448,251,230345,2,0,L|383:244,1,63.7500024318696,2|0,0:0|0:0,0:0:0:0:
227,139,230521,1,8,0:0:0:0:
232,129,230698,102,0,P|234:169|227:197,1,63.7500024318696,2|0,0:0|0:0,0:0:0:0:
75,267,230874,2,0,P|108:245|136:237,1,63.7500024318696,2|0,3:2|0:0,0:0:0:0:
274,333,231051,2,0,P|238:314|217:294,1,63.7500024318696,2|0,0:0|0:0,0:0:0:0:
66,81,231227,70,0,P|109:79|139:98,1,68,2|0,3:2|0:0,0:0:0:0:
302,204,231404,2,0,P|259:206|228:183,1,72.2500013780594,2|0,0:0|0:0,0:0:0:0:
252,25,231580,70,0,P|254:68|233:105,1,76.4999976654053,2|0,0:0|0:0,0:0:0:0:
109,261,231757,2,0,P|107:218|135:182,1,80.7499978437424,2|0,3:2|0:0,0:0:0:0:
426,115,231933,70,0,B|513:89|549:197|434:273|346:154|346:154|293:79|202:102,1,425,8|2,0:0|3:2,0:0:0:0:
239,96,232639,1,4,3:0:0:0:
256,192,232727,12,0,233962,0:0:0:0:
294,299,234051,102,0,P|297:264|279:230,1,63.7500024318696,6|0,3:2|0:0,0:0:0:0:
116,151,234227,2,0,P|113:186|131:220,1,63.7500024318696,2|0,0:0|0:0,0:0:0:0:
311,172,234404,38,0,P|276:169|242:187,1,63.7500024318696,2|0,0:0|0:0,0:0:0:0:
100,281,234580,2,0,P|135:284|169:266,1,63.7500024318696,2|0,0:0|0:0,0:0:0:0:
379,185,234757,1,8,0:0:0:0:
379,185,235109,102,0,L|451:177,1,63.7500024318696,2|0,3:2|0:0,0:0:0:0:
285,122,235286,2,0,L|213:114,1,63.7500024318696,2|0,0:0|0:0,0:0:0:0:
466,51,235462,70,0,B|435:39|399:63|399:63|364:30|325:46,2,141.666666666667,2|10|10,3:2|0:0|0:0,0:0:0:0:
358,222,236168,70,0,P|332:176|363:127,1,106.25,2|0,3:2|0:0,0:0:0:0:
442,179,236404,2,0,P|415:224|357:222,1,106.25,10|0,0:0|0:0,0:0:0:0:
363,128,236639,2,0,P|415:128|442:179,1,106.25,10|0,0:0|0:0,0:0:0:0:
279,313,236874,70,0,L|286:243,1,63.7500024318696,6|0,3:2|0:0,0:0:0:0:
214,112,237050,2,0,L|221:182,1,63.7500024318696,2|0,0:0|0:0,0:0:0:0:
182,331,237227,102,0,L|189:261,1,63.7500024318696,2|0,0:0|0:0,0:0:0:0:
117,130,237403,2,0,L|124:200,1,63.7500024318696,2|0,0:0|0:0,0:0:0:0:
59,307,237580,1,8,0:0:0:0:
59,307,237933,38,0,P|60:277|36:234,1,63.7500024318696,2|0,3:2|0:0,0:0:0:0:
192,300,238109,2,0,P|165:314|140:356,1,63.7500024318696,2|0,0:0|0:0,0:0:0:0:
119,188,238286,2,0,P|144:203|193:204,1,63.7500024318696,2|0,0:0|0:0,0:0:0:0:
380,219,238462,102,0,P|379:189|403:146,1,63.7500024318696,2|0,0:0|0:0,0:0:0:0:
247,212,238638,2,0,P|273:226|298:268,1,63.7500024318696,2|0,3:2|0:0,0:0:0:0:
320,100,238815,2,0,P|294:115|245:116,1,63.7500024318696,2|0,0:0|0:0,0:0:0:0:
443,86,238992,70,0,P|448:56|456:11,1,63.7500024318696,8|0,0:0|0:0,0:0:0:0:
449,201,239168,2,0,P|454:231|462:276,1,63.7500024318696,2|0,0:0|0:0,0:0:0:0:
330,37,239345,70,0,P|325:68|320:100,1,63.7500024318696,2|0,0:0|0:0,0:0:0:0:
336,277,239521,2,0,P|331:246|326:214,1,63.7500024318696,2|0,0:0|0:0,0:0:0:0:
139,150,239698,70,0,L|210:138,1,70.1250006687641,2|0,3:2|0:0,0:0:0:0:
395,226,239874,102,0,L|324:214,1,70.1250006687641,2|0,3:2|0:0,0:0:0:0:
152,249,240051,38,0,L|223:237,1,70.1250006687641,2|0,3:2|0:0,0:0:0:0:
397,124,240227,102,0,L|326:112,1,70.1250006687641,2|0,3:2|0:0,0:0:0:0:
125,68,240404,70,0,L|196:56,1,70.1250006687641,10|0,0:0|0:0,0:0:0:0:
404,39,240580,70,0,L|333:27,1,70.1250006687641,2|0,3:2|0:0,0:0:0:0:
221,140,240757,70,0,L|229:210,1,70.1250006687641,2|0,3:2|0:0,0:0:0:0:
404,193,240933,102,0,L|397:124,1,70.1250006687641,2|0,3:2|0:0,0:0:0:0:
148,110,241109,38,0,L|156:179,1,70.1250006687641,2|0,3:2|0:0,0:0:0:0:
478,215,241286,102,0,L|471:146,1,70.1250006687641,2|0,3:2|0:0,0:0:0:0:
288,0,241462,69,2,3:2:0:0:
256,192,241551,12,0,242433,0:0:0:0:
20,178,242521,70,0,B|189:147|82:290|272:243,1,255.000009727478,6|2,3:2|0:0,0:0:0:0:
410,228,243051,1,2,0:0:0:0:
231,67,243227,38,0,B|182:152|282:172|240:258,1,191.250007295609,8|0,0:0|0:0,0:0:0:0:
240,260,243580,1,2,0:0:0:0:
338,303,243757,1,2,0:0:0:0:
12,305,243933,38,0,P|72:258|167:323,1,191.250007295609,2|0,3:2|0:0,0:0:0:0:
167,323,244286,1,2,0:0:0:0:
181,213,244462,1,2,0:0:0:0:
311,353,244639,85,8,0:0:0:0:
461,188,244815,1,0,0:0:0:0:
393,296,244992,1,2,0:0:0:0:
326,187,245168,1,2,0:0:0:0:
409,55,245345,38,0,P|476:52|445:145,1,191.250007295609,2|0,3:2|0:0,0:0:0:0:
438,147,245698,1,2,0:0:0:0:
317,107,245874,1,2,0:0:0:0:
238,197,246051,86,0,B|142:187|175:283|61:253,1,191.250007295609,8|0,0:0|0:0,0:0:0:0:
50,252,246404,1,2,0:0:0:0:
95,168,246580,1,2,0:0:0:0:
188,370,246757,38,0,P|181:305|242:193,1,191.250007295609,2|0,3:2|0:0,0:0:0:0:
253,191,247109,2,0,P|272:256|259:325,1,127.500004863739,2|2,0:0|0:0,0:0:0:0:
398,93,247462,37,8,0:0:0:0:
334,203,247639,1,0,0:0:0:0:
245,111,247815,1,2,0:0:0:0:
172,216,247992,1,2,0:0:0:0:
408,42,248168,38,0,B|314:30|348:138|239:109,1,191.250007295609,2|0,3:2|0:0,0:0:0:0:
233,109,248521,2,0,P|222:54|282:17,1,127.500004863739,2|2,0:0|0:0,0:0:0:0:
71,145,248874,86,0,B|146:134|146:134|179:194|251:200,1,191.250007295609,8|0,0:0|0:0,0:0:0:0:
251,202,249227,1,2,0:0:0:0:
147,244,249404,1,2,0:0:0:0:
379,148,249580,38,0,P|391:233|400:357,1,191.250007295609,2|0,3:2|0:0,0:0:0:0:
401,345,249933,1,2,0:0:0:0:
378,137,250109,1,2,0:0:0:0:
197,327,250286,85,8,0:0:0:0:
265,219,250462,1,0,0:0:0:0:
161,144,250639,37,2,0:0:0:0:
255,59,250815,1,2,0:0:0:0:
342,151,250992,2,0,B|400:172|432:140|432:140|389:123,1,127.500004863739,2|0,3:2|0:0,0:0:0:0:
154,149,251345,37,2,0:0:0:0:
261,52,251521,1,2,0:0:0:0:
351,230,251698,2,0,B|409:230|409:230|438:256|438:256|452:218,1,127.500004863739,8|0,0:0|0:0,0:0:0:0:
147,161,252051,37,2,0:0:0:0:
270,47,252227,1,2,0:0:0:0:
351,230,252404,2,0,P|258:264|291:159,1,255.000009727478,2|2,3:2|0:0,0:0:0:0:
437,106,252933,85,2,0:0:0:0:
455,139,253021,1,2,0:0:0:0:
441,174,253109,2,0,P|424:245|436:306,1,127.500004863739,10|8,0:0|0:0,0:0:0:0:
280,40,253462,37,8,0:0:0:0:
345,63,253551,1,8,0:0:0:0:
343,134,253639,1,8,0:0:0:0:
276,153,253727,1,8,0:0:0:0:
236,95,253815,86,0,B|173:70|107:118|107:118|171:147|169:220,1,255.000009727478,2|2,3:2|0:0,0:0:0:0:
37,201,254345,1,2,0:0:0:0:
261,226,254521,38,0,B|285:293|240:363|240:363|208:309,1,191.250007295609,8|0,0:0|0:0,0:0:0:0:
207,314,254874,1,2,0:0:0:0:
117,358,255051,1,2,0:0:0:0:
393,332,255227,38,0,B|357:253|442:247|409:136,1,191.250007295609,2|0,3:2|0:0,0:0:0:0:
405,132,255580,2,0,P|466:125|521:158,1,127.500004863739,2|2,0:0|0:0,0:0:0:0:
165,54,255933,37,8,0:0:0:0:
250,150,256109,1,0,0:0:0:0:
317,44,256286,1,2,0:0:0:0:
405,132,256462,1,2,0:0:0:0:
405,132,257345,86,0,B|365:98|365:98|343:168|386:239,1,191.250007295609,8|0,0:0|0:0,0:0:0:0:
386,246,257698,1,2,0:0:0:0:
280,187,257874,1,2,0:0:0:0:
209,329,258051,38,0,P|139:347|131:199,1,255.000009727478,2|2,3:2|0:0,0:0:0:0:
156,272,258580,1,2,0:0:0:0:
42,91,258757,86,0,B|142:72|104:163|228:139,1,191.250007295609,8|0,0:0|0:0,0:0:0:0:
236,139,259109,1,2,0:0:0:0:
179,60,259286,1,2,0:0:0:0:
346,212,259462,38,0,P|420:119|324:32,1,255.000009727478,2|2,3:2|0:0,0:0:0:0:
491,156,259992,1,2,0:0:0:0:
253,146,260168,38,0,P|250:224|261:348,1,191.250007295609,8|0,0:0|0:0,0:0:0:0:
262,347,260521,2,0,P|187:339|121:363,1,127.500004863739,2|2,0:0|0:0,0:0:0:0:
421,300,260874,38,0,B|401:254|420:216|420:216|398:178|419:130,1,170.000006484986,2|0,3:2|0:0,0:0:0:0:
418,119,261227,2,0,B|470:123,2,42.5000016212464,2|0|2,0:0|0:0|0:0,0:0:0:0:
147,75,261580,86,0,P|241:69|290:168,1,191.250007295609,8|0,0:0|0:0,0:0:0:0:
293,160,261933,1,2,0:0:0:0:
200,150,262109,1,2,0:0:0:0:
512,22,262286,38,0,B|406:7|440:93|326:67,1,191.250007295609,2|0,3:2|0:0,0:0:0:0:
318,65,262639,2,0,B|284:48|284:48|327:24|372:50,1,127.500004863739,2|2,0:0|0:0,0:0:0:0:
180,147,262992,86,0,P|163:75|192:32,1,127.500004863739,8|0,0:0|0:0,0:0:0:0:
256,192,263345,1,2,0:0:0:0:
237,93,263521,1,2,0:0:0:0:
324,291,263698,37,2,3:2:0:0:
256,192,263786,12,0,264668,0:0:0:0:
64,168,264757,53,2,0:0:0:0:
103,141,264845,1,2,0:0:0:0:
150,136,264933,1,2,0:0:0:0:
195,151,265021,1,2,0:0:0:0:
224,184,265109,102,0,P|284:225|375:192,1,172.125000656605,4|0,3:2|0:0,0:0:0:0:
381,181,265462,1,2,0:0:0:0:
412,82,265638,2,0,P|406:63|382:32,1,57.3750002188683,2|0,3:2|0:0,0:0:0:0:
288,115,265814,1,10,0:0:0:0:
476,44,265991,1,2,0:0:0:0:
308,42,266168,5,2,3:2:0:0:
412,82,266345,1,2,0:0:0:0:
181,226,266521,102,0,B|216:157|134:132|171:52,1,172.125000656605,2|0,3:2|0:0,0:0:0:0:
171,50,266874,1,2,0:0:0:0:
319,158,267051,2,0,P|297:164|263:152,1,57.3750002188683,2|0,0:0|0:0,0:0:0:0:
310,51,267227,1,10,3:2:0:0:
447,113,267404,5,2,0:0:0:0:
368,211,267580,1,2,0:0:0:0:
452,305,267757,1,2,0:0:0:0:
269,185,267933,102,0,B|221:170|172:192|149:242|149:242|178:238,1,172.125000656605,2|0,3:2|0:0,0:0:0:0:
193,236,268286,1,2,0:0:0:0:
47,139,268462,2,0,P|37:168|43:202,1,57.3750002188683,2|0,3:2|0:0,0:0:0:0:
91,294,268639,1,8,0:0:0:0:
302,301,268815,5,2,0:0:0:0:
193,236,268992,1,2,3:2:0:0:
284,149,269168,1,0,0:0:0:0:
403,241,269345,102,0,B|369:164|447:169|402:72,1,172.125000656605,2|0,3:2|0:0,0:0:0:0:
399,62,269698,1,2,0:0:0:0:
284,149,269874,2,0,P|312:148|345:125,1,57.3750002188683,2|0,0:0|0:0,0:0:0:0:
222,32,270051,1,10,3:2:0:0:
327,46,270227,1,0,0:0:0:0:
83,62,270404,5,2,0:0:0:0:
68,105,270492,1,2,0:0:0:0:
66,150,270580,1,2,0:0:0:0:
74,194,270668,1,2,0:0:0:0:
101,231,270757,102,0,P|188:254|252:202,1,172.125000656605,2|0,3:2|0:0,0:0:0:0:
255,195,271109,1,2,0:0:0:0:
219,22,271286,2,0,P|210:49|208:81,1,57.3750002188683,2|0,3:2|0:0,0:0:0:0:
345,32,271462,1,10,0:0:0:0:
350,187,271639,1,2,0:0:0:0:
278,65,271815,5,2,3:2:0:0:
419,73,271992,1,2,0:0:0:0:
188,156,272168,102,0,B|283:133|252:215|361:183,1,172.125000656605,2|0,3:2|0:0,0:0:0:0:
362,182,272521,1,2,0:0:0:0:
299,79,272698,1,2,0:0:0:0:
42,121,272874,5,10,3:2:0:0:
231,77,273051,1,2,0:0:0:0:
104,223,273227,1,2,0:0:0:0:
121,30,273404,1,2,0:0:0:0:
220,197,273580,102,0,B|240:250|209:307|209:307|206:274|175:249,1,172.125000656605,2|0,3:2|0:0,0:0:0:0:
171,247,273933,1,2,0:0:0:0:
322,298,274109,2,0,P|326:270|315:238,1,57.3750002188683,2|0,0:0|0:0,0:0:0:0:
256,109,274286,2,0,P|210:97|151:126,1,114.750000437737,8|2,0:0|0:0,0:0:0:0:
103,323,274639,5,2,3:2:0:0:
135,228,274815,1,2,0:0:0:0:
48,83,274992,101,4,0:3:0:0:
184,48,275168,5,0,0:0:0:0:
184,48,275257,1,0,0:0:0:0:
184,48,275345,2,0,L|179:112,1,57.3750002188683,0|0,3:0|0:0,0:0:0:0:
295,212,275521,101,0,0:0:0:0:
295,212,275610,1,0,0:0:0:0:
295,212,275698,2,0,L|290:148,1,57.3750002188683,8|0,0:0|0:0,0:0:0:0:
174,259,275874,2,0,L|181:315,1,57.3750002188683
407,333,276051,5,8,0:0:0:0:
458,287,276139,1,8,0:0:0:0:
432,224,276227,1,8,0:0:0:0:
363,230,276315,1,8,0:0:0:0:
347,297,276404,102,0,P|306:319|211:258,1,172.125000656605,4|0,3:2|0:0,0:0:0:0:
209,243,276757,1,2,0:0:0:0:
76,171,276933,2,0,P|109:172|136:157,1,57.3750002188683,2|0,3:2|0:0,0:0:0:0:
208,62,277109,1,10,0:0:0:0:
92,96,277286,1,2,0:0:0:0:
259,120,277462,5,2,3:2:0:0:
140,39,277639,1,2,0:0:0:0:
362,10,277815,102,0,B|332:72|419:103|349:186,1,172.125000656605,2|0,3:2|0:0,0:0:0:0:
353,186,278168,1,2,0:0:0:0:
243,103,278345,2,0,P|272:108|304:136,1,57.3750002188683,2|0,0:0|0:0,0:0:0:0:
219,228,278521,6,0,P|204:175|145:122,1,114.750000437737,10|2,3:2|0:0,0:0:0:0:
73,316,278874,2,0,P|88:263|147:210,1,114.750000437737,2|2,0:0|0:0,0:0:0:0:
342,309,279227,102,0,B|313:333|313:333|279:278|305:195,1,172.125000656605,2|0,3:2|0:0,0:0:0:0:
307,192,279580,2,0,P|361:196|425:208,1,114.750000437737,2|2,0:0|3:2,0:0:0:0:
246,26,279933,1,8,0:0:0:0:
239,154,280109,1,2,0:0:0:0:
321,104,280286,5,2,3:2:0:0:
191,77,280462,1,0,0:0:0:0:
436,71,280639,102,0,B|403:36|403:36|381:101|413:173,1,172.125000656605,2|0,3:2|0:0,0:0:0:0:
413,173,280992,2,0,P|387:167|287:157,1,114.750000437737,2|2,0:0|0:0,0:0:0:0:
28,126,281345,5,10,3:2:0:0:
217,170,281522,1,2,0:0:0:0:
90,24,281698,1,2,0:0:0:0:
107,217,281875,1,2,0:0:0:0:
206,50,282051,102,0,B|300:45|271:117|372:98,1,172.125000656605,2|0,3:2|0:0,0:0:0:0:
379,98,282404,1,2,0:0:0:0:
223,118,282580,2,0,P|217:147|224:183,1,57.3750002188683,2|0,3:2|0:0,0:0:0:0:
339,33,282757,1,10,0:0:0:0:
427,165,282933,5,2,0:0:0:0:
339,33,283109,2,0,P|287:15|224:42,1,114.750000437737,2|2,3:2|0:0,0:0:0:0:
51,135,283462,102,0,P|122:125|224:117,1,172.125000656605,2|0,3:2|0:0,0:0:0:0:
235,116,283815,1,2,0:0:0:0:
117,9,283992,2,0,P|134:29|151:65,1,57.3750002188683,2|0,0:0|0:0,0:0:0:0:
129,193,284168,1,10,3:2:0:0:
309,108,284345,5,2,0:0:0:0:
296,244,284521,1,2,0:0:0:0:
194,149,284698,1,2,0:0:0:0:
398,232,284874,102,0,P|405:186|405:145,1,85,2|0,3:2|0:0,0:0:0:0:
405,147,285227,1,2,0:0:0:0:
335,5,285404,6,0,P|328:51|328:92,2,85,2|0|8,3:2|0:0|0:0,0:0:0:0:
335,5,285757,1,2,0:0:0:0:
239,81,285933,102,0,P|252:171|197:232,1,172.125000656605,2|0,3:2|0:0,0:0:0:0:
113,111,286301,2,0,P|165:49|239:81,1,172.125000656605,2|0,3:2|0:0,0:0:0:0:
202,229,286669,2,0,B|104:263|130:186|22:199,1,172.125000656605,2|0,3:2|0:0,0:0:0:0:
26,352,287037,2,0,P|65:264|33:190,1,172.125000656605,2|0,3:2|0:0,0:0:0:0:
0,80,287405,2,0,P|90:46|223:76,1,229.500000875473,2|2,3:2|0:0,0:0:0:0:
217,72,288148,102,0,L|214:130,1,42.5,2|2,0:0|0:0,0:0:0:0:
283,131,288700,2,0,L|270:191,1,42.5,2|2,0:0|0:0,0:0:0:0:
205,211,289272,2,0,P|172:205|120:196,1,85,2|2,0:0|0:0,0:0:0:0:
121,196,290031,1,2,0:0:0:0:
134,53,290807,101,2,0:0:0:0:
134,53,291152,2,0,L|181:48,1,42.5,2|2,0:0|0:0,0:0:0:0:
71,145,291713,2,0,L|24:138,1,42.5,2|2,0:0|0:0,0:0:0:0:
208,164,292278,2,0,P|175:170|128:192,1,85,2|2,0:0|0:0,0:0:0:0:
128,191,293033,1,2,0:0:0:0:
208,295,293779,5,2,0:0:0:0:
208,295,294153,2,0,P|206:268|207:248,1,42.5,2|2,0:0|0:0,0:0:0:0:
136,356,294712,2,0,P|137:334|137:313,1,42.5,2|2,0:0|0:0,0:0:0:0:
96,224,295287,2,0,P|64:224|22:186,1,85,2|2,0:0|0:0,0:0:0:0:
24,191,296023,1,2,0:0:0:0:
88,107,296792,102,0,P|111:138|135:187,1,85,2|2,0:0|0:0,0:0:0:0:
219,196,297523,2,0,P|198:223|184:271,1,85,2|2,0:0|0:0,0:0:0:0:
88,289,298273,2,0,P|109:316|124:365,1,85,2|2,0:0|0:0,0:0:0:0:
266,324,299023,22,0,L|271:277,1,42.5,2|2,0:0|0:0,0:0:0:0:
279,216,299407,1,2,0:0:0:0:
369,241,299784,86,0,L|355:124,1,85,2|2,0:0|0:0,0:0:0:0:
358,156,300513,1,2,0:0:0:0:
221,87,301279,22,0,P|267:88|304:108,1,85,2|2,0:0|0:0,0:0:0:0:
300,105,302041,1,2,0:0:0:0:
317,231,302792,86,0,P|318:185|344:152,1,85,2|0,0:0|0:0,0:0:0:0:
394,257,303352,2,0,P|347:256|316:230,1,87.9750001342392,2|0,0:0|0:0,0:0:0:0:
418,181,303919,2,0,P|417:227|391:260,1,85,2|0,0:0|0:0,0:0:0:0:
418,181,304669,2,0,P|383:157|342:158,1,85,2|0,0:0|0:0,0:0:0:0:
341,158,305779,22,0,L|256:149,1,85,2|2,0:0|0:0,0:0:0:0:
85,85,306526,2,0,L|170:76,1,85,2|2,0:0|0:0,0:0:0:0:
318,20,307276,2,0,L|233:11,1,85,2|2,0:0|0:0,0:0:0:0:
273,110,308026,2,0,L|362:101,1,85,2|2,0:0|0:0,0:0:0:0:
439,157,308776,86,0,P|433:181|443:244,1,85,2|2,0:0|0:0,0:0:0:0:
442,241,309536,1,2,0:0:0:0:
316,211,309911,1,2,0:0:0:0:
316,211,310659,22,0,P|304:160|337:90,2,127.5,2|2|2,0:0|0:0|0:0,0:0:0:0:
414,256,312352,86,0,L|419:277,1,21.25,2|2,0:0|0:0,0:0:0:0:
256,192,312729,12,4,319317,0:0:0:0:
