osu file format v14

[General]
AudioFilename: audio.mp3
AudioLeadIn: 0
PreviewTime: -1
Countdown: 0
SampleSet: Normal
StackLeniency: 0.3
Mode: 0
LetterboxInBreaks: 0
WidescreenStoryboard: 1

[Editor]
DistanceSpacing: 1
BeatDivisor: 4
GridSize: 16
TimelineZoom: 2.2

[Metadata]
Title:Momoiro Typhoon
TitleUnicode:Momoiro Typhoon
Artist:Luna Haruna
ArtistUnicode:Luna Haruna
Creator:P4ndemonium
Version:Yabai~
Source:ゆらぎ荘の幽奈
Tags:yuragi-sou no yuuna-san opening oP
BeatmapID:1724394
BeatmapSetID:822758

[Difficulty]
HPDrainRate:5
CircleSize:3.8
OverallDifficulty:9
ApproachRate:9.2
SliderMultiplier:2
SliderTickRate:1

[Events]
//Background and Video events
0,0,"spooky.png",0,0
//Break Periods
//Storyboard Layer 0 (Background)
//Storyboard Layer 1 (Fail)
//Storyboard Layer 2 (Pass)
//Storyboard Layer 3 (Foreground)
//Storyboard Sound Samples

[TimingPoints]
65,359.281437125748,4,1,0,40,1,0
65,-200,4,1,0,40,0,0
425,359.281437125748,4,1,0,40,1,0
425,-200,4,1,0,40,0,0
12371,-200,4,1,0,5,0,0
12460,-200,4,1,0,40,0,0
16592,-303.030303030303,4,1,0,40,0,0
16862,-303.030303030303,4,1,0,5,0,0
16951,-200,4,1,0,40,0,0
17221,-200,4,1,0,5,0,0
17311,-133.333333333333,4,1,0,40,0,0
17580,-133.333333333333,4,1,0,5,0,0
17670,-133.333333333333,4,1,0,40,0,0
19466,-303.030303030303,4,1,0,40,0,0
19736,-303.030303030303,4,1,0,5,0,0
19826,-200,4,1,0,40,0,0
20095,-200,4,1,0,5,0,0
20185,-133.333333333333,4,1,0,40,0,0
20454,-133.333333333333,4,1,0,5,0,0
20544,-133.333333333333,4,1,0,40,0,0
23059,-400,4,1,0,40,0,0
23329,-400,4,1,0,10,0,0
23419,-133.333333333333,4,1,0,40,0,0
26742,-133.333333333333,4,1,0,5,0,0
26832,-133.333333333333,4,1,0,40,0,0
29616,-133.333333333333,4,1,0,5,0,0
29706,-133.333333333333,4,1,0,40,0,0
32490,-133.333333333333,4,1,0,5,0,0
32580,-133.333333333333,4,1,0,40,0,0
34466,-133.333333333333,4,1,0,5,0,0
34556,-100,4,1,0,40,0,0
34826,-100,4,1,0,5,0,0
34916,-100,4,1,0,40,0,0
36712,-200,4,1,0,40,0,0
36981,-200,4,1,0,5,0,0
37071,-133.333333333333,4,1,0,40,0,0
37341,-133.333333333333,4,1,0,5,0,0
37430,-100,4,1,0,40,0,0
37700,-100,4,1,0,5,0,0
37790,-100,4,1,0,40,0,0
40305,-400,4,1,0,40,0,0
40574,-400,4,1,0,5,0,0
40664,-400,4,1,0,40,0,0
41383,-200,4,1,0,40,0,0
42820,-100,4,1,0,40,0,0
43538,-400,4,1,0,40,0,0
44257,-200,4,1,0,40,0,0
45694,-100,4,1,0,40,0,0
46413,-400,4,1,0,40,0,0
47131,-200,4,1,0,40,0,0
48568,-100,4,1,0,40,0,0
49287,-133.333333333333,4,1,0,40,0,0
51442,-100,4,1,0,40,0,0
56113,-133.333333333333,4,1,0,40,0,0
56472,-100,4,1,0,60,0,1
61862,-66.6666666666667,4,1,0,60,0,1
62221,-100,4,1,0,60,0,1
63658,-133.333333333333,4,1,0,60,0,1
65095,-100,4,1,0,60,0,0
67610,-133.333333333333,4,1,0,60,0,0
67969,-100,4,1,0,60,0,1
73359,-66.6666666666667,4,1,0,60,0,1
73718,-100,4,1,0,60,0,1
75155,-133.333333333333,4,1,0,60,0,1
76592,-100,4,1,0,60,0,0

[Colours]
Combo1 : 0,255,255
Combo2 : 255,0,0
Combo3 : 128,0,255
Combo4 : 255,128,255

[HitObjects]
434,68,244,5,0,0:0:0:0:
434,68,334,1,0,0:0:0:0:
433,69,424,2,0,P|422:91|417:116,1,50
363,178,784,2,0,P|373:200|378:225,1,50
328,292,1143,2,0,L|278:300,1,50
212,351,1502,2,0,L|162:342,1,50
107,280,1862,6,0,P|112:255|122:232,1,50
163,160,2221,2,0,P|157:135|147:112,1,50
183,38,2580,2,0,L|232:29,1,50
295,83,2939,2,0,L|344:91,1,50
426,250,3299,5,0,0:0:0:0:
439,167,3478,1,0,0:0:0:0:
338,270,3658,5,0,0:0:0:0:
297,167,3837,1,0,0:0:0:0:
263,319,4017,5,0,0:0:0:0:
157,235,4196,1,0,0:0:0:0:
368,98,4377,5,0,0:0:0:0:
338,270,4556,1,0,0:0:0:0:
338,270,4646,1,0,0:0:0:0:
338,270,4736,1,0,0:0:0:0:
307,31,4916,1,0,0:0:0:0:
133,198,5275,5,0,0:0:0:0:
417,222,5634,1,0,0:0:0:0:
133,198,5993,1,0,0:0:0:0:
288,86,6173,5,0,0:0:0:0:
217,143,6353,2,0,P|227:165|232:190,2,50
298,250,6892,2,0,P|288:273|283:298,1,50
368,192,7251,1,0,0:0:0:0:
426,263,7430,2,0,P|432:287|433:312,1,50
488,124,7790,6,0,L|438:132,2,50
377,67,8329,2,0,L|327:58,1,50
256,112,8688,1,0,0:0:0:0:
184,58,8868,2,0,L|135:67,1,50
87,181,9227,6,0,P|82:156|71:134,2,50
169,220,9766,2,0,P|158:242|153:267,1,50
221,329,10125,1,0,0:0:0:0:
292,231,10305,2,0,P|298:255|299:280,1,50
289,84,10664,6,0,L|338:76,1,50
426,60,11023,1,0,0:0:0:0:
291,101,11203,6,0,L|340:93,1,50
428,77,11562,1,0,0:0:0:0:
304,193,11742,1,0,0:0:0:0:
222,23,11922,5,0,0:0:0:0:
147,77,12101,2,0,P|166:108|176:144,1,75
178,166,12460,1,0,0:0:0:0:
103,214,12640,2,0,P|80:203|55:198,1,50
150,290,12999,1,0,0:0:0:0:
91,357,13179,2,0,P|66:363|41:364,1,50
221,287,13538,6,0,L|171:278,2,50
285,349,14077,2,0,L|328:324,1,50
354,236,14436,1,0,0:0:0:0:
251,154,14616,2,0,L|300:162,1,50
168,99,14975,6,0,P|157:121|152:146,2,50
128,254,15514,2,0,P|113:233|95:216,1,50
13,142,15874,2,0,P|37:139|61:132,1,50
95,47,16233,1,0,0:0:0:0:
284,35,16592,6,0,P|295:56|302:81,1,50
312,99,16951,2,0,P|294:131|286:167,1,75
263,190,17311,2,0,P|290:238|298:293,1,112.500004291535
295,325,17670,6,0,B|206:310|239:360|150:346,1,150.000005722046
71,303,18209,1,0,0:0:0:0:
147,190,18389,2,0,P|165:222|174:259,1,75.0000028610231
32,181,18748,2,0,P|41:144|59:112,1,75.0000028610231
129,32,19107,1,0,0:0:0:0:
147,190,19466,6,0,P|168:178|193:171,1,50
230,139,19826,2,0,P|262:157|298:165,1,75
337,232,20185,2,0,P|385:204|440:196,1,112.500004291535
473,201,20544,6,0,B|458:112|508:145|494:56,1,150.000005722046
385,127,21083,1,0,0:0:0:0:
310,39,21263,2,0,P|342:20|378:11,1,75.0000028610231
302,157,21622,2,0,P|265:147|233:129,1,75.0000028610231
92,48,21981,5,0,0:0:0:0:
130,215,22161,2,0,L|144:142,1,75.0000028610231
72,52,22520,5,0,0:0:0:0:
110,219,22700,2,0,L|123:145,1,75.0000028610231
310,39,23059,6,0,L|316:75,1,37.5
319,96,23419,5,0,0:0:0:0:
353,230,23598,2,0,P|361:193|381:161,2,75.0000028610231
272,296,24137,2,0,P|263:259|243:227,1,75.0000028610231
179,166,24496,1,0,0:0:0:0:
65,278,24676,2,0,P|80:243|104:215,1,75.0000028610231
48,82,25035,6,0,L|121:95,2,75.0000028610231
179,166,25574,2,0,L|252:152,1,75.0000028610231
302,250,25933,1,0,0:0:0:0:
167,312,26113,2,0,L|237:337,1,75.0000028610231
383,312,26472,6,0,P|390:256|417:207,1,112.500004291535
437,185,26832,1,0,0:0:0:0:
289,99,27011,2,0,P|304:133|328:161,1,75.0000028610231
387,22,27371,1,0,0:0:0:0:
497,81,27550,2,0,P|488:117|468:149,1,75.0000028610231
402,300,27910,5,0,0:0:0:0:
402,300,27999,1,0,0:0:0:0:
402,300,28089,2,0,P|369:281|332:275,1,75.0000028610231
268,338,28359,1,0,0:0:0:0:
268,338,28448,2,0,P|235:356|198:362,1,75.0000028610231
120,318,28718,1,0,0:0:0:0:
120,318,28808,2,0,L|100:207,1,112.500004291535
95,177,29167,5,0,0:0:0:0:
219,81,29347,2,0,L|199:191,1,112.500004291535
194,222,29706,1,0,0:0:0:0:
307,331,29886,2,0,P|274:311|238:302,1,75.0000028610231
352,211,30245,1,0,0:0:0:0:
418,322,30424,2,0,P|446:297|480:282,1,75.0000028610231
384,127,30784,6,0,L|370:200,2,75.0000028610231
251,168,31323,2,0,L|264:241,1,75.0000028610231
167,102,31682,1,0,0:0:0:0:
73,153,31862,2,0,L|47:223,1,75.0000028610231
197,354,32221,6,0,P|189:298|162:249,1,112.500004291535
143,227,32581,1,0,0:0:0:0:
253,136,32760,2,0,P|285:116|321:107,1,75.0000028610231
395,252,33119,2,0,P|363:232|327:224,1,75.0000028610231
455,184,33478,1,0,0:0:0:0:
231,330,33838,5,0,0:0:0:0:
321,108,34017,1,0,0:0:0:0:
395,252,34197,6,0,P|346:227|290:227,1,112.500004291535
266,205,34556,6,0,P|202:243|128:250,1,150
97,244,34916,6,0,P|74:148|14:69,1,200
266,205,35454,1,0,0:0:0:0:
220,71,35634,2,0,P|195:113|182:162,1,100
260,226,35993,2,0,P|308:212|357:213,1,100
214,305,36353,1,0,0:0:0:0:
121,0,36712,6,0,P|145:28|159:62,1,75.0000028610231
188,75,37071,6,0,P|154:118|145:174,1,112.500004291535
81,215,37430,6,0,P|119:279|126:353,1,150
122,383,37790,6,0,P|182:306|278:282,1,200
418,331,38329,1,0,0:0:0:0:
247,191,38508,1,0,0:0:0:0:
430,101,38688,5,0,0:0:0:0:
401,124,38777,1,0,0:0:0:0:
365,135,38867,1,0,0:0:0:0:
328,131,38957,1,0,0:0:0:0:
295,115,39047,2,0,P|272:104|247:100,1,50
63,231,39227,5,0,0:0:0:0:
123,37,39407,2,0,P|146:82|157:130,1,100
46,238,39766,5,0,0:0:0:0:
106,44,39946,2,0,P|128:88|139:136,1,100
188,322,40305,6,0,L|224:328,1,37.5
320,178,40664,6,0,L|327:214,2,37.5
238,238,41383,6,0,L|229:188,1,50
167,58,41742,6,0,L|162:82,3,25
96,143,42101,2,0,L|109:216,2,75
22,243,42820,6,0,L|4:144,1,100
215,66,43179,2,0,L|197:164,1,100
185,220,43538,6,0,L|192:183,2,37.5
273,247,44257,6,0,L|281:197,1,50
380,68,44616,6,0,L|384:92,3,25
439,156,44975,2,0,L|430:205,1,50
361,262,45335,2,0,L|369:311,1,50
439,156,45694,6,0,L|456:57,1,100
268,245,46053,2,0,L|285:343,1,100
360,261,46413,6,0,L|368:225,2,37.5
268,245,47131,6,0,L|276:195,1,50
145,69,47490,6,0,L|150:94,3,25
165,183,47850,1,0,0:0:0:0:
232,31,48029,2,0,L|240:80,1,50
255,168,48389,1,0,0:0:0:0:
48,102,48568,6,0,L|65:3,1,100
255,168,48927,2,0,L|272:266,1,100
49,340,49287,5,0,0:0:0:0:
150,200,49466,2,0,L|136:273,1,75.0000028610231
70,344,49826,5,0,0:0:0:0:
171,204,50005,2,0,L|157:277,1,75.0000028610231
364,230,50365,5,0,0:0:0:0:
263,90,50544,2,0,L|276:163,1,75.0000028610231
343,234,50904,5,0,0:0:0:0:
242,94,51083,2,0,L|255:167,1,75.0000028610231
451,297,51442,6,0,L|468:198,1,100
348,40,51802,2,0,L|365:138,1,100
255,259,52161,5,0,0:0:0:0:
472,177,52341,1,0,0:0:0:0:
204,184,52520,5,0,0:0:0:0:
425,275,52700,1,0,0:0:0:0:
165,266,52880,5,0,0:0:0:0:
408,88,53059,1,0,0:0:0:0:
114,191,53239,5,0,0:0:0:0:
443,315,53419,1,0,0:0:0:0:
305,120,53598,5,0,0:0:0:0:
258,323,53778,1,0,0:0:0:0:
474,151,53957,5,0,0:0:0:0:
179,83,54137,1,0,0:0:0:0:
399,361,54317,5,0,0:0:0:0:
368,55,54496,1,0,0:0:0:0:
152,313,54676,5,0,0:0:0:0:
512,232,54856,1,0,0:0:0:0:
140,172,56113,6,0,L|133:208,3,37.5000014305115
117,297,56472,5,0,0:0:0:0:
213,117,56652,1,0,0:0:0:0:
253,363,56832,5,0,0:0:0:0:
140,172,57011,1,0,0:0:0:0:
375,341,57191,5,0,0:0:0:0:
101,312,57371,1,0,0:0:0:0:
409,182,57550,5,0,0:0:0:0:
229,383,57730,1,0,0:0:0:0:
292,131,57910,5,0,0:0:0:0:
375,341,58089,1,0,0:0:0:0:
377,97,58269,5,0,0:0:0:0:
288,314,58448,1,0,0:0:0:0:
306,41,58628,5,0,0:0:0:0:
455,299,58808,1,0,0:0:0:0:
391,7,58987,5,0,0:0:0:0:
201,287,59167,1,0,0:0:0:0:
448,153,59347,5,0,0:0:0:0:
221,75,59526,1,0,0:0:0:0:
369,273,59706,5,0,0:0:0:0:
391,7,59886,1,0,0:0:0:0:
191,196,60065,5,0,0:0:0:0:
492,131,60245,1,0,0:0:0:0:
223,28,60424,5,0,0:0:0:0:
293,344,60604,1,0,0:0:0:0:
387,117,60784,6,0,P|337:112|293:133,1,100
323,306,61143,2,0,P|372:310|416:289,1,100
205,107,61502,1,0,0:0:0:0:
249,361,61682,1,0,0:0:0:0:
355,211,61862,6,0,L|207:237,1,150.000005722046
43,265,62221,6,0,P|75:303|94:349,1,100
207,237,62580,1,0,0:0:0:0:
152,105,62760,2,0,P|127:148|116:196,1,100
300,96,63119,2,0,P|289:47|264:4,2,100
207,237,63658,5,0,0:0:0:0:
438,191,63838,1,0,0:0:0:0:
245,320,64017,5,0,0:0:0:0:
398,335,64197,1,0,0:0:0:0:
254,160,64377,6,0,P|235:193|229:230,1,75.0000028610231
355,117,64736,2,0,P|348:80|329:47,1,75.0000028610231
55,230,65095,5,0,0:0:0:0:
125,70,65275,2,0,L|142:168,1,100
35,228,65634,5,0,0:0:0:0:
215,53,65814,2,0,L|232:151,1,100
15,226,66173,5,0,0:0:0:0:
305,36,66353,2,0,L|322:134,1,100
214,249,66712,6,0,L|232:151,2,100
366,157,67251,1,0,0:0:0:0:
197,237,67430,1,0,0:0:0:0:
441,208,67610,6,0,L|447:244,3,37.5000014305115
464,333,67969,5,0,0:0:0:0:
512,153,68149,1,0,0:0:0:0:
254,319,68329,5,0,0:0:0:0:
457,225,68508,1,0,0:0:0:0:
185,186,68688,5,0,0:0:0:0:
390,384,68868,1,0,0:0:0:0:
279,75,69047,5,0,0:0:0:0:
182,376,69227,1,0,0:0:0:0:
367,213,69407,5,0,0:0:0:0:
115,129,69586,1,0,0:0:0:0:
422,141,69766,5,0,0:0:0:0:
125,254,69945,1,0,0:0:0:0:
457,225,70125,5,0,0:0:0:0:
199,33,70305,1,0,0:0:0:0:
512,153,70484,5,0,0:0:0:0:
220,353,70664,1,0,0:0:0:0:
306,26,70844,5,0,0:0:0:0:
371,341,71023,1,0,0:0:0:0:
141,174,71203,5,0,0:0:0:0:
457,225,71383,1,0,0:0:0:0:
220,353,71562,5,0,0:0:0:0:
330,24,71742,1,0,0:0:0:0:
512,297,71922,5,0,0:0:0:0:
123,213,72101,1,0,0:0:0:0:
378,31,72281,6,0,P|402:74|407:124,1,100
151,170,72640,2,0,P|138:122|145:72,1,100
315,350,72999,1,0,0:0:0:0:
273,114,73179,5,0,0:0:0:0:
273,114,73268,1,0,0:0:0:0:
273,114,73359,2,0,L|299:262,1,150.000005722046
117,266,73718,6,0,L|134:167,1,100
388,274,74077,1,0,0:0:0:0:
226,376,74257,2,0,L|209:278,1,100
316,163,74616,2,0,L|299:262,2,100
406,286,75155,5,0,0:0:0:0:
356,64,75335,1,0,0:0:0:0:
209,278,75514,5,0,0:0:0:0:
254,97,75694,1,0,0:0:0:0:
65,204,75874,6,0,P|98:223|135:229,1,75.0000028610231
69,103,76233,2,0,P|32:109|0:128,1,75.0000028610231
336,198,76592,5,0,0:0:0:0:
266,38,76772,2,0,L|249:136,1,100
356,196,77131,5,0,0:0:0:0:
176,21,77311,2,0,L|159:119,1,100
376,194,77670,5,0,0:0:0:0:
86,4,77850,2,0,L|69:102,1,100
177,217,78209,6,0,L|159:119,2,100
261,279,78748,2,0,L|279:181,1,100
381,340,79107,2,0,L|363:242,1,100
173,195,79466,5,0,0:0:0:0:
243,35,79646,2,0,L|260:133,1,100
153,193,80005,5,0,0:0:0:0:
333,18,80185,2,0,L|350:116,1,100
133,191,80544,5,0,0:0:0:0:
423,1,80724,2,0,L|440:99,1,100
332,214,81083,6,0,L|350:116,2,100
248,276,81622,2,0,L|230:178,1,100
128,337,81981,2,0,L|146:239,1,100
99,158,82341,5,0,0:0:0:0:
244,28,82520,1,0,0:0:0:0:
228,25,82610,1,0,0:0:0:0:
212,22,82700,1,0,0:0:0:0:
393,216,82880,5,0,0:0:0:0:
271,107,83059,1,0,0:0:0:0:
291,103,83149,1,0,0:0:0:0:
312,99,83239,1,0,0:0:0:0:
98,332,83419,5,0,0:0:0:0:
227,179,83598,1,0,0:0:0:0:
201,173,83688,1,0,0:0:0:0:
173,168,83778,1,0,0:0:0:0:
391,384,83957,5,0,0:0:0:0:
287,239,84137,1,0,0:0:0:0:
320,231,84227,1,0,0:0:0:0:
357,224,84317,1,0,0:0:0:0:
225,337,84496,6,0,P|215:359|210:384,3,50
201,173,84856,2,0,P|186:152|166:137,3,50
170,261,85215,1,0,0:0:0:0:
256,192,85305,12,0,87191,0:0:0:0:
64,256,87371,5,0,0:0:0:0:
448,128,87550,1,0,0:0:0:0:
