osu file format v14

[General]
AudioFilename: audio.ogg
AudioLeadIn: 0
PreviewTime: 48747
Countdown: 0
SampleSet: Soft
StackLeniency: 0.7
Mode: 0
LetterboxInBreaks: 0
WidescreenStoryboard: 1

[Editor]
Bookmarks: 22435,38614,51508,97941
DistanceSpacing: 1.1
BeatDivisor: 4
GridSize: 8
TimelineZoom: 1.1

[Metadata]
Title:Toki to Uta
TitleUnicode:刻ト詩
Artist:Luna
ArtistUnicode:Luna
Creator:Fushimi Rio
Version:extRa
Source:サクラノ刻 -櫻の森の下を歩む-
Tags:sakura no toki sakura no mori no shita o ayumu makura 枕 松本文紀 すかぢ gust kanor visual novel galgame eroge opening japanese pop jpop
BeatmapID:3707396
BeatmapSetID:1807736

[Difficulty]
HPDrainRate:6
CircleSize:4.2
OverallDifficulty:9.1
ApproachRate:9.2
SliderMultiplier:1.6
SliderTickRate:0.5

[Events]
//Background and Video events
0,0,"tablet_mainVisual.jpg",0,0
Video,-170,"Video.mp4"
//Break Periods
//Storyboard Layer 0 (Background)
//Storyboard Layer 1 (Fail)
//Storyboard Layer 2 (Pass)
//Storyboard Layer 3 (Foreground)
//Storyboard Layer 4 (Overlay)
//Storyboard Sound Samples

[TimingPoints]
208,337.078651685393,4,2,1,30,1,0
545,-200,4,2,1,30,0,0
1556,337.078651685393,4,2,1,60,1,0
1556,-133.333333333333,4,2,1,60,0,0
21106,-111.111111111111,4,2,1,70,0,0
21781,-111.111111111111,4,2,1,80,0,0
23129,-100,4,2,1,60,0,0
24477,-133.333333333333,4,2,1,60,0,0
25825,-111.111111111111,4,2,1,60,0,0
28522,-100,4,2,1,60,0,0
31219,-111.111111111111,4,2,1,60,0,0
31893,-100,4,2,1,60,0,0
33241,-133.333333333333,4,2,1,60,0,0
33578,-100,4,2,1,60,0,0
33915,-133.333333333333,4,2,1,60,0,0
35264,-111.111111111111,4,2,1,60,0,0
38634,-111.111111111111,4,2,1,70,0,0
39309,-111.111111111111,4,2,1,80,0,0
39646,-100,4,2,1,80,0,0
42005,-111.111111111111,4,2,1,80,0,0
42342,-100,4,2,1,80,0,0
44702,-100,4,2,1,80,0,0
48747,-83.3333333333333,4,2,1,80,0,0
50095,-100,4,2,1,80,0,1
70320,-100,4,2,1,80,0,0
71668,-100,4,2,1,80,0,1
87848,-133.333333333333,4,2,1,80,0,0
90545,-117.647058823529,4,2,1,80,0,0
92567,-100,4,2,1,80,0,0
93241,-76.9230769230769,4,2,1,80,0,1
95938,-83.3333333333333,4,2,1,80,0,1
96275,-100,4,2,1,80,0,1
96612,-83.3333333333333,4,2,1,80,0,1
97961,-100,4,2,1,80,0,1
98297,-71.4285714285714,4,2,1,80,0,1
98466,-52.6315789473684,4,2,1,80,0,1
98634,-71.4285714285714,4,2,1,80,0,0

[Colours]
Combo1 : 128,191,255
Combo2 : 255,128,192
Combo3 : 255,159,128

[HitObjects]
194,179,545,6,0,P|175:145|139:127,2,80,2|0|2,0:0|0:0|0:0,0:0:0:0:
106,221,1556,5,4,0:0:0:0:
191,202,1724,1,0,0:0:0:0:
167,285,1893,5,0,3:0:0:0:
251,265,2061,1,0,0:0:0:0:
336,297,2230,2,0,P|371:279|396:248,1,60.0000022888184,0|0,3:0|0:0,0:0:0:0:
385,166,2567,6,0,P|335:134|277:139,1,120.000004577637,0|0,3:0|3:0,0:0:0:0:
201,93,3073,1,0,0:0:0:0:
201,93,3241,2,0,L|193:160,1,60.0000022888184,0|0,3:0|0:0,0:0:0:0:
119,54,3578,2,0,L|111:121,1,60.0000022888184,0|0,3:0|0:0,0:0:0:0:
21,213,3915,1,2,0:0:0:0:
34,75,4084,1,0,0:0:0:0:
21,213,4252,6,0,L|28:153,1,60.0000022888184,0|0,3:0|0:0,0:0:0:0:
85,265,4590,2,0,L|143:253,1,60.0000022888184,0|0,3:0|0:0,0:0:0:0:
42,337,4927,6,0,P|91:369|150:364,1,120.000004577637,0|0,3:0|3:0,0:0:0:0:
150,363,5432,1,0,0:0:0:0:
220,251,5601,5,2,0:0:0:0:
230,333,5769,1,0,0:0:0:0:
324,256,5938,5,0,3:0:0:0:
308,337,6106,1,0,0:0:0:0:
420,299,6275,6,0,L|383:368,1,60.0000022888184,0|0,3:0|0:0,0:0:0:0:
417,206,6612,1,0,3:0:0:0:
342,160,6781,1,0,0:0:0:0:
417,206,6949,6,0,P|456:212|512:161,1,120.000004577637,2|0,3:2|3:0,0:0:0:0:
480,45,7455,1,0,0:0:0:0:
480,45,7623,2,0,P|421:40|372:73,1,120,0|0,3:0|3:0,0:0:0:0:
342,160,8129,1,0,0:0:0:0:
253,139,8297,6,0,L|245:79,1,60.0000022888184,2|0,0:0|0:0,0:0:0:0:
170,173,8634,2,0,L|162:113,1,60.0000022888184,0|0,3:0|0:0,0:0:0:0:
87,207,8972,2,0,L|79:147,1,60.0000022888184,0|0,3:0|0:0,0:0:0:0:
12,245,9309,1,0,3:0:0:0:
12,245,9477,1,0,0:0:0:0:
157,283,9646,5,2,0:0:0:0:
91,232,9814,1,0,0:0:0:0:
53,335,9983,5,0,3:0:0:0:
139,307,10151,1,0,0:0:0:0:
268,359,10320,6,0,P|280:304|233:272,1,120.000004577637,0|0,3:0|3:0,0:0:0:0:
233,272,10825,1,0,0:0:0:0:
226,96,10994,6,0,P|194:145|198:204,2,120,2|0|0,0:0|3:0|3:0,0:0:0:0:
308,126,11837,1,0,0:0:0:0:
308,126,12005,2,0,L|393:126,1,60.0000022888184,0|0,3:0|0:0,0:0:0:0:
120,90,12342,6,0,P|137:54|139:15,1,60.0000022888184,4|0,0:0|0:0,0:0:0:0:
38,125,12679,2,0,P|34:96|22:69,1,60.0000022888184,0|0,3:0|0:0,0:0:0:0:
34,140,12932,1,0,0:0:0:0:
37,154,13016,2,0,P|86:186|145:182,1,120,2|0,3:2|3:0,0:0:0:0:
145,181,13522,1,0,0:0:0:0:
217,242,13691,5,2,3:2:0:0:
262,119,13859,1,0,0:0:0:0:
295,263,14028,5,0,3:0:0:0:
340,140,14196,1,0,0:0:0:0:
373,284,14365,6,0,P|416:267|384:207,1,120.000004577637,0|0,3:0|3:0,0:0:0:0:
321,345,14870,1,0,3:0:0:0:
321,345,14955,1,0,3:0:0:0:
321,345,15039,6,0,P|285:327|246:325,1,60.0000022888184,2|0,3:2|0:0,0:0:0:0:
199,269,15376,2,0,P|172:281|143:285,1,60.0000022888184,0|0,3:0|0:0,0:0:0:0:
78,250,15629,1,0,0:0:0:0:
71,240,15713,6,0,P|66:181|98:131,1,120,0|0,3:0|3:0,0:0:0:0:
181,117,16219,1,0,0:0:0:0:
83,55,16387,5,2,3:2:0:0:
181,117,16556,1,0,0:0:0:0:
244,19,16724,5,0,3:0:0:0:
181,117,16893,1,0,3:0:0:0:
182,131,16977,1,0,3:0:0:0:
186,145,17061,2,0,P|203:180|234:205,1,60.0000022888184,0|0,3:0|0:0,0:0:0:0:
299,105,17398,1,2,3:2:0:0:
311,97,17482,1,0,3:0:0:0:
326,92,17567,1,0,3:0:0:0:
340,90,17651,1,0,3:0:0:0:
356,90,17735,6,0,P|391:107|416:138,1,60.0000022888184,4|0,0:0|0:0,0:0:0:0:
476,60,18073,2,0,P|493:95|495:134,1,60.0000022888184,0|0,3:0|0:0,0:0:0:0:
492,234,18410,2,0,P|433:239|384:207,1,120.000004577637,0|0,3:0|3:0,0:0:0:0:
311,261,18915,1,0,3:0:0:0:
311,261,19000,1,0,3:0:0:0:
311,261,19084,6,0,L|240:253,1,60.0000022888184,2|0,3:2|0:0,0:0:0:0:
255,152,19421,2,0,L|184:144,1,60.0000022888184,0|0,3:0|0:0,0:0:0:0:
202,315,19758,2,0,L|131:307,1,60.0000022888184,0|0,3:0|0:0,0:0:0:0:
49,299,20095,1,0,3:0:0:0:
49,299,20264,1,0,0:0:0:0:
30,140,20432,6,0,P|50:194|100:226,1,120.000004577637,4|0,3:1|3:0,0:0:0:0:
101,226,20938,1,0,0:0:0:0:
124,133,21106,6,0,P|89:194|23:217,1,143.999995605469,0|0,3:0|3:0,0:0:0:0:
70,64,21612,1,0,0:0:0:0:
181,236,21781,5,2,3:2:0:0:
252,102,21949,1,0,0:0:0:0:
94,152,22118,5,0,3:0:0:0:
255,235,22286,1,0,0:0:0:0:
186,39,22455,5,4,1:0:0:0:
241,250,22623,1,0,0:0:0:0:
396,98,22792,1,0,3:0:0:0:
409,86,22876,1,0,3:0:0:0:
422,74,22960,1,0,3:0:0:0:
435,62,23045,1,0,3:0:0:0:
448,49,23129,6,0,B|493:114|493:114|433:167,1,160,4|0,0:0|3:0,0:0:0:0:
332,155,23634,2,0,B|287:90|287:90|347:37,1,160
389,101,24140,5,0,1:0:0:0:
392,104,24309,1,0,0:0:0:0:
262,233,24477,6,0,P|241:178|191:146,1,120,2|0,3:2|3:2,0:2:0:0:
75,245,24983,2,0,P|95:299|145:331,1,120
57,156,25488,5,0,1:0:0:0:
169,239,25657,1,0,3:0:0:0:
206,70,25825,6,0,L|222:0,1,71.9999978027344,0|0,3:0|0:0,0:0:0:0:
188,153,26163,1,0,3:0:0:0:
288,113,26331,6,0,L|303:42,1,71.9999978027344,2|0,0:0|3:0,0:0:0:0:
269,195,26669,1,0,3:0:0:0:
351,170,26837,1,0,1:0:0:0:
433,145,27005,1,0,3:0:0:0:
322,265,27174,5,0,3:0:0:0:
408,309,27342,1,0,3:0:0:0:
452,223,27511,1,0,1:0:0:0:
333,256,27679,5,0,3:0:0:0:
368,186,27848,1,0,3:0:0:0:
437,222,28016,1,0,3:0:0:0:
316,343,28185,6,0,P|283:328|258:302,1,71.9999978027344,0|0,1:0|0:0,0:0:0:0:
141,158,28522,6,0,B|155:113|188:96|188:96|205:130|191:174,1,160,4|0,0:0|3:0,0:0:0:0:
40,223,29028,2,0,B|2:195|-3:158|-3:158|33:152|71:180,1,160
134,257,29533,5,0,1:0:0:0:
134,257,29702,1,0,0:0:0:0:
173,334,29870,6,0,P|237:338|310:281,1,160,2|0,0:0|3:0,0:0:0:0:
437,191,30376,1,0,1:0:0:0:
498,229,30545,1,0,3:0:0:0:
512,282,30713,1,0,3:0:0:0:
512,321,30882,1,0,1:0:0:0:
507,344,31050,1,0,3:0:0:0:
370,212,31219,6,0,P|412:155|480:136,1,143.999995605469,4|0,0:1|3:0,0:0:0:0:
480,136,31724,1,0,0:0:0:0:
426,46,31893,5,2,0:0:0:0:
397,132,32061,1,0,0:0:0:0:
310,103,32230,2,0,L|335:22,1,80,0|0,1:0|0:0,0:0:0:0:
257,166,32567,5,2,3:2:0:0:
229,92,32736,1,0,3:0:0:0:
156,120,32904,1,0,3:0:0:0:
183,193,33073,1,0,0:0:0:0:
127,286,33241,6,0,L|60:286,1,60.0000022888184,0|0,3:0|0:0,0:0:0:0:
96,210,33578,6,0,L|15:210,1,80,0|0,1:0|0:0,0:0:0:0:
182,358,33915,6,0,P|214:309|210:250,1,120,4|0,0:0|3:0,0:0:0:0:
290,220,34421,2,0,P|316:272|369:298,1,120
443,249,34927,2,0,L|503:249,1,60.0000022888184,0|0,3:0|0:0,0:0:0:0:
426,168,35264,6,0,B|405:99|405:99|474:79,1,143.999995605469,0|0,3:0|3:0,0:0:0:0:
388,90,35769,5,0,1:0:0:0:
317,75,35938,1,0,3:0:0:0:
276,33,36106,1,0,3:0:0:0:
239,9,36275,1,0,1:0:0:0:
210,6,36443,1,0,3:0:0:0:
183,136,36612,6,0,P|150:69|83:55,1,143.999995605469,2|0,0:0|3:0,0:0:0:0:
87,54,37118,1,0,0:0:0:0:
20,165,37286,5,0,3:0:0:0:
60,150,37454,1,0,3:0:0:0:
101,136,37623,2,0,L|93:213,1,71.9999978027344,0|0,1:0|0:0,0:0:0:0:
8,311,37960,5,0,3:0:0:0:
79,284,38128,1,0,3:0:0:0:
150,257,38297,1,0,1:0:0:0:
224,231,38466,1,0,3:0:0:0:
181,329,38634,5,0,3:0:0:0:
300,367,38803,1,0,0:0:0:0:
338,247,38972,2,0,P|339:212|328:178,1,71.9999978027344,0|0,1:0|0:0,0:0:0:0:
234,45,39309,6,0,P|292:83|363:78,1,143.999995605469,4|0,0:0|1:0,0:0:0:0:
328,178,39814,1,0,0:0:0:0:
438,15,39983,1,0,3:0:0:0:
328,178,40151,1,0,3:0:0:0:
512,189,40320,2,0,P|494:153|463:128,1,80,0|0,1:0|0:0,0:0:0:0:
256,250,40657,5,2,3:2:0:0:
423,214,40825,1,0,0:0:0:0:
267,145,40994,1,0,1:0:0:0:
352,292,41163,1,0,0:0:0:0:
370,122,41331,2,0,P|348:156|342:195,1,80,0|0,3:2|0:0,0:0:0:0:
450,83,41668,2,0,P|425:52|389:34,1,80,0|0,1:0|0:0,0:0:0:0:
243,171,42005,6,0,P|172:176|113:137,1,143.999995605469,4|0,0:1|1:0,0:0:0:0:
118,51,42511,1,0,0:0:0:0:
42,184,42679,2,0,P|13:156|0:119,1,80,0|0,3:0|0:0,0:0:0:0:
166,203,43016,2,0,P|155:241|131:272,1,80,0|0,1:0|0:0,0:0:0:0:
304,78,43354,5,4,0:0:0:0:
113,137,43522,1,0,3:0:0:0:
281,175,43691,5,0,1:0:0:0:
135,39,43859,1,0,0:0:0:0:
186,204,44028,5,0,1:0:0:0:
230,10,44196,1,0,3:0:0:0:
324,244,44365,1,4,1:0:0:0:
329,257,44449,1,0,3:0:0:0:
334,270,44533,1,0,3:0:0:0:
339,283,44618,1,0,3:0:0:0:
344,296,44702,6,0,P|376:319|414:327,1,80,4|0,0:0|0:0,0:0:0:0:
256,245,45039,2,0,P|243:282|248:321,1,80,0|0,1:0|0:0,0:0:0:0:
210,161,45376,5,2,3:2:0:0:
143,319,45544,1,0,0:0:0:0:
210,161,45713,2,0,P|177:137|139:129,1,80,0|0,1:0|0:0,0:0:0:0:
256,245,46050,5,2,0:0:0:0:
43,146,46219,1,0,0:0:0:0:
314,61,46387,2,0,P|326:98|321:137,1,80,0|0,1:0|0:0,0:0:0:0:
158,99,46724,2,0,P|151:59|162:21,1,80,0|0,3:0|0:0,0:0:0:0:
234,194,47061,5,4,1:0:0:0:
59,113,47231,1,0,0:0:0:0:
352,41,47399,5,4,0:0:0:0:
37,99,47567,1,0,0:0:0:0:
352,251,47736,5,0,1:0:0:0:
14,85,47904,1,0,0:0:0:0:
103,300,48073,5,2,3:2:0:0:
188,7,48242,1,0,3:0:0:0:
106,303,48410,2,0,L|15:303,1,80,0|0,1:0|0:0,0:0:0:0:
184,227,48747,5,4,1:0:0:0:
190,245,48831,1,0,3:0:0:0:
196,262,48915,1,0,3:0:0:0:
202,280,48999,1,0,3:0:0:0:
208,297,49084,1,0,3:0:0:0:
213,315,49168,1,0,3:0:0:0:
220,332,49252,1,0,3:0:0:0:
226,350,49336,1,0,3:0:0:0:
238,306,49421,5,4,1:0:0:0:
250,263,49505,1,0,0:0:0:0:
262,219,49589,1,0,3:0:0:0:
274,176,49674,1,0,3:0:0:0:
286,133,49758,1,0,1:0:0:0:
298,89,49842,1,0,3:0:0:0:
310,46,49927,2,0,L|323:0,1,47.9999985351563,0|0,1:0|0:0,0:0:0:0:
381,237,50095,6,0,P|430:269|489:265,1,120,4|0,0:0|0:0,0:0:0:0:
336,162,50432,2,0,P|308:190|294:227,1,80,0|0,1:0|0:0,0:0:0:0:
155,133,50769,1,0,3:0:0:0:
117,292,50938,1,0,3:0:0:0:
57,193,51106,1,0,1:0:0:0:
215,232,51275,1,0,0:0:0:0:
160,104,51443,6,0,P|173:66|201:38,1,80,2|0,0:0|0:0,0:0:0:0:
65,165,51781,2,0,P|48:128|48:89,1,80,0|0,1:0|0:0,0:0:0:0:
97,268,52118,2,0,P|83:305|55:333,1,80
191,207,52454,2,0,P|207:243|207:282,1,80,0|0,1:0|0:0,0:0:0:0:
290,166,52792,6,0,P|338:206|449:206,1,160,4|0,0:1|1:0,0:0:0:0:
333,40,53297,1,0,0:0:0:0:
266,149,53466,2,0,P|279:186|307:214,1,80,0|0,3:0|0:0,0:0:0:0:
201,70,53803,2,0,P|161:63|123:73,1,80,0|0,1:0|0:0,0:0:0:0:
117,250,54140,5,0,3:0:0:0:
163,159,54309,1,0,3:0:0:0:
0,135,54477,1,0,1:0:0:0:
16,234,54646,1,0,0:0:0:0:
90,88,54814,5,0,3:0:0:0:
117,250,54983,1,0,3:0:0:0:
122,269,55067,1,0,3:0:0:0:
127,288,55151,1,0,1:0:0:0:
220,168,55320,1,0,3:0:0:0:
234,153,55404,1,0,3:0:0:0:
251,143,55488,6,0,P|329:143|393:189,1,160,4|0,0:0|1:0,0:0:0:0:
404,284,55994,1,0,0:0:0:0:
475,147,56163,2,0,P|485:185|478:224,1,80,0|0,3:0|0:0,0:0:0:0:
409,85,56500,2,0,P|442:63|480:57,1,80,0|0,1:0|0:0,0:0:0:0:
393,189,56837,5,0,3:0:0:0:
242,118,57005,1,0,3:0:0:0:
393,189,57174,2,0,P|400:149|390:111,1,80,0|0,1:0|0:0,0:0:0:0:
242,118,57511,2,0,P|272:143|310:154,1,80,0|0,3:0|0:0,0:0:0:0:
183,200,57848,2,0,P|179:239|193:276,1,80,0|0,1:0|0:0,0:0:0:0:
142,106,58185,6,0,P|78:59|0:59,1,160,2|0,0:0|1:0,0:0:0:0:
35,249,58691,1,0,0:0:0:0:
35,249,58775,1,0,0:0:0:0:
35,249,58859,2,0,P|60:218|71:180,1,80,0|0,3:0|0:0,0:0:0:0:
238,123,59196,2,0,P|262:154|272:192,1,80,0|0,1:0|0:0,0:0:0:0:
38,252,59533,5,0,3:0:0:0:
189,194,59702,1,0,3:0:0:0:
72,142,59870,5,0,1:0:0:0:
125,278,60039,1,0,0:0:0:0:
166,83,60207,5,0,3:0:0:0:
253,309,60376,1,0,3:0:0:0:
329,100,60545,6,0,P|384:101|393:155,1,120,4|0,3:1|0:0,0:0:0:0:
278,172,60882,6,0,P|246:123|250:64,1,120,4|0,0:0|0:0,0:0:0:0:
189,207,61219,1,0,1:0:0:0:
47,177,61387,1,0,0:0:0:0:
189,207,61556,2,0,P|160:179|123:166,1,80,0|0,3:0|0:0,0:0:0:0:
58,278,61893,2,0,P|86:305|123:318,1,80,0|0,1:0|0:0,0:0:0:0:
258,135,62230,5,0,3:0:0:0:
258,135,62399,1,0,3:0:0:0:
181,73,62567,2,0,P|141:67|103:78,1,80,0|0,1:0|0:0,0:0:0:0:
350,99,62904,2,0,P|374:68|383:29,1,80,2|0,0:0|0:0,0:0:0:0:
386,185,63241,2,0,P|425:180|458:159,1,80,0|0,1:0|0:0,0:0:0:0:
257,127,63578,6,0,P|217:175|217:286,1,160,0|0,3:0|1:0,0:0:0:0:
119,218,64084,1,0,0:0:0:0:
81,298,64252,2,0,P|45:313|6:312,1,80,0|0,3:0|0:0,0:0:0:0:
161,342,64590,1,0,1:0:0:0:
188,184,64758,5,0,0:0:0:0:
188,184,64842,1,0,0:0:0:0:
188,184,64927,2,0,P|214:213|251:227,1,80,2|0,0:0|0:0,0:0:0:0:
266,138,65263,1,0,1:0:0:0:
98,152,65432,1,0,0:0:0:0:
159,80,65601,1,0,3:0:0:0:
130,243,65769,1,0,3:0:0:0:
4,137,65938,2,0,P|0:97|11:59,1,80,4|0,1:0|0:0,0:0:0:0:
256,224,66275,6,0,P|243:301|187:357,1,160,4|0,0:0|1:0,0:0:0:0:
225,139,66781,1,0,0:0:0:0:
349,255,66949,2,0,P|385:236|424:234,1,80,0|0,3:0|0:0,0:0:0:0:
306,121,67286,2,0,P|304:160|286:196,1,80,0|0,1:0|0:0,0:0:0:0:
444,151,67623,2,0,P|410:129|388:96,1,80,2|0,3:2|0:0,0:0:0:0:
214,231,67960,5,0,1:0:0:0:
174,49,68129,1,0,0:0:0:0:
219,258,68297,5,0,3:0:0:0:
107,158,68466,1,0,3:0:0:0:
225,284,68634,5,0,1:0:0:0:
2,262,68803,1,0,0:0:0:0:
312,137,68972,6,0,P|390:137|454:183,1,160,4|0,0:0|1:0,0:0:0:0:
454,183,69477,1,0,0:0:0:0:
232,101,69646,6,0,P|224:139|235:177,1,80,0|0,3:0|0:0,0:0:0:0:
123,39,69983,2,0,P|87:57|62:88,1,80,0|0,1:0|0:0,0:0:0:0:
27,237,70320,5,4,3:1:0:0:
51,243,70404,1,0,3:0:0:0:
76,243,70488,1,0,3:0:0:0:
99,236,70573,1,0,3:0:0:0:
120,222,70657,1,0,3:0:0:0:
136,203,70741,1,0,3:0:0:0:
146,180,70825,1,0,3:0:0:0:
149,155,70910,1,0,3:0:0:0:
146,131,70994,5,4,1:0:0:0:
127,170,71078,1,0,3:0:0:0:
123,214,71163,1,0,3:0:0:0:
134,256,71247,1,0,3:0:0:0:
158,293,71331,1,0,1:0:0:0:
193,320,71415,1,0,3:0:0:0:
234,333,71500,1,0,1:0:0:0:
278,332,71583,1,0,3:0:0:0:
319,317,71668,6,0,P|362:277|373:219,1,120,4|0,0:0|0:0,0:0:0:0:
440,166,72005,2,0,P|457:201|488:226,1,80,0|0,1:0|0:0,0:0:0:0:
422,83,72342,2,0,P|382:80|345:95,1,80,0|0,3:0|0:0,0:0:0:0:
250,173,72679,1,0,1:0:0:0:
279,25,72848,1,0,0:0:0:0:
149,131,73016,6,0,P|130:95|98:72,1,80,2|0,0:0|0:0,0:0:0:0:
253,176,73354,2,0,P|264:136|257:98,1,80,0|0,1:0|0:0,0:0:0:0:
237,282,73691,2,0,P|256:316|288:339,1,80,0|0,3:0|0:0,0:0:0:0:
133,237,74027,2,0,P|121:275|127:313,1,80,0|0,1:0|0:0,0:0:0:0:
335,244,74365,6,0,P|339:181|273:91,1,160,4|0,0:1|1:0,0:0:0:0:
206,72,74870,1,0,0:0:0:0:
362,159,75039,1,0,3:0:0:0:
414,17,75207,1,0,3:0:0:0:
289,101,75376,1,0,1:0:0:0:
439,107,75545,1,0,3:0:0:0:
321,13,75713,5,2,3:2:0:0:
285,196,75882,1,0,3:0:0:0:
144,73,76050,1,0,1:0:0:0:
303,33,76219,5,0,3:0:0:0:
303,33,76303,1,0,3:0:0:0:
303,33,76387,1,0,3:0:0:0:
276,170,76556,1,0,3:0:0:0:
170,78,76724,2,0,P|175:38|196:5,1,80,0|0,1:0|0:0,0:0:0:0:
193,203,77061,6,0,P|129:156|50:157,1,160,4|0,0:0|1:0,0:0:0:0:
163,287,77567,1,0,0:0:0:0:
277,238,77736,2,0,P|283:198|272:160,1,80,0|0,3:0|0:0,0:0:0:0:
243,323,78073,2,0,P|282:329|320:318,1,80,0|0,1:0|0:0,0:0:0:0:
477,192,78410,5,0,3:0:0:0:
394,353,78578,1,0,3:0:0:0:
362,236,78747,5,0,1:0:0:0:
474,348,78915,1,0,0:0:0:0:
512,200,79084,2,0,P|505:160|483:127,1,80,0|0,3:0|0:0,0:0:0:0:
318,128,79421,2,0,P|355:142|395:139,1,80,0|0,1:0|0:0,0:0:0:0:
238,39,79758,6,0,P|201:109|214:187,1,160,2|0,0:0|1:0,0:0:0:0:
324,294,80264,1,0,0:0:0:0:
324,294,80348,1,0,0:0:0:0:
324,294,80432,2,0,P|317:254|295:221,1,80,0|0,3:0|0:0,0:0:0:0:
125,309,80769,1,0,1:0:0:0:
236,287,80938,1,0,0:0:0:0:
76,171,81106,5,0,3:0:0:0:
107,330,81275,1,0,3:0:0:0:
169,147,81443,5,0,1:0:0:0:
100,345,81612,1,0,0:0:0:0:
9,123,81781,5,2,3:2:0:0:
94,357,81950,1,0,3:0:0:0:
262,193,82118,6,0,P|253:138|198:137,1,120,4|0,3:1|0:0,0:0:0:0:
190,249,82455,6,0,P|239:281|298:277,1,120,4|0,0:0|0:0,0:0:0:0:
389,220,82792,1,0,1:0:0:0:
334,353,82960,1,0,0:0:0:0:
389,220,83129,2,0,P|382:259|393:297,1,80,0|0,3:0|0:0,0:0:0:0:
446,152,83466,2,0,P|410:134|371:132,1,80,0|0,1:0|0:0,0:0:0:0:
228,171,83803,5,0,3:0:0:0:
228,171,83972,1,0,3:0:0:0:
243,70,84140,2,0,P|230:32|204:3,1,80,0|0,1:0|0:0,0:0:0:0:
307,234,84477,2,0,P|345:242|384:233,1,80,2|0,3:2|0:0,0:0:0:0:
322,133,84814,2,0,P|348:103|360:65,1,80,0|0,1:0|0:0,0:0:0:0:
209,260,85151,6,0,P|130:259|66:213,1,160,0|0,3:0|1:0,0:0:0:0:
242,344,85657,1,0,0:0:0:0:
340,207,85825,1,0,3:0:0:0:
163,151,85994,1,0,3:0:0:0:
366,215,86163,1,0,1:0:0:0:
299,85,86331,5,0,0:0:0:0:
299,85,86415,1,0,0:0:0:0:
299,85,86500,1,2,0:0:0:0:
262,191,86668,1,0,3:0:0:0:
408,63,86837,1,0,1:0:0:0:
225,0,87005,1,0,3:0:0:0:
128,219,87174,5,0,3:0:0:0:
217,25,87342,1,0,3:0:0:0:
330,246,87511,2,0,P|327:285|310:321,1,80,0|0,1:0|0:0,0:0:0:0:
42,137,87848,6,0,L|160:113,1,120.000004577637,4|0,0:0|3:0,0:0:0:0:
159,113,88354,1,0,0:0:0:0:
128,219,88522,6,0,L|246:195,1,120.000004577637,0|0,1:0|0:0,0:0:0:0:
245,195,89028,1,0,0:0:0:0:
310,340,89196,6,0,P|360:308|375:252,1,120.000004577637,0|0,3:0|0:0,0:0:0:0:
389,131,89702,1,0,0:0:0:0:
332,188,89870,2,0,L|259:150,1,60.0000022888184,0|0,1:0|0:0,0:0:0:0:
433,200,90207,2,0,L|514:188,1,60.0000022888184
385,347,90545,6,0,P|309:318|293:249,1,136.000002593994,4|0,1:0|0:0,0:0:0:0:
302,183,91051,1,0,0:0:0:0:
101,256,91219,6,0,P|167:259|213:213,1,136.000002593994,0|0,1:0|3:0,0:0:0:0:
217,124,91725,1,0,0:0:0:0:
447,143,91893,6,0,L|314:116,1,136.000002593994,0|0,3:0|3:0,0:0:0:0:
308,225,92399,1,0,0:0:0:0:
328,142,92567,5,0,1:0:0:0:
232,193,92736,1,0,3:0:0:0:
244,97,92905,2,0,L|253:17,1,80,0|0,1:0|0:0,0:0:0:0:
206,212,93242,5,4,1:0:0:0:
306,172,93410,1,0,3:0:0:0:
143,166,93579,5,0,3:0:0:0:
369,218,93748,1,0,3:0:0:0:
70,146,93916,5,0,1:0:0:0:
442,238,94085,1,0,3:0:0:0:
307,5,94253,5,0,3:0:0:0:
205,379,94422,1,0,3:0:0:0:
148,100,94590,5,4,3:2:0:0:
363,283,94759,1,0,3:0:0:0:
140,179,94927,5,0,3:0:0:0:
372,205,95095,1,0,3:0:0:0:
76,231,95264,5,0,1:0:0:0:
436,153,95433,1,0,3:0:0:0:
18,173,95601,5,0,3:0:0:0:
471,74,95770,1,0,3:0:0:0:
106,43,95939,6,0,P|103:90|121:135,1,95.9999970703126,4|0,1:0|3:0,0:0:0:0:
130,147,96191,1,0,3:0:0:0:
139,155,96275,2,0,P|158:166|181:173,3,40,0|0|0|0,3:0|0:0|0:0|0:0,0:0:0:0:
36,232,96613,5,4,0:0:0:0:
64,249,96697,1,0,3:0:0:0:
95,261,96781,1,0,3:0:0:0:
128,264,96865,1,0,3:0:0:0:
161,261,96950,1,0,3:0:0:0:
193,251,97034,1,0,3:0:0:0:
221,233,97118,2,0,P|238:215|251:183,1,47.9999985351563,0|0,3:0|0:0,3:0:0:0:
49,363,97287,5,4,1:0:0:0:
20,313,97371,1,0,3:0:0:0:
8,256,97455,1,0,3:0:0:0:
14,198,97539,1,0,3:0:0:0:
36,143,97624,1,0,3:0:0:0:
74,99,97708,1,0,3:0:0:0:
124,69,97792,1,0,3:0:0:0:
181,54,97876,1,0,3:0:0:0:
230,58,97961,5,4,1:0:0:0:
266,94,98044,1,0,3:0:0:0:
244,142,98129,1,0,3:0:0:0:
191,133,98213,1,0,3:0:0:0:
182,80,98297,6,0,P|171:56|152:34,1,55.9999982910157,0|0,1:0|0:0,0:0:0:0:
130,183,98467,6,0,P|92:196|46:194,1,75.9999979705811,0|0,3:0|3:0,0:0:0:0:
387,186,98634,6,0,B|390:94|334:59|334:59|316:94|316:94|275:91|275:91|271:154|345:203|345:203|261:172|212:214|212:214|239:244|239:244|222:280|222:280|282:304|352:249|352:249|297:318|322:376|322:376|358:362|358:362|387:389|387:389|429:338|397:255|397:255|447:328|511:325|511:325|506:285|506:285|540:265|540:265|507:209|417:215|417:215|503:192|516:129|516:129|479:121|479:121|469:81|469:81|408:97|386:183,1,1791.9999453125,4|4,0:0|0:1,0:0:0:0:
