osu file format v14

[General]
AudioFilename: audio.mp3
AudioLeadIn: 0
PreviewTime: 48801
Countdown: 0
SampleSet: Soft
StackLeniency: 0.7
Mode: 0
LetterboxInBreaks: 0
WidescreenStoryboard: 1

[Editor]
DistanceSpacing: 0.8
BeatDivisor: 4
GridSize: 4
TimelineZoom: 1.3

[Metadata]
Title:Toki to Uta
TitleUnicode:刻ト詩
Artist:Luna
ArtistUnicode:Luna
Creator:Andrea
Version:Normal
Source:サクラノ刻 -櫻の森の下を歩む-
Tags:osuplayer111 Sekai Sekaii Sekai-nyan Erisu Lanzhu Kowari Akitoshi Corinn -Laura- Zekk subahibi AsuKow Grazuko KoldNoodl ckharv Ayesha Altugle Kazato Asa Shikibe Mayu Shizuku- Syncro -Syncro Guchiry midorijeon Videogame Video Game Japanese Pop JPop J-Pop Opening OP Female Vocals Sakura no Toki Uta Sakura no Mori no Shita o Ayumu Kagome 籠目 Motoyon 基4% Inugami Kira 狗神煌 煌 Makura 枕 Sakutoki
BeatmapID:3718082
BeatmapSetID:1807701

[Difficulty]
HPDrainRate:4
CircleSize:3
OverallDifficulty:4
ApproachRate:5
SliderMultiplier:1.2
SliderTickRate:1

[Events]
//Background and Video events
Video,50,"Video.mp4"
0,0,"Normal.jpg",0,0
//Break Periods
//Storyboard Layer 0 (Background)
//Storyboard Layer 1 (Fail)
//Storyboard Layer 2 (Pass)
//Storyboard Layer 3 (Foreground)
//Storyboard Layer 4 (Overlay)
//Storyboard Sound Samples

[TimingPoints]
1610,337.078651685393,4,2,2,70,1,0
1610,-111.111111111111,4,2,2,70,0,0
5569,-111.111111111111,4,2,2,5,0,0
5654,-111.111111111111,4,2,2,70,0,0
8266,-111.111111111111,4,2,2,5,0,0
8351,-111.111111111111,4,2,2,70,0,0
12396,-111.111111111111,4,2,2,70,0,0
13659,-111.111111111111,4,2,2,5,0,0
13744,-111.111111111111,4,2,2,70,0,0
18041,-111.111111111111,4,2,2,5,0,0
18126,-111.111111111111,4,2,2,70,0,0
19053,-111.111111111111,4,2,2,5,0,0
19138,-111.111111111111,4,2,2,70,0,0
20738,-111.111111111111,4,2,2,5,0,0
20823,-111.111111111111,4,2,2,70,0,0
23183,-111.111111111111,4,2,2,60,0,0
24446,-111.111111111111,4,2,2,5,0,0
24531,-111.111111111111,4,2,2,60,0,0
25374,-111.111111111111,4,2,3,60,0,0
26722,-111.111111111111,4,2,2,60,0,0
27395,-111.111111111111,4,2,1,60,0,0
27733,-111.111111111111,4,2,2,60,0,0
30767,-111.111111111111,4,2,3,60,0,0
32789,-111.111111111111,4,2,2,60,0,0
33126,-111.111111111111,4,2,3,60,0,0
33884,-111.111111111111,4,2,3,5,0,0
33969,-111.111111111111,4,2,3,60,0,0
35822,-111.111111111111,4,2,2,60,0,0
36160,-111.111111111111,4,2,3,60,0,0
38183,-111.111111111111,4,2,2,60,0,0
38519,-111.111111111111,4,2,3,60,0,0
38857,-111.111111111111,4,2,4,60,0,0
39362,-100,4,2,2,70,0,0
39614,-100,4,2,2,5,0,0
39699,-100,4,2,2,70,0,0
42059,-100,4,2,3,70,0,0
44756,-100,4,2,2,70,0,0
45008,-100,4,2,2,5,0,0
45093,-100,4,2,2,70,0,0
48801,-100,4,2,1,70,0,0
49138,-100,4,2,2,70,0,0
49475,-100,4,2,1,70,0,0
49643,-100,4,2,2,70,0,0
50149,-100,4,2,2,80,0,1
50233,-100,4,2,2,80,0,1
51075,-100,4,2,2,5,0,1
51160,-100,4,2,2,80,0,1
54109,-100,4,2,2,5,0,1
54194,-100,4,2,2,80,0,1
58491,-100,4,2,2,5,0,1
58576,-100,4,2,2,80,0,1
60176,-100,4,2,2,5,0,1
60261,-100,4,2,2,80,0,1
60851,-100,4,2,2,80,0,1
60935,-100,4,2,2,80,0,1
61187,-100,4,2,2,5,0,1
61272,-100,4,2,2,80,0,1
62199,-100,4,2,2,5,0,1
62284,-100,4,2,2,80,0,1
62536,-100,4,2,2,80,0,1
62621,-100,4,2,2,80,0,1
66244,-100,4,2,2,80,0,1
66329,-100,4,2,2,80,0,1
67929,-100,4,2,2,5,0,1
68014,-100,4,2,2,80,0,1
69025,-100,4,2,3,80,0,1
69277,-100,4,2,3,5,0,1
69362,-100,4,2,3,80,0,1
70374,-100,4,2,3,80,0,1
71048,-100,4,2,3,80,0,1
71553,-100,4,2,2,80,0,1
71638,-100,4,2,3,80,0,1
71722,-100,4,2,2,80,0,1
71806,-100,4,2,2,80,0,1
72648,-100,4,2,2,5,0,1
72733,-100,4,2,2,80,0,1
74670,-100,4,2,2,5,0,1
74756,-100,4,2,2,80,0,1
75682,-100,4,2,2,5,0,1
75767,-100,4,2,2,80,0,1
77367,-100,4,2,2,5,0,1
77452,-100,4,2,2,80,0,1
78378,-100,4,2,2,5,0,1
78463,-100,4,2,2,80,0,1
81749,-100,4,2,2,5,0,1
81834,-100,4,2,2,80,0,1
82424,-100,4,2,2,80,0,1
82508,-100,4,2,2,80,0,1
82760,-100,4,2,2,5,0,1
82845,-100,4,2,2,80,0,1
85457,-100,4,2,2,5,0,1
85542,-100,4,2,2,80,0,1
86637,-100,4,2,2,5,0,1
86722,-100,4,2,2,80,0,1
87902,-100,4,2,2,80,0,0
93295,-100,4,2,3,80,0,0
93547,-100,4,2,3,5,0,0
93632,-100,4,2,3,45,0,0
93969,-100,4,2,3,50,0,0
94306,-100,4,2,3,55,0,0
94643,-100,4,2,3,60,0,0
94980,-100,4,2,3,65,0,0
95317,-100,4,2,3,70,0,0
95654,-100,4,2,3,75,0,0
95992,-100,4,2,2,80,0,0
96160,-100,4,2,2,50,0,0
96244,-100,4,2,2,55,0,0
96329,-100,4,2,2,60,0,0
96413,-100,4,2,2,65,0,0
96497,-100,4,2,2,70,0,0
96581,-100,4,2,2,75,0,0
96666,-100,4,2,3,80,0,0
96834,-100,4,2,2,50,0,0
96918,-100,4,2,2,55,0,0
97003,-100,4,2,2,60,0,0
97087,-100,4,2,2,65,0,0
97171,-100,4,2,2,70,0,0
97255,-100,4,2,2,75,0,0
97340,-100,4,2,2,75,0,0
97677,-100,4,2,1,80,0,0
97845,-100,4,2,2,80,0,0
98014,-100,4,2,3,80,0,0
98183,-100,4,2,4,80,0,0
98351,-100,4,2,3,80,0,0
98688,-100,4,2,2,80,0,1
98772,-100,4,2,2,80,0,0
101722,-100,4,2,2,5,0,0

[Colours]
Combo1 : 170,255,170
Combo2 : 255,170,255
Combo3 : 226,199,199
Combo4 : 255,255,170

[HitObjects]
122,270,1610,6,0,P|149:236|159:163,1,107.999996704102,14|8,0:1|0:1,0:0:0:0:
188,80,2284,1,8,0:1:0:0:
264,144,2621,2,0,P|298:171|371:181,1,107.999996704102,10|10,0:1|0:1,0:0:0:0:
408,188,3126,1,2,0:2:0:0:
408,188,3295,2,0,L|392:300,1,107.999996704102,10|10,0:1|0:1,0:0:0:0:
304,336,3969,2,0,L|248:328,1,53.9999983520508,10|2,0:1|0:2,0:0:0:0:
204,324,4306,6,0,P|148:320|96:344,2,107.999996704102,10|8|8,0:1|0:1|0:1,0:0:0:0:
256,244,5317,1,8,0:1:0:0:
304,160,5654,2,0,L|360:172,1,53.9999983520508,10|2,0:1|0:2,0:0:0:0:
404,180,5992,2,0,P|440:136|456:80,1,107.999996704102,10|10,0:1|0:1,0:0:0:0:
380,24,6666,5,10,0:1:0:0:
380,24,6834,1,2,0:2:0:0:
380,24,7003,2,0,L|272:48,1,107.999996704102,10|10,0:1|0:1,0:0:0:0:
200,112,7677,2,0,L|92:136,1,107.999996704102,10|10,0:1|0:1,0:0:0:0:
52,224,8351,6,0,P|28:276|28:332,2,107.999996704102,10|8|8,0:1|0:1|0:1,0:0:0:0:
120,292,9362,2,0,L|172:304,1,53.9999983520508,10|2,0:1|0:2,0:0:0:0:
220,316,9699,1,10,0:1:0:0:
292,252,10036,5,10,0:1:0:0:
292,252,10205,1,2,0:2:0:0:
292,252,10374,2,0,P|340:256|392:292,1,107.999996704102,10|10,0:1|0:1,0:0:0:0:
424,320,10879,1,2,0:2:0:0:
424,320,11048,2,0,L|460:216,1,107.999996704102,10|10,0:1|0:1,0:0:0:0:
428,124,11722,2,0,P|372:112|328:64,1,107.999996704102,10|10,0:1|0:1,0:0:0:0:
240,96,12396,6,0,L|132:120,2,107.999996704102,14|8|8,0:1|0:1|0:1,0:0:0:0:
264,192,13407,1,8,0:1:0:0:
284,288,13744,2,0,L|292:344,1,53.9999983520508,10|2,0:1|0:2,0:0:0:0:
252,372,14081,2,0,P|196:364|156:328,1,107.999996704102,10|10,0:1|0:1,0:0:0:0:
104,248,14756,1,10,0:1:0:0:
104,248,14924,1,2,0:2:0:0:
104,248,15093,6,0,L|124:136,1,107.999996704102,10|8,0:1|0:1,0:0:0:0:
200,84,15767,2,0,L|306:102,1,107.999996704102,8|8,0:1|0:1,0:0:0:0:
404,120,16441,2,0,L|460:128,1,53.9999983520508,10|2,0:1|0:2,0:0:0:0:
484,168,16778,2,0,P|484:212|448:268,1,107.999996704102,10|10,0:1|0:1,0:0:0:0:
376,328,17452,2,0,L|316:320,1,53.9999983520508,10|2,0:1|0:2,0:0:0:0:
276,312,17789,5,10,0:1:0:0:
216,236,18126,2,0,L|156:228,2,53.9999983520508,10|2|8,0:1|0:2|0:1,0:0:0:0:
284,168,18801,1,10,0:1:0:0:
228,88,19138,2,0,P|176:72|116:80,2,107.999996704102,10|8|8,0:1|0:1|0:1,0:0:0:0:
304,24,20149,2,0,L|364:36,1,53.9999983520508,10|2,0:1|0:2,0:0:0:0:
404,44,20486,5,10,0:1:0:0:
432,136,20823,2,0,L|420:196,2,53.9999983520508,10|2|8,0:1|0:2|0:1,0:0:0:0:
336,116,21497,1,10,0:1:0:0:
336,116,21666,1,2,0:2:0:0:
336,116,21834,2,0,P|328:168|292:216,1,107.999996704102,10|10,0:1|0:1,0:0:0:0:
200,228,22508,2,0,P|156:196|103:188,1,107.999996704102,10|10,0:1|0:2,0:0:0:0:
36,260,23183,6,0,P|12:216|8:156,1,107.999996704102,14|8,0:1|0:1,0:0:0:0:
20,112,23688,2,0,L|136:72,1,107.999996704102,2|0,0:2|0:0,0:0:0:0:
168,64,24194,1,10,0:1:0:0:
260,36,24531,2,0,P|312:28|372:48,1,107.999996704102,10|8,0:1|0:1,0:0:0:0:
404,68,25036,1,2,0:2:0:0:
448,156,25374,1,0,0:0:0:0:
448,156,25542,1,10,0:1:0:0:
372,216,25879,6,0,P|376:260|352:320,1,107.999996704102,10|8,0:1|0:1,0:0:0:0:
308,340,26385,2,0,P|264:344|204:320,1,107.999996704102,2|8,0:2|0:3,0:0:0:0:
164,296,26890,1,10,0:1:0:0:
208,208,27227,2,0,L|100:172,1,107.999996704102,10|8,0:1|0:1,0:0:0:0:
60,160,27733,1,10,0:3:0:0:
88,68,28070,1,0,0:0:0:0:
88,68,28239,1,10,0:2:0:0:
180,96,28576,6,0,P|216:56|272:40,1,107.999996704102,10|8,0:1|0:1,0:0:0:0:
312,28,29081,2,0,L|368:128,1,107.999996704102,2|0,0:2|0:0,0:0:0:0:
388,164,29587,1,10,0:1:0:0:
348,252,29924,2,0,P|392:256|452:292,1,107.999996704102,10|8,0:1|0:1,0:0:0:0:
452,336,30430,1,2,0:2:0:0:
360,368,30767,1,8,0:3:0:0:
360,368,30935,1,10,0:1:0:0:
280,312,31272,6,0,L|160:328,1,107.999996704102,10|8,0:1|0:1,0:0:0:0:
124,332,31778,1,2,0:2:0:0:
56,260,32115,1,8,0:3:0:0:
56,260,32284,2,0,P|32:212|40:152,2,107.999996704102,10|8|10,0:1|0:1|0:1,0:0:0:0:
128,196,33295,2,0,P|176:172|236:180,1,107.999996704102,8|10,0:1|0:2,0:0:0:0:
324,200,33969,6,0,L|352:84,1,107.999996704102,14|8,0:1|0:1,0:0:0:0:
360,48,34475,2,0,P|420:56|464:84,1,107.999996704102,2|0,0:2|0:0,0:0:0:0:
492,116,34980,1,10,0:1:0:0:
428,192,35317,1,8,0:1:0:0:
480,276,35654,1,8,0:1:0:0:
400,332,35992,2,0,P|356:308|292:304,1,107.999996704102,8|8,0:1|0:1,0:0:0:0:
252,308,36497,1,8,0:2:0:0:
252,308,36666,6,0,L|220:196,1,107.999996704102,10|8,0:1|0:1,0:0:0:0:
208,156,37171,1,2,0:2:0:0:
132,96,37508,1,8,0:3:0:0:
132,96,37677,1,10,0:1:0:0:
184,12,38014,1,8,0:1:0:0:
260,76,38351,2,0,P|308:52|360:64,1,107.999996704102,10|8,0:1|0:1,0:0:0:0:
404,84,38857,1,8,0:3:0:0:
404,84,39025,1,8,0:2:0:0:
448,168,39362,6,0,L|412:296,1,120,14|8,0:1|0:2,0:0:0:0:
400,328,39868,1,10,0:1:0:0:
332,260,40205,1,8,0:1:0:0:
332,260,40374,1,10,0:2:0:0:
248,304,40711,2,0,P|208:336|136:336,1,120,10|8,0:1|0:2,0:0:0:0:
112,300,41216,2,0,P|112:241|77:193,1,120,10|8,0:1|0:1,0:0:0:0:
40,160,41722,1,10,0:2:0:0:
76,72,42059,6,0,L|200:48,1,120,14|8,0:1|0:2,0:0:0:0:
228,80,42565,2,0,L|352:56,1,120,10|8,0:1|0:1,0:0:0:0:
388,76,43070,1,10,0:2:0:0:
452,148,43407,2,0,P|460:200|432:272,1,120,10|8,0:1|0:2,0:0:0:0:
412,304,43913,1,10,0:1:0:0:
324,264,44250,1,8,0:1:0:0:
324,264,44418,2,0,L|288:316,1,60,10|2,0:2|0:0,0:0:0:0:
260,352,44756,6,0,P|220:312|156:296,1,120,14|10,0:1|0:2,0:0:0:0:
112,296,45261,1,10,0:1:0:0:
112,296,45430,2,0,L|88:168,1,120,0|8,0:0|0:2,0:0:0:0:
184,172,46104,2,0,L|160:44,2,120,2|8|2,0:0|0:2|0:0,0:0:0:0:
248,244,47115,2,0,L|308:232,1,60,10|2,0:2|0:0,0:0:0:0:
356,224,47452,6,0,P|352:264|384:336,1,120,14|8,0:1|0:2,0:0:0:0:
448,264,48126,2,0,P|452:224|420:152,1,120,2|10,0:2|0:2,0:0:0:0:
356,84,48801,1,8,0:2:0:0:
356,84,48969,1,8,0:3:0:0:
356,84,49138,2,0,P|300:112|240:104,1,120,10|10,0:3|0:3,0:0:0:0:
160,60,49812,2,0,L|124:112,1,60,10|10,0:2|0:1,0:0:0:0:
100,148,50149,6,0,P|92:212|120:264,1,120,12|8,0:1|0:2,0:0:0:0:
192,320,50823,1,8,0:1:0:0:
268,260,51160,2,0,L|324:312,1,60,10|2,0:2|0:2,0:0:0:0:
344,336,51497,2,0,P|408:336|452:296,1,120,10|10,0:1|0:2,0:0:0:0:
460,204,52171,1,2,0:2:0:0:
468,108,52508,1,10,0:2:0:0:
468,108,52677,1,2,0:0:0:0:
468,108,52845,6,0,L|344:88,1,120,10|8,0:1|0:2,0:0:0:0:
300,88,53351,1,10,0:1:0:0:
300,88,53520,2,0,P|260:48|196:40,1,120,2|8,0:2|0:2,0:0:0:0:
216,136,54194,2,0,P|208:195|167:237,1,120,8|10,0:1|0:2,0:0:0:0:
120,240,54699,1,8,0:1:0:0:
120,240,54868,2,0,L|44:144,1,120,2|10,0:2|0:2,0:0:0:0:
4,232,55542,6,0,L|80:328,1,120,10|8,0:1|0:2,0:0:0:0:
112,364,56048,1,10,0:1:0:0:
112,364,56216,2,0,P|160:328|224:332,1,120,2|8,0:2|0:2,0:0:0:0:
312,344,56890,1,8,0:1:0:0:
332,248,57227,2,0,L|348:184,1,60,10|8,0:2|0:1,0:0:0:0:
356,144,57565,2,0,P|416:160|472:136,1,120,2|10,0:2|0:2,0:0:0:0:
460,44,58239,6,0,P|400:28|344:52,1,120,10|10,0:1|0:2,0:0:0:0:
304,64,58744,2,0,L|176:40,1,120,10|8,0:1|0:1,0:0:0:0:
140,36,59250,1,10,0:2:0:0:
140,36,59418,2,0,L|118:154,1,120,2|10,0:2|0:1,0:0:0:0:
112,200,59924,1,10,0:2:0:0:
36,260,60261,1,2,0:0:0:0:
96,332,60598,2,0,L|156:340,1,60,10|2,0:2|0:0,0:0:0:0:
204,344,60935,6,0,P|248:304|252:236,1,120,14|8,0:1|0:2,0:0:0:0:
248,200,61441,1,10,0:1:0:0:
248,200,61609,2,0,L|372:176,1,120,2|8,0:2|0:2,0:0:0:0:
460,160,62284,2,0,L|437:42,1,120,8|10,0:1|0:2,0:0:0:0:
396,20,62789,1,8,0:1:0:0:
396,20,62958,2,0,P|336:28|288:68,1,120,2|10,0:2|0:2,0:0:0:0:
212,120,63632,6,0,P|165:157|107:164,1,120,10|10,0:1|0:2,0:0:0:0:
60,160,64138,2,0,L|36:280,1,120,10|10,0:1|0:1,0:0:0:0:
28,324,64643,1,8,0:2:0:0:
28,324,64812,1,2,0:2:0:0:
120,344,65149,1,10,0:1:0:0:
120,344,65317,2,0,P|172:364|236:356,1,120,10|2,0:2|0:0,0:0:0:0:
288,276,65992,2,0,L|348:288,1,60,10|8,0:2|0:1,0:0:0:0:
396,296,66329,6,0,L|416:176,1,120,14|8,0:1|0:2,0:0:0:0:
424,132,66834,1,2,0:2:0:0:
424,132,67003,1,10,0:1:0:0:
380,48,67340,2,0,P|320:36|252:64,1,120,8|8,0:2|0:1,0:0:0:0:
260,148,68014,1,10,0:2:0:0:
260,148,68183,1,8,0:1:0:0:
260,148,68351,2,0,P|203:166|145:154,1,120,2|10,0:2|0:2,0:0:0:0:
52,136,69025,6,0,P|28:196|40:264,1,120,14|8,0:1|0:2,0:0:0:0:
56,292,69531,1,10,0:1:0:0:
56,292,69699,2,0,L|176:268,1,120,2|8,0:2|0:2,0:0:0:0:
220,260,70205,1,2,0:2:0:0:
220,260,70374,2,0,P|264:284|300:344,1,120,14|8,0:1|0:2,0:0:0:0:
344,360,70879,1,10,0:2:0:0:
344,360,71048,2,0,L|464:336,1,120,14|8,0:1|0:2,0:0:0:0:
484,296,71553,1,10,0:3:0:0:
484,296,71722,6,0,P|504:236|496:176,1,120,14|8,0:1|0:2,0:0:0:0:
424,116,72396,2,0,P|364:96|304:104,1,120,8|10,0:1|0:2,0:0:0:0:
260,112,72902,1,2,0:2:0:0:
260,112,73070,1,10,0:1:0:0:
184,172,73407,1,10,0:2:0:0:
252,240,73744,1,2,0:2:0:0:
172,292,74081,2,0,L|104:276,1,60,10|2,0:2|0:0,0:0:0:0:
68,264,74418,6,0,P|40:208|44:144,1,120,10|8,0:1|0:2,0:0:0:0:
56,104,74924,1,10,0:1:0:0:
56,104,75093,2,0,P|115:105|168:78,1,120,2|8,0:2|0:2,0:0:0:0:
256,36,75767,1,8,0:1:0:0:
300,124,76104,2,0,L|360:112,1,60,10|8,0:2|0:1,0:0:0:0:
408,104,76441,2,0,P|460:144|480:208,1,120,2|10,0:2|0:2,0:0:0:0:
444,284,77115,6,0,P|396:272|320:284,1,120,10|8,0:1|0:2,0:0:0:0:
280,300,77621,1,10,0:1:0:0:
280,300,77789,2,0,L|168:248,1,120,2|8,0:2|0:2,0:0:0:0:
84,212,78463,1,8,0:1:0:0:
128,128,78801,2,0,L|156:72,1,60,10|8,0:2|0:1,0:0:0:0:
176,32,79138,2,0,P|236:48|280:92,1,120,2|10,0:2|0:2,0:0:0:0:
276,184,79812,6,0,L|252:304,1,120,10|10,0:1|0:2,0:0:0:0:
284,340,80317,2,0,P|336:336|400:356,1,120,10|8,0:1|0:1,0:0:0:0:
448,364,80823,1,10,0:2:0:0:
448,364,80992,2,0,L|488:232,1,120,2|10,0:2|0:1,0:0:0:0:
492,204,81497,1,10,0:2:0:0:
432,128,81834,1,2,0:0:0:0:
512,72,82171,2,0,L|456:40,1,60,10|2,0:2|0:0,0:0:0:0:
416,20,82508,6,0,P|356:20|308:56,1,120,14|8,0:1|0:2,0:0:0:0:
280,92,83014,1,10,0:1:0:0:
280,92,83183,2,0,L|152:72,1,120,2|8,0:2|0:2,0:0:0:0:
76,112,83857,2,0,P|44:164|48:232,1,120,8|10,0:1|0:2,0:0:0:0:
68,264,84362,1,8,0:1:0:0:
68,264,84531,2,0,P|127:264|177:296,1,120,2|10,0:2|0:2,0:0:0:0:
260,344,85205,6,0,L|388:320,1,120,10|10,0:1|0:2,0:0:0:0:
424,312,85711,2,0,P|452:260|452:192,1,120,10|10,0:1|0:1,0:0:0:0:
432,156,86216,1,8,0:2:0:0:
432,156,86385,1,2,0:2:0:0:
376,76,86722,1,10,0:1:0:0:
376,76,86890,2,0,P|320:97|285:144,1,120,10|2,0:2|0:0,0:0:0:0:
224,220,87565,2,0,L|164:204,1,60,10|8,0:2|0:1,0:0:0:0:
120,192,87902,5,14,0:1:0:0:
52,260,88239,2,0,L|64:328,1,60,2|2,0:0|0:2,0:0:0:0:
104,340,88576,2,0,P|152:312|216:320,1,120,10|2,0:2|0:0,0:0:0:0:
308,292,89250,2,0,P|280:244|288:180,1,120,2|10,0:0|0:1,0:0:0:0:
304,136,89756,1,0,0:0:0:0:
304,136,89924,1,10,0:2:0:0:
372,68,90261,1,2,0:2:0:0:
424,148,90598,6,0,L|472:264,1,120,14|2,0:1|0:0,0:0:0:0:
488,304,91104,1,10,0:1:0:0:
488,304,91272,2,0,P|432:316|384:356,1,120,10|0,0:2|0:0,0:0:0:0:
288,340,91947,2,0,L|160:312,1,120,2|8,0:2|0:1,0:0:0:0:
124,300,92452,1,10,0:1:0:0:
124,300,92621,2,0,P|104:240|124:184,1,120,10|8,0:2|0:1,0:0:0:0:
144,148,93126,1,2,0:2:0:0:
144,148,93295,6,0,P|161:92|141:36,1,120,14|8,0:1|0:2,0:0:0:0:
176,4,93801,1,10,0:2:0:0:
176,4,93969,2,0,L|300:32,1,120,10|8,0:2|0:2,0:0:0:0:
344,112,94643,1,10,0:2:0:0:
424,56,94980,2,0,L|472:108,1,60,8|10,0:2|0:2,0:0:0:0:
492,140,95317,1,10,0:2:0:0:
444,224,95654,5,8,0:2:0:0:
444,224,95823,1,10,0:2:0:0:
444,224,95992,2,0,P|392:240|348:300,1,120,14|8,0:1|0:2,0:0:0:0:
336,336,96497,1,10,0:2:0:0:
336,336,96666,2,0,L|192:312,1,120,14|8,0:1|0:2,0:0:0:0:
144,252,97340,6,0,L|168:108,1,120,10|8,0:2|0:3,0:0:0:0:
172,88,97845,1,8,0:3:0:0:
172,88,98014,1,8,0:3:0:0:
268,96,98351,2,0,L|328:104,1,60,14|2,0:2|0:2,0:0:0:0:
376,112,98688,1,14,0:1:0:0:
256,192,98857,12,0,101722,0:0:0:0:
