osu file format v14

[General]
AudioFilename: audio.mp3
AudioLeadIn: 0
PreviewTime: 48801
Countdown: 0
SampleSet: Soft
StackLeniency: 0.7
Mode: 0
LetterboxInBreaks: 0
WidescreenStoryboard: 1

[Editor]
DistanceSpacing: 1.8
BeatDivisor: 4
GridSize: 4
TimelineZoom: 2.6

[Metadata]
Title:Toki to Uta
TitleUnicode:刻ト詩
Artist:Luna
ArtistUnicode:Luna
Creator:Andrea
Version:AsuKo's Insane
Source:サクラノ刻 -櫻の森の下を歩む-
Tags:osuplayer111 Sekai Sekaii Sekai-nyan Erisu Lanzhu Kowari Akitoshi Corinn -Laura- Zekk subahibi AsuKow Grazuko KoldNoodl ckharv Ayesha Altugle Kazato Asa Shikibe Mayu Shizuku- Syncro -Syncro Guchiry midorijeon Videogame Video Game Japanese Pop JPop J-Pop Opening OP Female Vocals Sakura no Toki Uta Sakura no Mori no Shita o Ayumu Kagome 籠目 Motoyon 基4% Inugami Kira 狗神煌 煌 Makura 枕 Sakutoki
BeatmapID:3711930
BeatmapSetID:1807701

[Difficulty]
HPDrainRate:5
CircleSize:4.2
OverallDifficulty:8
ApproachRate:9
SliderMultiplier:1.6
SliderTickRate:1

[Events]
//Background and Video events
Video,50,"Video.mp4"
0,0,"AsuKow.jpg",0,0
//Break Periods
//Storyboard Layer 0 (Background)
//Storyboard Layer 1 (Fail)
//Storyboard Layer 2 (Pass)
//Storyboard Layer 3 (Foreground)
//Storyboard Layer 4 (Overlay)
//Storyboard Sound Samples

[TimingPoints]
1610,337.078651685393,4,2,2,70,1,0
1610,-125,4,2,2,70,0,0
1947,-111.111111111111,4,2,2,70,0,0
5569,-111.111111111111,4,2,2,5,0,0
5654,-111.111111111111,4,2,2,70,0,0
8266,-111.111111111111,4,2,2,5,0,0
8351,-111.111111111111,4,2,2,70,0,0
12059,-125,4,2,2,70,0,0
12312,-125,4,2,2,5,0,0
12396,-111.111111111111,4,2,2,70,0,0
13659,-111.111111111111,4,2,2,5,0,0
13744,-111.111111111111,4,2,2,70,0,0
18041,-111.111111111111,4,2,2,5,0,0
18126,-111.111111111111,4,2,2,70,0,0
19053,-111.111111111111,4,2,2,5,0,0
19138,-111.111111111111,4,2,2,70,0,0
20738,-111.111111111111,4,2,2,5,0,0
20823,-111.111111111111,4,2,2,70,0,0
22087,-111.111111111111,4,2,2,5,0,0
22171,-111.111111111111,4,2,2,70,0,0
23098,-111.111111111111,4,2,2,5,0,0
23183,-142.857142857143,4,2,2,60,0,0
24446,-142.857142857143,4,2,2,5,0,0
24531,-142.857142857143,4,2,2,60,0,0
25374,-142.857142857143,4,2,3,60,0,0
26722,-142.857142857143,4,2,2,60,0,0
27143,-142.857142857143,4,2,2,5,0,0
27227,-142.857142857143,4,2,2,60,0,0
27395,-142.857142857143,4,2,1,60,0,0
27733,-142.857142857143,4,2,2,60,0,0
28492,-142.857142857143,4,2,2,5,0,0
28576,-142.857142857143,4,2,2,60,0,0
30767,-142.857142857143,4,2,3,60,0,0
32789,-142.857142857143,4,2,2,60,0,0
33126,-142.857142857143,4,2,3,60,0,0
33548,-142.857142857143,4,2,3,5,0,0
33632,-142.857142857143,4,2,3,60,0,0
33884,-142.857142857143,4,2,3,5,0,0
33885,-142.857142857143,4,2,3,5,0,0
33969,-142.857142857143,4,2,3,60,0,0
35822,-142.857142857143,4,2,2,60,0,0
36160,-142.857142857143,4,2,3,60,0,0
37930,-142.857142857143,4,2,3,5,0,0
38014,-142.857142857143,4,2,3,60,0,0
38183,-142.857142857143,4,2,2,60,0,0
38519,-142.857142857143,4,2,3,60,0,0
38857,-142.857142857143,4,2,4,60,0,0
39025,-250.000000000001,4,2,4,60,0,0
39278,-250.000000000001,4,2,4,5,0,0
39362,-100,4,2,2,70,0,0
39614,-100,4,2,2,5,0,0
39699,-100,4,2,2,70,0,0
40374,-125,4,2,2,70,0,0
40626,-125,4,2,2,5,0,0
40711,-100,4,2,2,70,0,0
41722,-125,4,2,2,70,0,0
41975,-125,4,2,2,5,0,0
42059,-100,4,2,3,70,0,0
43070,-125,4,2,3,70,0,0
43323,-125,4,2,3,5,0,0
43407,-100,4,2,3,70,0,0
44756,-100,4,2,2,70,0,0
45008,-100,4,2,2,5,0,0
45093,-100,4,2,2,70,0,0
48801,-100,4,2,1,70,0,0
49138,-100,4,2,2,70,0,0
49475,-100,4,2,1,70,0,0
49643,-100,4,2,2,70,0,0
50149,-83.3333333333333,4,2,2,80,0,0
50402,-83.3333333333333,4,2,2,5,0,0
50486,-83.3333333333333,4,2,2,80,0,0
51075,-83.3333333333333,4,2,2,5,0,0
51160,-83.3333333333333,4,2,2,80,0,0
51750,-83.3333333333333,4,2,2,5,0,0
51834,-83.3333333333333,4,2,2,80,0,0
52508,-100,4,2,2,80,0,0
52761,-125,4,2,2,5,0,0
52845,-83.3333333333333,4,2,2,80,0,0
54194,-83.3333333333333,4,2,2,80,0,0
55205,-100,4,2,2,80,0,0
55458,-100,4,2,2,5,0,0
55542,-83.3333333333333,4,2,2,80,0,0
57902,-100,4,2,2,80,0,0
58154,-100,4,2,2,5,0,0
58239,-83.3333333333333,4,2,2,80,0,0
58491,-83.3333333333333,4,2,2,5,0,0
58576,-83.3333333333333,4,2,2,80,0,0
60176,-83.3333333333333,4,2,2,5,0,0
60261,-83.3333333333333,4,2,2,80,0,0
60598,-100,4,2,2,80,0,0
60851,-100,4,2,2,5,0,0
60935,-83.3333333333333,4,2,2,80,0,0
61187,-83.3333333333333,4,2,2,5,0,0
61272,-83.3333333333333,4,2,2,80,0,0
62199,-83.3333333333333,4,2,2,5,0,0
62284,-83.3333333333333,4,2,2,80,0,0
67929,-83.3333333333333,4,2,2,5,0,0
68014,-83.3333333333333,4,2,2,80,0,0
68688,-100,4,2,2,80,0,0
68941,-100,4,2,2,5,0,0
69025,-83.3333333333333,4,2,3,80,0,0
69277,-83.3333333333333,4,2,3,5,0,0
69362,-83.3333333333333,4,2,3,80,0,0
70374,-83.3333333333333,4,2,3,80,0,0
71048,-83.3333333333333,4,2,3,80,0,0
71553,-83.3333333333333,4,2,2,80,0,0
71638,-83.3333333333333,4,2,3,80,0,0
71722,-83.3333333333333,4,2,2,80,0,0
71975,-83.3333333333333,4,2,2,5,0,0
72059,-83.3333333333333,4,2,2,80,0,0
72648,-83.3333333333333,4,2,2,5,0,0
72733,-83.3333333333333,4,2,2,80,0,0
73070,-100,4,2,2,80,0,0
73323,-100,4,2,2,5,0,0
73407,-83.3333333333333,4,2,2,80,0,0
74081,-100,4,2,2,80,0,0
74334,-100,4,2,2,5,0,0
74418,-83.3333333333333,4,2,2,80,0,0
74670,-83.3333333333333,4,2,2,5,0,0
74756,-83.3333333333333,4,2,2,80,0,0
75767,-83.3333333333333,4,2,2,80,0,0
76778,-100,4,2,2,80,0,0
77031,-100,4,2,2,5,0,0
77115,-83.3333333333333,4,2,2,80,0,0
77367,-83.3333333333333,4,2,2,5,0,0
77452,-83.3333333333333,4,2,2,80,0,0
78378,-83.3333333333333,4,2,2,5,0,0
78463,-83.3333333333333,4,2,2,80,0,0
79475,-100,4,2,2,80,0,0
79727,-100,4,2,2,5,0,0
79812,-83.3333333333333,4,2,2,80,0,0
81749,-83.3333333333333,4,2,2,5,0,0
81834,-83.3333333333333,4,2,2,80,0,0
82760,-83.3333333333333,4,2,2,5,0,0
82845,-83.3333333333333,4,2,2,80,0,0
84868,-100,4,2,2,80,0,0
85121,-100,4,2,2,5,0,0
85205,-83.3333333333333,4,2,2,80,0,0
85457,-83.3333333333333,4,2,2,5,0,0
85542,-83.3333333333333,4,2,2,80,0,0
86637,-83.3333333333333,4,2,2,5,0,0
86722,-83.3333333333333,4,2,2,80,0,0
87902,-125,4,2,2,80,0,0
90514,-125,4,2,2,5,0,0
90598,-125,4,2,2,80,0,0
93295,-100,4,2,3,80,0,0
93547,-100,4,2,3,5,0,0
93632,-100,4,2,3,45,0,0
93969,-100,4,2,3,50,0,0
94306,-100,4,2,3,55,0,0
94643,-100,4,2,3,60,0,0
94980,-100,4,2,3,65,0,0
95317,-100,4,2,3,70,0,0
95654,-100,4,2,3,75,0,0
95992,-100,4,2,2,80,0,0
96076,-100,4,2,2,80,0,0
96160,-100,4,2,2,50,0,0
96244,-100,4,2,2,55,0,0
96329,-100,4,2,2,60,0,0
96413,-100,4,2,2,65,0,0
96497,-100,4,2,2,70,0,0
96581,-100,4,2,2,75,0,0
96666,-100,4,2,3,80,0,0
96750,-100,4,2,3,80,0,0
96834,-100,4,2,2,50,0,0
96918,-100,4,2,2,55,0,0
97003,-100,4,2,2,60,0,0
97087,-100,4,2,2,65,0,0
97171,-100,4,2,2,70,0,0
97255,-100,4,2,2,75,0,0
97677,-100,4,2,1,80,0,0
97845,-100,4,2,2,80,0,0
98014,-100,4,2,3,80,0,0
98183,-100,4,2,4,80,0,0
98351,-100,4,2,3,80,0,0
98688,-192.307692307692,4,2,2,80,0,0
101722,-192.307692307692,4,2,2,5,0,0

[Colours]
Combo1 : 170,255,170
Combo2 : 255,170,255
Combo3 : 226,199,199
Combo4 : 255,255,170

[HitObjects]
464,134,1610,6,0,P|475:73|437:24,2,128,14|8|8,0:1|0:1|0:1,0:0:0:0:
396,215,2452,1,0,0:0:0:0:
296,153,2621,2,0,P|308:114|319:78,1,71.9999978027344,10|0,0:1|0:0,0:0:0:0:
197,186,2958,5,10,0:1:0:0:
197,186,3126,1,2,0:2:0:0:
121,85,3295,1,10,0:1:0:0:
121,85,3463,1,2,0:2:0:0:
236,12,3632,2,0,P|225:46|214:80,1,71.9999978027344,10|0,0:1|0:0,0:0:0:0:
109,181,3969,1,10,0:1:0:0:
109,181,4138,1,2,0:2:0:0:
264,230,4306,6,0,P|294:213|350:218,1,71.9999978027344,10|0,0:1|0:0,0:0:0:0:
486,246,4643,2,0,P|474:283|461:325,1,71.9999978027344,8|0,0:1|0:0,0:0:0:0:
336,384,4980,2,0,P|325:349|314:315,1,71.9999978027344,8|0,0:1|0:0,0:0:0:0:
176,244,5317,2,0,P|164:278|154:312,1,71.9999978027344,8|0,0:1|0:0,0:0:0:0:
39,375,5654,5,10,0:1:0:0:
39,375,5823,1,2,0:2:0:0:
153,312,5992,1,10,0:1:0:0:
153,312,6160,1,2,0:2:0:0:
36,251,6329,2,0,P|48:210|59:175,1,71.9999978027344,10|0,0:1|0:0,0:0:0:0:
152,120,6666,1,10,0:1:0:0:
152,120,6834,1,2,0:2:0:0:
0,52,7003,6,0,P|57:11|128:18,1,143.999995605469,10|10,0:1|0:1,0:0:0:0:
265,88,7508,2,0,P|255:122|241:165,1,71.9999978027344,2|8,0:2|0:1,0:0:0:0:
279,269,7845,1,2,0:2:0:0:
96,283,8014,2,0,P|132:239|192:242,1,107.999996704102,10|0,0:1|0:0,0:0:0:0:
198,241,8351,6,0,P|188:269|169:320,1,71.9999978027344,10|0,0:1|0:0,0:0:0:0:
310,375,8688,2,0,P|354:371|381:346,1,71.9999978027344,8|0,0:1|0:0,0:0:0:0:
512,300,9025,2,0,P|504:333|493:378,1,71.9999978027344,8|0,0:1|0:0,0:0:0:0:
418,252,9362,1,10,0:1:0:0:
418,252,9531,1,2,0:2:0:0:
512,156,9699,6,0,P|493:86|474:16,1,143.999995605469,10|10,0:1|0:1,0:0:0:0:
403,92,10205,1,2,0:2:0:0:
325,23,10374,2,0,B|263:31|263:31|249:50|249:50|191:57,1,143.999995605469,10|10,0:1|0:1,0:0:0:0:
84,117,10879,1,2,0:2:0:0:
172,232,11048,6,0,P|187:191|201:151,1,71.9999978027344,10|0,0:1|0:0,0:0:0:0:
312,108,11385,2,0,P|324:141|336:175,1,71.9999978027344,10|0,0:1|0:0,0:0:0:0:
449,267,11722,2,0,P|422:295|377:302,1,71.9999978027344,10|0,0:1|0:0,0:0:0:0:
241,372,12059,2,0,P|180:356|124:342,1,96,10|0,0:1|0:0,0:0:0:0:
136,353,12396,6,0,P|92:304|134:234,1,143.999995605469,14|8,0:1|0:1,0:0:0:0:
225,187,12902,1,2,0:0:0:0:
118,131,13070,2,0,P|77:144|41:156,1,71.9999978027344,8|0,0:1|0:0,0:0:0:0:
166,33,13407,2,0,P|207:46|243:58,1,71.9999978027344,8|0,0:1|0:0,0:0:0:0:
352,37,13744,5,10,0:1:0:0:
352,37,13913,1,2,0:2:0:0:
436,115,14081,2,0,P|425:148|412:192,1,71.9999978027344,10|2,0:1|0:2,0:0:0:0:
512,337,14418,6,0,B|453:323|453:323|425:340|425:340|373:333,1,143.999995605469,10|10,0:1|0:1,0:0:0:0:
277,281,14924,1,2,0:2:0:0:
280,272,15008,1,2,0:0:0:0:
284,264,15093,6,0,P|264:158|256:113,1,143.999995605469,10|8,0:1|0:1,0:0:0:0:
177,26,15598,1,2,0:0:0:0:
85,96,15767,2,0,P|75:129|88:163,1,71.9999978027344,8|0,0:1|0:0,0:0:0:0:
180,240,16104,2,0,P|192:273|182:307,1,71.9999978027344,8|0,0:1|0:0,0:0:0:0:
76,362,16441,5,10,0:1:0:0:
76,362,16609,1,2,0:2:0:0:
0,265,16778,1,10,0:1:0:0:
0,265,16947,1,2,0:2:0:0:
63,135,17115,2,0,B|147:119|120:170|200:159,1,143.999995605469,10|10,0:1|0:1,0:0:0:0:
274,58,17621,1,2,0:2:0:0:
281,54,17705,1,2,0:0:0:0:
290,51,17789,6,0,P|328:87|295:176,1,143.999995605469,10|10,0:1|0:1,0:0:0:0:
193,211,18295,1,2,0:2:0:0:
182,217,18379,1,2,0:0:0:0:
173,225,18463,2,0,P|183:275|194:324,1,71.9999978027344,8|2,0:1|0:2,0:0:0:0:
269,364,18801,2,0,P|320:370|359:334,1,107.999996704102,10|0,0:1|0:0,0:0:0:0:
372,317,19138,6,0,L|512:350,2,143.999995605469,10|8|8,0:1|0:1|0:1,0:0:0:0:
274,249,19980,1,0,0:0:0:0:
274,249,20149,1,10,0:1:0:0:
361,159,20317,1,2,0:2:0:0:
367,166,20402,1,2,0:0:0:0:
373,173,20486,6,0,P|437:175|474:105,1,143.999995605469,10|10,0:1|0:1,0:0:0:0:
349,24,20992,2,0,B|270:14|292:67|216:66,1,143.999995605469,2|0,0:2|0:0,0:0:0:0:
89,39,21497,2,0,P|99:67|116:120,1,71.9999978027344,10|2,0:1|0:2,0:0:0:0:
199,217,21834,6,0,P|124:191|77:216,1,107.999996704102,10|0,0:1|0:0,0:0:0:0:
83,210,22171,2,0,P|95:238|113:280,1,71.9999978027344,10|0,0:1|0:0,0:0:0:0:
208,376,22508,2,0,P|222:342|236:309,1,71.9999978027344,10|8,0:1|0:1,0:0:0:0:
389,220,22845,2,0,P|337:247|282:217,1,107.999996704102,10|2,0:2|0:0,0:0:0:0:
285,216,23183,6,0,P|269:143|259:97,1,111.999996582031,14|8,0:1|0:1,0:0:0:0:
217,23,23688,2,0,P|265:62|327:53,1,111.999996582031,2|0,0:2|0:0,0:0:0:0:
401,16,24194,2,0,P|425:22|457:31,1,55.9999982910157,10|0,0:1|0:0,0:0:0:0:
512,121,24531,2,0,P|456:133|393:149,1,111.999996582031,10|8,0:1|0:1,0:0:0:0:
305,192,25036,2,0,P|331:235|396:246,1,111.999996582031,2|0,0:2|0:0,0:0:0:0:
498,282,25542,2,0,P|504:246|510:222,1,55.9999982910157,10|8,0:1|0:2,0:0:0:0:
424,355,25879,6,0,B|374:352|374:352|359:365|359:365|304:364,1,111.999996582031,10|8,0:1|0:1,0:0:0:0:
188,364,26385,2,0,P|196:309|248:276,1,111.999996582031,2|8,0:2|0:3,0:0:0:0:
330,210,26890,2,0,P|286:145|277:146,1,83.9999974365235,10|0,0:1|0:0,0:0:0:0:
286,146,27227,2,0,P|223:160|158:177,1,111.999996582031,10|8,0:1|0:1,0:0:0:0:
93,129,27733,2,0,P|129:168|115:220,1,111.999996582031,10|0,0:3|0:0,0:0:0:0:
27,274,28239,2,0,P|35:312|46:357,1,83.9999974365235,10|0,0:2|0:0,0:0:0:0:
54,366,28576,6,0,P|96:347|159:373,1,111.999996582031,10|8,0:1|0:1,0:0:0:0:
276,382,29081,2,0,P|263:313|252:267,1,111.999996582031,2|0,0:2|0:0,0:0:0:0:
206,182,29587,2,0,P|180:191|151:201,1,55.9999982910157,10|0,0:1|0:0,0:0:0:0:
255,105,29924,2,0,P|306:115|376:128,1,111.999996582031,10|8,0:1|0:1,0:0:0:0:
474,73,30430,2,0,P|459:47|375:32,1,111.999996582031,2|8,0:2|0:3,0:0:0:0:
293,94,30935,2,0,L|274:41,1,55.9999982910157,10|8,0:1|0:2,0:0:0:0:
386,136,31272,6,0,P|372:181|353:246,1,111.999996582031,10|8,0:1|0:1,0:0:0:0:
279,329,31778,2,0,P|331:366|388:355,1,111.999996582031,2|8,0:2|0:3,0:0:0:0:
468,278,32284,2,0,P|483:326|508:402,2,111.999996582031,10|8|10,0:1|0:1|0:1,0:0:0:0:
506,185,33126,1,10,0:3:0:0:
510,178,33211,1,2,0:0:0:0:
512,171,33295,2,0,P|477:149|420:169,1,83.9999974365235,8|0,0:1|0:0,0:0:0:0:
429,163,33632,2,0,P|394:185|337:165,1,83.9999974365235,10|0,0:2|0:0,0:0:0:0:
255,105,33969,6,0,P|182:121|136:131,1,111.999996582031,14|8,0:1|0:1,0:0:0:0:
45,189,34475,2,0,P|20:136|43:80,1,111.999996582031,2|0,0:2|0:0,0:0:0:0:
102,12,34980,2,0,P|126:18|158:27,1,55.9999982910157,10|0,0:1|0:0,0:0:0:0:
268,32,35317,2,0,P|322:18|377:6,1,111.999996582031,8|8,0:1|0:1,0:0:0:0:
489,17,35823,2,0,P|503:68|471:122,1,111.999996582031,8|8,0:3|0:3,0:0:0:0:
392,172,36328,2,0,P|364:165|337:161,1,55.9999982910157,8|8,0:1|0:2,0:0:0:0:
482,215,36666,6,0,P|474:264|462:340,1,111.999996582031,10|8,0:1|0:1,0:0:0:0:
364,372,37171,2,0,P|331:328|277:320,1,111.999996582031,2|8,0:2|0:3,0:0:0:0:
189,380,37677,2,0,P|171:312|163:280,1,83.9999974365235,10|0,0:1|0:0,0:0:0:0:
161,288,38014,2,0,P|122:324|97:331,1,55.9999982910157,8|8,0:1|0:3,0:0:0:0:
0,377,38351,2,0,P|17:297|26:254,1,111.999996582031,10|8,0:1|0:1,0:0:0:0:
0,144,38857,1,8,0:3:0:0:
99,47,39025,2,0,P|112:32|96:41,1,48,8|0,0:2|0:2,0:0:0:0:
0,62,39362,6,0,P|62:72|174:91,1,160,14|8,0:1|0:2,0:0:0:0:
346,48,39868,2,0,P|306:41|270:56,1,80,10|0,0:1|0:0,0:0:0:0:
169,164,40205,1,8,0:1:0:0:
294,225,40374,2,0,P|340:213|387:201,1,96,10|0,0:2|0:0,0:0:0:0:
400,197,40711,6,0,P|444:252|407:334,1,160,10|8,0:1|0:2,0:0:0:0:
255,384,41216,2,0,P|231:287|216:223,1,160,10|8,0:1|0:1,0:0:0:0:
112,100,41722,2,0,P|143:65|189:57,1,96,10|0,0:2|0:0,0:0:0:0:
202,61,42059,6,0,P|278:43|381:21,1,160,14|8,0:1|0:2,0:0:0:0:
512,110,42565,2,0,B|417:86|452:153|362:142,1,160,10|8,0:1|0:1,0:0:0:0:
217,202,43070,2,0,P|226:241|240:312,1,96,10|2,0:2|0:0,0:0:0:0:
242,309,43407,6,0,P|295:357|380:339,1,160,10|8,0:1|0:2,0:0:0:0:
512,384,43913,2,0,P|487:267|473:203,1,160,10|8,0:1|0:1,0:0:0:0:
370,111,44418,1,10,0:2:0:0:
511,31,44587,1,2,0:0:0:0:
505,43,44671,1,2,0:0:0:0:
501,55,44756,6,0,P|420:7|359:32,1,160,14|10,0:1|0:2,0:0:0:0:
248,117,45261,2,0,P|260:145|285:200,1,80,10|0,0:1|0:0,0:0:0:0:
359,322,45598,1,8,0:1:0:0:
208,368,45767,2,0,P|224:331|240:294,1,80,8|8,0:2|0:1,0:0:0:0:
248,117,46104,5,2,0:0:0:0:
100,224,46272,1,8,0:1:0:0:
63,81,46441,2,0,P|99:92|148:108,1,80,8|8,0:2|0:1,0:0:0:0:
313,9,46778,2,0,P|277:20|228:36,1,80,2|8,0:0|0:1,0:0:0:0:
182,175,47115,1,10,0:2:0:0:
181,183,47199,1,2,0:0:0:0:
178,189,47284,2,0,P|186:211|197:245,1,40,2|2,0:0|0:0,0:0:0:0:
243,360,47452,5,14,0:1:0:0:
342,256,47621,1,8,0:1:0:0:
435,357,47789,2,0,P|465:316|463:285,1,80,8|10,0:2|0:1,0:0:0:0:
383,163,48126,2,0,P|347:175|300:188,1,80,2|10,0:2|0:1,0:0:0:0:
214,30,48463,2,0,P|250:42|297:55,1,80,10|8,0:2|0:1,0:0:0:0:
487,19,48801,5,8,0:2:0:0:
481,35,48885,1,8,0:2:0:0:
474,50,48969,2,0,P|478:70|486:106,1,40,8|8,0:3|0:3,0:0:0:0:
512,178,49138,2,0,P|504:199|494:223,3,40,10|8|8|8,0:3|0:3|0:2|0:2,0:0:0:0:
415,306,49475,5,10,0:3:0:0:
382,283,49559,1,8,0:3:0:0:
343,275,49643,1,8,0:3:0:0:
304,285,49727,1,8,0:3:0:0:
271,316,49812,2,0,P|258:281|251:262,1,40,10|8,0:2|0:1,0:0:0:0:
195,193,49980,2,0,P|207:158|215:139,1,40,10|8,0:1|0:1,0:0:0:0:
317,106,50149,6,0,P|276:49|206:48,1,143.999995605469,12|0,0:1|0:0,0:0:0:0:
106,19,50486,2,0,P|119:58|138:119,1,95.9999970703126,8|0,0:2|0:0,0:0:0:0:
188,293,50823,2,0,P|149:266|102:269,1,95.9999970703126,8|0,0:1|0:0,0:0:0:0:
0,369,51160,1,10,0:2:0:0:
62,195,51329,1,2,0:2:0:0:
216,378,51497,6,0,P|286:363|357:349,1,143.999995605469,10|0,0:1|0:0,0:0:0:0:
435,383,51834,2,0,P|447:337|423:293,1,95.9999970703126,10|8,0:2|0:1,0:0:0:0:
296,179,52171,2,0,P|283:225|271:271,1,95.9999970703126,2|8,0:2|0:1,0:0:0:0:
135,362,52508,2,0,P|84:350|69:278,1,120,10|2,0:2|0:0,0:0:0:0:
0,251,52845,6,0,P|21:168|47:59,1,191.999994140625,10|8,0:1|0:2,0:0:0:0:
202,9,53351,1,10,0:1:0:0:
412,107,53520,2,0,B|345:81|315:117|322:116|289:158|232:138,1,191.999994140625,2|8,0:2|0:2,0:0:0:0:
112,280,54025,1,2,0:0:0:0:
120,292,54109,1,2,0:0:0:0:
126,302,54194,5,10,0:1:0:0:
0,127,54362,1,8,0:1:0:0:
155,41,54531,2,0,P|198:50|267:67,1,95.9999970703126,10|8,0:2|0:1,0:0:0:0:
427,188,54868,2,0,P|383:197|315:214,1,95.9999970703126,2|8,0:2|0:1,0:0:0:0:
183,364,55205,2,0,P|217:318|274:317,1,120,10|0,0:2|0:0,0:0:0:0:
327,383,55542,6,0,P|300:271|282:196,1,191.999994140625,10|8,0:1|0:2,0:0:0:0:
393,34,56048,1,10,0:1:0:0:
512,231,56216,2,0,P|457:218|394:201,1,95.9999970703126,2|8,0:2|0:1,0:0:0:0:
228,127,56553,2,0,P|283:114|346:97,1,95.9999970703126,8|0,0:2|0:0,0:0:0:0:
512,231,56890,6,0,P|521:277|498:318,1,95.9999970703126,8|8,0:1|0:1,0:0:0:0:
314,365,57227,2,0,P|261:351|208:337,1,95.9999970703126,10|8,0:2|0:1,0:0:0:0:
72,371,57565,1,2,0:2:0:0:
164,235,57733,1,8,0:1:0:0:
161,226,57817,1,8,0:1:0:0:
159,218,57902,2,0,P|136:174|71:165,1,120,10|0,0:2|0:0,0:0:0:0:
71,247,58239,6,0,P|158:221|291:185,1,191.999994140625,10|10,0:1|0:2,0:0:0:0:
452,72,58744,2,0,B|404:33|358:46|358:46|343:97|283:94,1,191.999994140625,10|8,0:1|0:1,0:0:0:0:
131,22,59250,1,10,0:2:0:0:
0,134,59418,6,0,P|12:177|27:229,1,95.9999970703126,2|8,0:2|0:1,0:0:0:0:
167,356,59756,1,10,0:1:0:0:
276,203,59924,2,0,P|184:189|123:258,1,191.999994140625,10|2,0:2|0:0,0:0:0:0:
284,375,60430,1,8,0:1:0:0:
411,305,60598,2,0,P|479:267|526:295,1,120,10|0,0:2|0:0,0:0:0:0:
479,357,60935,6,0,P|443:223|428:166,1,191.999994140625,14|8,0:1|0:2,0:0:0:0:
332,27,61441,1,10,0:1:0:0:
168,203,61609,2,0,B|246:188|246:188|278:211|278:211|369:201,1,191.999994140625,2|8,0:2|0:2,0:0:0:0:
512,98,62115,1,0,0:0:0:0:
332,27,62284,6,0,P|321:71|307:121,1,95.9999970703126,8|8,0:1|0:1,0:0:0:0:
216,295,62621,1,10,0:2:0:0:
96,146,62789,1,8,0:1:0:0:
101,134,62874,1,8,0:1:0:0:
111,124,62958,2,0,P|158:109|208:131,1,95.9999970703126,2|8,0:2|0:1,0:0:0:0:
24,291,63295,2,0,P|10:235|-5:180,1,95.9999970703126,10|0,0:2|0:0,0:0:0:0:
74,15,63632,6,0,P|154:30|279:54,1,191.999994140625,10|10,0:1|0:2,0:0:0:0:
440,171,64138,2,0,P|455:132|436:82,1,95.9999970703126,10|0,0:1|0:0,0:0:0:0:
256,175,64475,1,10,0:1:0:0:
424,283,64643,1,8,0:2:0:0:
260,375,64812,1,2,0:2:0:0:
268,363,64896,1,2,0:0:0:0:
279,353,64980,6,0,P|328:364|374:373,1,95.9999970703126,8|10,0:1|0:1,0:0:0:0:
179,270,65317,2,0,B|112:244|82:280|89:279|56:321|-1:301,1,191.999994140625,10|2,0:2|0:0,0:0:0:0:
140,363,65823,1,8,0:1:0:0:
12,193,65992,2,0,P|29:145|50:88,1,95.9999970703126,10|8,0:2|0:1,0:0:0:0:
4,34,66244,1,8,0:1:0:0:
9,19,66329,6,0,P|100:8|144:96,1,191.999994140625,14|8,0:1|0:2,0:0:0:0:
339,45,66834,1,2,0:2:0:0:
238,234,67003,2,0,P|227:187|217:140,1,95.9999970703126,10|8,0:1|0:1,0:0:0:0:
368,330,67340,2,0,P|378:283|388:236,1,95.9999970703126,8|0,0:2|0:0,0:0:0:0:
512,65,67677,6,0,P|461:97|421:93,1,95.9999970703126,8|8,0:1|0:1,0:0:0:0:
244,22,68014,2,0,P|254:58|276:141,1,95.9999970703126,10|8,0:2|0:1,0:0:0:0:
464,223,68351,2,0,P|416:198|367:215,1,95.9999970703126,2|8,0:2|0:1,0:0:0:0:
306,367,68688,2,0,P|374:354|445:340,1,120,10|0,0:2|0:0,0:0:0:0:
512,368,69025,5,14,0:1:0:0:
512,368,69194,1,8,0:1:0:0:
314,251,69362,1,8,0:2:0:0:
484,151,69531,1,10,0:1:0:0:
343,31,69699,2,0,P|354:70|373:134,1,95.9999970703126,2|8,0:2|0:1,0:0:0:0:
444,274,70036,1,8,0:2:0:0:
271,156,70205,1,2,0:2:0:0:
162,331,70374,6,0,P|121:353|75:345,1,95.9999970703126,14|8,0:1|0:2,0:0:0:0:
24,292,70626,1,8,0:2:0:0:
40,264,70711,1,8,0:2:0:0:
56,240,70795,2,0,P|46:201|41:184,1,47.9999985351563,8|10,0:2|0:2,0:0:0:0:
0,108,70963,2,0,P|10:69|15:52,1,47.9999985351563,8|14,0:0|0:1,0:0:0:0:
106,15,71132,5,8,0:0:0:0:
138,50,71216,1,8,0:2:0:0:
182,67,71300,1,8,0:2:0:0:
229,64,71385,2,0,P|248:57|302:39,1,47.9999985351563,8|8,0:2|0:0,0:0:0:0:
372,16,71553,2,0,P|394:23|417:31,1,47.9999985351563,10|8,0:3|0:3,0:0:0:0:
512,134,71722,6,0,P|443:120|391:175,1,143.999995605469,14|0,0:1|0:0,0:0:0:0:
429,244,72059,2,0,P|382:253|340:232,1,95.9999970703126,8|0,0:2|0:0,0:0:0:0:
114,212,72396,2,0,P|161:194|211:175,1,95.9999970703126,8|0,0:1|0:0,0:0:0:0:
348,96,72733,1,10,0:2:0:0:
260,256,72902,1,2,0:2:0:0:
169,96,73070,6,0,P|114:74|59:95,1,120,10|0,0:1|0:0,0:0:0:0:
5,158,73407,2,0,P|19:203|33:249,1,95.9999970703126,10|8,0:2|0:1,0:0:0:0:
159,375,73744,2,0,P|172:329|187:283,1,95.9999970703126,2|8,0:2|0:1,0:0:0:0:
335,145,74081,2,0,P|301:111|232:113,1,120,10|2,0:2|0:0,0:0:0:0:
257,188,74418,6,0,P|342:167|445:139,1,191.999994140625,10|8,0:1|0:2,0:0:0:0:
512,299,74924,1,10,0:1:0:0:
380,370,75093,2,0,B|305:353|305:353|267:371|267:371|179:353,1,191.999994140625,2|8,0:2|0:2,0:0:0:0:
0,336,75598,1,2,0:2:0:0:
12,328,75683,1,2,0:2:0:0:
24,324,75767,5,10,0:1:0:0:
200,256,75935,1,8,0:1:0:0:
62,169,76104,2,0,P|74:207|90:265,1,95.9999970703126,10|8,0:2|0:1,0:0:0:0:
239,384,76441,2,0,P|251:337|266:291,1,95.9999970703126,2|8,0:2|0:1,0:0:0:0:
416,166,76778,2,0,P|373:126|315:130,1,120,10|0,0:2|0:0,0:0:0:0:
293,206,77115,6,0,P|275:111|256:13,1,191.999994140625,10|8,0:1|0:2,0:0:0:0:
132,176,77621,1,10,0:1:0:0:
0,76,77789,2,0,P|59:48|94:58,1,95.9999970703126,2|8,0:2|0:1,0:0:0:0:
228,167,78126,2,0,P|212:212|198:258,1,95.9999970703126,8|0,0:2|0:0,0:0:0:0:
29,359,78463,6,0,P|14:313|0:267,1,95.9999970703126,8|8,0:1|0:1,0:0:0:0:
175,362,78801,2,0,P|224:352|283:340,1,95.9999970703126,10|8,0:2|0:1,0:0:0:0:
458,276,79138,2,0,P|471:320|453:364,1,95.9999970703126,2|8,0:2|0:1,0:0:0:0:
327,243,79475,2,0,P|303:191|330:139,1,120,10|0,0:2|0:0,0:0:0:0:
412,109,79812,6,0,B|355:131|321:88|329:91|292:54|232:86,1,191.999994140625,10|10,0:1|0:2,0:0:0:0:
42,16,80317,2,0,P|65:95|97:206,1,191.999994140625,10|8,0:1|0:1,0:0:0:0:
202,350,80823,1,10,0:2:0:0:
32,370,80992,2,0,P|43:319|117:301,1,95.9999970703126,2|8,0:2|0:1,0:0:0:0:
166,163,81329,1,10,0:1:0:0:
342,302,81497,6,0,P|411:241|397:150,1,191.999994140625,10|2,0:2|0:0,0:0:0:0:
300,21,82003,1,8,0:1:0:0:
229,125,82171,2,0,P|275:110|332:91,1,95.9999970703126,10|2,0:2|0:0,0:0:0:0:
509,10,82508,6,0,P|492:94|468:213,1,191.999994140625,14|8,0:1|0:2,0:0:0:0:
420,370,83014,1,10,0:1:0:0:
240,259,83183,2,0,P|310:209|411:251,1,191.999994140625,2|8,0:2|0:2,0:0:0:0:
512,341,83688,1,0,0:0:0:0:
311,384,83857,6,0,P|319:334|329:284,1,95.9999970703126,8|8,0:1|0:1,0:0:0:0:
476,149,84194,2,0,P|449:92|401:83,1,95.9999970703126,10|8,0:2|0:1,0:0:0:0:
252,16,84531,2,0,P|206:30|160:45,1,95.9999970703126,2|8,0:2|0:1,0:0:0:0:
0,161,84868,2,0,P|45:175|128:201,1,120,10|0,0:2|0:0,0:0:0:0:
199,214,85205,6,0,P|108:231|81:330,1,191.999994140625,10|10,0:1|0:2,0:0:0:0:
253,369,85711,2,0,P|299:357|345:344,1,95.9999970703126,10|8,0:1|0:1,0:0:0:0:
512,264,86048,1,10,0:1:0:0:
327,183,86216,1,8,0:2:0:0:
490,95,86385,1,2,0:2:0:0:
485,109,86469,1,2,0:2:0:0:
481,121,86553,6,0,P|423:110|368:100,1,95.9999970703126,10|10,0:1|0:1,0:0:0:0:
195,227,86890,2,0,P|285:204|353:271,1,191.999994140625,10|2,0:2|0:0,0:0:0:0:
242,364,87396,1,8,0:1:0:0:
77,279,87565,2,0,P|93:229|108:185,1,95.9999970703126,10|8,0:2|0:1,0:0:0:0:
239,79,87902,6,0,P|207:28|129:30,1,128,14|2,0:1|0:0,0:0:0:0:
36,96,88407,1,2,0:2:0:0:
196,192,88576,6,0,B|275:224|322:172|304:168|359:116|433:153,1,256,10|2,0:2|0:0,0:0:0:0:
433,152,89587,6,0,P|441:121|450:90,1,64,10|0,0:1|0:0,0:0:0:0:
317,17,89924,2,0,P|326:47|334:78,1,64,10|0,0:2|0:0,0:0:0:0:
240,148,90261,2,0,P|196:149|161:99,1,96,2|0,0:2|0:0,0:0:0:0:
151,95,90598,6,0,P|176:186|206:298,1,192,14|10,0:1|0:1,0:0:0:0:
315,363,91272,2,0,P|246:303|158:330,1,192,10|2,0:2|0:2,0:0:0:0:
0,355,91947,2,0,P|28:244|48:168,1,192,2|10,0:2|0:1,0:0:0:0:
158,40,92621,2,0,P|245:12|315:72,1,192,10|2,0:2|0:2,0:0:0:0:
460,182,93295,6,0,B|394:172|394:172|362:194|362:194|307:187,1,160,14|8,0:1|0:2,0:0:0:0:
155,244,93801,1,10,0:2:0:0:
252,360,93969,2,0,P|290:350|329:339,1,80,10|8,0:2|0:2,0:0:0:0:
493,360,94306,1,8,0:2:0:0:
360,252,94475,1,10,0:2:0:0:
512,381,94643,6,0,P|496:319|486:283,1,80,10|8,0:2|0:2,0:0:0:0:
456,184,94980,1,8,0:2:0:0:
329,339,95149,1,10,0:2:0:0:
208,168,95317,6,0,P|250:140|300:149,1,80,10|8,0:2|0:2,0:0:0:0:
400,84,95654,1,8,0:2:0:0:
230,47,95823,1,10,0:2:0:0:
367,215,95992,5,14,0:1:0:0:
344,247,96076,1,8,0:0:0:0:
310,267,96160,1,8,0:2:0:0:
270,268,96244,1,8,0:2:0:0:
234,251,96329,2,8,L|179:268,3,40,8|8|10|8,0:2|0:0|0:2|0:2,0:0:0:0:
105,360,96666,5,14,0:1:0:0:
72,337,96750,1,8,0:0:0:0:
52,303,96834,1,8,0:2:0:0:
51,263,96918,1,8,0:2:0:0:
68,227,97003,2,0,L|51:171,3,40,8|8|8|8,0:2|0:2|0:2|0:2,0:0:0:0:
162,100,97340,6,0,L|151:139,3,40,10|8|8|8,0:2|0:2|0:2|0:2,0:0:0:0:
58,77,97677,1,8,0:3:0:0:
76,41,97761,1,8,0:3:0:0:
106,15,97845,1,8,0:3:0:0:
143,3,97929,1,8,0:3:0:0:
183,3,98014,1,8,0:3:0:0:
220,19,98098,1,8,0:3:0:0:
248,47,98183,6,0,L|311:30,1,40,8|8,0:1|0:1,0:0:0:0:
363,153,98351,2,0,L|373:114,1,40,10|2,0:2|0:0,0:0:0:0:
220,155,98520,2,0,L|248:183,1,40,2|2,0:2|0:2,0:0:0:0:
382,309,98688,1,14,0:1:0:0:
256,192,98772,12,0,101722,0:0:0:0:
