osu file format v14

[General]
AudioFilename: audio.mp3
AudioLeadIn: 0
PreviewTime: 182290
Countdown: 0
SampleSet: Soft
StackLeniency: 0.4
Mode: 0
LetterboxInBreaks: 0
WidescreenStoryboard: 1

[Editor]
DistanceSpacing: 1
BeatDivisor: 4
GridSize: 4
TimelineZoom: 2.599999

[Metadata]
Title:Shinsekai no Alpha
TitleUnicode:新世界のα
Artist:Luna
ArtistUnicode:Luna
Creator:ponbot
Version:<3
Source:アインシュタインより愛を込めて
Tags:satellite yori ai o komete lasse flower gazimal deppyforce scubdomino keysound einstein ainshutain japanese video game pop rock mizutani runa 水谷瑠奈
BeatmapID:4315270
BeatmapSetID:1979483

[Difficulty]
HPDrainRate:6
CircleSize:4
OverallDifficulty:9
ApproachRate:9.5
SliderMultiplier:2
SliderTickRate:2

[Events]
//Background and Video events
0,0,"bg0.jpg",0,0
//Break Periods
2,106938,110002
2,191369,192108
2,215369,224950
//Storyboard Layer 0 (Background)
//Storyboard Layer 1 (Fail)
//Storyboard Layer 2 (Pass)
//Storyboard Layer 3 (Foreground)
//Storyboard Layer 4 (Overlay)
//Storyboard Sound Samples

[TimingPoints]
633,315.789473684211,4,2,10,20,1,0
633,-250,4,2,10,20,0,0
10738,-250,4,2,11,30,0,0
10896,-250,4,2,100,30,0,0
10901,-250,4,2,12,30,0,0
11054,-250,4,2,13,30,0,0
11212,-250,4,2,14,30,0,0
11368,-250,4,2,101,30,0,0
11374,-250,4,2,10,30,0,0
11843,-250,4,2,102,30,0,0
11848,-250,4,2,10,30,0,0
12001,-250,4,2,15,30,0,0
12159,-250,4,2,16,30,0,0
12317,-250,4,2,103,30,0,0
12322,-250,4,2,17,30,0,0
12475,-250,4,2,18,30,0,0
12633,-250,4,2,10,30,0,0
13265,-250,4,2,19,30,0,0
13422,-250,4,2,104,30,0,0
13427,-250,4,2,20,30,0,0
13580,-250,4,2,21,30,0,0
13738,-250,4,2,22,30,0,0
13895,-250,4,2,101,30,0,0
13901,-250,4,2,10,30,0,0
14369,-250,4,2,102,30,0,0
14374,-250,4,2,10,30,0,0
14528,-250,4,2,23,30,0,0
14686,-250,4,2,24,30,0,0
14844,-250,4,2,105,30,0,0
14848,-250,4,2,21,30,0,0
15001,-250,4,2,25,30,0,0
15159,-250,4,2,26,30,0,0
15317,-250,4,2,27,30,0,0
15475,-250,4,2,28,30,0,0
15554,-250,4,2,10,30,0,0
15633,-250,4,2,29,30,0,0
15711,-250,4,2,10,30,0,0
15790,-250,4,2,30,25,0,0
16106,-250,4,2,10,25,0,0
18317,-250,4,2,31,25,0,0
18633,-250,4,2,10,25,0,0
19580,-250,4,2,32,25,0,0
19738,-250,4,2,10,25,0,0
20843,-333.333333333333,4,2,10,20,0,0
24949,-333.333333333333,4,2,101,20,0,0
24954,-333.333333333333,4,2,10,20,0,0
25580,-333.333333333333,4,2,101,20,0,0
25585,-333.333333333333,4,2,10,20,0,0
30948,-166.666666666667,4,2,33,40,0,0
31265,-166.666666666667,4,2,34,40,0,0
31422,-166.666666666667,4,2,10,40,0,0
31580,-166.666666666667,4,2,34,40,0,0
31738,-166.666666666667,4,2,10,40,0,0
31896,-166.666666666667,4,2,34,40,0,0
32054,-166.666666666667,4,2,10,40,0,0
32212,-166.666666666667,4,2,35,40,0,0
32528,-166.666666666667,4,2,36,40,0,0
32685,-166.666666666667,4,2,10,40,0,0
32843,-166.666666666667,4,2,36,40,0,0
33001,-166.666666666667,4,2,10,40,0,0
33159,-166.666666666667,4,2,36,40,0,0
33317,-166.666666666667,4,2,10,40,0,0
33475,-166.666666666667,4,2,37,40,0,0
33791,-166.666666666667,4,2,38,40,0,0
33948,-166.666666666667,4,2,10,40,0,0
34107,-166.666666666667,4,2,38,40,0,0
34264,-166.666666666667,4,2,10,40,0,0
34422,-166.666666666667,4,2,38,40,0,0
34580,-166.666666666667,4,2,10,40,0,0
34738,-166.666666666667,4,2,39,40,0,0
34896,-166.666666666667,4,2,10,40,0,0
35054,-166.666666666667,4,2,40,40,0,0
35211,-166.666666666667,4,2,10,40,0,0
35370,-166.666666666667,4,2,41,40,0,0
35527,-166.666666666667,4,2,10,40,0,0
35686,-166.666666666667,4,2,36,40,0,0
35843,-166.666666666667,4,2,10,40,0,0
36001,-166.666666666667,4,2,42,40,0,0
36317,-166.666666666667,4,2,43,40,0,0
36475,-166.666666666667,4,2,10,40,0,0
36633,-166.666666666667,4,2,43,40,0,0
36790,-166.666666666667,4,2,10,40,0,0
36949,-166.666666666667,4,2,43,40,0,0
37106,-166.666666666667,4,2,10,40,0,0
37265,-166.666666666667,4,2,44,40,0,0
37422,-166.666666666667,4,2,10,40,0,0
37580,-166.666666666667,4,2,45,40,0,0
38054,-166.666666666667,4,2,10,40,0,0
38212,-166.666666666667,4,2,45,40,0,0
38369,-166.666666666667,4,2,10,40,0,0
38527,-125,4,2,46,50,0,0
38843,-125,4,2,47,50,0,0
39001,-125,4,2,48,50,0,0
39159,-125,4,2,49,50,0,0
39317,-125,4,2,48,50,0,0
39475,-125,4,2,49,50,0,0
39633,-125,4,2,48,50,0,0
39791,-125,4,2,50,50,0,0
39949,-125,4,2,51,50,0,0
40107,-125,4,2,52,50,0,0
40265,-125,4,2,53,50,0,0
40422,-125,4,2,54,50,0,0
40580,-125,4,2,55,50,0,0
40738,-125,4,2,56,50,0,0
40817,-125,4,2,10,50,0,0
41054,-100,4,2,57,60,0,0
41212,-100,4,2,106,60,0,0
41217,-100,4,2,58,60,0,0
41370,-100,4,2,59,60,0,0
41528,-100,4,2,58,60,0,0
41686,-100,4,2,60,60,0,0
41843,-100,4,2,48,60,0,0
42001,-100,4,2,59,60,0,0
42159,-100,4,2,61,60,0,0
42317,-100,4,2,62,60,0,0
42475,-100,4,2,58,60,0,0
42633,-100,4,2,63,60,0,0
42791,-100,4,2,58,60,0,0
42949,-100,4,2,64,60,0,0
43107,-100,4,2,58,60,0,0
43265,-100,4,2,63,60,0,0
43422,-100,4,2,61,60,0,0
43580,-100,4,2,65,60,0,0
43738,-100,4,2,107,60,0,0
43743,-100,4,2,66,60,0,0
43896,-100,4,2,67,60,0,0
44054,-100,4,2,66,60,0,0
44212,-100,4,2,40,60,0,0
44370,-100,4,2,68,60,0,0
44528,-100,4,2,67,60,0,0
44686,-100,4,2,69,60,0,0
44843,-100,4,2,70,60,0,0
45001,-100,4,2,66,60,0,0
45159,-100,4,2,49,60,0,0
45317,-100,4,2,69,60,0,0
45475,-100,4,2,71,60,0,0
45633,-100,4,2,48,60,0,0
45791,-100,4,2,59,60,0,0
45949,-100,4,2,61,60,0,0
46107,-100,4,2,72,60,0,0
46265,-100,4,2,73,60,0,0
46422,-100,4,2,74,60,0,0
46580,-100,4,2,73,60,0,0
46738,-100,4,2,108,60,0,0
46743,-100,4,2,34,60,0,0
46896,-100,4,2,73,60,0,0
47054,-100,4,2,75,60,0,0
47212,-100,4,2,76,60,0,0
47370,-100,4,2,77,60,0,0
47528,-100,4,2,78,60,0,0
47686,-100,4,2,49,60,0,0
47843,-100,4,2,79,60,0,0
48001,-100,4,2,36,60,0,0
48159,-100,4,2,78,60,0,0
48317,-100,4,2,80,60,0,0
48475,-100,4,2,81,60,0,0
48633,-100,4,2,82,60,0,0
48791,-100,4,2,106,60,0,0
48796,-100,4,2,58,60,0,0
48949,-100,4,2,59,60,0,0
49107,-100,4,2,58,60,0,0
49265,-100,4,2,83,60,0,0
49422,-100,4,2,48,60,0,0
49580,-100,4,2,59,60,0,0
49738,-100,4,2,84,60,0,0
49896,-100,4,2,85,60,0,0
50054,-100,4,2,58,60,0,0
50211,-100,4,2,10,60,0,0
50370,-100,4,2,86,60,0,0
50527,-100,4,2,10,60,0,0
50686,-100,4,2,87,60,0,0
50763,-100,4,2,10,60,0,0
51159,-100,4,2,88,60,0,0
51317,-100,4,2,109,60,0,0
51322,-100,4,2,73,60,0,0
51475,-100,4,2,74,60,0,0
51633,-100,4,2,73,60,0,0
51791,-100,4,2,34,60,0,0
51949,-100,4,2,73,60,0,0
52107,-100,4,2,74,60,0,0
52265,-100,4,2,89,60,0,0
52422,-100,4,2,90,60,0,0
52580,-100,4,2,78,60,0,0
52738,-100,4,2,49,60,0,0
52896,-100,4,2,78,60,0,0
53054,-100,4,2,36,60,0,0
53212,-100,4,2,78,60,0,0
53370,-100,4,2,91,60,0,0
53528,-100,4,2,81,60,0,0
53686,-100,4,2,92,60,0,0
53843,-100,4,2,110,60,0,0
53848,-100,4,2,93,60,0,0
54001,-100,4,2,94,60,0,0
54159,-100,4,2,93,60,0,0
54317,-100,4,2,95,60,0,0
54475,-100,4,2,96,60,0,0
54633,-100,4,2,94,60,0,0
54791,-100,4,2,97,60,0,0
54949,-100,4,2,98,60,0,0
55107,-100,4,2,66,60,0,0
55264,-100,4,2,67,60,0,0
55342,-100,4,2,10,60,0,0
55422,-100,4,2,99,60,0,0
55580,-100,4,2,100,60,0,0
55738,-100,4,2,68,60,0,0
55896,-100,4,2,101,60,0,0
55974,-100,4,2,69,60,0,0
56054,-100,4,2,111,60,0,0
56059,-100,4,2,69,60,0,0
56212,-100,4,2,102,60,0,0
56370,-100,4,2,103,60,0,0
56528,-100,4,2,104,60,0,0
56686,-100,4,2,105,60,0,0
56843,-100,4,2,112,60,0,0
56848,-100,4,2,106,60,0,0
57001,-100,4,2,103,60,0,0
57159,-100,4,2,104,60,0,0
57317,-100,4,2,105,60,0,0
57475,-100,4,2,106,60,0,0
57633,-100,4,2,103,60,0,0
57791,-100,4,2,104,60,0,0
57949,-100,4,2,105,60,0,0
58107,-100,4,2,106,60,0,0
58264,-100,4,2,107,60,0,0
58422,-100,4,2,108,60,0,0
58580,-100,4,2,109,60,0,0
58738,-100,4,2,110,60,0,0
58896,-100,4,2,113,60,0,0
58901,-100,4,2,111,60,0,0
59054,-100,4,2,112,60,0,0
59212,-100,4,2,113,60,0,0
59370,-100,4,2,114,60,0,0
59528,-100,4,2,115,60,0,0
59686,-100,4,2,116,60,0,0
59843,-100,4,2,117,60,0,0
60001,-100,4,2,118,60,0,0
60159,-83.3333333333333,4,2,119,60,0,0
60317,-83.3333333333333,4,2,114,60,0,0
60322,-83.3333333333333,4,2,120,60,0,0
60475,-83.3333333333333,4,2,121,60,0,0
60633,-83.3333333333333,4,2,122,60,0,0
60738,-83.3333333333333,4,2,10,60,0,0
60791,-83.3333333333333,4,2,123,60,0,0
60843,-83.3333333333333,4,2,10,60,0,0
60949,-83.3333333333333,4,2,38,60,0,0
61053,-83.3333333333333,4,2,10,60,0,0
61107,-83.3333333333333,4,2,124,60,0,0
61158,-83.3333333333333,4,2,10,60,0,0
61264,-125,4,2,125,50,0,0
61422,-125,4,2,126,50,0,0
61580,-125,4,2,10,50,0,0
61738,-125,4,2,115,50,0,0
61743,-125,4,2,127,50,0,0
61896,-125,4,2,67,50,0,0
62212,-125,4,2,128,50,0,0
62370,-125,4,2,129,50,0,0
62448,-125,4,2,10,50,0,0
62686,-125,4,2,130,50,0,0
62843,-125,4,2,131,50,0,0
63000,-125,4,2,10,50,0,0
63317,-125,4,2,132,50,0,0
63475,-125,4,2,10,50,0,0
63791,-125,4,2,133,50,0,0
63949,-125,4,2,116,50,0,0
63953,-125,4,2,134,50,0,0
64105,-125,4,2,10,50,0,0
64264,-125,4,2,135,50,0,0
64422,-125,4,2,49,50,0,0
64738,-125,4,2,136,50,0,0
64896,-125,4,2,137,50,0,0
65212,-125,4,2,138,50,0,0
65370,-125,4,2,139,50,0,0
65526,-125,4,2,10,50,0,0
65686,-125,4,2,140,50,0,0
65843,-125,4,2,141,50,0,0
66317,-125,4,2,142,50,0,0
66475,-125,4,2,117,50,0,0
66480,-125,4,2,143,50,0,0
66633,-125,4,2,144,50,0,0
66791,-125,4,2,145,50,0,0
66949,-125,4,2,146,50,0,0
67263,-125,4,2,10,50,0,0
67580,-125,4,2,118,50,0,0
67585,-125,4,2,147,50,0,0
67738,-125,4,2,148,50,0,0
67896,-125,4,2,149,50,0,0
68054,-125,4,2,150,50,0,0
68212,-125,4,2,151,50,0,0
68369,-125,4,2,10,50,0,0
68843,-125,4,2,152,50,0,0
69001,-125,4,2,119,50,0,0
69006,-125,4,2,153,50,0,0
69159,-125,4,2,154,50,0,0
69317,-125,4,2,48,50,0,0
69475,-125,4,2,155,50,0,0
69633,-125,4,2,120,50,0,0
69638,-125,4,2,156,50,0,0
69791,-125,4,2,157,50,0,0
69949,-125,4,2,158,50,0,0
70107,-125,4,2,121,50,0,0
70111,-125,4,2,159,50,0,0
70263,-125,4,2,10,50,0,0
70738,-125,4,2,160,50,0,0
70896,-125,4,2,10,50,0,0
71369,-125,4,2,161,20,0,0
71686,-125,4,2,162,20,0,0
71843,-125,4,2,163,20,0,0
72633,-125,4,2,164,20,0,0
72949,-125,4,2,165,20,0,0
73107,-125,4,2,163,20,0,0
73896,-125,4,2,166,20,0,0
74054,-125,4,2,167,20,0,0
74212,-125,4,2,168,20,0,0
74528,-125,4,2,169,20,0,0
74686,-125,4,2,170,20,0,0
74843,-125,4,2,171,20,0,0
75159,-125,4,2,172,20,0,0
75475,-125,4,2,173,20,0,0
75633,-125,4,2,174,20,0,0
75791,-125,4,2,175,20,0,0
75948,-125,4,2,176,40,0,0
76107,-125,4,2,177,40,0,0
76422,-83.3333333333333,4,2,178,60,0,0
76580,-83.3333333333333,4,2,122,60,0,0
76585,-83.3333333333333,4,2,179,60,0,0
76738,-83.3333333333333,4,2,180,60,0,0
76896,-83.3333333333333,4,2,181,60,0,0
77054,-83.3333333333333,4,2,136,60,0,0
77212,-83.3333333333333,4,2,182,60,0,0
77370,-83.3333333333333,4,2,183,60,0,0
77528,-83.3333333333333,4,2,182,60,0,0
77686,-83.3333333333333,4,2,136,60,0,0
77843,-83.3333333333333,4,2,184,60,0,0
78001,-83.3333333333333,4,2,136,60,0,0
78159,-83.3333333333333,4,2,182,60,0,0
78317,-83.3333333333333,4,2,185,60,0,0
78475,-83.3333333333333,4,2,182,60,0,0
78633,-83.3333333333333,4,2,186,60,0,0
78791,-83.3333333333333,4,2,187,60,0,0
78949,-83.3333333333333,4,2,188,60,0,0
79027,-83.3333333333333,4,2,10,60,0,0
79107,-83.3333333333333,4,2,189,60,0,0
79185,-83.3333333333333,4,2,10,60,0,0
79264,-83.3333333333333,4,2,190,60,0,0
79343,-83.3333333333333,4,2,10,60,0,0
79422,-83.3333333333333,4,2,191,60,0,0
79501,-83.3333333333333,4,2,10,60,0,0
79580,-83.3333333333333,4,2,192,60,0,0
79659,-83.3333333333333,4,2,10,60,0,0
79738,-83.3333333333333,4,2,193,60,0,0
79817,-83.3333333333333,4,2,10,60,0,0
79896,-83.3333333333333,4,2,194,60,0,0
79975,-83.3333333333333,4,2,10,60,0,0
80054,-83.3333333333333,4,2,195,60,0,0
80133,-83.3333333333333,4,2,10,60,0,0
80212,-83.3333333333333,4,2,196,60,0,0
80843,-83.3333333333333,4,2,10,60,0,0
81159,-333.333333333333,4,2,10,60,0,0
81475,-66.6666666666667,4,2,197,80,0,0
81633,-66.6666666666667,4,2,123,80,0,0
81638,-66.6666666666667,4,2,198,80,0,0
81790,-83.3333333333333,4,2,199,80,0,0
81949,-83.3333333333333,4,2,200,80,0,0
82106,-83.3333333333333,4,2,10,80,0,0
82264,-83.3333333333333,4,2,193,80,0,0
82422,-83.3333333333333,4,2,201,80,0,0
82580,-83.3333333333333,4,2,202,80,0,0
82738,-83.3333333333333,4,2,203,80,0,0
82896,-83.3333333333333,4,2,12,80,0,0
83054,-83.3333333333333,4,2,204,80,0,0
83212,-83.3333333333333,4,2,205,80,0,0
83370,-83.3333333333333,4,2,206,80,0,0
83528,-83.3333333333333,4,2,207,80,0,0
83686,-83.3333333333333,4,2,208,80,0,0
83843,-83.3333333333333,4,2,209,80,0,0
84001,-83.3333333333333,4,2,210,80,0,0
84159,-83.3333333333333,4,2,124,80,0,0
84164,-83.3333333333333,4,2,211,80,0,0
84317,-83.3333333333333,4,2,212,80,0,0
84475,-83.3333333333333,4,2,213,80,0,0
84633,-83.3333333333333,4,2,10,80,0,0
84791,-83.3333333333333,4,2,214,80,0,0
84949,-83.3333333333333,4,2,49,80,0,0
85107,-83.3333333333333,4,2,215,80,0,0
85264,-83.3333333333333,4,2,216,80,0,0
85422,-83.3333333333333,4,2,125,80,0,0
85427,-83.3333333333333,4,2,217,80,0,0
85580,-83.3333333333333,4,2,218,80,0,0
85738,-83.3333333333333,4,2,219,80,0,0
85896,-83.3333333333333,4,2,220,80,0,0
86054,-83.3333333333333,4,2,221,80,0,0
86212,-83.3333333333333,4,2,222,80,0,0
86370,-83.3333333333333,4,2,223,80,0,0
86528,-83.3333333333333,4,2,224,80,0,0
86686,-83.3333333333333,4,2,125,80,0,0
86690,-83.3333333333333,4,2,217,80,0,0
86843,-83.3333333333333,4,2,225,80,0,0
87001,-83.3333333333333,4,2,226,80,0,0
87159,-83.3333333333333,4,2,227,80,0,0
87317,-83.3333333333333,4,2,228,80,0,0
87475,-83.3333333333333,4,2,208,80,0,0
87633,-83.3333333333333,4,2,229,80,0,0
87791,-83.3333333333333,4,2,230,80,0,0
87949,-83.3333333333333,4,2,126,80,0,0
87953,-83.3333333333333,4,2,231,80,0,0
88107,-83.3333333333333,4,2,232,80,0,0
88264,-83.3333333333333,4,2,233,80,0,0
88422,-83.3333333333333,4,2,234,80,0,0
88580,-83.3333333333333,4,2,235,80,0,0
88738,-83.3333333333333,4,2,236,80,0,0
88896,-83.3333333333333,4,2,237,80,0,0
89054,-83.3333333333333,4,2,238,80,0,0
89212,-83.3333333333333,4,2,127,80,0,0
89217,-83.3333333333333,4,2,239,80,0,0
89370,-83.3333333333333,4,2,204,80,0,0
89528,-83.3333333333333,4,2,240,80,0,0
89685,-83.3333333333333,4,2,10,80,0,0
89843,-125,4,2,241,80,0,0
90000,-125,4,2,101,80,0,0
90006,-125,4,2,10,80,0,0
90159,-66.6666666666667,4,2,242,80,0,0
90316,-66.6666666666667,4,2,101,80,0,0
90322,-66.6666666666667,4,2,10,80,0,0
90475,-83.3333333333333,4,2,243,80,0,0
90633,-83.3333333333333,4,2,244,80,0,0
90791,-83.3333333333333,4,2,209,80,0,0
90949,-83.3333333333333,4,2,245,80,0,0
91107,-83.3333333333333,4,2,246,80,0,0
91264,-83.3333333333333,4,2,247,80,0,0
91343,-83.3333333333333,4,2,10,80,0,0
91422,-83.3333333333333,4,2,248,80,0,0
91501,-83.3333333333333,4,2,10,80,0,0
91580,-83.3333333333333,4,2,249,80,0,0
91738,-83.3333333333333,4,2,128,80,0,0
91743,-83.3333333333333,4,2,250,80,0,0
91896,-83.3333333333333,4,2,251,80,0,0
92054,-83.3333333333333,4,2,252,80,0,0
92212,-83.3333333333333,4,2,189,80,0,0
92370,-83.3333333333333,4,2,253,80,0,0
92528,-83.3333333333333,4,2,254,80,0,0
92685,-83.3333333333333,4,2,255,80,0,0
92843,-83.3333333333333,4,2,256,80,0,0
93001,-83.3333333333333,4,2,129,80,0,0
93006,-83.3333333333333,4,2,257,80,0,0
93159,-83.3333333333333,4,2,258,80,0,0
93317,-83.3333333333333,4,2,259,80,0,0
93475,-83.3333333333333,4,2,260,80,0,0
93633,-83.3333333333333,4,2,261,80,0,0
93791,-83.3333333333333,4,2,262,80,0,0
93868,-83.3333333333333,4,2,215,80,0,0
94107,-83.3333333333333,4,2,263,80,0,0
94264,-83.3333333333333,4,2,130,80,0,0
94269,-83.3333333333333,4,2,264,80,0,0
94422,-83.3333333333333,4,2,265,80,0,0
94580,-83.3333333333333,4,2,266,80,0,0
94738,-83.3333333333333,4,3,100,80,0,0
94743,-83.3333333333333,4,2,10,80,0,0
94896,-71.4285714285714,4,2,267,80,0,0
94974,-71.4285714285714,4,2,10,80,0,0
95054,-71.4285714285714,4,2,131,80,0,0
95059,-71.4285714285714,4,2,268,80,0,0
95132,-71.4285714285714,4,2,269,80,0,0
95211,-55.5555555555556,4,2,269,80,0,0
95369,-55.5555555555556,4,2,101,80,0,0
95374,-55.5555555555556,4,2,269,80,0,0
95527,-83.3333333333333,4,2,270,80,0,0
95685,-83.3333333333333,4,2,225,80,0,0
95843,-83.3333333333333,4,2,271,80,0,0
96001,-83.3333333333333,4,2,68,80,0,0
96159,-83.3333333333333,4,2,272,80,0,0
96317,-83.3333333333333,4,2,273,80,0,0
96396,-83.3333333333333,4,2,10,80,0,0
96475,-83.3333333333333,4,2,274,80,0,0
96554,-83.3333333333333,4,2,10,80,0,0
96633,-83.3333333333333,4,2,275,80,0,0
96791,-83.3333333333333,4,2,276,80,0,0
96949,-83.3333333333333,4,2,277,80,0,0
97107,-83.3333333333333,4,2,278,80,0,0
97185,-83.3333333333333,4,2,10,80,0,0
97264,-83.3333333333333,4,2,279,80,0,0
97422,-83.3333333333333,4,2,280,80,0,0
97580,-83.3333333333333,4,2,281,80,0,0
97738,-83.3333333333333,4,2,282,80,0,0
97896,-83.3333333333333,4,2,276,80,0,0
98054,-83.3333333333333,4,2,279,80,0,0
98132,-83.3333333333333,4,2,10,80,0,0
98212,-83.3333333333333,4,2,283,80,0,0
98289,-83.3333333333333,4,2,10,80,0,0
98370,-83.3333333333333,4,2,284,80,0,0
98448,-83.3333333333333,4,2,10,80,0,0
98528,-83.3333333333333,4,2,285,80,0,0
98685,-83.3333333333333,4,2,276,80,0,0
98843,-83.3333333333333,4,2,286,80,0,0
99001,-83.3333333333333,4,2,287,80,0,0
99159,-83.3333333333333,4,2,288,80,0,0
99317,-83.3333333333333,4,2,289,80,0,0
99475,-83.3333333333333,4,2,290,80,0,0
99633,-83.3333333333333,4,2,291,80,0,0
99711,-83.3333333333333,4,2,10,80,0,0
99791,-83.3333333333333,4,2,292,80,0,0
99949,-83.3333333333333,4,2,293,80,0,0
100107,-83.3333333333333,4,2,294,80,0,0
100184,-83.3333333333333,4,2,10,80,0,0
100264,-83.3333333333333,4,2,295,80,0,0
100422,-83.3333333333333,4,2,289,80,0,0
100580,-83.3333333333333,4,2,290,80,0,0
100658,-83.3333333333333,4,2,10,80,0,0
100738,-83.3333333333333,4,2,296,80,0,0
100896,-83.3333333333333,4,2,297,80,0,0
100975,-83.3333333333333,4,2,10,80,0,0
101054,-83.3333333333333,4,2,298,80,0,0
101212,-83.3333333333333,4,2,299,80,0,0
101370,-83.3333333333333,4,2,300,80,0,0
101527,-83.3333333333333,4,2,10,80,0,0
101685,-83.3333333333333,4,2,301,80,0,0
102001,-83.3333333333333,4,2,10,80,0,0
103264,-125,4,2,10,80,0,0
106738,-100,4,2,302,50,0,0
107053,-100,4,2,10,50,0,0
111159,-100,4,2,303,50,0,0
111317,-100,4,2,10,50,0,0
111790,-100,4,2,304,60,0,0
111949,-100,4,2,132,60,0,0
111953,-100,4,2,305,60,0,0
112107,-100,4,2,59,60,0,0
112264,-100,4,2,58,60,0,0
112422,-100,4,2,60,60,0,0
112580,-100,4,2,58,60,0,0
112738,-100,4,2,59,60,0,0
112896,-100,4,2,306,60,0,0
113054,-100,4,2,307,60,0,0
113212,-100,4,2,305,60,0,0
113370,-100,4,2,63,60,0,0
113528,-100,4,2,58,60,0,0
113685,-100,4,2,307,60,0,0
113843,-100,4,2,58,60,0,0
114001,-100,4,2,63,60,0,0
114159,-100,4,2,308,60,0,0
114317,-100,4,2,309,60,0,0
114475,-100,4,2,68,60,0,0
114633,-100,4,2,67,60,0,0
114791,-100,4,2,66,60,0,0
114949,-100,4,2,40,60,0,0
115107,-100,4,2,68,60,0,0
115264,-100,4,2,67,60,0,0
115422,-100,4,2,310,60,0,0
115580,-100,4,2,311,60,0,0
115738,-100,4,2,66,60,0,0
115896,-100,4,2,49,60,0,0
116054,-100,4,2,69,60,0,0
116212,-100,4,2,312,60,0,0
116370,-100,4,2,58,60,0,0
116528,-100,4,2,59,60,0,0
116685,-100,4,2,313,60,0,0
116843,-100,4,2,314,60,0,0
117001,-100,4,2,133,60,0,0
117006,-100,4,2,315,60,0,0
117159,-100,4,2,316,60,0,0
117317,-100,4,2,317,60,0,0
117475,-100,4,2,318,60,0,0
117633,-100,4,2,319,60,0,0
117791,-100,4,2,320,60,0,0
117949,-100,4,2,321,60,0,0
118107,-100,4,2,322,60,0,0
118264,-100,4,2,323,60,0,0
118422,-100,4,2,324,60,0,0
118580,-100,4,2,325,60,0,0
118738,-100,4,2,326,60,0,0
118896,-100,4,2,327,60,0,0
119054,-100,4,2,49,60,0,0
119212,-100,4,2,328,60,0,0
119370,-100,4,2,329,60,0,0
119528,-100,4,2,330,60,0,0
119685,-100,4,2,331,60,0,0
119843,-100,4,2,332,60,0,0
120001,-100,4,2,333,60,0,0
120159,-100,4,2,334,60,0,0
120317,-100,4,2,59,60,0,0
120475,-100,4,2,335,60,0,0
120633,-100,4,2,85,60,0,0
120791,-100,4,2,48,60,0,0
120949,-100,4,2,336,60,0,0
121107,-100,4,2,48,60,0,0
121264,-100,4,2,337,60,0,0
121422,-100,4,2,48,60,0,0
121580,-100,4,2,338,60,0,0
121738,-100,4,2,134,60,0,0
121743,-100,4,2,61,60,0,0
121896,-100,4,2,339,60,0,0
122054,-100,4,2,135,60,0,0
122059,-100,4,2,340,60,0,0
122212,-100,4,2,74,60,0,0
122370,-100,4,2,73,60,0,0
122528,-100,4,2,34,60,0,0
122685,-100,4,2,60,60,0,0
122843,-100,4,2,74,60,0,0
123001,-100,4,2,341,60,0,0
123159,-100,4,2,311,60,0,0
123317,-100,4,2,78,60,0,0
123475,-100,4,2,49,60,0,0
123633,-100,4,2,342,60,0,0
123791,-100,4,2,343,60,0,0
123949,-100,4,2,342,60,0,0
124106,-100,4,2,344,60,0,0
124264,-100,4,2,81,60,0,0
124422,-100,4,2,345,60,0,0
124580,-100,4,2,93,60,0,0
124738,-100,4,2,346,60,0,0
124896,-100,4,2,96,60,0,0
125054,-100,4,2,347,60,0,0
125212,-100,4,2,348,60,0,0
125370,-100,4,2,94,60,0,0
125528,-100,4,2,349,60,0,0
125685,-100,4,2,309,60,0,0
125843,-100,4,2,66,60,0,0
126001,-100,4,2,350,60,0,0
126159,-100,4,2,351,60,0,0
126317,-100,4,2,352,60,0,0
126475,-100,4,2,66,60,0,0
126633,-100,4,2,353,60,0,0
126791,-100,4,2,136,60,0,0
126796,-100,4,2,354,60,0,0
126949,-100,4,2,355,60,0,0
127106,-100,4,2,78,60,0,0
127264,-100,4,2,356,60,0,0
127422,-100,4,2,78,60,0,0
127580,-100,4,2,43,60,0,0
127738,-100,4,2,78,60,0,0
127896,-100,4,2,356,60,0,0
128054,-100,4,2,78,60,0,0
128212,-100,4,2,43,60,0,0
128370,-100,4,2,78,60,0,0
128528,-100,4,2,356,60,0,0
128685,-100,4,2,78,60,0,0
128843,-100,4,2,43,60,0,0
129001,-100,4,2,78,60,0,0
129159,-100,4,2,356,60,0,0
129317,-100,4,2,342,60,0,0
129475,-100,4,2,357,60,0,0
129633,-100,4,2,137,60,0,0
129638,-100,4,2,358,60,0,0
129791,-100,4,2,49,60,0,0
129949,-100,4,2,138,60,0,0
129954,-100,4,2,78,60,0,0
130106,-100,4,2,359,60,0,0
130264,-100,4,2,78,60,0,0
130422,-100,4,2,49,60,0,0
130580,-100,4,2,78,60,0,0
130738,-100,4,2,360,60,0,0
130896,-100,4,2,78,60,0,0
131054,-100,4,2,49,60,0,0
131212,-100,4,2,121,60,0,0
131370,-100,4,2,361,60,0,0
131474,-100,4,2,10,60,0,0
131528,-100,4,2,123,60,0,0
131579,-100,4,2,10,60,0,0
131685,-100,4,2,38,60,0,0
131789,-100,4,2,10,60,0,0
131843,-100,4,2,124,60,0,0
131894,-100,4,2,10,60,0,0
132001,-100,4,2,362,50,0,0
132159,-100,4,2,139,50,0,0
132164,-100,4,2,205,50,0,0
132475,-100,4,2,363,50,0,0
132633,-100,4,2,67,50,0,0
132790,-100,4,2,128,50,0,0
133106,-100,4,2,364,50,0,0
133185,-100,4,2,10,50,0,0
133422,-100,4,2,130,50,0,0
133580,-100,4,2,365,50,0,0
133896,-100,4,2,10,50,0,0
134054,-100,4,2,366,50,0,0
134211,-100,4,2,10,50,0,0
134369,-100,4,2,101,50,0,0
134374,-100,4,2,10,50,0,0
134528,-100,4,2,367,50,0,0
134685,-100,4,2,140,50,0,0
134690,-100,4,2,368,50,0,0
135001,-100,4,2,369,50,0,0
135159,-100,4,2,49,50,0,0
135475,-100,4,2,137,50,0,0
135790,-100,4,2,10,50,0,0
135949,-100,4,2,138,50,0,0
136106,-100,4,2,139,50,0,0
136264,-100,4,2,10,50,0,0
136422,-100,4,2,140,50,0,0
136580,-100,4,2,370,50,0,0
136738,-100,4,2,10,50,0,0
137054,-100,4,2,371,50,0,0
137212,-100,4,2,117,50,0,0
137217,-100,4,2,143,50,0,0
137370,-100,4,2,144,50,0,0
137528,-100,4,2,150,50,0,0
137685,-100,4,2,146,50,0,0
137843,-100,4,2,101,50,0,0
137848,-100,4,2,10,50,0,0
138317,-100,4,2,372,50,0,0
138475,-100,4,2,148,50,0,0
138633,-100,4,2,144,50,0,0
138791,-100,4,2,150,50,0,0
138949,-100,4,2,151,50,0,0
139105,-100,4,2,373,50,0,0
139738,-100,4,2,119,50,0,0
139743,-100,4,2,153,50,0,0
139896,-100,4,2,154,50,0,0
140054,-100,4,2,58,50,0,0
140212,-100,4,2,155,50,0,0
140370,-100,4,2,141,50,0,0
140374,-100,4,2,374,50,0,0
140528,-100,4,2,375,50,0,0
140685,-100,4,2,158,50,0,0
140843,-100,4,2,376,50,0,0
141001,-100,4,2,10,50,0,0
141475,-100,4,2,377,50,0,0
141633,-100,4,2,10,50,0,0
142106,-100,4,2,161,20,0,0
142422,-100,4,2,378,20,0,0
142580,-100,4,2,379,20,0,0
143370,-100,4,2,164,20,0,0
143685,-100,4,2,380,20,0,0
143843,-100,4,2,379,20,0,0
144633,-100,4,2,166,20,0,0
144791,-100,4,2,381,20,0,0
144949,-100,4,2,382,20,0,0
145106,-100,4,2,10,20,0,0
145264,-100,4,2,383,20,0,0
145422,-100,4,2,384,20,0,0
145580,-100,4,2,385,20,0,0
145738,-100,4,2,10,20,0,0
145896,-100,4,2,172,20,0,0
146212,-100,4,2,386,20,0,0
146370,-100,4,2,387,20,0,0
146528,-100,4,2,175,20,0,0
146685,-100,4,2,388,40,0,0
146843,-100,4,2,247,40,0,0
147000,-100,4,2,10,40,0,0
147159,-100,4,2,389,60,0,0
147317,-100,4,2,142,60,0,0
147322,-100,4,2,289,60,0,0
147475,-100,4,2,136,60,0,0
147633,-100,4,2,390,60,0,0
147791,-100,4,2,136,60,0,0
147949,-100,4,2,289,60,0,0
148106,-100,4,2,391,60,0,0
148264,-100,4,2,289,60,0,0
148422,-100,4,2,136,60,0,0
148580,-100,4,2,392,60,0,0
148738,-100,4,2,136,60,0,0
148896,-100,4,2,289,60,0,0
149054,-100,4,2,393,60,0,0
149212,-100,4,2,394,60,0,0
149370,-100,4,2,395,60,0,0
149528,-100,4,2,396,60,0,0
149685,-100,4,2,397,60,0,0
149764,-100,4,2,398,60,0,0
149843,-100,4,2,399,60,0,0
149922,-100,4,2,400,60,0,0
150001,-100,4,2,401,60,0,0
150080,-100,4,2,402,60,0,0
150159,-100,4,2,403,60,0,0
150238,-100,4,2,404,60,0,0
150317,-100,4,2,405,60,0,0
150396,-100,4,2,406,60,0,0
150475,-100,4,2,407,60,0,0
150554,-100,4,2,408,60,0,0
150633,-100,4,2,409,60,0,0
150712,-100,4,2,410,60,0,0
150791,-100,4,2,411,60,0,0
150868,-100,4,2,10,60,0,0
150948,-71.4285714285714,4,2,412,60,0,0
151580,-71.4285714285714,4,2,10,60,0,0
152211,-71.4285714285714,4,2,197,80,0,0
152370,-71.4285714285714,4,2,123,80,0,0
152374,-71.4285714285714,4,2,198,80,0,0
152528,-71.4285714285714,4,2,199,80,0,0
152685,-71.4285714285714,4,2,413,80,0,0
152842,-71.4285714285714,4,2,10,80,0,0
153001,-71.4285714285714,4,2,193,80,0,0
153159,-71.4285714285714,4,2,201,80,0,0
153317,-71.4285714285714,4,2,202,80,0,0
153475,-71.4285714285714,4,2,203,80,0,0
153633,-71.4285714285714,4,2,12,80,0,0
153791,-71.4285714285714,4,2,204,80,0,0
153949,-71.4285714285714,4,2,414,80,0,0
154106,-71.4285714285714,4,2,415,80,0,0
154264,-71.4285714285714,4,2,207,80,0,0
154422,-71.4285714285714,4,2,208,80,0,0
154580,-71.4285714285714,4,2,209,80,0,0
154738,-71.4285714285714,4,2,416,80,0,0
154896,-71.4285714285714,4,2,211,80,0,0
155054,-71.4285714285714,4,2,212,80,0,0
155212,-71.4285714285714,4,2,417,80,0,0
155369,-71.4285714285714,4,2,10,80,0,0
155528,-71.4285714285714,4,2,214,80,0,0
155685,-71.4285714285714,4,2,49,80,0,0
155843,-71.4285714285714,4,2,215,80,0,0
156001,-71.4285714285714,4,2,216,80,0,0
156159,-71.4285714285714,4,2,217,80,0,0
156317,-71.4285714285714,4,2,218,80,0,0
156475,-71.4285714285714,4,2,219,80,0,0
156633,-71.4285714285714,4,2,220,80,0,0
156791,-71.4285714285714,4,2,418,80,0,0
156949,-71.4285714285714,4,2,222,80,0,0
157106,-71.4285714285714,4,2,223,80,0,0
157264,-71.4285714285714,4,2,419,80,0,0
157422,-71.4285714285714,4,2,125,80,0,0
157427,-71.4285714285714,4,2,217,80,0,0
157580,-71.4285714285714,4,2,225,80,0,0
157738,-71.4285714285714,4,2,143,80,0,0
157743,-71.4285714285714,4,2,420,80,0,0
157896,-71.4285714285714,4,2,227,80,0,0
158054,-71.4285714285714,4,2,421,80,0,0
158212,-71.4285714285714,4,2,208,80,0,0
158370,-71.4285714285714,4,2,229,80,0,0
158528,-71.4285714285714,4,2,422,80,0,0
158685,-71.4285714285714,4,2,423,80,0,0
158843,-71.4285714285714,4,2,424,80,0,0
159001,-71.4285714285714,4,2,425,80,0,0
159159,-71.4285714285714,4,2,426,80,0,0
159317,-71.4285714285714,4,2,427,80,0,0
159475,-71.4285714285714,4,2,236,80,0,0
159633,-71.4285714285714,4,2,237,80,0,0
159791,-71.4285714285714,4,2,428,80,0,0
159949,-71.4285714285714,4,2,127,80,0,0
159953,-71.4285714285714,4,2,239,80,0,0
160106,-71.4285714285714,4,2,204,80,0,0
160264,-71.4285714285714,4,2,240,80,0,0
160421,-71.4285714285714,4,2,10,80,0,0
160580,-71.4285714285714,4,2,429,80,0,0
160736,-71.4285714285714,4,2,101,80,0,0
160743,-71.4285714285714,4,2,10,80,0,0
160896,-71.4285714285714,4,2,242,80,0,0
161052,-71.4285714285714,4,2,101,80,0,0
161059,-71.4285714285714,4,2,10,80,0,0
161212,-71.4285714285714,4,2,243,80,0,0
161370,-71.4285714285714,4,2,244,80,0,0
161527,-71.4285714285714,4,2,209,80,0,0
161685,-71.4285714285714,4,2,430,80,0,0
161843,-71.4285714285714,4,2,246,80,0,0
162001,-71.4285714285714,4,2,247,80,0,0
162079,-71.4285714285714,4,2,10,80,0,0
162159,-71.4285714285714,4,2,248,80,0,0
162238,-71.4285714285714,4,2,10,80,0,0
162317,-71.4285714285714,4,2,431,80,0,0
162475,-71.4285714285714,4,2,250,80,0,0
162633,-71.4285714285714,4,2,251,80,0,0
162791,-71.4285714285714,4,2,252,80,0,0
162949,-71.4285714285714,4,2,189,80,0,0
163106,-71.4285714285714,4,2,253,80,0,0
163264,-71.4285714285714,4,2,254,80,0,0
163422,-71.4285714285714,4,2,255,80,0,0
163580,-71.4285714285714,4,2,256,80,0,0
163738,-71.4285714285714,4,2,257,80,0,0
163896,-71.4285714285714,4,2,258,80,0,0
164054,-71.4285714285714,4,2,259,80,0,0
164212,-71.4285714285714,4,2,260,80,0,0
164370,-71.4285714285714,4,2,261,80,0,0
164527,-71.4285714285714,4,2,262,80,0,0
164604,-71.4285714285714,4,2,215,80,0,0
164843,-71.4285714285714,4,2,432,80,0,0
165001,-71.4285714285714,4,2,130,80,0,0
165006,-71.4285714285714,4,2,264,80,0,0
165159,-71.4285714285714,4,2,265,80,0,0
165317,-71.4285714285714,4,2,433,80,0,0
165474,-71.4285714285714,4,2,10,80,0,0
165633,-71.4285714285714,4,2,434,80,0,0
165710,-71.4285714285714,4,2,10,80,0,0
165791,-71.4285714285714,4,2,268,80,0,0
165868,-71.4285714285714,4,2,435,80,0,0
166106,-71.4285714285714,4,2,101,80,0,0
166111,-71.4285714285714,4,2,435,80,0,0
166264,-71.4285714285714,4,2,436,80,0,0
166422,-71.4285714285714,4,2,437,80,0,0
166580,-71.4285714285714,4,2,271,80,0,0
166738,-71.4285714285714,4,2,68,80,0,0
166896,-71.4285714285714,4,2,272,80,0,0
167054,-71.4285714285714,4,2,438,80,0,0
167132,-71.4285714285714,4,2,10,80,0,0
167212,-71.4285714285714,4,2,274,80,0,0
167290,-71.4285714285714,4,2,10,80,0,0
167370,-71.4285714285714,4,2,439,80,0,0
167527,-71.4285714285714,4,2,276,80,0,0
167685,-71.4285714285714,4,2,440,80,0,0
167843,-71.4285714285714,4,2,278,80,0,0
167922,-71.4285714285714,4,2,10,80,0,0
168001,-71.4285714285714,4,2,441,80,0,0
168159,-71.4285714285714,4,2,442,80,0,0
168317,-71.4285714285714,4,2,281,80,0,0
168475,-71.4285714285714,4,2,443,80,0,0
168633,-71.4285714285714,4,2,276,80,0,0
168791,-71.4285714285714,4,2,441,80,0,0
168869,-71.4285714285714,4,2,10,80,0,0
168949,-71.4285714285714,4,2,283,80,0,0
169026,-71.4285714285714,4,2,10,80,0,0
169106,-71.4285714285714,4,2,444,80,0,0
169185,-71.4285714285714,4,2,10,80,0,0
169264,-71.4285714285714,4,2,445,80,0,0
169422,-71.4285714285714,4,2,276,80,0,0
169580,-71.4285714285714,4,2,446,80,0,0
169738,-71.4285714285714,4,2,287,80,0,0
169896,-71.4285714285714,4,2,447,80,0,0
170054,-71.4285714285714,4,2,289,80,0,0
170212,-71.4285714285714,4,2,448,80,0,0
170370,-71.4285714285714,4,2,291,80,0,0
170448,-71.4285714285714,4,2,10,80,0,0
170527,-71.4285714285714,4,2,449,80,0,0
170685,-71.4285714285714,4,2,450,80,0,0
170843,-71.4285714285714,4,2,294,80,0,0
170921,-71.4285714285714,4,2,10,80,0,0
171001,-71.4285714285714,4,2,451,80,0,0
171159,-71.4285714285714,4,2,289,80,0,0
171317,-71.4285714285714,4,2,448,80,0,0
171395,-71.4285714285714,4,2,10,80,0,0
171475,-71.4285714285714,4,2,296,80,0,0
171633,-71.4285714285714,4,2,452,80,0,0
171712,-71.4285714285714,4,2,10,80,0,0
171791,-71.4285714285714,4,2,453,80,0,0
171949,-71.4285714285714,4,2,237,80,0,0
172106,-71.4285714285714,4,2,454,80,0,0
172264,-71.4285714285714,4,2,10,80,0,0
172422,-333.333333333333,4,2,455,20,0,0
172580,-333.333333333333,4,2,456,20,0,0
172738,-333.333333333333,4,2,457,20,0,0
172896,-333.333333333333,4,2,458,20,0,0
174949,-333.333333333333,4,2,459,20,0,0
175106,-333.333333333333,4,2,460,20,0,0
175264,-333.333333333333,4,2,461,20,0,0
175422,-333.333333333333,4,2,462,20,0,0
177475,-333.333333333333,4,2,463,20,0,0
177633,-333.333333333333,4,2,464,20,0,0
177791,-333.333333333333,4,2,457,20,0,0
177949,-333.333333333333,4,2,465,20,0,0
180001,-333.333333333333,4,2,455,20,0,0
180159,-333.333333333333,4,2,456,20,0,0
180317,-333.333333333333,4,2,466,20,0,0
180475,-333.333333333333,4,2,458,20,0,0
182369,-333.333333333333,4,2,10,20,0,0
182527,-166.666666666667,4,2,467,30,0,0
182685,-166.666666666667,4,2,101,30,0,0
182690,-166.666666666667,4,2,467,30,0,0
182843,-166.666666666667,4,2,101,30,0,0
182848,-166.666666666667,4,2,467,30,0,0
183001,-166.666666666667,4,2,468,30,0,0
183159,-166.666666666667,4,2,469,30,0,0
183317,-166.666666666667,4,2,102,30,0,0
183322,-166.666666666667,4,2,10,30,0,0
183791,-166.666666666667,4,2,470,30,0,0
184106,-166.666666666667,4,2,101,30,0,0
184111,-166.666666666667,4,2,470,30,0,0
184264,-166.666666666667,4,2,471,30,0,0
184422,-166.666666666667,4,2,472,30,0,0
184580,-166.666666666667,4,2,101,30,0,0
184585,-166.666666666667,4,2,472,30,0,0
184738,-166.666666666667,4,2,10,30,0,0
185054,-166.666666666667,4,2,473,30,0,0
185527,-166.666666666667,4,2,474,30,0,0
185685,-166.666666666667,4,2,475,30,0,0
185843,-166.666666666667,4,2,101,30,0,0
185848,-166.666666666667,4,2,475,30,0,0
186001,-166.666666666667,4,2,10,30,0,0
186317,-166.666666666667,4,2,476,30,0,0
186475,-166.666666666667,4,2,477,30,0,0
186632,-166.666666666667,4,2,101,30,0,0
186638,-166.666666666667,4,2,478,30,0,0
186949,-166.666666666667,4,2,479,30,0,0
187106,-166.666666666667,4,2,480,30,0,0
187264,-166.666666666667,4,2,481,30,0,0
187580,-166.666666666667,4,2,482,15,0,0
188843,-166.666666666667,4,2,483,10,0,0
190106,-166.666666666667,4,2,484,5,0,0
192633,-83.3333333333333,4,2,485,70,0,0
192791,-83.3333333333333,4,2,107,70,0,0
192796,-83.3333333333333,4,2,66,70,0,0
192949,-83.3333333333333,4,2,67,70,0,0
193106,-83.3333333333333,4,2,486,70,0,0
193264,-83.3333333333333,4,2,40,70,0,0
193422,-83.3333333333333,4,2,68,70,0,0
193580,-83.3333333333333,4,2,487,70,0,0
193738,-83.3333333333333,4,2,488,70,0,0
193896,-83.3333333333333,4,2,489,70,0,0
194054,-83.3333333333333,4,2,490,70,0,0
194212,-83.3333333333333,4,2,491,70,0,0
194370,-83.3333333333333,4,2,492,70,0,0
194527,-83.3333333333333,4,2,493,70,0,0
194685,-83.3333333333333,4,2,494,70,0,0
194843,-83.3333333333333,4,2,495,70,0,0
195001,-83.3333333333333,4,2,496,70,0,0
195159,-83.3333333333333,4,2,497,70,0,0
195317,-83.3333333333333,4,2,107,70,0,0
195322,-83.3333333333333,4,2,66,70,0,0
195475,-83.3333333333333,4,2,49,70,0,0
195633,-83.3333333333333,4,2,486,70,0,0
195791,-83.3333333333333,4,2,36,70,0,0
195948,-83.3333333333333,4,2,68,70,0,0
196106,-83.3333333333333,4,2,498,70,0,0
196264,-83.3333333333333,4,2,488,70,0,0
196422,-83.3333333333333,4,2,499,70,0,0
196580,-83.3333333333333,4,2,500,70,0,0
196738,-83.3333333333333,4,2,501,70,0,0
196896,-83.3333333333333,4,2,502,70,0,0
197054,-83.3333333333333,4,2,503,70,0,0
197212,-83.3333333333333,4,2,504,70,0,0
197370,-83.3333333333333,4,2,505,70,0,0
197527,-83.3333333333333,4,2,496,70,0,0
197685,-83.3333333333333,4,2,506,70,0,0
197843,-83.3333333333333,4,2,109,70,0,0
197848,-83.3333333333333,4,2,73,70,0,0
198001,-83.3333333333333,4,2,74,70,0,0
198159,-83.3333333333333,4,2,507,70,0,0
198317,-83.3333333333333,4,2,34,70,0,0
198475,-83.3333333333333,4,2,508,70,0,0
198633,-83.3333333333333,4,2,509,70,0,0
198791,-83.3333333333333,4,2,73,70,0,0
198948,-83.3333333333333,4,2,144,70,0,0
198953,-83.3333333333333,4,2,510,70,0,0
199106,-83.3333333333333,4,2,511,70,0,0
199264,-83.3333333333333,4,2,512,70,0,0
199422,-83.3333333333333,4,2,513,70,0,0
199580,-83.3333333333333,4,2,514,70,0,0
199738,-83.3333333333333,4,2,515,70,0,0
199896,-83.3333333333333,4,2,516,70,0,0
200054,-83.3333333333333,4,2,517,70,0,0
200212,-83.3333333333333,4,2,518,70,0,0
200370,-83.3333333333333,4,2,519,70,0,0
200527,-83.3333333333333,4,2,520,70,0,0
200685,-83.3333333333333,4,2,521,70,0,0
200843,-83.3333333333333,4,2,95,70,0,0
201001,-83.3333333333333,4,2,522,70,0,0
201159,-83.3333333333333,4,2,523,70,0,0
201317,-83.3333333333333,4,2,524,70,0,0
201633,-83.3333333333333,4,2,525,70,0,0
201790,-83.3333333333333,4,2,10,70,0,0
201948,-83.3333333333333,4,2,526,70,0,0
202106,-83.3333333333333,4,2,10,70,0,0
202264,-83.3333333333333,4,2,527,70,0,0
202343,-83.3333333333333,4,2,10,70,0,0
202422,-83.3333333333333,4,2,528,70,0,0
202501,-83.3333333333333,4,2,10,70,0,0
202580,-83.3333333333333,4,2,529,70,0,0
202659,-83.3333333333333,4,2,10,70,0,0
202738,-83.3333333333333,4,2,530,70,0,0
202896,-83.3333333333333,4,2,531,70,0,0
203054,-83.3333333333333,4,2,532,70,0,0
203212,-83.3333333333333,4,2,533,70,0,0
203291,-83.3333333333333,4,2,534,70,0,0
203370,-83.3333333333333,4,2,535,70,0,0
203527,-83.3333333333333,4,2,536,70,0,0
203685,-83.3333333333333,4,2,537,70,0,0
203843,-83.3333333333333,4,2,538,70,0,0
204001,-83.3333333333333,4,2,145,70,0,0
204006,-83.3333333333333,4,2,539,70,0,0
204159,-83.3333333333333,4,2,540,70,0,0
204317,-83.3333333333333,4,2,541,70,0,0
204475,-83.3333333333333,4,2,78,70,0,0
204633,-83.3333333333333,4,2,542,70,0,0
204791,-83.3333333333333,4,2,543,70,0,0
204948,-83.3333333333333,4,2,544,70,0,0
205106,-83.3333333333333,4,2,545,70,0,0
205264,-83.3333333333333,4,2,146,70,0,0
205269,-83.3333333333333,4,2,546,70,0,0
205422,-83.3333333333333,4,2,547,70,0,0
205580,-83.3333333333333,4,2,548,70,0,0
205738,-83.3333333333333,4,2,73,70,0,0
205896,-83.3333333333333,4,2,549,70,0,0
206054,-83.3333333333333,4,2,550,70,0,0
206212,-83.3333333333333,4,2,551,70,0,0
206370,-83.3333333333333,4,2,552,70,0,0
206527,-83.3333333333333,4,2,553,70,0,0
206685,-83.3333333333333,4,2,554,70,0,0
206843,-83.3333333333333,4,2,555,70,0,0
207001,-83.3333333333333,4,2,556,70,0,0
207159,-83.3333333333333,4,2,10,70,0,0
207317,-83.3333333333333,4,2,557,70,0,0
207633,-83.3333333333333,4,2,558,70,0,0
207948,-83.3333333333333,4,2,60,70,0,0
208106,-83.3333333333333,4,2,559,70,0,0
208264,-83.3333333333333,4,2,560,70,0,0
208422,-83.3333333333333,4,2,561,70,0,0
208580,-83.3333333333333,4,2,60,70,0,0
208738,-83.3333333333333,4,2,562,70,0,0
208896,-83.3333333333333,4,2,563,70,0,0
209054,-83.3333333333333,4,2,564,70,0,0
209212,-83.3333333333333,4,2,565,70,0,0
209370,-83.3333333333333,4,2,566,70,0,0
209527,-83.3333333333333,4,2,567,70,0,0
209606,-83.3333333333333,4,2,568,70,0,0
209685,-83.3333333333333,4,2,569,70,0,0
209843,-83.3333333333333,4,2,570,70,0,0
210001,-83.3333333333333,4,2,571,70,0,0
210159,-83.3333333333333,4,2,76,70,0,0
210317,-83.3333333333333,4,2,572,70,0,0
210396,-83.3333333333333,4,2,10,70,0,0
210475,-83.3333333333333,4,2,342,70,0,0
210554,-83.3333333333333,4,2,10,70,0,0
210633,-83.3333333333333,4,2,573,70,0,0
210712,-83.3333333333333,4,2,574,70,0,0
210791,-83.3333333333333,4,2,575,70,0,0
210870,-83.3333333333333,4,2,576,70,0,0
210948,-83.3333333333333,4,2,577,70,0,0
211027,-83.3333333333333,4,2,578,70,0,0
211106,-83.3333333333333,4,2,579,70,0,0
211185,-83.3333333333333,4,2,580,70,0,0
211264,-83.3333333333333,4,2,581,70,0,0
211343,-83.3333333333333,4,2,582,70,0,0
211422,-83.3333333333333,4,2,583,70,0,0
211501,-83.3333333333333,4,2,584,70,0,0
211580,-83.3333333333333,4,2,585,70,0,0
211659,-83.3333333333333,4,2,586,70,0,0
211738,-83.3333333333333,4,2,587,70,0,0
211817,-83.3333333333333,4,2,588,70,0,0
211896,-83.3333333333333,4,2,589,70,0,0
211975,-83.3333333333333,4,2,590,70,0,0
212054,-83.3333333333333,4,2,591,70,0,0
212133,-83.3333333333333,4,2,592,70,0,0
212212,-83.3333333333333,4,2,593,70,0,0
212291,-83.3333333333333,4,2,594,70,0,0
212370,-83.3333333333333,4,2,595,70,0,0
212448,-83.3333333333333,4,2,596,70,0,0
212527,-83.3333333333333,4,2,36,70,0,0
212685,-83.3333333333333,4,2,121,70,0,0
212843,-83.3333333333333,4,2,597,70,0,0
212922,-83.3333333333333,4,2,597,70,0,0
215369,-83.3333333333333,4,2,597,70,0,0
225475,-125,4,2,598,30,0,0
225633,-125,4,2,599,30,0,0
225791,-125,4,2,600,30,0,0
225948,-125,4,2,601,30,0,0
226106,-125,4,2,602,30,0,0
226264,-125,4,2,601,30,0,0
226422,-125,4,2,603,30,0,0
226580,-125,4,2,255,30,0,0
226738,-125,4,2,604,33,0,0
226896,-125,4,2,226,33,0,0
227054,-125,4,2,605,33,0,0
227212,-125,4,2,226,33,0,0
227370,-125,4,2,606,33,0,0
227527,-125,4,2,226,33,0,0
227685,-125,4,2,607,33,0,0
227764,-125,4,2,608,33,0,0
228001,-125,4,2,609,37,0,0
228080,-125,4,2,10,37,0,0
228159,-125,4,2,226,37,0,0
228317,-125,4,2,610,37,0,0
228396,-125,4,2,10,37,0,0
228475,-125,4,2,226,37,0,0
228633,-125,4,2,611,37,0,0
228711,-125,4,2,226,37,0,0
228869,-125,4,2,10,37,0,0
228948,-125,4,2,612,37,0,0
229027,-125,4,2,608,37,0,0
229264,-125,4,2,613,42,0,0
229422,-125,4,2,614,42,0,0
229580,-125,4,2,615,42,0,0
229659,-125,4,2,614,42,0,0
229896,-125,4,2,616,42,0,0
229975,-125,4,2,10,42,0,0
230054,-125,4,2,617,42,0,0
230133,-125,4,2,10,42,0,0
230212,-125,4,2,618,42,0,0
230290,-125,4,2,10,42,0,0
230369,-125,4,2,191,42,0,0
230448,-125,4,2,10,42,0,0
230527,-83.3333333333333,4,2,619,60,0,0
230685,-83.3333333333333,4,2,138,60,0,0
230690,-83.3333333333333,4,2,78,60,0,0
230843,-83.3333333333333,4,2,620,60,0,0
231001,-83.3333333333333,4,2,621,60,0,0
231159,-83.3333333333333,4,2,622,60,0,0
231237,-83.3333333333333,4,2,10,60,0,0
231317,-83.3333333333333,4,2,623,60,0,0
231475,-83.3333333333333,4,2,624,60,0,0
231633,-83.3333333333333,4,2,625,60,0,0
231791,-83.3333333333333,4,2,43,60,0,0
231948,-83.3333333333333,4,2,626,60,0,0
232106,-83.3333333333333,4,2,356,60,0,0
232264,-83.3333333333333,4,2,78,60,0,0
232422,-83.3333333333333,4,2,627,60,0,0
232580,-83.3333333333333,4,2,147,60,0,0
232585,-83.3333333333333,4,2,342,60,0,0
232738,-83.3333333333333,4,2,356,60,0,0
232896,-83.3333333333333,4,2,78,60,0,0
233054,-83.3333333333333,4,2,628,70,0,0
233133,-83.3333333333333,4,2,10,70,0,0
233212,-83.3333333333333,4,2,629,70,0,0
233290,-83.3333333333333,4,2,10,70,0,0
233369,-83.3333333333333,4,2,630,70,0,0
233448,-83.3333333333333,4,2,10,70,0,0
233527,-83.3333333333333,4,2,631,70,0,0
233606,-83.3333333333333,4,2,10,70,0,0
233685,-83.3333333333333,4,2,43,70,0,0
233763,-83.3333333333333,4,2,632,70,0,0
234001,-83.3333333333333,4,2,633,70,0,0
234159,-83.3333333333333,4,2,634,80,0,0
234317,-83.3333333333333,4,2,635,80,0,0
234395,-83.3333333333333,4,2,636,80,0,0
234633,-83.3333333333333,4,2,637,80,0,0
234711,-83.3333333333333,4,2,10,80,0,0
234791,-83.3333333333333,4,2,638,80,0,0
234868,-83.3333333333333,4,2,10,80,0,0
234948,-83.3333333333333,4,2,639,80,0,0
235026,-83.3333333333333,4,2,10,80,0,0
235106,-83.3333333333333,4,2,640,80,0,0
235184,-83.3333333333333,4,2,641,80,0,0
235343,-83.3333333333333,4,2,10,80,0,0
235422,-83.3333333333333,4,2,642,80,0,0
235501,-83.3333333333333,4,2,10,80,0,0
235580,-83.3333333333333,4,2,643,90,0,1
235738,-83.3333333333333,4,2,644,90,0,1
235896,-83.3333333333333,4,2,645,90,0,1
236054,-83.3333333333333,4,2,646,90,0,1
236212,-83.3333333333333,4,2,647,90,0,1
236369,-83.3333333333333,4,2,272,90,0,1
236527,-83.3333333333333,4,2,648,90,0,1
236685,-83.3333333333333,4,2,649,90,0,1
236843,-83.3333333333333,4,2,650,90,0,1
237001,-83.3333333333333,4,2,651,90,0,1
237159,-83.3333333333333,4,2,652,90,0,1
237317,-83.3333333333333,4,2,653,90,0,1
237475,-83.3333333333333,4,2,650,90,0,1
237633,-83.3333333333333,4,2,654,90,0,1
237791,-83.3333333333333,4,2,650,90,0,1
237948,-83.3333333333333,4,2,655,90,0,1
238106,-83.3333333333333,4,2,656,90,0,1
238264,-83.3333333333333,4,2,657,90,0,1
238422,-83.3333333333333,4,2,658,90,0,1
238580,-83.3333333333333,4,2,659,90,0,1
238738,-83.3333333333333,4,2,660,90,0,1
238896,-83.3333333333333,4,2,661,90,0,1
239054,-83.3333333333333,4,2,662,90,0,1
239212,-83.3333333333333,4,2,663,90,0,1
239369,-83.3333333333333,4,2,281,90,0,1
239527,-83.3333333333333,4,2,276,90,0,1
239605,-83.3333333333333,4,2,10,90,0,1
239685,-83.3333333333333,4,2,664,90,0,1
239843,-83.3333333333333,4,2,665,90,0,1
240001,-83.3333333333333,4,2,666,90,0,1
240159,-83.3333333333333,4,2,276,90,0,1
240237,-83.3333333333333,4,2,10,90,0,1
240317,-83.3333333333333,4,2,667,90,0,1
240475,-83.3333333333333,4,2,668,90,0,1
240633,-83.3333333333333,4,2,669,90,0,1
240791,-83.3333333333333,4,2,670,90,0,1
240948,-83.3333333333333,4,2,671,90,0,1
241106,-83.3333333333333,4,2,672,90,0,1
241264,-83.3333333333333,4,2,673,90,0,1
241422,-83.3333333333333,4,2,674,90,0,1
241580,-83.3333333333333,4,2,671,90,0,1
241738,-83.3333333333333,4,2,675,90,0,1
241896,-83.3333333333333,4,2,676,90,0,1
242054,-83.3333333333333,4,2,523,90,0,1
242212,-83.3333333333333,4,2,677,90,0,1
242369,-83.3333333333333,4,2,678,90,0,1
242527,-83.3333333333333,4,2,679,90,0,1
242685,-83.3333333333333,4,2,659,90,0,1
242843,-83.3333333333333,4,2,676,90,0,1
243001,-83.3333333333333,4,2,680,90,0,1
243159,-83.3333333333333,4,2,650,90,0,1
243317,-83.3333333333333,4,2,651,90,0,1
243475,-83.3333333333333,4,2,650,90,0,1
243633,-83.3333333333333,4,2,651,90,0,1
243791,-83.3333333333333,4,2,681,90,0,1
243948,-83.3333333333333,4,2,682,90,0,1
244106,-83.3333333333333,4,2,683,90,0,1
244264,-83.3333333333333,4,2,684,90,0,1
244580,-83.3333333333333,4,2,685,90,0,1
244658,-83.3333333333333,4,2,10,90,0,1
244738,-83.3333333333333,4,2,686,90,0,1
244817,-83.3333333333333,4,2,10,90,0,1
244896,-83.3333333333333,4,2,687,90,0,1
244975,-83.3333333333333,4,2,10,90,0,1
245054,-83.3333333333333,4,2,688,90,0,1
245133,-83.3333333333333,4,2,10,90,0,1
245212,-83.3333333333333,4,2,689,90,0,1
245290,-83.3333333333333,4,2,10,90,0,1
245369,-83.3333333333333,4,2,690,90,0,1
245448,-83.3333333333333,4,2,10,90,0,1
245527,-83.3333333333333,4,2,691,90,0,1
245606,-83.3333333333333,4,2,10,90,0,1
245685,-71.4285714285714,4,2,692,90,0,0
245843,-71.4285714285714,4,2,107,90,0,0
245848,-71.4285714285714,4,2,66,90,0,0
246001,-83.3333333333333,4,2,693,90,0,0
246159,-83.3333333333333,4,2,694,90,0,0
246317,-83.3333333333333,4,2,695,90,0,0
246475,-83.3333333333333,4,2,696,90,0,0
246633,-83.3333333333333,4,2,697,90,0,0
246791,-83.3333333333333,4,2,698,90,0,0
246948,-83.3333333333333,4,2,699,90,0,0
247106,-83.3333333333333,4,2,700,90,0,0
247264,-83.3333333333333,4,2,701,90,0,0
247422,-83.3333333333333,4,2,702,90,0,0
247580,-83.3333333333333,4,2,78,90,0,0
247738,-83.3333333333333,4,2,703,90,0,0
247896,-83.3333333333333,4,2,704,90,0,0
248054,-83.3333333333333,4,2,705,90,0,0
248212,-83.3333333333333,4,2,706,90,0,0
248369,-83.3333333333333,4,2,707,90,0,0
248527,-83.3333333333333,4,2,708,90,0,0
248685,-83.3333333333333,4,2,709,90,0,0
248843,-83.3333333333333,4,2,710,90,0,0
249001,-83.3333333333333,4,2,711,90,0,0
249079,-83.3333333333333,4,2,10,90,0,0
249159,-83.3333333333333,4,2,712,90,0,0
249237,-83.3333333333333,4,2,713,90,0,0
249633,-83.3333333333333,4,2,714,90,0,0
249791,-83.3333333333333,4,2,715,90,0,0
249868,-83.3333333333333,4,2,10,90,0,0
249948,-83.3333333333333,4,2,716,90,0,0
250105,-83.3333333333333,4,2,10,90,0,0
250264,-83.3333333333333,4,2,717,90,0,0
250421,-83.3333333333333,4,2,718,90,0,0
250738,-83.3333333333333,4,2,101,90,0,0
250743,-83.3333333333333,4,2,718,90,0,0
250896,-83.3333333333333,4,2,719,90,0,0
251054,-83.3333333333333,4,2,720,90,0,0
251212,-83.3333333333333,4,2,670,90,0,0
251369,-83.3333333333333,4,2,720,90,0,0
251527,-83.3333333333333,4,2,670,90,0,0
251685,-83.3333333333333,4,2,720,90,0,0
251843,-83.3333333333333,4,2,670,90,0,0
252001,-83.3333333333333,4,2,721,90,0,0
252159,-83.3333333333333,4,2,287,90,0,0
252317,-83.3333333333333,4,2,722,90,0,0
252475,-83.3333333333333,4,2,287,90,0,0
252633,-83.3333333333333,4,2,722,90,0,0
252791,-83.3333333333333,4,2,287,90,0,0
252948,-83.3333333333333,4,2,722,90,0,0
253106,-83.3333333333333,4,2,287,90,0,0
253264,-55.5555555555556,4,2,723,90,0,0
253422,-55.5555555555556,4,2,148,90,0,0
253427,-55.5555555555556,4,2,523,90,0,0
253580,-55.5555555555556,4,2,724,90,0,0
253738,-55.5555555555556,4,2,148,90,0,0
253743,-55.5555555555556,4,2,523,90,0,0
253896,-55.5555555555556,4,2,724,90,0,0
254054,-55.5555555555556,4,2,657,90,0,0
254212,-55.5555555555556,4,2,724,90,0,0
254369,-55.5555555555556,4,2,657,90,0,0
254527,-55.5555555555556,4,2,725,90,0,0
254685,-55.5555555555556,4,2,726,90,0,0
254764,-55.5555555555556,4,2,10,90,0,0
254843,-55.5555555555556,4,2,727,90,0,0
254922,-55.5555555555556,4,2,10,90,0,0
255001,-55.5555555555556,4,2,728,90,0,0
255080,-55.5555555555556,4,2,10,90,0,0
255159,-55.5555555555556,4,2,727,90,0,0
255317,-55.5555555555556,4,2,729,90,0,0
255475,-55.5555555555556,4,2,730,90,0,0
255633,-55.5555555555556,4,2,729,90,0,0
255790,-71.4285714285714,4,2,731,90,0,0
255948,-71.4285714285714,4,2,599,90,0,0
256106,-71.4285714285714,4,2,732,90,0,0
256264,-71.4285714285714,4,2,733,90,0,0
256422,-71.4285714285714,4,2,342,90,0,0
256580,-71.4285714285714,4,2,734,90,0,0
256738,-71.4285714285714,4,2,735,90,0,0
256896,-71.4285714285714,4,2,736,90,0,0
257054,-71.4285714285714,4,2,631,90,0,0
257212,-71.4285714285714,4,2,599,90,0,0
257369,-71.4285714285714,4,2,737,90,0,0
257527,-71.4285714285714,4,2,738,90,0,0
257685,-71.4285714285714,4,2,735,90,0,0
257843,-71.4285714285714,4,2,739,90,0,0
258001,-71.4285714285714,4,2,740,90,0,0
258159,-71.4285714285714,4,2,741,90,0,0
258317,-71.4285714285714,4,2,742,90,0,0
258633,-71.4285714285714,4,2,743,90,0,0
258790,-71.4285714285714,4,2,10,90,0,0
258948,-71.4285714285714,4,2,743,90,0,0
259106,-71.4285714285714,4,2,10,90,0,0
259264,-71.4285714285714,4,2,744,90,0,0
259422,-71.4285714285714,4,2,10,90,0,0
259580,-71.4285714285714,4,2,745,90,0,0
259659,-71.4285714285714,4,2,746,90,0,0
259738,-71.4285714285714,4,2,747,90,0,0
259817,-71.4285714285714,4,2,748,90,0,0
259896,-71.4285714285714,4,2,10,90,0,0
260054,-71.4285714285714,4,2,749,90,0,0
260133,-71.4285714285714,4,2,746,90,0,0
260212,-71.4285714285714,4,2,750,90,0,0
260291,-71.4285714285714,4,2,746,90,0,0
260369,-71.4285714285714,4,2,10,90,0,0
260527,-71.4285714285714,4,2,751,90,0,0
260606,-71.4285714285714,4,2,746,90,0,0
260685,-71.4285714285714,4,2,750,90,0,0
260764,-71.4285714285714,4,2,746,90,0,0

[Colours]
Combo1 : 202,170,234
Combo2 : 247,136,160
Combo3 : 155,131,252
Combo4 : 247,158,136

[HitObjects]
91,246,633,5,2,2:2:0:0:
184,328,948,1,2,2:2:0:0:
184,328,1106,2,0,P|215:323|231:312,1,40,2|0,2:2|2:2,0:0:0:0:
231,197,1422,2,0,P|206:185|187:182,1,40,2|0,2:2|2:2,0:0:0:0:
294,268,1738,6,0,B|340:282|332:253|381:268,1,80,2|0,2:2|2:2,0:0:0:0:
240,158,2211,2,0,P|231:180|232:207,1,40,2|0,2:2|2:2,0:0:0:0:
362,117,2527,2,0,P|346:110|314:108,1,40,2|0,2:2|2:2,0:0:0:0:
403,239,2843,2,0,P|410:223|412:191,1,40,2|0,2:2|2:2,0:0:0:0:
280,272,3159,6,0,P|269:318|265:366,1,80,2|2,2:2|2:2,0:0:0:0:
265,350,3633,2,0,P|293:358|310:360,1,40,2|0,2:2|2:2,0:0:0:0:
192,277,3948,2,0,P|185:304|183:332,1,40,2|0,2:2|2:2,0:0:0:0:
96,352,4264,6,0,P|89:298|83:264,1,80,2|0,2:2|2:2,0:0:0:0:
24,224,4738,1,2,2:2:0:0:
24,224,4896,2,0,P|29:195|31:182,1,40,2|0,2:2|2:2,0:0:0:0:
121,135,5211,2,0,P|147:145|166:153,1,40,2|0,2:2|2:2,0:0:0:0:
192,248,5527,1,2,2:2:0:0:
272,192,5685,5,0,2:2:0:0:
272,192,6633,5,2,2:2:0:0:
272,192,6948,2,0,P|267:142|260:102,1,80,2|2,2:2|2:2,0:0:0:0:
262,112,7580,2,0,P|303:108|343:99,1,80,2|2,2:2|2:2,0:0:0:0:
448,192,8211,6,0,B|367:171|372:232|293:210,1,160,2|0,2:2|2:2,0:0:0:0:
293,210,9159,2,0,P|298:237|297:266,1,40,2|0,2:2|2:2,0:0:0:0:
223,318,9475,2,0,P|210:273|215:236,1,80,0|0,2:2|2:2,0:0:0:0:
225,159,9948,5,2,2:2:0:0:
147,187,10106,1,0,2:2:0:0:
213,240,10264,1,0,2:2:0:0:
133,274,10422,1,2,2:2:0:0:
133,274,10580,1,0,2:2:0:0:
225,159,10738,6,0,P|234:115|215:70,1,80,2|2,2:2|2:2,0:0:0:0:
213,240,11211,2,0,P|246:269|295:275,1,80,2|2,2:2|2:2,0:0:0:0:
147,187,11685,2,0,P|104:201|74:240,1,80,0|2,3:3|2:2,0:0:0:0:
225,159,12159,2,0,P|234:115|215:70,1,80,2|2,2:2|2:2,0:0:0:0:
213,240,12633,2,0,P|231:258|252:270,1,40,0|2,3:3|2:2,0:0:0:0:
312,368,12948,5,2,3:2:0:0:
312,368,13027,1,0,3:3:0:0:
312,368,13106,1,0,3:3:0:0:
312,368,13185,1,0,3:3:0:0:
312,368,13264,2,0,P|316:318|340:290,1,80,2|2,2:2|2:2,0:0:0:0:
190,210,13738,2,0,P|231:238|243:273,1,80,2|2,2:2|2:2,0:0:0:0:
387,183,14211,2,0,P|341:204|305:197,1,80,2|2,3:2|2:2,0:0:0:0:
312,368,14685,2,0,P|316:318|340:290,1,80,2|2,2:2|2:2,0:0:0:0:
190,210,15159,2,0,P|231:238|235:245,1,40,2|2,2:2|2:2,0:0:0:0:
331,117,15475,5,2,2:2:0:0:
331,117,15554,1,0,3:3:0:0:
331,117,15633,1,2,2:2:0:0:
331,117,15711,1,0,3:3:0:0:
331,117,15790,1,2,2:2:0:0:
472,192,16264,5,2,3:2:0:0:
40,192,16738,1,2,3:2:0:0:
472,192,17211,1,2,3:2:0:0:
40,192,17685,1,2,3:2:0:0:
336,136,18001,5,2,3:2:0:0:
176,248,18159,1,0,3:3:0:0:
176,248,18238,1,0,3:3:0:0:
176,248,18317,1,2,2:2:0:0:
256,272,18790,5,2,3:2:0:0:
336,296,19264,1,2,3:2:0:0:
416,320,19738,1,2,3:2:0:0:
496,344,20211,5,2,3:2:0:0:
416,320,20369,1,0,3:3:0:0:
336,296,20527,1,4,3:2:0:0:
256,272,20843,6,0,B|230:168|304:202|273:99,1,179.999994506836,2|0,2:2|2:2,0:0:0:0:
273,99,22106,2,0,P|217:106|174:64,2,119.999996337891,2|2|2,2:2|2:2|2:2,0:0:0:0:
346,45,23685,5,2,2:2:0:0:
346,45,23843,1,2,2:2:0:0:
435,89,24159,1,2,2:2:0:0:
435,89,24317,1,2,2:2:0:0:
435,89,24475,1,2,2:2:0:0:
392,168,24633,6,0,B|401:217|401:217|391:257,1,89.9999972534181,2|0,2:2|0:0,0:0:0:0:
316,217,25264,2,0,B|307:168|307:168|317:128,1,89.9999972534181,2|0,2:2|0:0,0:0:0:0:
391,255,25896,6,0,L|382:322,1,59.9999981689454,2|2,2:2|2:2,0:0:0:0:
256,368,26527,2,0,L|248:308,1,59.9999981689454,2|2,2:2|2:2,0:0:0:0:
248,308,27159,1,2,2:2:0:0:
132,338,27475,1,2,2:2:0:0:
47,254,27790,1,2,2:2:0:0:
248,308,28422,5,2,2:2:0:0:
248,308,28580,2,0,P|275:291|308:293,2,59.9999981689454,2|2|2,2:2|2:2|2:2,0:0:0:0:
344,224,29527,2,0,P|327:197|329:164,1,59.9999981689454,2|2,2:2|2:2,0:0:0:0:
260,128,30159,2,0,P|233:145|200:143,1,59.9999981689454,2|2,2:2|2:2,0:0:0:0:
205,144,30633,1,2,2:2:0:0:
55,43,30948,6,0,L|42:173,1,119.999996337891,6|2,2:2|2:2,0:0:0:0:
47,218,31422,2,0,B|55:186|55:186|36:149,1,59.9999981689454,0|2,2:2|2:2,0:0:0:0:
18,293,31738,2,0,P|48:301|88:289,1,59.9999981689454,0|2,2:2|2:2,0:0:0:0:
222,210,32054,5,0,2:2:0:0:
222,210,32211,2,0,P|161:196|130:253,1,119.999996337891,2|2,2:2|2:2,0:0:0:0:
124,359,32685,2,0,P|153:327|152:299,1,59.9999981689454,8|2,2:3|2:2,0:0:0:0:
104,186,33001,2,0,P|117:227|141:240,1,59.9999981689454,4|2,2:3|2:2,0:0:0:0:
212,254,33317,5,4,2:3:0:0:
220,134,33475,2,0,L|211:255,1,119.999996337891,6|2,2:2|2:2,0:0:0:0:
286,305,33948,2,0,P|290:270|292:238,1,59.9999981689454,0|2,2:2|2:2,0:0:0:0:
306,105,34264,2,0,P|302:140|300:172,1,59.9999981689454,0|2,2:2|2:2,0:0:0:0:
370,268,34580,5,0,1:1:0:0:
220,134,34738,1,2,2:2:0:0:
211,253,34896,5,8,2:3:0:0:
300,163,35054,1,6,2:2:0:0:
286,305,35211,1,0,3:3:0:0:
286,305,35290,1,0,3:3:0:0:
286,305,35369,1,2,2:2:0:0:
375,215,35527,5,4,3:3:0:0:
211,253,35685,1,6,2:2:0:0:
331,371,35843,1,4,3:3:0:0:
375,215,36001,6,0,B|367:181|383:146|383:146|366:99,1,119.999996337891,6|2,2:2|2:2,0:0:0:0:
405,53,36475,2,0,P|387:76|366:99,1,59.9999981689454,0|2,2:2|2:2,0:0:0:0:
249,109,36790,2,0,P|276:130|310:164,1,59.9999981689454,0|2,2:2|2:2,0:0:0:0:
464,208,37106,5,0,1:1:0:0:
464,208,37185,1,0,1:1:0:0:
464,208,37264,1,6,2:2:0:0:
280,240,37422,1,0,1:1:0:0:
160,97,37580,1,2,2:2:0:0:
160,97,37896,5,2,2:2:0:0:
144,320,38054,1,0,3:3:0:0:
248,132,38211,1,2,2:2:0:0:
6,236,38369,1,0,1:1:0:0:
6,236,38448,1,0,1:1:0:0:
6,236,38527,2,0,P|83:237|186:240,1,160,2|2,2:2|2:2,0:0:0:0:
165,239,39001,1,2,2:2:0:0:
248,132,39159,5,2,2:2:0:0:
228,307,39317,1,2,2:2:0:0:
359,137,39475,1,2,2:2:0:0:
145,109,39633,2,0,P|80:126|46:132,1,80,2|2,2:2|2:2,0:0:0:0:
306,340,39948,5,2,2:2:0:0:
248,132,40106,1,2,2:2:0:0:
83,272,40264,1,2,2:2:0:0:
324,337,40422,2,0,L|420:321,1,80,2|2,2:2|2:2,0:0:0:0:
426,320,40738,5,2,2:2:0:0:
436,264,40817,1,0,1:1:0:0:
446,208,40896,1,0,1:1:0:0:
456,152,40975,1,0,1:1:0:0:
467,97,41054,6,0,B|399:0|284:62,1,200,6|2,2:2|2:2,0:0:0:0:
256,304,41527,2,0,P|198:315|151:287,1,100,2|2,2:2|2:2,0:0:0:0:
112,232,41843,1,2,2:2:0:0:
204,77,42001,1,2,2:2:0:0:
41,24,42159,5,2,2:2:0:0:
41,24,42238,1,0,0:0:0:0:
41,24,42317,2,0,L|24:124,1,100,2|2,2:2|2:2,0:0:0:0:
162,298,42633,1,2,2:2:0:0:
308,152,42790,5,2,2:2:0:0:
216,140,42948,1,2,2:2:0:0:
205,232,43106,1,2,2:2:0:0:
296,243,43264,1,2,2:2:0:0:
416,128,43422,5,2,2:2:0:0:
416,128,43501,1,0,0:0:0:0:
416,128,43580,2,0,B|404:184|404:184|412:220|412:220|396:308,1,150,2|0,2:2|0:0,0:0:0:0:
400,288,43896,1,2,2:2:0:0:
312,160,44054,2,0,P|324:100|328:52,1,100,2|2,2:2|2:2,0:0:0:0:
420,40,44369,1,2,2:2:0:0:
220,104,44527,2,0,P|208:164|204:212,1,100,2|2,2:2|2:2,0:0:0:0:
204,202,44764,1,0,0:0:0:0:
204,202,44843,1,2,2:2:0:0:
312,160,45001,5,2,2:2:0:0:
116,132,45159,1,2,2:2:0:0:
192,320,45317,5,2,2:2:0:0:
304,272,45475,1,2,2:2:0:0:
204,202,45633,1,2,2:2:0:0:
76,352,45790,5,2,2:2:0:0:
0,276,45948,1,2,2:2:0:0:
0,276,46027,1,0,0:0:0:0:
0,276,46106,2,0,P|4:216|12:156,1,100,6|2,2:2|2:2,0:0:0:0:
184,120,46422,5,2,2:2:0:0:
108,32,46580,2,0,P|100:108|92:232,1,200,2|2,2:2|2:2,0:0:0:0:
92,231,47054,1,2,2:2:0:0:
176,296,47211,5,2,2:2:0:0:
176,296,47290,1,0,0:0:0:0:
176,296,47369,1,2,2:2:0:0:
256,204,47527,1,2,2:2:0:0:
348,284,47685,1,2,2:2:0:0:
268,376,47843,1,2,2:2:0:0:
352,196,48001,5,2,2:2:0:0:
176,296,48159,1,2,2:2:0:0:
364,372,48317,1,2,2:2:0:0:
160,208,48475,1,2,2:2:0:0:
348,284,48633,6,0,L|504:260,1,150,6|0,2:2|0:0,0:0:0:0:
512,288,48948,2,0,P|512:200|504:168,1,100,2|2,2:2|2:2,0:0:0:0:
432,24,49264,2,0,P|432:112|440:144,1,100,2|2,2:2|2:2,0:0:0:0:
344,148,49580,1,2,2:2:0:0:
220,44,49738,5,2,2:2:0:0:
208,40,49817,1,0,0:0:0:0:
196,36,49896,2,0,L|76:52,1,100,2|2,2:2|2:2,0:0:0:0:
184,224,50211,1,0,1:1:0:0:
64,24,50369,6,0,P|72:96|68:132,1,100,2|0,2:2|3:3,0:0:0:0:
0,224,50685,1,2,2:2:0:0:
96,376,50843,2,0,P|93:326|101:276,1,100,0|0,1:1|2:2,0:0:0:0:
224,116,51159,6,0,B|324:177|268:289,1,200,6|2,2:2|2:2,0:0:0:0:
192,264,51633,1,2,2:2:0:0:
344,108,51790,1,2,2:2:0:0:
421,183,51948,1,2,2:2:0:0:
484,96,52106,1,2,2:2:0:0:
380,268,52264,5,2,2:2:0:0:
380,268,52343,1,0,0:0:0:0:
380,268,52422,2,0,P|388:316|392:372,1,100,2|2,2:2|2:2,0:0:0:0:
391,367,52738,1,2,2:2:0:0:
512,192,52896,2,0,B|464:208|464:208|416:180,1,100,2|2,2:2|2:2,0:0:0:0:
284,276,53211,1,2,2:2:0:0:
304,100,53369,2,0,B|336:140|336:140|320:200,1,100,2|2,2:2|2:2,0:0:0:0:
256,360,53685,6,0,B|264:300|216:264|216:264|228:192,1,150,2|0,2:2|0:0,0:0:0:0:
228,200,54001,1,2,2:2:0:0:
108,288,54159,2,0,P|120:232|128:168,1,100,2|2,2:2|2:2,0:0:0:0:
324,224,54475,1,2,2:2:0:0:
239,100,54633,2,0,P|231:160|227:208,1,100,2|2,2:2|2:2,0:0:0:0:
216,296,54948,5,2,2:2:0:0:
16,276,55106,1,2,2:2:0:0:
40,76,55264,1,2,2:2:0:0:
239,100,55422,2,0,P|192:100|140:92,1,100,2|2,2:2|2:2,0:0:0:0:
120,276,55738,1,2,2:2:0:0:
16,180,55896,2,0,P|84:180|184:196,1,150,2|0,2:2|0:0,0:0:0:0:
196,160,56211,6,0,L|188:264,1,100,6|2,2:2|2:2,0:0:0:0:
260,348,56527,1,2,2:2:0:0:
428,260,56685,2,0,B|380:264|353:205|353:205|296:210|284:273,1,200,2|2,2:2|3:2,0:0:0:0:
196,160,57159,1,2,2:2:0:0:
108,276,57317,2,0,P|144:280|208:276,1,100,2|2,2:2|2:2,0:0:0:0:
285,267,57633,5,2,2:2:0:0:
380,368,57791,1,2,2:2:0:0:
468,252,57948,2,0,P|432:248|368:252,1,100,2|2,2:2|2:2,0:0:0:0:
285,267,58264,5,2,2:2:0:0:
188,60,58422,2,0,L|196:164,1,100,2|2,2:2|2:2,0:0:0:0:
112,212,58738,6,0,B|164:196|196:160|196:160|240:184|292:188,1,200,6|2,2:2|2:2,0:0:0:0:
291,187,59211,1,2,2:2:0:0:
388,84,59369,2,0,B|340:104|340:104|284:92,1,100,6|2,2:2|2:2,0:0:0:0:
308,288,59685,2,0,B|356:268|356:268|412:280,1,100,2|2,2:2|2:2,0:0:0:0:
402,278,59922,1,0,0:0:0:0:
402,278,60001,1,6,2:2:0:0:
490,60,60159,6,0,B|405:-5|317:108|402:179,1,239.999992675781,2|2,2:2|2:0,0:0:0:0:
488,252,60633,5,6,2:2:0:0:
436,312,60738,5,0,1:1:0:0:
360,296,60843,5,0,3:3:0:0:
320,228,60948,5,10,2:2:0:0:
240,228,61053,5,0,3:3:0:0:
204,300,61159,5,0,3:3:0:0:
252,364,61264,5,6,2:2:0:0:
260,356,61580,6,0,P|256:280|240:168,2,160,0|2|2,3:3|2:2|2:2,0:0:0:0:
348,244,62369,1,2,2:2:0:0:
348,244,62448,1,0,1:1:0:0:
348,244,62527,1,0,3:3:0:0:
168,320,62685,2,0,P|157:281|160:232,1,80,2|2,2:2|2:2,0:0:0:0:
232,160,63001,1,0,3:3:0:0:
252,248,63159,5,0,1:1:0:0:
296,92,63317,1,2,2:2:0:0:
140,140,63475,2,0,P|64:144|40:144,1,80,2|0,2:2|2:2,0:0:0:0:
280,264,63790,2,0,B|360:236|356:300|440:268,1,160,6|0,2:2|2:2,0:0:0:0:
488,200,64264,1,2,2:2:0:0:
404,108,64422,2,0,P|396:168|404:220,1,80,2|0,2:2|3:0,0:0:0:0:
434,269,64738,1,2,2:2:0:0:
472,48,64896,6,0,P|424:20|320:76,1,160,2|2,2:2|2:2,0:0:0:0:
316,136,65369,1,2,2:2:0:0:
180,184,65527,1,0,2:2:0:0:
80,80,65685,1,2,2:2:0:0:
88,64,66317,6,0,P|92:124|100:228,1,160,6|2,2:2|2:2,0:0:0:0:
112,304,66790,1,2,2:2:0:0:
272,216,66948,2,0,P|268:156|260:112,1,80,2|0,2:2|3:0,0:0:0:0:
184,184,67264,1,0,3:3:0:0:
236,316,67422,6,0,P|312:312|364:276,1,120,0|0,1:1|0:0,0:0:0:0:
368,264,67738,1,2,2:2:0:0:
460,364,67896,2,0,P|476:312|472:272,1,80,2|2,2:2|2:2,0:0:0:0:
424,156,68211,5,2,2:2:0:0:
380,88,68369,1,0,3:3:0:0:
460,84,68527,1,0,3:3:0:0:
344,160,68685,1,0,2:2:0:0:
332,24,68843,6,0,B|244:-24|184:48,1,160,6|2,2:2|2:2,0:0:0:0:
180,128,69317,1,2,2:2:0:0:
32,84,69475,2,0,P|24:152|52:208,1,120,2|0,2:2|0:0,0:0:0:0:
68,220,69790,1,2,2:2:0:0:
224,212,69948,6,0,P|176:236|144:344,1,160,2|0,2:2|3:3,0:0:0:0:
328,332,70422,1,0,3:3:0:0:
276,272,70580,1,0,3:3:0:0:
216,320,70738,1,10,2:2:0:0:
266,382,70896,1,8,3:3:0:0:
328,332,71054,1,4,3:3:0:0:
397,373,71211,1,4,3:3:0:0:
444,308,71369,5,2,2:2:0:0:
440,316,72633,1,2,2:2:0:0:
432,328,73896,5,2,2:2:0:0:
400,236,74527,1,2,2:2:0:0:
304,212,75159,1,2,2:2:0:0:
280,120,75790,1,2,2:2:0:0:
496,68,76106,6,0,P|488:112|484:160,1,80,6|0,2:2|2:2,0:0:0:0:
356,304,76422,6,0,P|368:224|288:160,1,179.999994506836,6|0,2:2|0:0,0:0:0:0:
280,120,76738,6,0,B|232:160|232:160|164:148,1,119.999996337891,2|2,2:2|2:2,0:0:0:0:
75,227,77054,5,2,2:2:0:0:
213,69,77211,1,2,2:2:0:0:
21,158,77369,5,2,2:2:0:0:
228,281,77527,1,2,2:2:0:0:
368,84,77685,1,2,2:2:0:0:
387,347,77843,5,2,2:2:0:0:
263,170,78001,1,2,2:2:0:0:
99,311,78159,1,2,2:2:0:0:
156,120,78317,5,2,2:2:0:0:
243,369,78475,1,2,2:2:0:0:
382,130,78633,5,2,2:2:0:0:
134,216,78790,1,2,2:2:0:0:
422,299,78948,5,2,2:2:0:0:
428,248,79027,1,0,3:3:0:0:
401,205,79106,1,2,2:2:0:0:
357,187,79185,1,0,3:3:0:0:
310,197,79264,1,2,2:2:0:0:
275,232,79343,1,0,3:3:0:0:
272,281,79422,1,2,2:2:0:0:
300,324,79501,1,0,3:3:0:0:
344,343,79580,5,2,2:2:0:0:
411,325,79659,5,2,3:2:0:0:
443,266,79738,5,2,2:2:0:0:
426,199,79817,5,2,3:2:0:0:
374,156,79896,5,2,2:2:0:0:
292,130,79975,5,2,1:2:0:0:
203,128,80054,5,2,2:2:0:0:
122,154,80133,5,2,1:2:0:0:
57,210,80211,5,2,2:2:0:0:
60,64,80843,5,0,2:2:0:0:
189,255,81001,1,0,3:3:0:0:
189,255,81080,1,0,3:3:0:0:
189,255,81159,2,0,L|203:208,1,44.999998626709,0|0,1:1|0:0,0:0:0:0:
201,211,81475,6,0,P|136:189|127:306,1,225.000008583069,6|0,2:2|0:0,0:0:0:0:
126,305,81790,1,2,2:2:0:0:
258,146,81948,2,0,B|292:195|292:195|276:252,1,119.999996337891,2|0,2:2|3:3,0:0:0:0:
275,253,82264,1,2,2:2:0:0:
77,197,82422,1,2,2:2:0:0:
235,356,82580,5,2,2:2:0:0:
235,356,82659,1,0,2:2:0:0:
235,356,82738,2,0,L|365:341,1,119.999996337891,6|2,2:2|2:2,0:0:0:0:
375,255,83054,1,2,2:2:0:0:
488,368,83211,5,2,2:2:0:0:
488,368,83290,1,0,0:0:0:0:
488,368,83369,2,0,L|495:298,1,59.9999981689454,2|0,2:2|0:0,0:0:0:0:
365,250,83527,2,0,L|358:180,1,59.9999981689454,2|0,2:2|0:0,0:0:0:0:
488,132,83685,1,2,2:2:0:0:
256,192,83843,5,2,2:2:0:0:
256,192,83922,1,0,0:0:0:0:
256,192,84001,2,0,B|246:265|246:265|264:301|264:301|255:378,1,179.999994506836,6|0,2:2|0:0,0:0:0:0:
256,366,84317,1,2,2:2:0:0:
365,250,84475,1,2,2:2:0:0:
365,250,84554,1,0,0:0:0:0:
365,250,84633,2,0,L|358:317,1,59.9999981689454,0|0,3:3|0:0,0:0:0:0:
152,314,84790,2,0,L|146:242,1,59.9999981689454,2|0,2:2|0:0,0:0:0:0:
248,160,84948,1,2,2:2:0:0:
56,296,85106,5,2,2:2:0:0:
135,79,85264,2,0,P|77:41|63:130,1,179.999994506836,6|0,2:2|0:0,0:0:0:0:
52,121,85580,1,2,2:2:0:0:
131,167,85738,6,0,P|162:157|200:150,1,59.9999981689454,2|0,2:2|0:0,0:0:0:0:
224,77,85896,2,0,P|255:87|293:94,1,59.9999981689454,2|0,2:2|3:0,0:0:0:0:
344,144,86054,1,2,2:2:0:0:
186,5,86211,1,2,2:2:0:0:
272,208,86369,5,2,2:2:0:0:
272,208,86448,1,0,2:2:0:0:
272,208,86527,2,0,P|361:203|350:273,1,179.999994506836,6|0,2:2|0:0,0:0:0:0:
266,356,86843,2,0,P|269:312|274:275,1,59.9999981689454,2|0,2:2|3:0,0:0:0:0:
282,103,87001,1,2,2:2:0:0:
154,235,87159,5,2,2:2:0:0:
399,252,87317,1,2,2:2:0:0:
162,251,87475,1,2,2:2:0:0:
388,266,87633,1,2,2:2:0:0:
266,356,87790,6,0,B|260:291|260:291|282:250|282:250|275:181,1,179.999994506836,2|0,2:2|0:0,0:0:0:0:
275,182,88106,2,0,L|210:173,1,59.9999981689454,2|0,2:2|3:0,0:0:0:0:
86,266,88264,1,2,2:2:0:0:
161,102,88422,6,0,P|190:95|234:88,1,59.9999981689454,2|0,2:2|0:0,0:0:0:0:
306,263,88580,2,0,P|335:270|379:277,1,59.9999981689454,2|0,2:2|0:0,0:0:0:0:
472,168,88738,1,2,2:2:0:0:
245,189,88896,5,2,2:2:0:0:
245,189,88975,1,0,0:0:0:0:
245,189,89054,2,0,B|142:175|178:227|69:213,1,179.999994506836,6|0,2:2|0:0,0:0:0:0:
70,213,89369,6,0,L|62:150,1,59.9999981689454,2|0,2:2|3:0,0:0:0:0:
50,75,89527,1,2,2:2:0:0:
48,69,89606,1,0,0:0:0:0:
46,63,89685,1,0,3:3:0:0:
12,313,89843,6,0,B|79:296|60:343|138:325,1,120,6|0,2:2|0:0,0:0:0:0:
195,275,90159,6,0,P|203:190|146:271,1,225.000008583069,6|0,2:2|0:0,0:0:0:0:
208,359,90475,1,2,2:2:0:0:
240,109,90633,1,2,2:2:0:0:
440,260,90790,1,2,2:2:0:0:
276,310,90948,6,0,P|299:285|301:258,1,59.9999981689454,2|0,2:2|0:0,0:0:0:0:
272,172,91106,2,0,P|247:149|220:147,1,59.9999981689454,2|0,2:2|0:0,0:0:0:0:
58,264,91264,5,2,2:2:0:0:
58,264,91343,1,0,3:3:0:0:
58,264,91422,1,2,2:2:0:0:
58,264,91501,1,0,3:3:0:0:
58,264,91580,2,0,B|101:248|101:248|136:275|136:275|164:242|164:242|217:250,1,179.999994506836,6|0,2:2|0:0,0:0:0:0:
223,251,91896,1,2,2:2:0:0:
384,364,92054,5,2,2:2:0:0:
384,364,92133,1,0,0:0:0:0:
384,364,92211,2,0,L|390:286,1,59.9999981689454,2|0,2:2|0:0,0:0:0:0:
291,145,92369,2,0,L|295:204,1,59.9999981689454,2|0,2:2|0:0,0:0:0:0:
202,337,92527,1,2,2:2:0:0:
407,190,92685,1,2,2:2:0:0:
209,33,92843,6,0,B|124:114|195:213,1,179.999994506836,6|0,2:2|0:0,0:0:0:0:
192,204,93159,1,2,2:2:0:0:
321,318,93317,5,2,2:2:0:0:
321,318,93396,1,0,2:2:0:0:
321,318,93475,2,0,P|288:313|244:311,1,59.9999981689454,2|0,2:2|0:0,0:0:0:0:
192,204,93633,2,0,P|162:208|132:210,1,59.9999981689454,2|0,2:2|0:0,0:0:0:0:
44,344,93790,1,2,2:2:0:0:
80,106,93948,5,2,2:2:0:0:
80,106,94027,1,0,2:2:0:0:
80,106,94106,2,0,B|177:83|160:139|257:116,1,179.999994506836,6|0,2:2|0:0,0:0:0:0:
255,116,94422,1,2,2:2:0:0:
484,293,94580,6,0,P|383:265|314:325,1,179.999994506836,2|0,2:2|0:0,0:0:0:0:
334,334,94896,2,0,L|351:88,1,209.999993591309,2|0,2:2|2:2,0:0:0:0:
260,11,95211,6,0,L|237:312,1,269.999991760254,6|0,2:2|0:0,0:0:0:0:
237,312,95527,1,2,2:2:0:0:
348,124,95685,1,2,2:2:0:0:
152,222,95843,1,2,2:2:0:0:
254,86,96001,5,2,2:2:0:0:
152,318,96159,1,2,2:2:0:0:
384,216,96317,1,2,2:2:0:0:
208,240,96475,5,2,2:2:0:0:
208,240,96554,1,0,3:3:0:0:
208,240,96633,1,6,2:2:0:0:
159,147,96790,1,10,2:2:0:0:
152,318,96948,1,2,2:2:0:0:
113,79,97106,5,2,2:2:0:0:
113,79,97185,1,0,3:3:0:0:
113,79,97264,1,2,2:2:0:0:
72,304,97422,1,2,2:2:0:0:
216,88,97580,1,2,2:2:0:0:
256,368,97738,5,2,2:2:0:0:
280,216,97896,1,2,2:2:0:0:
328,304,98054,1,2,2:2:0:0:
320,128,98211,5,2,2:2:0:0:
400,360,98369,1,2,2:2:0:0:
400,360,98448,1,0,3:3:0:0:
400,360,98527,1,2,2:2:0:0:
416,64,98685,1,2,2:2:0:0:
328,304,98843,5,6,2:2:0:0:
296,16,99001,1,2,2:2:0:0:
256,352,99159,5,6,2:2:0:0:
232,80,99317,1,2,2:2:0:0:
192,304,99475,5,2,2:2:0:0:
288,128,99633,1,2,2:2:0:0:
176,232,99790,5,2,2:2:0:0:
304,200,99948,1,2,2:2:0:0:
49,155,100106,5,2,2:2:0:0:
433,270,100264,1,6,2:2:0:0:
433,270,100580,5,2,2:2:0:0:
256,384,100738,1,2,2:2:0:0:
416,72,100896,1,2,2:2:0:0:
416,72,100975,1,2,1:2:0:0:
416,72,101054,5,6,2:2:0:0:
136,32,101211,1,2,2:2:0:0:
96,312,101369,1,10,2:2:0:0:
376,352,101527,1,4,3:3:0:0:
256,192,101685,5,6,2:2:0:0:
256,192,102001,1,0,3:3:0:0:
256,192,102317,1,0,3:3:0:0:
256,192,102633,1,0,3:3:0:0:
256,192,102948,5,0,3:3:0:0:
304,320,103106,1,8,2:3:0:0:
304,320,103185,1,0,3:3:0:0:
304,320,103264,2,0,P|349:313|398:309,1,80,0|4,2:2|3:3,0:0:0:0:
476,268,103580,1,0,2:2:0:0:
476,268,103738,1,4,2:3:0:0:
436,172,103896,1,0,2:2:0:0:
436,172,104054,1,0,3:3:0:0:
476,76,104211,5,4,2:1:0:0:
476,76,104527,1,0,3:3:0:0:
476,76,104843,1,0,3:3:0:0:
476,76,105159,1,0,3:3:0:0:
340,168,105475,5,0,1:1:0:0:
327,153,105580,2,0,P|301:144|275:140,1,53.3333333333333,0|0,3:3|3:3,0:0:0:0:
240,28,105790,5,0,3:3:0:0:
227,43,105896,2,0,P|201:51|175:55,1,53.3333333333333,0|0,3:3|3:3,0:0:0:0:
76,216,106106,5,0,3:3:0:0:
55,201,106211,2,0,P|49:166|51:121,1,53.3333333333333,0|0,3:3|3:3,0:0:0:0:
156,144,106422,5,0,3:3:0:0:
177,159,106527,2,0,P|183:194|181:239,1,53.3333333333333,0|0,3:3|3:3,0:0:0:0:
76,308,106738,5,6,2:2:0:0:
175,93,110527,5,0,3:3:0:0:
336,290,110685,1,0,1:1:0:0:
354,111,110843,1,0,1:1:0:0:
157,272,111001,1,0,3:3:0:0:
272,40,111159,5,6,2:2:0:0:
244,336,111317,1,0,3:3:0:0:
260,192,111475,5,0,1:1:0:0:
260,192,111554,1,0,3:3:0:0:
260,192,111633,1,0,3:3:0:0:
260,192,111711,1,0,3:3:0:0:
260,192,111790,2,0,P|328:176|416:192,1,150,6|0,2:2|0:0,0:0:0:0:
432,224,112106,2,0,L|424:104,1,100,2|2,2:2|2:2,0:0:0:0:
356,72,112422,5,2,2:2:0:0:
324,256,112580,1,2,2:2:0:0:
216,104,112738,1,2,2:2:0:0:
184,288,112896,1,2,2:2:0:0:
76,136,113054,6,0,P|64:199|56:253,1,100,2|2,2:2|2:2,0:0:0:0:
112,352,113369,1,2,2:2:0:0:
264,208,113527,2,0,P|201:196|147:188,1,100,2|2,2:2|2:2,0:0:0:0:
165,190,113843,1,2,2:2:0:0:
262,377,114001,1,2,2:2:0:0:
384,212,114159,1,2,2:2:0:0:
178,301,114317,5,2,2:2:0:0:
283,131,114475,1,2,2:2:0:0:
355,318,114633,1,2,2:2:0:0:
288,100,114790,1,2,2:2:0:0:
97,257,114948,5,2,2:2:0:0:
278,162,115106,1,2,2:2:0:0:
216,374,115264,1,2,2:2:0:0:
122,142,115422,1,2,2:2:0:0:
65,313,115580,2,0,L|188:299,1,100,2|2,2:2|2:2,0:0:0:0:
278,162,115896,5,2,2:2:0:0:
110,42,116054,2,0,L|124:165,1,100,2|2,2:2|2:2,0:0:0:0:
390,141,116369,2,0,L|402:42,1,100,2|2,2:2|2:2,0:0:0:0:
188,224,116685,1,2,2:2:0:0:
417,279,116843,6,0,P|357:267|298:342,1,150,2|0,2:2|0:0,0:0:0:0:
279,364,117159,2,0,P|279:296|271:248,1,100,2|2,2:2|2:2,0:0:0:0:
368,168,117475,5,2,2:2:0:0:
385,377,117633,1,2,2:2:0:0:
469,186,117790,1,2,2:2:0:0:
274,264,117948,1,2,2:2:0:0:
338,62,118106,2,0,L|436:84,1,100,2|2,2:2|2:2,0:0:0:0:
184,180,118422,5,2,2:2:0:0:
64,36,118580,2,0,P|47:94|37:145,1,100,2|2,2:2|2:2,0:0:0:0:
288,72,118896,2,0,P|246:28|207:-5,1,100,2|2,2:2|2:2,0:0:0:0:
144,247,119211,1,2,2:2:0:0:
344,144,119369,5,6,2:2:0:0:
344,144,119527,2,0,P|403:129|451:112,1,100,2|2,2:2|2:2,0:0:0:0:
409,331,119843,2,0,P|350:346|302:363,1,100,2|2,2:2|2:2,0:0:0:0:
81,286,120159,2,0,P|136:276|198:262,1,100,2|2,2:2|2:2,0:0:0:0:
281,265,120475,6,0,P|266:206|249:158,1,100,2|2,2:2|2:2,0:0:0:0:
240,40,120790,1,2,2:2:0:0:
123,164,120948,1,2,2:2:0:0:
48,11,121106,2,0,B|95:33|95:33|152:23,1,100,2|2,2:2|2:2,0:0:0:0:
312,100,121422,1,2,2:2:0:0:
156,244,121580,2,0,P|111:188|41:202,1,150,6|0,2:2|0:0,0:0:0:0:
4,167,121896,6,0,B|20:249|20:249|6:296|6:296|22:368,1,200,6|2,2:2|2:2,0:0:0:0:
165,144,122369,2,0,L|154:259,1,100,2|2,2:2|2:2,0:0:0:0:
323,78,122685,2,0,L|289:175,1,100,2|2,2:2|2:2,0:0:0:0:
476,89,123001,1,2,2:2:0:0:
401,305,123159,6,0,P|401:251|361:227,1,100,2|2,2:2|2:2,0:0:0:0:
205,163,123475,2,0,P|251:190|292:167,1,100,2|2,2:2|2:2,0:0:0:0:
313,88,123790,1,2,2:2:0:0:
289,278,123948,1,2,2:2:0:0:
344,60,124106,2,0,L|234:72,1,100,2|2,2:2|2:2,0:0:0:0:
160,296,124422,5,2,2:2:0:0:
89,104,124580,1,2,2:2:0:0:
199,271,124738,1,2,2:2:0:0:
58,122,124896,1,2,2:2:0:0:
88,368,125054,5,2,2:2:0:0:
173,182,125212,1,2,2:2:0:0:
133,377,125370,1,2,2:2:0:0:
138,172,125528,1,2,2:2:0:0:
212,384,125685,5,2,2:2:0:0:
61,245,125843,1,2,2:2:0:0:
234,343,126001,1,2,2:2:0:0:
41,275,126159,1,2,2:2:0:0:
252,150,126317,6,0,L|367:161,1,100,2|2,2:2|2:2,0:0:0:0:
484,334,126633,2,0,B|423:307|423:307|389:328|343:344,1,150,2|0,2:2|0:0,0:0:0:0:
312,379,126948,6,0,P|317:322|320:268,1,100,6|2,2:2|2:2,0:0:0:0:
252,150,127264,1,2,2:2:0:0:
392,232,127422,2,0,P|426:200|434:143,1,100,2|2,2:2|2:2,0:0:0:0:
176,103,127738,2,0,P|162:147|184:201,1,100,2|2,2:2|2:2,0:0:0:0:
376,76,128054,1,2,2:2:0:0:
259,236,128211,5,2,2:2:0:0:
252,64,128369,1,2,2:2:0:0:
107,240,128527,1,2,2:2:0:0:
90,69,128685,1,2,2:2:0:0:
185,303,128843,5,2,2:2:0:0:
309,147,129001,1,2,2:2:0:0:
46,159,129159,1,2,2:2:0:0:
259,236,129317,1,2,2:2:0:0:
84,376,129475,6,0,B|108:267|37:296|76:182,2,200,6|2|6,2:2|2:2|2:2,0:0:0:0:
162,227,130264,1,2,2:2:0:0:
260,347,130422,1,2,2:2:0:0:
197,146,130580,1,2,2:2:0:0:
350,315,130738,5,6,2:2:0:0:
442,108,130895,1,2,2:2:0:0:
383,330,131054,1,2,2:2:0:0:
292,122,131211,1,2,2:2:0:0:
470,276,131369,5,6,2:2:0:0:
487,261,131475,2,0,P|497:213|480:170,1,66.6666666666667,0|0,1:1|3:3,0:0:0:0:
317,37,131685,5,10,2:2:0:0:
299,57,131791,2,0,P|288:104|305:147,1,66.6666666666667,0|0,3:3|3:3,0:0:0:0:
495,57,132001,6,0,B|425:65|425:65|373:48|373:48|265:60,1,200,6|0,2:2|2:2,0:0:0:0:
264,208,132475,1,2,2:2:0:0:
56,112,132633,2,0,P|66:49|68:-4,1,100,2|0,2:2|2:2,0:0:0:0:
89,207,132948,5,2,2:2:0:0:
172,92,133106,2,0,P|155:74|158:40,2,50,2|0|0,2:2|3:3|3:3,0:0:0:0:
169,281,133422,2,0,P|172:231|180:181,1,100,2|2,2:2|2:2,0:0:0:0:
56,112,133738,5,0,2:2:0:0:
286,197,133896,2,0,P|237:201|205:238,1,100,0|2,1:1|2:2,0:0:0:0:
92,376,134211,2,0,P|79:307|60:219,1,150,2|0,2:2|0:0,0:0:0:0:
46,206,134527,6,0,B|18:271|117:340|124:216|207:292,1,200,6|0,2:2|2:2,0:0:0:0:
244,344,135001,1,2,2:2:0:0:
328,185,135159,2,0,P|323:134|306:76,1,100,2|0,2:2|0:0,0:0:0:0:
280,264,135475,5,2,2:2:0:0:
280,264,135633,2,0,P|326:280|378:265,1,100,2|0,2:2|2:2,0:0:0:0:
423,187,135948,1,2,2:2:0:0:
431,353,136106,6,0,P|460:313|462:260,1,100,2|0,2:2|3:3,0:0:0:0:
239,183,136422,1,2,2:2:0:0:
239,183,137054,6,0,P|170:225|62:170,1,200,6|2,2:2|2:2,0:0:0:0:
68,180,137527,1,2,2:2:0:0:
276,100,137685,2,0,P|345:58|453:113,1,200,2|0,2:2|2:2,0:0:0:0:
446,102,138159,6,0,P|438:124|451:157,2,50,0|0|2,1:1|1:1|2:2,0:0:0:0:
397,222,138475,1,2,2:2:0:0:
353,146,138633,2,0,P|312:140|247:121,1,100,2|2,2:2|2:2,0:0:0:0:
144,209,138948,2,0,P|215:227|241:204,1,100,2|0,2:2|2:2,0:0:0:0:
212,38,139264,2,0,P|140:51|126:83,1,100,0|0,2:2|2:2,0:0:0:0:
327,175,139580,6,0,P|364:93|292:12,1,200,6|2,2:2|2:2,0:0:0:0:
255,125,140054,1,2,2:2:0:0:
482,23,140211,2,0,P|469:71|440:221,1,200,2|2,2:2|2:2,0:0:0:0:
481,284,140685,6,0,P|436:251|392:252,1,100,2|2,2:2|2:2,0:0:0:0:
322,201,141001,1,0,1:1:0:0:
246,376,141159,2,0,P|198:387|153:367,1,100,0|0,1:1|2:2,0:0:0:0:
153,367,141396,1,0,0:0:0:0:
153,367,141475,5,6,2:2:0:0:
318,286,141633,5,0,3:3:0:0:
189,187,141790,5,0,3:3:0:0:
295,103,141948,5,0,3:3:0:0:
228,8,142106,5,2,2:2:0:0:
124,130,142422,1,2,2:2:0:0:
124,130,142580,1,2,2:2:0:0:
284,376,143369,5,2,2:2:0:0:
388,254,143685,1,2,2:2:0:0:
388,254,143843,1,2,2:2:0:0:
256,96,144633,5,2,2:2:0:0:
256,96,144790,1,2,2:2:0:0:
256,96,144948,1,2,2:2:0:0:
256,288,145264,5,2,2:2:0:0:
256,288,145421,1,2,2:2:0:0:
256,288,145579,1,2,2:2:0:0:
352,144,145896,5,2,2:2:0:0:
160,240,146211,5,2,2:2:0:0:
211,120,146369,1,2,2:2:0:0:
240,247,146527,1,2,2:2:0:0:
142,162,146685,1,2,2:2:0:0:
271,173,146843,1,2,2:2:0:0:
64,368,147159,6,0,P|49:256|33:155,1,200,6|2,2:2|2:2,0:0:0:0:
160,304,147633,1,2,2:2:0:0:
240,112,147790,1,2,2:2:0:0:
226,378,147948,1,2,2:2:0:0:
169,166,148106,5,2,2:2:0:0:
320,352,148264,1,2,2:2:0:0:
311,58,148422,5,2,2:2:0:0:
254,278,148580,1,2,2:2:0:0:
393,98,148738,1,2,2:2:0:0:
416,346,148896,5,2,2:2:0:0:
384,15,149054,1,2,2:2:0:0:
257,355,149211,1,2,2:2:0:0:
225,24,149369,2,0,P|172:22|117:16,1,100,6|2,2:2|2:2,0:0:0:0:
8,248,149685,5,10,2:2:0:0:
29,314,149764,1,10,2:2:0:0:
91,345,149843,1,10,2:2:0:0:
160,336,149922,1,10,2:2:0:0:
204,282,150001,1,2,2:2:0:0:
204,211,150080,1,2,2:2:0:0:
146,170,150159,1,2,2:2:0:0:
80,195,150238,1,2,2:2:0:0:
66,263,150317,1,6,2:2:0:0:
103,322,150396,1,6,2:2:0:0:
172,328,150475,1,6,2:2:0:0:
237,304,150554,1,6,2:2:0:0:
279,248,150633,1,2,2:2:0:0:
293,180,150711,1,2,2:2:0:0:
335,124,150790,1,2,2:2:0:0:
399,96,150869,1,0,3:3:0:0:
468,98,150948,6,0,B|498:106|520:127|532:168|526:213|479:234|416:238|371:220|369:130|376:113|395:103|350:7|246:-5|162:81|202:184|288:187,1,559.999982910157,6|2,2:2|2:2,0:0:0:0:
439,25,151738,5,0,3:3:0:0:
439,25,151817,1,0,2:2:0:0:
439,25,151896,2,0,P|423:144|410:256,1,209.999993591309,0|0,1:1|2:2,0:0:0:0:
442,356,152211,6,0,B|495:262|386:210|349:274|349:274|389:306|352:358,1,279.999991455078,6|2,2:2|2:2,0:0:0:0:
324,104,152685,1,2,2:2:0:0:
253,331,152843,1,0,3:3:0:0:
210,97,153001,1,2,2:2:0:0:
148,190,153159,1,2,2:2:0:0:
401,47,153317,5,2,2:2:0:0:
401,47,153396,1,0,2:2:0:0:
401,47,153475,2,0,B|369:24|346:4|346:4|304:10|270:23,1,139.999995727539,6|2,2:2|2:2,0:0:0:0:
191,268,153790,2,0,B|165:278|123:284|123:284|100:264|68:241,1,139.999995727539,2|2,2:2|2:2,0:0:0:0:
67,240,154027,1,0,0:0:0:0:
67,240,154106,1,2,2:2:0:0:
309,110,154264,1,2,2:2:0:0:
32,32,154422,1,2,2:2:0:0:
280,208,154580,5,2,2:2:0:0:
151,5,154738,2,0,L|138:145,1,139.999995727539,6|2,2:2|2:2,0:0:0:0:
67,240,155054,1,2,2:2:0:0:
265,341,155211,1,2,2:2:0:0:
98,362,155369,5,0,3:3:0:0:
259,206,155527,1,2,2:2:0:0:
447,328,155685,1,2,2:2:0:0:
512,192,155843,5,2,2:2:0:0:
512,192,155922,1,0,2:2:0:0:
512,192,156001,2,0,P|496:114|474:47,1,139.999995727539,6|2,2:2|2:2,0:0:0:0:
384,32,156317,1,2,2:2:0:0:
253,189,156476,1,2,2:2:0:0:
442,261,156633,1,2,2:2:0:0:
248,100,156791,1,2,2:2:0:0:
184,329,156949,1,2,2:2:0:0:
331,144,157106,1,2,2:2:0:0:
107,29,157264,6,0,B|100:78|52:97|52:97|70:155|70:155|-1:185|7:263,2,279.999991455078,6|2|2,2:2|2:2|2:2,0:0:0:0:
173,301,158054,1,2,2:2:0:0:
306,53,158211,1,2,2:2:0:0:
144,276,158369,1,2,2:2:0:0:
335,78,158527,6,0,P|342:158|348:234,1,139.999995727539,2|2,2:2|2:2,0:0:0:0:
426,260,158843,1,2,2:2:0:0:
256,200,159001,1,2,2:2:0:0:
256,200,159080,1,0,0:0:0:0:
256,200,159159,1,2,2:2:0:0:
411,343,159317,1,2,2:2:0:0:
484,146,159475,5,2,2:2:0:0:
302,359,159633,1,2,2:2:0:0:
230,90,159790,2,0,P|123:110|10:129,1,209.999993591309,6|0,2:2|0:0,0:0:0:0:
51,152,160106,2,0,P|122:143|171:193,1,139.999995727539,2|2,2:2|2:2,0:0:0:0:
169,187,160343,1,0,0:0:0:0:
169,187,160422,1,0,3:3:0:0:
107,14,160580,6,0,P|100:131|94:241,1,209.999993591309,6|0,2:2|0:0,0:0:0:0:
122,328,160896,2,0,B|126:255|126:255|177:195|177:195|185:61,1,279.999991455078,6|2,2:2|2:2,0:0:0:0:
216,336,161369,1,2,2:2:0:0:
278,76,161527,1,2,2:2:0:0:
310,344,161685,1,2,2:2:0:0:
372,84,161843,1,2,2:2:0:0:
404,352,162001,1,2,2:2:0:0:
404,352,162080,1,0,3:3:0:0:
404,352,162159,1,2,2:2:0:0:
404,352,162238,1,0,3:3:0:0:
404,352,162317,6,0,B|410:296|410:296|422:268|422:268|430:210,1,139.999995727539,6|2,2:2|2:2,0:0:0:0:
496,152,162633,1,2,2:2:0:0:
232,168,162790,2,0,P|268:227|354:220,1,139.999995727539,2|2,2:2|2:2,0:0:0:0:
491,324,163106,1,2,2:2:0:0:
379,14,163264,2,0,B|399:101|348:68|366:152,1,139.999995727539,2|2,2:2|2:2,0:0:0:0:
365,148,163501,1,0,0:0:0:0:
365,148,163580,1,6,2:2:0:0:
299,339,163738,5,2,2:2:0:0:
240,80,163896,1,2,2:2:0:0:
4,202,164054,1,2,2:2:0:0:
41,97,164211,5,2,2:2:0:0:
158,305,164369,1,2,2:2:0:0:
310,121,164527,1,2,2:2:0:0:
341,229,164685,1,2,2:2:0:0:
176,48,164843,6,0,L|162:261,1,209.999993591309,6|0,2:2|0:0,0:0:0:0:
154,348,165159,1,2,2:2:0:0:
430,161,165317,2,0,B|430:139|450:125|450:125|444:63|387:55,1,139.999995727539,2|0,2:2|3:3,0:0:0:0:
82,223,165633,2,0,B|82:245|62:259|62:259|68:321|125:329,1,139.999995727539,2|2,2:2|2:2,0:0:0:0:
333,373,165948,6,0,B|326:328|356:297|356:297|371:210|318:150,1,209.999993591309,6|0,2:2|0:0,0:0:0:0:
320,160,166264,1,2,2:2:0:0:
160,8,166422,2,0,B|123:65|123:65|148:139,1,139.999995727539,2|2,2:2|2:2,0:0:0:0:
146,133,166659,1,0,0:0:0:0:
146,133,166738,1,2,2:2:0:0:
351,81,166896,1,2,2:2:0:0:
207,322,167054,1,2,2:2:0:0:
473,241,167211,5,2,2:2:0:0:
473,241,167290,1,0,3:3:0:0:
473,241,167369,1,6,2:2:0:0:
416,336,167527,1,10,2:2:0:0:
372,184,167685,1,2,2:2:0:0:
325,286,167843,5,2,2:2:0:0:
325,286,167922,1,0,3:3:0:0:
325,286,168001,1,2,2:2:0:0:
401,98,168159,1,2,2:2:0:0:
209,250,168317,1,2,2:2:0:0:
289,108,168475,5,2,2:2:0:0:
236,362,168633,1,2,2:2:0:0:
150,119,168790,1,2,2:2:0:0:
104,264,168948,1,2,2:2:0:0:
220,55,169106,5,2,2:2:0:0:
220,55,169185,1,0,3:3:0:0:
220,55,169264,1,2,2:2:0:0:
238,345,169422,1,2,2:2:0:0:
306,69,169580,1,6,2:2:0:0:
324,359,169738,1,2,2:2:0:0:
471,17,169896,5,6,2:2:0:0:
451,339,170054,1,2,2:2:0:0:
375,33,170212,1,2,2:2:0:0:
355,355,170370,1,2,2:2:0:0:
169,25,170527,5,2,2:2:0:0:
149,347,170685,1,2,2:2:0:0:
73,41,170843,1,2,2:2:0:0:
53,363,171001,1,6,2:2:0:0:
53,363,171317,5,2,2:2:0:0:
256,192,171475,1,2,2:2:0:0:
13,115,171633,1,2,2:2:0:0:
13,115,171711,1,2,1:2:0:0:
13,115,171790,1,6,2:2:0:0:
224,304,171948,5,10,2:2:0:0:
288,80,172106,1,6,2:2:0:0:
88,328,172422,6,0,L|55:323,3,29.9999990844727,6|2|2|2,2:2|2:2|2:2|2:2,0:0:0:0:
129,313,174948,6,0,L|96:318,3,29.9999990844727,2|2|2|2,2:2|2:2|2:2|2:2,0:0:0:0:
170,328,177475,6,0,L|137:323,3,29.9999990844727,2|2|2|2,2:2|2:2|2:2|2:2,0:0:0:0:
211,313,180001,6,0,L|178:318,3,29.9999990844727,2|2|2|2,2:2|2:2|2:2|2:2,0:0:0:0:
256,192,182527,6,0,B|160:160|191:236|85:238,1,179.999994506836,2|2,2:2|2:2,0:0:0:0:
65,278,183159,2,0,P|56:211|44:150,1,119.999996337891,2|0,2:2|0:0,0:0:0:0:
176,48,183790,6,0,P|221:95|330:63,1,179.999994506836,2|2,2:2|2:2,0:0:0:0:
338,36,184422,2,0,P|333:101|331:161,1,119.999996337891,2|2,2:2|2:2,0:0:0:0:
489,319,185054,6,0,B|418:264|418:264|336:304,1,179.999994506836,2|2,2:2|2:2,0:0:0:0:
340,337,185685,2,0,L|210:328,1,119.999996337891,2|2,2:2|2:2,0:0:0:0:
73,241,186317,5,2,2:2:0:0:
73,241,186475,2,0,P|126:251|183:206,1,119.999996337891,2|2,2:2|2:2,0:0:0:0:
196,136,186948,2,0,B|191:106|191:106|171:80,2,59.9999981689454,2|2|2,2:2|2:2|2:2,0:0:0:0:
256,192,187580,5,2,2:2:0:0:
256,192,188843,5,2,2:2:0:0:
256,192,190106,5,2,2:2:0:0:
89,350,192633,6,0,B|99:251|99:251|74:208|74:208|84:106,1,239.999992675781,6|2,2:2|2:2,0:0:0:0:
222,324,193106,1,2,2:2:0:0:
235,71,193264,2,0,P|227:131|221:209,1,119.999996337891,2|2,2:2|2:2,0:0:0:0:
221,190,193501,1,0,0:0:0:0:
221,190,193580,1,2,2:2:0:0:
448,344,193738,2,0,P|456:284|462:206,1,119.999996337891,2|2,2:2|2:2,0:0:0:0:
480,64,194054,5,2,2:2:0:0:
222,191,194211,1,2,2:2:0:0:
348,336,194369,1,2,2:2:0:0:
253,103,194527,1,2,2:2:0:0:
65,271,194685,1,2,2:2:0:0:
310,172,194843,1,2,2:2:0:0:
97,15,195001,1,2,2:2:0:0:
234,278,195159,6,0,B|288:293|324:250|324:250|359:256|359:256|389:200|458:213,1,239.999992675781,2|2,2:2|2:2,0:0:0:0:
440,303,195633,1,2,2:2:0:0:
263,86,195790,2,0,B|223:135|223:135|246:190,1,119.999996337891,2|2,2:2|2:2,0:0:0:0:
244,187,196027,1,0,0:0:0:0:
244,187,196106,1,2,2:2:0:0:
480,56,196264,2,0,B|436:53|436:53|407:37|407:37|364:33,1,119.999996337891,2|2,2:2|2:2,0:0:0:0:
160,220,196580,5,2,2:2:0:0:
284,0,196738,1,2,2:2:0:0:
346,244,196896,1,2,2:2:0:0:
140,40,197054,5,2,2:2:0:0:
405,163,197211,1,2,2:2:0:0:
165,333,197369,1,2,2:2:0:0:
212,97,197527,1,2,2:2:0:0:
392,255,197685,6,0,P|260:249|133:242,1,239.999992675781,6|2,2:2|2:2,0:0:0:0:
80,304,198159,1,2,2:2:0:0:
4,72,198317,2,0,P|91:81|136:85,1,119.999996337891,2|2,2:2|2:2,0:0:0:0:
123,83,198554,1,0,0:0:0:0:
123,83,198633,1,2,2:2:0:0:
12,344,198790,6,0,B|152:298|106:386|256:339,1,239.999992675781,2|2,2:2|2:2,0:0:0:0:
204,176,199264,1,2,2:2:0:0:
328,368,199422,1,2,2:2:0:0:
287,63,199580,1,2,2:2:0:0:
256,256,199738,1,2,2:2:0:0:
480,96,199896,1,2,2:2:0:0:
320,172,200054,5,2,2:2:0:0:
320,172,200133,1,0,0:0:0:0:
320,172,200211,1,2,2:2:0:0:
360,384,200369,1,2,2:2:0:0:
236,128,200527,5,2,2:2:0:0:
448,88,200685,1,2,2:2:0:0:
192,212,200843,5,2,2:2:0:0:
152,0,201001,1,6,2:2:0:0:
276,256,201159,5,2,2:2:0:0:
64,296,201317,1,6,2:2:0:0:
460,201,201633,1,2,2:2:0:0:
180,16,201948,1,2,2:2:0:0:
256,192,202106,5,4,3:1:0:0:
284,110,202264,5,2,2:2:0:0:
209,117,202343,1,8,3:3:0:0:
168,179,202422,1,6,2:2:0:0:
193,250,202501,1,4,3:3:0:0:
263,277,202580,1,6,2:2:0:0:
327,238,202659,1,4,3:3:0:0:
336,163,202738,1,6,2:2:0:0:
201,338,202896,5,2,2:2:0:0:
88,155,203054,1,2,2:2:0:0:
256,192,203211,1,2,2:2:0:0:
111,362,203369,5,2,2:2:0:0:
11,130,203527,1,2,2:2:0:0:
6,382,203685,1,2,2:2:0:0:
97,57,203843,6,0,B|150:80|193:44|193:44|227:57|227:57|267:24|323:38,1,239.999992675781,2|2,2:2|2:2,0:0:0:0:
194,235,204317,1,2,2:2:0:0:
402,343,204475,1,2,2:2:0:0:
361,112,204633,1,2,2:2:0:0:
124,264,204790,1,2,2:2:0:0:
116,268,204869,1,0,0:0:0:0:
108,272,204948,1,2,2:2:0:0:
322,37,205106,6,0,B|331:108|331:108|312:161|316:204|316:204|282:248|276:309,1,239.999992675781,2|2,2:2|2:2,0:0:0:0:
328,348,205580,1,2,2:2:0:0:
480,200,205738,1,2,2:2:0:0:
216,224,205896,5,2,2:2:0:0:
420,252,206054,1,2,2:2:0:0:
168,148,206211,1,2,2:2:0:0:
436,104,206369,5,2,2:2:0:0:
152,280,206527,1,2,2:2:0:0:
208,72,206685,1,2,2:2:0:0:
188,360,206843,1,2,2:2:0:0:
368,20,207001,5,6,2:2:0:0:
36,192,207317,5,6,2:2:0:0:
468,340,207633,6,0,B|479:302|479:302|463:267|457:226|457:226|415:167|350:160,1,239.999992675781,6|2,2:2|2:2,0:0:0:0:
220,348,208106,1,2,2:2:0:0:
380,260,208264,1,2,2:2:0:0:
184,148,208422,1,2,2:2:0:0:
139,360,208580,1,2,2:2:0:0:
0,195,208738,1,2,2:2:0:0:
268,129,208896,1,2,2:2:0:0:
48,300,209054,5,2,2:2:0:0:
128,32,209211,1,2,2:2:0:0:
242,211,209369,1,2,2:2:0:0:
416,64,209527,1,2,2:2:0:0:
248,300,209685,5,2,2:2:0:0:
236,56,209843,1,2,2:2:0:0:
476,192,210001,1,2,2:2:0:0:
167,260,210159,1,2,2:2:0:0:
424,356,210317,5,6,2:2:0:0:
466,305,210396,1,0,3:3:0:0:
453,240,210475,1,2,2:2:0:0:
391,214,210554,1,0,3:3:0:0:
333,246,210633,1,2,2:2:0:0:
319,309,210711,1,2,2:2:0:0:
259,336,210790,1,2,2:2:0:0:
201,303,210869,1,2,2:2:0:0:
203,236,210948,5,2,2:2:0:0:
143,240,211027,1,2,2:2:0:0:
93,206,211106,1,2,2:2:0:0:
33,215,211185,1,2,2:2:0:0:
6,161,211264,5,2,2:2:0:0:
45,116,211343,1,2,2:2:0:0:
102,97,211422,1,6,2:2:0:0:
140,50,211501,1,2,2:2:0:0:
186,12,211580,5,10,2:2:0:0:
239,39,211659,1,10,2:2:0:0:
291,68,211738,1,10,2:2:0:0:
342,99,211817,1,10,2:2:0:0:
323,149,211896,5,2,2:2:0:0:
274,172,211975,1,2,2:2:0:0:
227,199,212054,1,2,2:2:0:0:
177,220,212133,1,2,2:2:0:0:
188,265,212211,5,6,2:2:0:0:
233,279,212290,1,6,2:2:0:0:
277,297,212369,1,6,2:2:0:0:
322,312,212448,1,6,2:2:0:0:
335,357,212527,5,2,2:2:0:0:
359,41,212685,1,2,2:2:0:0:
73,177,212843,1,6,2:2:0:0:
256,192,212922,12,0,214738,0:0:0:0:
244,12,225475,5,2,2:2:0:0:
245,19,225553,1,0,0:0:0:0:
245,27,225632,1,2,2:2:0:0:
246,34,225711,1,0,0:0:0:0:
246,42,225790,1,2,2:2:0:0:
247,49,225869,1,0,0:0:0:0:
247,57,225948,1,2,2:2:0:0:
248,64,226027,1,0,2:2:0:0:
249,72,226106,1,2,2:2:0:0:
249,79,226185,1,0,0:0:0:0:
250,87,226264,1,2,2:2:0:0:
250,94,226343,1,0,2:2:0:0:
251,102,226422,1,2,2:2:0:0:
251,109,226501,1,0,0:0:0:0:
252,117,226580,1,2,2:2:0:0:
253,124,226659,1,0,2:2:0:0:
253,131,226738,5,2,2:2:0:0:
245,144,226816,1,0,2:2:0:0:
238,157,226895,1,2,2:2:0:0:
230,170,226974,1,0,2:2:0:0:
223,183,227053,1,2,2:2:0:0:
215,196,227132,1,0,0:0:0:0:
208,209,227211,1,2,2:2:0:0:
201,222,227290,1,0,2:2:0:0:
193,235,227369,1,2,2:2:0:0:
186,248,227448,1,0,2:2:0:0:
179,261,227527,1,2,2:2:0:0:
171,274,227606,1,0,2:2:0:0:
164,287,227685,1,2,2:2:0:0:
157,300,227764,1,0,2:2:0:0:
150,314,227843,1,2,2:2:0:0:
142,327,227922,1,0,2:2:0:0:
135,340,228001,5,6,2:2:0:0:
158,333,228079,1,2,2:2:0:0:
181,327,228158,1,2,2:2:0:0:
204,320,228237,1,0,2:2:0:0:
227,314,228316,1,2,2:2:0:0:
250,308,228395,1,0,3:3:0:0:
273,301,228474,1,2,2:2:0:0:
296,295,228553,1,0,2:2:0:0:
320,289,228632,1,2,2:2:0:0:
343,282,228711,1,0,2:2:0:0:
366,276,228790,1,2,2:2:0:0:
389,269,228869,1,0,3:3:0:0:
412,263,228948,1,2,2:2:0:0:
435,257,229027,1,0,2:2:0:0:
458,250,229106,1,2,2:2:0:0:
482,244,229185,1,0,2:2:0:0:
503,238,229264,6,0,L|512:192,3,40,2|0|2|0,2:2|2:2|2:2|2:2,0:0:0:0:
472,96,229580,1,2,2:2:0:0:
420,82,229658,1,0,2:2:0:0:
370,66,229737,1,2,2:2:0:0:
319,49,229816,1,0,2:2:0:0:
288,4,229896,5,2,2:2:0:0:
278,50,229974,1,0,3:3:0:0:
268,97,230053,1,2,2:2:0:0:
258,145,230132,1,0,3:3:0:0:
249,192,230211,1,2,2:2:0:0:
240,239,230290,1,0,3:3:0:0:
231,286,230369,1,2,2:2:0:0:
223,333,230448,1,0,3:3:0:0:
212,376,230527,6,0,P|190:201|178:123,1,239.999992675781,6|2,2:2|2:2,0:0:0:0:
72,248,231001,1,2,2:2:0:0:
148,14,231159,5,2,2:2:0:0:
9,187,231317,1,2,2:2:0:0:
229,219,231475,1,2,2:2:0:0:
40,336,231633,1,2,2:2:0:0:
176,124,231790,5,2,2:2:0:0:
352,304,231948,2,0,B|391:284|391:284|432:289|432:289|470:271,1,119.999996337891,2|2,2:2|2:2,0:0:0:0:
488,184,232264,1,2,2:2:0:0:
284,372,232422,2,0,B|259:321|260:266|260:266|304:200|273:129,1,239.999992675781,2|2,2:2|2:2,0:0:0:0:
160,232,232896,1,2,2:2:0:0:
307,24,233054,5,6,2:2:0:0:
356,6,233132,1,2,2:2:0:0:
408,9,233211,1,2,2:2:0:0:
454,33,233290,1,2,2:2:0:0:
487,73,233369,1,2,2:2:0:0:
500,123,233448,1,2,2:2:0:0:
492,175,233527,1,2,2:2:0:0:
464,219,233606,1,2,2:2:0:0:
421,247,233685,5,2,2:2:0:0:
256,96,233843,1,2,2:2:0:0:
120,312,234001,5,2,2:2:0:0:
256,8,234159,1,6,2:2:0:0:
256,8,234475,5,6,2:2:0:0:
333,288,234633,2,0,B|276:264|276:264|213:279,1,119.999996337891,6|2,2:2|2:2,0:0:0:0:
140,336,234869,1,0,2:2:0:0:
107,322,234948,2,0,P|113:287|116:255,1,59.9999981689454,2|0,2:2|2:2,0:0:0:0:
107,62,235106,2,0,P|113:97|116:129,1,59.9999981689454,2|0,2:2|2:2,0:0:0:0:
315,109,235264,5,6,2:2:0:0:
315,109,235343,1,0,3:3:0:0:
315,109,235422,1,2,2:2:0:0:
315,109,235501,1,0,3:3:0:0:
315,109,235580,1,6,2:2:0:0:
197,275,235738,1,2,2:2:0:0:
208,64,235896,5,2,2:2:0:0:
304,320,236054,1,2,2:2:0:0:
128,200,236211,1,2,2:2:0:0:
224,360,236369,1,2,2:2:0:0:
315,109,236527,5,2,2:2:0:0:
376,360,236685,1,2,2:2:0:0:
488,24,236843,5,2,2:2:0:0:
456,320,237001,1,2,2:2:0:0:
405,34,237159,5,2,2:2:0:0:
384,276,237317,1,2,2:2:0:0:
322,44,237475,5,2,2:2:0:0:
312,232,237633,1,2,2:2:0:0:
239,54,237790,5,2,2:2:0:0:
240,188,237948,1,2,2:2:0:0:
240,188,238027,1,0,0:0:0:0:
240,188,238106,5,2,2:2:0:0:
460,236,238264,1,2,2:2:0:0:
132,311,238422,5,2,2:2:0:0:
312,232,238580,1,2,2:2:0:0:
148,116,238738,5,2,2:2:0:0:
232,356,238896,1,2,2:2:0:0:
328,129,239054,1,2,2:2:0:0:
24,160,239211,1,2,2:2:0:0:
76,372,239369,5,2,2:2:0:0:
177,52,239527,1,2,2:2:0:0:
192,41,239606,1,0,2:2:0:0:
207,30,239685,1,2,2:2:0:0:
304,296,239843,1,2,2:2:0:0:
376,64,240001,5,2,2:2:0:0:
224,376,240159,1,2,2:2:0:0:
296,8,240317,1,2,2:2:0:0:
472,352,240475,5,2,2:2:0:0:
472,352,240554,1,0,0:0:0:0:
472,352,240633,1,6,2:2:0:0:
256,192,240790,1,2,2:2:0:0:
320,368,240948,1,2,2:2:0:0:
472,160,241106,1,2,2:2:0:0:
224,272,241264,5,2,2:2:0:0:
320,16,241422,1,2,2:2:0:0:
392,320,241580,1,2,2:2:0:0:
240,88,241738,1,2,2:2:0:0:
144,352,241896,5,2,2:2:0:0:
336,104,242054,1,2,2:2:0:0:
120,264,242211,1,2,2:2:0:0:
16,16,242369,5,2,2:2:0:0:
16,16,242448,1,0,2:2:0:0:
16,16,242527,1,2,2:2:0:0:
56,328,242685,1,2,2:2:0:0:
176,40,242843,5,2,2:2:0:0:
0,264,243001,1,2,2:2:0:0:
320,88,243159,5,2,2:2:0:0:
192,296,243317,1,2,2:2:0:0:
232,32,243475,5,2,2:2:0:0:
280,352,243633,1,2,2:2:0:0:
352,0,243790,5,2,2:2:0:0:
160,384,243948,1,2,2:2:0:0:
488,24,244106,5,2,2:2:0:0:
24,360,244264,1,6,2:2:0:0:
24,360,244580,5,2,2:2:0:0:
200,88,244738,2,0,L|216:210,1,119.999996337891,2|2,2:2|2:2,0:0:0:0:
223,211,244975,1,0,2:2:0:0:
230,216,245054,1,6,2:2:0:0:
237,220,245133,1,0,3:3:0:0:
244,224,245211,1,2,2:2:0:0:
251,228,245290,1,0,3:3:0:0:
258,232,245369,5,2,2:2:0:0:
325,181,245448,5,0,3:3:0:0:
376,114,245527,5,2,2:2:0:0:
446,66,245606,5,0,3:3:0:0:
508,4,245685,6,0,P|414:33|290:62,1,209.999993591309,6|0,2:2|0:0,0:0:0:0:
264,24,246001,6,0,B|271:69|271:69|269:103|269:103|279:158,1,119.999996337891,2|2,2:2|2:2,0:0:0:0:
321,352,246317,1,2,2:2:0:0:
464,106,246475,1,2,2:2:0:0:
232,328,246633,1,2,2:2:0:0:
56,56,246790,5,2,2:2:0:0:
56,56,246869,1,0,0:0:0:0:
56,56,246948,2,0,L|184:67,1,119.999996337891,2|2,2:2|2:2,0:0:0:0:
276,142,247264,1,2,2:2:0:0:
48,352,247422,6,0,B|51:307|51:307|41:276|41:276|45:230,1,119.999996337891,2|2,2:2|2:2,0:0:0:0:
192,152,247738,1,2,2:2:0:0:
327,351,247896,1,2,2:2:0:0:
468,159,248054,1,2,2:2:0:0:
468,159,248133,1,0,2:2:0:0:
468,159,248211,2,0,L|306:192,1,119.999996337891,6|2,2:2|2:2,0:0:0:0:
136,302,248527,6,0,B|195:285|195:285|260:309,1,119.999996337891,2|2,2:2|2:2,0:0:0:0:
247,314,248764,1,0,0:0:0:0:
245,322,248843,1,2,2:2:0:0:
296,112,249001,5,2,2:2:0:0:
416,352,249159,1,2,2:2:0:0:
352,24,249317,1,6,2:2:0:0:
304,384,249633,5,2,2:2:0:0:
184,9,249790,1,2,2:2:0:0:
16,368,249948,5,6,2:2:0:0:
496,192,250264,5,2,2:2:0:0:
16,16,250580,6,0,L|-9:254,1,239.999992675781,6|2,2:2|2:2,0:0:0:0:
112,104,251054,1,2,2:2:0:0:
184,336,251211,1,2,2:2:0:0:
192,64,251369,5,2,2:2:0:0:
104,368,251527,1,2,2:2:0:0:
248,136,251685,1,2,2:2:0:0:
312,368,251843,1,2,2:2:0:0:
312,56,252001,5,2,2:2:0:0:
264,296,252159,1,2,2:2:0:0:
392,16,252317,1,2,2:2:0:0:
312,368,252475,1,2,2:2:0:0:
336,136,252633,5,2,2:2:0:0:
472,368,252790,1,2,2:2:0:0:
488,32,252948,1,2,2:2:0:0:
394,346,253106,1,2,2:2:0:0:
82,26,253264,6,0,B|80:112|24:144|24:144|43:196|55:240|55:240|-8:310|27:411,2,359.999989013672,6|2|2,2:2|2:2|2:2,0:0:0:0:
120,328,254054,1,2,2:2:0:0:
256,88,254211,1,2,2:2:0:0:
200,376,254369,1,2,2:2:0:0:
176,48,254527,5,6,2:2:0:0:
296,360,254685,1,2,2:2:0:0:
296,360,254764,1,0,3:3:0:0:
296,360,254843,1,2,2:2:0:0:
296,360,254922,1,0,3:3:0:0:
296,360,255001,1,2,2:2:0:0:
336,136,255159,5,2,2:2:0:0:
216,280,255317,1,2,2:2:0:0:
392,352,255475,1,2,2:2:0:0:
512,208,255633,1,2,2:2:0:0:
240,144,255790,6,0,P|157:159|75:169,1,139.999995727539,6|2,2:2|2:2,0:0:0:0:
48,320,256106,1,2,2:2:0:0:
0,40,256264,2,0,B|64:71|64:71|141:66,1,139.999995727539,2|2,2:2|2:2,0:0:0:0:
174,252,256580,5,2,2:2:0:0:
329,19,256738,1,2,2:2:0:0:
325,306,256896,1,2,2:2:0:0:
325,306,256975,1,0,0:0:0:0:
325,306,257054,1,6,2:2:0:0:
62,104,257211,6,0,B|68:151|68:151|60:192|60:192|66:244,1,139.999995727539,2|2,2:2|2:2,0:0:0:0:
200,360,257527,1,2,2:2:0:0:
312,128,257685,1,2,2:2:0:0:
169,267,257843,1,2,2:2:0:0:
120,24,258001,1,2,2:2:0:0:
256,216,258159,1,2,2:2:0:0:
252,25,258317,5,6,2:2:0:0:
260,359,258475,1,0,2:2:0:0:
375,53,258633,5,2,2:2:0:0:
137,331,258790,1,2,2:2:0:0:
131,59,258948,5,2,2:2:0:0:
381,325,259106,1,2,2:2:0:0:
264,0,259264,5,2,2:2:0:0:
248,384,259422,1,2,2:2:0:0:
448,64,259580,5,2,2:2:0:0:
448,64,259659,1,2,2:2:0:0:
448,64,259738,1,2,2:2:0:0:
448,64,259817,1,2,2:2:0:0:
448,64,259896,2,0,P|409:72|372:81,1,69.9999978637696,2|0,3:2|3:3,0:0:0:0:
64,192,260054,5,2,2:2:0:0:
64,192,260133,1,2,2:2:0:0:
64,192,260212,1,2,2:2:0:0:
64,192,260291,1,2,2:2:0:0:
64,192,260370,2,0,P|103:200|140:209,1,69.9999978637696,2|0,3:2|3:3,0:0:0:0:
409,380,260527,5,2,2:2:0:0:
409,380,260606,1,2,2:2:0:0:
409,380,260685,1,2,2:2:0:0:
409,380,260764,1,2,2:2:0:0:
