osu file format v14

[General]
AudioFilename: audio.mp3
AudioLeadIn: 0
PreviewTime: 80572
Countdown: 0
SampleSet: Soft
StackLeniency: 0.9
Mode: 0
LetterboxInBreaks: 0
WidescreenStoryboard: 1

[Editor]
Bookmarks: 14251,106620
DistanceSpacing: 0.4
BeatDivisor: 4
GridSize: 4
TimelineZoom: 1

[Metadata]
Title:Shinsekai no Alpha
TitleUnicode:新世界のα
Artist:Luna
ArtistUnicode:Luna
Creator:Fushimi Rio
Version:World Hitchhiker!
Source:アインシュタインより愛を込めて
Tags:Einstein Ainshutain yori aiwokomete GLOVETY World Hitchhiker! 2 水谷瑠奈 Mizutani Runa NanosizeMir 竹下智博 japanese pop visual novel galgame eroge
BeatmapID:2487630
BeatmapSetID:1191630

[Difficulty]
HPDrainRate:8
CircleSize:4.2
OverallDifficulty:9.1
ApproachRate:9.4
SliderMultiplier:1.6
SliderTickRate:1

[Events]
//Background and Video events
0,0,"cg_02.jpg",0,0
//Break Periods
//Storyboard Layer 0 (Background)
//Storyboard Layer 1 (Fail)
//Storyboard Layer 2 (Pass)
//Storyboard Layer 3 (Foreground)
//Storyboard Layer 4 (Overlay)
//Storyboard Sound Samples

[TimingPoints]
519,315.789473684211,4,2,1,30,1,0
519,-133.333333333333,4,2,1,30,0,0
8097,-166.666666666667,4,2,1,30,0,0
10624,-133.333333333333,4,2,1,50,0,0
30834,-100,4,2,1,60,0,0
32571,-100,4,2,0,60,0,0
36992,-100,4,2,1,60,0,0
45992,-75.00000001875,4,2,1,60,0,0
46308,-100,4,2,1,60,0,0
50729,-75.00000001875,4,2,1,60,0,0
51045,-100,4,2,1,60,0,0
61150,-133.333333333333,4,2,1,60,0,0
61782,-100,4,2,1,60,0,0
62571,-133.333333333333,4,2,1,60,0,0
63045,-100,4,2,1,60,0,0
63676,-133.333333333333,4,2,1,60,0,0
64150,-100,4,2,1,60,0,0
66203,-133.333333333333,4,2,1,60,0,0
71255,-200,4,2,1,50,0,0
73308,-133.333333333333,4,2,1,50,0,0
75992,-100,4,2,1,50,0,0
76308,-100,4,2,1,80,0,1
80097,-100,4,2,1,60,0,0
81361,-75.000000001875,4,2,1,80,0,1
81676,-100,4,2,1,80,0,1
87676,-75.00000001875,4,2,1,80,0,1
87992,-100,4,2,1,80,0,1
92729,-75,4,2,1,80,0,1
93045,-100,4,2,1,80,0,1
93992,-75,4,2,1,80,0,1
94308,-100,4,2,1,80,0,1
96361,-100,4,2,1,90,0,1
101571,-100,4,2,1,60,0,0
103308,-100,4,2,1,40,0,0
103387,-100,4,2,0,40,0,0
104097,-100,4,2,1,60,0,0
105676,-100,4,2,1,50,0,0
105992,-100,4,2,1,40,0,0
106308,-100,4,2,1,20,0,0

[Colours]
Combo1 : 255,226,128
Combo2 : 201,155,227
Combo3 : 234,170,149
Combo4 : 224,158,201

[HitObjects]
133,191,519,5,4,0:3:0:0:
133,40,834,5,2,0:0:0:0:
44,69,992,1,0,0:0:0:0:
44,162,1308,5,0,0:0:0:0:
186,115,1624,6,0,B|222:102|222:102|247:151|209:200,1,120.000004577637,2|0,0:0|0:0,0:0:0:0:
270,243,2097,2,0,P|308:268|388:266,2,120.000004577637,2|0|0,0:0|0:0|0:0,0:0:0:0:
221,181,3045,5,4,0:3:0:0:
132,303,3360,5,2,0:0:0:0:
221,332,3518,1,0,0:0:0:0:
274,257,3834,5,0,0:0:0:0:
132,210,4150,6,0,B|96:197|96:197|71:246|109:295,1,120.000004577637,2|0,0:0|0:0,0:0:0:0:
174,59,4624,1,2,0:0:0:0:
196,131,4782,2,0,B|167:138|167:138|82:106,2,120.000004577637,0|0|0,0:0|0:0|2:0,2:0:0:0:
268,109,5571,5,4,0:3:0:0:
246,37,6519,1,0,0:0:0:0:
192,107,6834,1,2,0:0:0:0:
241,179,7150,1,0,0:0:0:0:
326,155,7466,1,2,0:0:0:0:
328,66,7782,1,0,0:0:0:0:
246,36,8097,6,0,B|224:98|256:130|290:163|272:220,1,191.999994140625,4|0,0:3|0:0,0:0:0:0:
128,247,9045,5,0,0:0:0:0:
192,193,9203,1,0,0:0:0:0:
208,275,9361,1,4,0:0:0:0:
263,325,9834,5,2,0:0:0:0:
273,237,9992,1,0,0:0:0:0:
193,201,10150,1,0,0:0:0:0:
134,266,10308,1,0,0:1:0:0:
178,344,10466,1,0,0:0:0:0:
182,348,10545,1,0,0:0:0:0:
186,352,10624,6,0,B|239:337|243:373|302:356,1,120.000004577637,4|0,0:1|0:0,0:0:0:0:
363,229,11097,2,0,P|305:229|274:278,1,120.000004577637,0|0,3:0|0:0,0:0:0:0:
386,333,11571,1,0,3:0:0:0:
386,333,11729,1,0,0:0:0:0:
386,147,11887,5,0,0:0:0:0:
467,185,12045,2,0,P|443:237|386:246,1,120.000004577637,0|0,3:0|0:0,0:0:0:0:
269,210,12519,2,0,P|213:225|184:271,1,60.0000022888184,0|0,3:0|0:0,0:0:0:0:
304,278,12834,1,0,0:0:0:0:
309,256,12912,1,0,0:0:0:0:
308,234,12991,1,0,0:0:0:0:
299,213,13070,1,0,0:0:0:0:
284,197,13150,6,0,P|272:140|312:99,1,120.000004577637,4|0,3:0|0:0,0:0:0:0:
396,137,13624,2,0,B|428:154|428:154|464:113|446:57,1,120.000004577637,0|0,3:0|0:0,0:0:0:0:
416,5,14097,1,0,3:0:0:0:
332,193,14255,6,0,B|279:208|275:172|216:189,1,120.000004577637
148,230,14729,1,0,3:0:0:0:
148,230,15045,2,0,P|90:229|50:192,1,60.0000022888184,0|0,3:0|0:0,0:0:0:0:
163,156,15360,1,0,0:0:0:0:
174,176,15440,1,0,0:0:0:0:
178,197,15519,1,0,0:0:0:0:
175,220,15597,1,0,0:0:0:0:
167,238,15676,1,0,3:0:0:0:
171,242,15992,5,0,0:0:0:0:
171,242,16150,2,0,P|181:294|237:328,1,120.000004577637,0|0,3:0|0:0,0:0:0:0:
311,310,16624,2,0,B|336:255|336:255|382:292,1,120.000004577637,0|0,3:0|0:0,0:0:0:0:
458,273,17097,2,0,P|487:222|470:166,1,120.000004577637,0|0,3:0|0:0,0:0:0:0:
415,213,17571,1,0,3:0:0:0:
343,222,17887,5,0,0:0:0:0:
325,224,17966,1,0,0:0:0:0:
307,226,18045,1,0,0:0:0:0:
289,228,18124,1,0,0:0:0:0:
271,230,18203,2,0,P|220:201|207:144,1,120.000004577637,0|0,3:0|0:0,0:0:0:0:
118,153,18676,2,0,P|118:211|75:251,1,120.000004577637,0|0,3:0|0:0,0:0:0:0:
37,152,19150,2,0,B|15:95|15:95|74:89,1,120.000004577637,0|0,3:0|0:0,0:0:0:0:
138,143,19624,1,0,3:0:0:0:
106,19,19940,5,0,0:0:0:0:
138,143,20097,2,0,L|220:133,1,60.0000022888184,0|0,3:0|0:0,0:0:0:0:
267,96,20413,1,2,0:0:0:0:
307,166,20571,1,0,0:0:0:0:
238,207,20729,6,0,B|261:244|261:244|343:253,1,120.000004577637,4|0,0:3|0:0,0:0:0:0:
385,372,21203,2,0,B|362:335|362:335|280:326,1,120.000004577637,0|2,0:0|0:0,0:0:0:0:
208,316,21676,1,0,0:0:0:0:
146,363,21834,1,0,0:0:0:0:
68,350,21992,2,0,P|28:288|43:216,1,120.000004577637,2|0,0:0|0:0,0:0:0:0:
100,208,22466,2,0,B|141:194|141:194|210:240,2,120.000004577637
73,134,23255,5,4,0:3:0:0:
322,138,23571,1,0,0:0:0:0:
322,138,23729,2,0,P|299:207|332:272,1,120.000004577637,2|0,0:0|0:0,0:0:0:0:
376,293,24203,1,0,0:0:0:0:
451,276,24361,1,2,0:0:0:0:
481,203,24519,1,0,0:0:0:0:
485,32,24834,1,0,0:0:0:0:
485,32,24992,2,0,P|498:89|476:141,1,60.0000022888184,2|0,0:0|0:0,0:0:0:0:
355,142,25308,2,0,P|332:72|365:7,1,120.000004577637
417,80,25782,5,4,0:3:0:0:
377,283,26097,1,0,0:0:0:0:
221,146,26413,1,0,0:0:0:0:
296,157,26729,1,2,0:0:0:0:
246,218,26887,1,0,0:0:0:0:
170,203,27045,1,2,0:0:0:0:
144,129,27203,2,0,P|114:104|95:98,1,60.0000022888184
36,213,27519,2,0,P|67:191|78:173,1,60.0000022888184
89,271,27834,2,0,P|137:325|210:329,1,120.000004577637,2|0,0:0|0:0,0:0:0:0:
280,258,28308,5,4,0:3:0:0:
356,271,28466,2,0,P|367:298|369:328,1,60.0000022888184
280,258,28782,1,0,0:0:0:0:
280,258,29097,2,0,B|268:206|307:176|307:176|331:199,2,120.000004577637,0|2|0,0:0|0:0|0:0,0:0:0:0:
284,262,30045,1,0,0:0:0:0:
288,266,30361,5,0,0:0:0:0:
263,340,30519,2,0,P|239:358|211:367,1,60.0000022888184,0|0,3:0|0:0,0:0:0:0:
374,265,30834,6,0,P|441:283|460:385,2,160,4|0|0,3:1|3:0|3:0,0:0:0:0:
285,271,31624,1,0,0:0:0:0:
386,242,31782,2,0,L|485:211,1,80,0|0,3:0|0:0,0:0:0:0:
351,94,32097,6,0,B|313:73|313:73|275:123|308:187,1,160,4|0,3:2|3:0,0:0:0:0:
215,103,32571,2,0,P|176:92|137:99,1,80,8|0,0:3|3:0,0:0:0:0:
135,203,32887,2,0,P|173:213|213:206,1,80,4|0,0:3|3:0,0:0:0:0:
219,107,33203,1,4,0:3:0:0:
116,286,33361,6,0,P|46:285|1:192,2,160,4|0|0,3:1|3:0|3:0,0:0:0:0:
171,217,34150,1,0,0:0:0:0:
196,327,34308,1,0,3:0:0:0:
279,251,34466,1,0,0:0:0:0:
283,255,34545,1,0,0:0:0:0:
287,259,34624,5,4,0:0:0:0:
374,366,34782,2,0,B|390:321|390:321|279:350,2,160,8|4|0,0:3|0:3|0:0,0:0:0:0:
287,259,35571,1,0,3:0:0:0:
374,366,35729,1,0,3:0:0:0:
424,238,35887,6,0,P|424:198|406:161,1,80,4|0,3:1|0:0,0:0:0:0:
334,24,36203,2,0,P|353:58|387:81,1,80,0|0,3:0|0:0,0:0:0:0:
491,97,36519,2,0,P|457:77|416:74,1,80,0|2,3:0|0:0,0:0:0:0:
332,140,36755,2,0,P|328:159|329:179,1,40,0|0,3:0|3:0,0:0:0:0:
260,61,36992,6,0,B|237:98|237:98|155:107,1,120,4|0,0:0|0:0,0:0:0:0:
141,109,37308,1,0,3:0:0:0:
225,201,37466,2,0,P|262:211|302:203,1,80,0|0,3:3|0:0,0:0:0:0:
145,324,37782,2,0,P|137:285|148:246,1,80,0|0,3:0|0:0,0:0:0:0:
299,295,38097,1,0,3:0:0:0:
294,314,38175,1,0,3:0:0:0:
286,332,38254,1,0,3:0:0:0:
273,347,38333,1,0,3:0:0:0:
257,360,38412,5,4,1:0:0:0:
299,275,38571,1,0,0:0:0:0:
351,353,38729,1,0,3:0:0:0:
393,268,38887,1,0,3:0:0:0:
464,351,39045,5,0,3:0:0:0:
401,257,39203,1,0,3:0:0:0:
351,359,39361,1,0,3:0:0:0:
289,265,39519,1,0,3:0:0:0:
238,367,39676,5,4,0:0:0:0:
166,153,39834,1,0,3:0:0:0:
76,336,39992,5,0,1:0:0:0:
250,277,40150,1,0,3:0:0:0:
103,205,40308,6,0,P|112:243|138:273,1,80,4|0,1:0|0:0,0:0:0:0:
415,38,40624,5,0,3:0:0:0:
420,57,40703,1,0,3:0:0:0:
422,76,40782,1,0,3:0:0:0:
419,96,40861,1,0,3:0:0:0:
410,115,40940,6,0,P|361:146|302:142,1,120,4|0,0:0|0:0,0:0:0:0:
229,116,41255,2,0,P|191:125|161:151,1,80,0|0,1:0|0:0,0:0:0:0:
153,172,41492,1,0,0:0:0:0:
153,172,41571,1,0,3:0:0:0:
118,78,41729,5,0,3:3:0:0:
70,234,41887,1,0,1:0:0:0:
229,197,42045,1,0,0:0:0:0:
67,147,42203,5,0,3:3:0:0:
155,243,42361,1,0,0:0:0:0:
193,118,42519,1,0,1:0:0:0:
274,197,42676,5,0,0:0:0:0:
274,197,42755,1,0,0:0:0:0:
274,197,42834,2,0,B|294:230|294:230|334:235,1,80
400,125,43150,2,0,B|379:91|379:91|339:86,1,80,0|0,1:0|0:0,0:0:0:0:
406,294,43466,6,0,P|479:272|504:199,2,160,0|0|0,3:1|1:0|3:0,0:0:0:0:
335,235,44255,1,0,3:0:0:0:
335,235,44413,2,0,L|312:313,1,80,0|0,1:0|0:0,0:0:0:0:
152,212,44729,6,0,P|181:185|220:176,1,80,0|0,3:0|0:0,0:0:0:0:
106,346,45045,2,0,P|79:316|70:277,1,80,0|0,1:0|0:0,0:0:0:0:
70,277,45282,1,0,0:0:0:0:
70,277,45361,1,0,0:0:0:0:
218,257,45519,1,0,3:0:0:0:
50,195,45676,1,0,1:0:0:0:
81,370,45834,1,0,0:0:0:0:
115,120,45992,6,0,B|84:90|84:90|34:129|50:199,1,160,4|0,0:1|0:0,0:0:0:0:
50,297,46308,2,0,P|49:258|36:220,1,80,0|0,1:0|0:0,0:0:0:0:
36,220,46544,1,0,3:0:0:0:
36,220,46623,1,0,3:0:0:0:
170,281,46782,1,0,3:0:0:0:
245,113,46940,1,0,1:0:0:0:
184,248,47097,1,0,0:0:0:0:
183,53,47255,6,0,B|98:41|98:41|115:70,1,120,2|0,0:0|0:0,0:0:0:0:
260,81,47571,2,0,P|262:42|247:4,1,80,0|0,1:0|0:0,0:0:0:0:
197,132,47887,1,0,3:0:0:0:
352,77,48045,1,0,0:0:0:0:
352,77,48124,1,0,0:0:0:0:
352,77,48203,1,0,1:0:0:0:
322,238,48361,1,0,0:0:0:0:
429,127,48519,5,4,0:0:0:0:
396,304,48676,1,0,3:0:0:0:
258,187,48835,1,0,1:0:0:0:
429,127,48993,1,0,0:0:0:0:
236,287,49150,5,0,3:0:0:0:
458,209,49308,1,0,3:0:0:0:
234,91,49466,5,0,1:0:0:0:
429,127,49624,1,0,0:0:0:0:
109,287,49782,5,0,3:1:0:0:
375,193,49940,1,0,3:0:0:0:
204,11,50097,5,0,1:2:0:0:
169,364,50255,1,0,1:2:0:0:
169,364,50571,1,0,0:0:0:0:
192,118,50729,6,0,B|161:88|161:88|111:127|127:197,1,160,4|0,1:0|0:0,0:0:0:0:
176,259,51045,6,0,B|236:276|240:240|293:255,1,120,4|0,0:0|0:0,0:0:0:0:
344,197,51361,2,0,P|323:231|322:271,1,80,0|0,1:0|0:0,0:0:0:0:
332,292,51597,1,0,3:0:0:0:
332,292,51676,1,0,3:0:0:0:
287,141,51834,1,0,0:0:0:0:
398,253,51992,1,0,1:0:0:0:
440,101,52150,1,0,0:0:0:0:
310,229,52308,5,0,3:0:0:0:
462,189,52466,1,0,3:0:0:0:
352,76,52624,1,0,1:0:0:0:
352,76,52782,2,0,P|347:114|361:151,1,80,0|0,0:0|3:0,0:0:0:0:
132,51,53097,1,0,0:0:0:0:
213,85,53255,2,0,P|248:69|273:38,1,80,0|0,1:0|0:0,0:0:0:0:
192,227,53571,6,0,P|170:154|99:130,1,120,2|0,3:2|0:0,0:0:0:0:
106,290,53887,2,0,P|144:283|176:260,1,80,0|0,1:0|0:0,0:0:0:0:
184,250,54124,1,0,3:0:0:0:
189,239,54203,1,0,3:0:0:0:
28,234,54361,1,0,3:0:0:0:
128,109,54519,1,0,1:0:0:0:
11,131,54676,5,0,3:0:0:0:
128,109,54834,1,0,0:0:0:0:
49,23,54992,1,0,0:0:0:0:
170,195,55150,5,0,1:0:0:0:
215,65,55308,1,2,3:2:0:0:
242,283,55466,5,2,0:0:0:0:
322,49,55624,1,0,3:0:0:0:
484,235,55782,1,0,1:0:0:0:
349,189,55940,5,0,0:0:0:0:
349,189,56019,1,0,0:0:0:0:
348,189,56097,2,0,P|351:149|372:115,1,80,4|0,0:1|0:0,0:0:0:0:
278,258,56413,2,0,P|238:255|204:234,1,80,0|0,1:0|0:0,0:0:0:0:
150,176,56650,1,0,0:0:0:0:
134,163,56729,2,0,P|94:162|58:179,1,80,0|0,3:0|0:0,0:0:0:0:
229,139,57045,2,0,L|263:57,1,80,0|0,1:0|0:0,0:0:0:0:
151,314,57361,5,0,3:0:0:0:
268,231,57519,1,0,3:0:0:0:
138,172,57676,1,0,1:0:0:0:
233,306,57834,1,0,0:0:0:0:
328,178,57992,6,0,P|345:213|344:253,1,80,0|0,3:0|0:0,0:0:0:0:
276,77,58308,2,0,P|278:37|299:3,1,80,0|0,1:0|0:0,0:0:0:0:
462,160,58624,6,0,B|391:180|385:131|305:154,1,160,4|0,0:0|1:0,0:0:0:0:
345,239,59097,1,0,0:0:0:0:
408,54,59255,6,0,B|327:31|322:79|251:59,1,160,4|0,3:1|1:0,0:0:0:0:
368,138,59729,1,0,0:0:0:0:
183,10,59887,5,4,0:0:0:0:
124,304,60045,1,0,1:0:0:0:
87,57,60203,5,0,1:0:0:0:
219,256,60361,1,0,3:0:0:0:
63,162,60519,5,4,1:0:0:0:
63,162,60624,2,0,P|38:165|13:176,1,53.3333333333333,0|0,1:0|3:0,0:0:0:0:
224,163,60834,1,8,3:0:0:0:
224,163,60940,2,0,P|239:143|249:117,1,53.3333333333333,0|0,3:3|3:0,0:0:0:0:
129,234,61150,6,0,P|128:277|181:345,1,120,4|0,0:1|0:0,0:0:0:0:
170,338,61624,1,0,0:0:0:0:
276,255,61782,2,0,P|315:242|359:244,1,80,0|0,1:0|0:0,0:0:0:0:
353,242,62256,5,0,3:0:0:0:
353,242,62335,1,0,3:0:0:0:
353,242,62413,1,0,3:0:0:0:
482,102,62571,6,0,P|483:145|430:213,1,120,0|0,1:0|0:0,0:0:0:0:
352,59,63045,2,0,P|388:45|428:45,1,80,0|0,1:0|0:0,0:0:0:0:
324,150,63361,1,2,0:0:0:0:
270,13,63519,1,0,0:0:0:0:
208,196,63676,6,0,P|150:192|104:155,1,120,4|0,0:1|0:0,0:0:0:0:
103,154,64150,1,0,0:0:0:0:
289,247,64308,2,0,P|301:210|301:170,1,80,0|0,1:0|0:0,0:0:0:0:
212,200,64624,5,0,3:0:0:0:
386,225,64782,1,0,3:0:0:0:
311,125,65097,5,0,1:0:0:0:
286,299,65255,1,0,3:0:0:0:
460,324,65413,1,0,3:0:0:0:
485,150,65571,1,0,1:0:0:0:
485,150,66203,6,0,P|486:193|433:261,1,120,4|0,0:0|0:0,0:0:0:0:
443,254,66677,1,0,0:0:0:0:
377,193,66834,2,0,P|338:180|294:182,1,60.0000022888184,0|0,1:0|0:0,0:0:0:0:
244,131,67150,1,0,0:0:0:0:
190,265,67308,5,0,3:0:0:0:
190,265,67387,1,0,3:0:0:0:
190,265,67466,2,0,P|203:226|201:182,1,60.0000022888184,2|0,0:0|0:0,0:0:0:0:
105,296,67782,2,0,P|66:282|22:284,1,60.0000022888184
176,350,68097,1,0,1:0:0:0:
185,378,68255,1,0,0:0:0:0:
248,313,68413,1,0,0:0:0:0:
336,294,68571,1,0,0:0:0:0:
420,324,68729,6,0,P|486:293|472:187,1,180.000006866455,4|0,0:1|0:0,0:0:0:0:
442,134,69361,2,0,P|432:106|431:73,1,60.0000022888184,0|0,1:0|0:0,0:0:0:0:
512,91,69676,1,0,0:0:0:0:
442,134,69834,1,0,0:0:0:0:
362,26,69992,5,4,0:0:0:0:
322,200,70150,1,0,1:0:0:0:
228,49,70308,5,0,1:0:0:0:
402,89,70466,1,0,0:0:0:0:
230,319,70624,5,4,1:0:0:0:
278,110,70782,1,0,3:0:0:0:
390,291,70940,5,0,3:0:0:0:
181,243,71098,1,0,3:0:0:0:
428,169,71255,5,4,0:3:0:0:
445,164,71413,1,0,0:0:0:0:
463,159,71571,1,0,0:0:0:0:
480,154,71729,1,0,0:0:0:0:
357,190,72045,6,0,L|317:201,2,40,0|2|0,0:0|0:0|0:0,0:0:0:0:
434,165,72519,5,4,0:3:0:0:
434,85,72676,1,0,0:0:0:0:
357,60,72834,1,0,0:0:0:0:
310,125,72992,1,0,0:0:0:0:
434,84,73308,6,0,P|449:72|474:39,2,60.0000022888184,0|2|0,0:0|0:0|0:0,0:0:0:0:
310,125,73782,6,0,P|254:117|207:64,1,120.000004577637,4|0,0:3|0:0,0:0:0:0:
379,67,74255,2,0,P|392:93|397:123,1,60.0000022888184
284,170,74571,2,0,P|285:140|295:111,1,60.0000022888184,2|0,0:0|0:0,0:0:0:0:
292,246,74887,1,2,0:0:0:0:
221,216,75045,5,0,0:0:0:0:
284,170,75203,1,0,0:0:0:0:
260,244,75361,1,0,0:0:0:0:
236,170,75519,1,0,0:0:0:0:
299,216,75676,1,0,3:3:0:0:
303,220,75992,6,0,P|323:181|326:145,1,80,4|0,1:1|0:0,0:0:0:0:
209,292,76308,5,4,1:0:0:0:
277,31,76466,1,0,3:0:0:0:
331,316,76624,5,0,1:0:0:0:
154,7,76782,1,0,3:0:0:0:
394,201,76940,5,0,1:0:0:0:
91,120,77097,1,0,3:0:0:0:
448,108,77255,5,0,1:0:0:0:
40,215,77413,1,0,3:0:0:0:
333,2,77571,5,4,1:2:0:0:
153,322,77729,1,0,3:0:0:0:
356,136,77887,5,0,1:0:0:0:
126,187,78045,1,0,3:0:0:0:
395,246,78203,5,0,1:0:0:0:
92,74,78361,1,0,3:0:0:0:
280,306,78519,5,0,1:0:0:0:
210,17,78676,1,0,3:0:0:0:
72,188,78834,5,4,1:0:0:0:
83,193,78913,1,0,3:0:0:0:
103,195,78992,1,0,3:0:0:0:
128,190,79071,1,0,3:0:0:0:
153,177,79150,1,0,1:0:0:0:
171,148,79229,1,0,3:0:0:0:
174,110,79308,1,0,3:0:0:0:
156,72,79387,1,0,0:0:0:0:
134,95,79466,5,4,1:2:0:0:
116,149,79545,5,0,3:0:0:0:
124,214,79624,5,0,3:0:0:0:
154,278,79703,5,0,3:0:0:0:
205,332,79782,5,0,3:1:0:0:
281,354,79861,5,0,3:0:0:0:
364,346,79940,5,0,3:0:0:0:
447,307,80019,5,0,3:0:0:0:
512,235,80097,5,0,1:3:0:0:
49,349,80729,6,0,L|132:349,1,80,0|0,0:1|3:0,0:0:0:0:
141,361,80966,1,0,3:0:0:0:
150,374,81045,2,0,P|219:342|279:351,1,120,0|0,1:0|0:0,0:0:0:0:
292,339,81361,6,0,B|323:369|323:369|373:330|357:260,1,160,4|0,0:0|0:0,0:0:0:0:
357,162,81676,2,0,P|358:201|371:239,1,80,0|0,1:2|0:0,0:0:0:0:
371,239,81913,1,0,3:0:0:0:
371,239,81992,1,0,3:0:0:0:
265,151,82150,1,0,0:0:0:0:
435,90,82308,1,0,1:0:0:0:
241,160,82466,1,0,0:0:0:0:
302,38,82624,5,0,3:0:0:0:
364,209,82782,1,0,3:0:0:0:
464,79,82940,2,0,P|459:35|442:3,1,80,0|0,1:0|0:0,0:0:0:0:
364,209,83255,6,0,P|399:235|435:242,1,80,0|0,3:0|0:0,0:0:0:0:
245,195,83571,2,0,P|230:236|232:272,1,80,0|0,1:3|0:3,0:3:0:0:
312,126,83887,6,0,P|228:102|176:124,1,120,4|0,3:1|0:0,0:0:0:0:
99,140,84203,2,0,P|138:143|175:131,1,80,0|0,1:0|0:0,0:0:0:0:
25,82,84519,1,0,3:0:0:0:
129,224,84676,1,0,3:0:0:0:
128,46,84834,1,0,1:0:0:0:
26,189,84992,1,0,0:0:0:0:
30,193,85071,1,0,0:0:0:0:
34,197,85150,5,0,3:0:0:0:
179,134,85308,1,0,3:0:0:0:
65,274,85466,1,0,1:0:0:0:
210,212,85624,1,0,0:0:0:0:
56,299,85782,6,0,P|42:336|41:376,1,80,0|0,3:1|0:0,0:0:0:0:
118,200,86097,2,0,P|80:186|40:185,1,80,0|0,1:0|0:0,0:0:0:0:
154,363,86413,6,0,P|192:359|231:238,2,160,4|0|0,0:1|1:0|3:0,0:0:0:0:
228,229,87203,1,0,3:0:0:0:
324,341,87361,2,0,P|363:334|399:314,1,80,0|0,1:0|0:0,0:0:0:0:
399,173,87676,6,0,B|368:143|368:143|318:182|334:252,1,160,4|0,0:3|0:0,0:0:0:0:
475,270,87992,2,0,P|489:231|489:191,1,80,0|0,1:0|0:0,0:0:0:0:
388,60,88308,1,0,3:0:0:0:
512,108,88466,1,0,3:0:0:0:
356,74,88624,1,0,1:0:0:0:
499,20,88782,1,0,0:0:0:0:
365,178,88940,5,4,0:0:0:0:
300,6,89097,1,0,0:0:0:0:
223,212,89255,2,0,P|217:171|225:132,1,80,0|0,1:0|0:0,0:0:0:0:
225,133,89492,1,0,3:0:0:0:
225,133,89571,1,0,3:0:0:0:
53,198,89729,1,0,3:0:0:0:
53,197,90045,6,0,B|120:158|120:158|111:76,1,160,4|0,1:0|0:0,0:0:0:0:
234,212,90519,2,0,L|225:132,1,80,0|0,1:0|0:0,0:0:0:0:
136,286,90834,1,0,3:0:0:0:
125,190,90992,1,0,3:0:0:0:
261,332,91150,1,0,1:0:0:0:
261,332,91229,1,0,3:0:0:0:
261,332,91308,1,0,3:0:0:0:
261,332,91387,1,0,3:0:0:0:
261,332,91466,6,0,P|298:337|367:231,1,160,4|0,0:0|1:0,0:0:0:0:
290,138,91940,1,0,0:0:0:0:
274,162,92019,1,0,0:0:0:0:
270,191,92097,1,0,3:0:0:0:
411,123,92255,1,0,3:0:0:0:
208,63,92413,1,0,1:0:0:0:
276,221,92571,1,0,0:0:0:0:
325,43,92729,6,0,B|362:22|362:22|399:68|369:133,1,160,4|0,0:3|0:0,0:0:0:0:
355,153,93045,1,0,1:0:0:0:
475,106,93203,2,0,L|513:91,2,40,0|0|0,0:0|0:0|3:0,0:0:0:0:
277,184,93519,1,0,3:0:0:0:
332,43,93676,1,0,1:0:0:0:
421,206,93834,1,0,0:0:0:0:
253,93,93992,6,0,B|222:63|222:63|172:102|188:172,1,160,4|0,0:1|0:0,0:0:0:0:
174,258,94308,2,0,P|173:219|160:181,1,80,0|0,1:0|0:0,0:0:0:0:
159,180,94545,1,0,3:0:0:0:
159,180,94624,1,0,3:0:0:0:
269,222,94782,5,0,3:0:0:0:
75,154,94940,1,0,1:0:0:0:
114,357,95097,1,4,0:0:0:0:
114,357,95413,5,0,0:0:0:0:
141,215,95571,1,4,1:0:0:0:
6,263,95729,1,0,0:0:0:0:
224,229,95887,5,0,1:0:0:0:
116,135,96045,1,0,3:0:0:0:
130,337,96203,2,0,L|209:330,1,80,0|0,1:0|3:0,0:0:0:0:
213,334,96440,5,0,3:0:0:0:
217,338,96519,1,4,3:2:0:0:
305,262,96676,1,0,0:0:0:0:
326,375,96834,1,0,1:0:0:0:
389,180,96992,5,0,3:0:0:0:
389,180,97071,1,0,3:0:0:0:
389,180,97150,1,4,3:1:0:0:
412,304,97308,1,0,0:0:0:0:
507,219,97466,1,0,1:0:0:0:
336,99,97624,5,0,3:0:0:0:
336,99,97703,1,0,3:0:0:0:
336,99,97782,1,4,3:2:0:0:
469,143,97940,1,0,0:0:0:0:
442,10,98097,1,0,1:0:0:0:
359,238,98255,5,0,3:0:0:0:
359,238,98334,1,0,3:0:0:0:
359,238,98413,1,4,3:1:0:0:
329,92,98571,1,0,0:0:0:0:
213,190,98729,1,0,1:0:0:0:
385,157,98887,1,0,3:0:0:0:
253,309,99045,5,4,1:0:0:0:
379,47,99203,1,0,0:0:0:0:
234,324,99361,5,0,1:0:0:0:
264,20,99519,1,0,0:0:0:0:
223,345,99676,5,0,1:0:0:0:
143,34,99834,1,0,0:0:0:0:
224,375,99992,5,0,1:0:0:0:
35,99,100150,2,0,B|-3:81|-3:81|-37:134|0:194,1,160,4|0,0:2|3:0,0:0:0:0:
120,108,100624,5,0,1:0:0:0:
51,269,100782,1,0,0:0:0:0:
51,269,100861,1,0,3:0:0:0:
51,269,100940,1,0,3:0:0:0:
269,148,101097,1,0,3:0:0:0:
35,99,101255,5,4,1:0:0:0:
285,345,101413,1,0,3:0:0:0:
374,5,101571,1,4,0:2:0:0:
310,72,101887,5,0,3:0:0:0:
399,94,102203,1,0,3:0:0:0:
374,5,102519,1,0,3:0:0:0:
310,72,102834,5,0,3:0:0:0:
335,161,102992,1,8,0:3:0:0:
332,180,103071,1,0,3:0:0:0:
323,197,103150,1,0,0:0:0:0:
190,162,103308,2,0,P|204:87|277:62,2,160,4|4|4,3:0|0:3|0:3,0:0:0:0:
263,137,104097,5,4,0:1:0:0:
240,226,104413,1,0,3:0:0:0:
174,163,104729,1,0,3:0:0:0:
263,137,105045,1,0,3:0:0:0:
240,226,105361,5,0,1:0:0:0:
244,230,105466,2,0,P|246:263|253:282,1,53.3333333333333,0|0,3:0|3:0,0:0:0:0:
342,286,105676,1,0,0:0:0:0:
342,286,105782,2,0,P|374:294|394:293,1,53.3333333333333,0|0,3:0|3:0,0:0:0:0:
267,120,105992,6,0,P|236:132|220:144,2,53.3333333333333,0|0|0,3:0|3:0|3:0,0:0:0:0:
380,108,106308,2,0,P|358:82|342:71,2,53.3333333333333,0|0|0,3:0|3:0|3:0,0:0:0:0:
425,210,106624,5,4,0:0:0:0:
