osu file format v14

[General]
AudioFilename: audio.mp3
AudioLeadIn: 0
PreviewTime: 80572
Countdown: 0
SampleSet: Soft
StackLeniency: 0.6
Mode: 0
LetterboxInBreaks: 0
WidescreenStoryboard: 1

[Editor]
Bookmarks: 91470
DistanceSpacing: 1.1
BeatDivisor: 2
GridSize: 16
TimelineZoom: 1

[Metadata]
Title:Shinsekai no Alpha
TitleUnicode:新世界のα
Artist:Luna
ArtistUnicode:Luna
Creator:Fushimi Rio
Version:Normal
Source:アインシュタインより愛を込めて
Tags:Einstein Ainshutain yori aiwokomete GLOVETY World Hitchhiker! 2 水谷瑠奈 Mizutani Runa NanosizeMir 竹下智博 japanese pop visual novel galgame eroge
BeatmapID:2483157
BeatmapSetID:1191630

[Difficulty]
HPDrainRate:4
CircleSize:3.5
OverallDifficulty:5
ApproachRate:6
SliderMultiplier:1
SliderTickRate:1

[Events]
//Background and Video events
0,0,"cg_03.jpg",0,0
//Break Periods
2,71455,74942
//Storyboard Layer 0 (Background)
//Storyboard Layer 1 (Fail)
//Storyboard Layer 2 (Pass)
//Storyboard Layer 3 (Foreground)
//Storyboard Layer 4 (Overlay)
//Storyboard Sound Samples

[TimingPoints]
519,315.789473684211,4,2,1,30,1,0
10624,-100,4,2,1,50,0,0
30834,-100,4,2,1,60,0,0
45992,-100,4,2,1,60,0,0
46308,-100,4,2,1,60,0,0
50729,-100,4,2,1,60,0,0
51045,-100,4,2,1,60,0,0
61150,-100,4,2,1,60,0,0
61782,-100,4,2,1,60,0,0
62571,-100,4,2,1,60,0,0
63045,-100,4,2,1,60,0,0
63676,-100,4,2,1,60,0,0
64150,-100,4,2,1,60,0,0
66203,-100,4,2,1,60,0,0
71255,-100,4,2,1,50,0,0
73308,-100,4,2,1,50,0,0
75992,-100,4,2,1,50,0,1
76308,-100,4,2,1,80,0,1
80097,-100,4,2,1,60,0,0
81361,-100,4,2,1,80,0,1
81676,-100,4,2,1,80,0,1
87676,-100,4,2,1,80,0,1
87992,-100,4,2,1,80,0,1
92729,-100,4,2,1,80,0,1
93045,-100,4,2,1,80,0,1
93992,-100,4,2,1,80,0,1
94308,-100,4,2,1,80,0,1
96361,-100,4,2,1,90,0,1
101571,-100,4,2,1,60,0,0
105676,-100,4,2,1,50,0,0
105992,-100,4,2,1,40,0,0
106308,-100,4,2,1,20,0,0

[Colours]
Combo1 : 255,226,128
Combo2 : 201,155,227
Combo3 : 234,170,149
Combo4 : 224,158,201

[HitObjects]
169,84,9992,6,0,P|203:119|250:133,1,100,4|0,0:3|0:0,0:0:0:0:
349,129,10624,6,0,P|320:61|252:32,2,150,4|0|0,0:1|3:0|3:0,0:0:0:0:
326,226,11887,2,0,B|420:243|425:158|513:173,1,200,0|0,0:0|3:0,0:0:0:0:
494,271,12834,1,0,0:0:0:0:
442,356,13150,6,0,P|369:364|310:320,2,150,4|0|0,3:0|3:0|3:0,0:0:0:0:
494,271,14413,2,0,P|447:187|351:177,1,200,0|0,0:0|3:0,0:0:0:0:
264,227,15361,1,0,0:0:0:0:
247,325,15676,5,0,3:0:0:0:
75,56,16940,2,0,B|53:98|53:98|52:151,1,100,0|0,0:0|0:0,0:0:0:0:
149,125,17571,2,0,B|170:83|170:83|171:30,1,100,0|0,3:0|0:0,0:0:0:0:
260,76,18203,6,0,P|330:108|433:84,2,150,0|0|0,3:0|3:0|3:0,0:0:0:0:
216,165,19466,2,0,P|128:175|143:263,1,200,0|0,0:0|3:0,0:0:0:0:
243,263,20413,2,0,L|355:263,1,100,2|4,0:0|0:3,0:0:0:0:
475,112,21361,5,0,0:0:0:0:
405,42,21677,1,0,0:0:0:0:
379,138,21992,1,2,0:0:0:0:
184,184,22624,1,0,0:0:0:0:
48,37,23255,6,0,B|37:86|37:86|97:182,2,150,4|2|0,0:3|0:0|0:0,0:0:0:0:
142,69,24519,1,0,0:0:0:0:
5,214,25150,1,0,0:0:0:0:
200,261,25782,6,0,L|311:261,1,100,4|0,0:3|0:0,0:0:0:0:
349,173,26413,2,0,L|249:173,1,100,0|2,0:0|0:0,0:0:0:0:
148,173,27045,1,2,0:0:0:0:
248,347,27676,1,0,0:0:0:0:
349,172,28308,5,4,0:3:0:0:
349,172,28466,1,0,0:0:0:0:
454,204,28782,2,0,B|441:252|441:252|395:271,1,100,0|0,0:3|0:0,0:0:0:0:
286,288,29413,2,0,P|239:261|216:222,1,100,2|0,0:0|0:0,0:0:0:0:
219,112,30045,2,0,P|192:69|149:46,1,100,0|0,0:0|3:0,0:0:0:0:
94,50,30519,1,0,0:0:0:0:
0,106,30834,6,0,P|-7:154|11:200,1,100,4|0,3:1|3:0,0:0:0:0:
54,227,31308,1,0,0:0:0:0:
147,191,31624,2,0,P|195:198|234:228,1,100,0|0,0:0|0:0,0:0:0:0:
254,274,32097,2,0,B|283:245|283:245|374:245,2,100,4|0|0,3:2|3:0|3:0,0:0:0:0:
326,343,33045,1,0,3:0:0:0:
418,304,33361,6,0,P|437:258|431:209,1,100,4|0,3:1|3:0,0:0:0:0:
397,173,33835,1,0,0:0:0:0:
356,81,34151,2,0,P|375:35|415:5,1,100,0|0,0:0|0:0,0:0:0:0:
460,23,34624,2,0,P|490:51|499:71,1,50,4|8,0:0|0:3,0:0:0:0:
498,108,34940,1,0,0:0:0:0:
468,203,35255,1,0,0:0:0:0:
374,172,35571,2,0,P|372:131|380:111,1,50,0|0,3:0|0:0,0:0:0:0:
329,146,35887,6,0,P|280:139|241:108,1,100,4|0,3:1|3:0,0:0:0:0:
220,62,36361,2,0,L|90:62,2,100,0|2|4,0:0|0:0|0:0,0:0:0:0:
319,49,37308,1,0,3:0:0:0:
364,69,37466,2,0,P|379:88|389:110,1,50,0|0,3:3|0:0,0:0:0:0:
395,160,37782,1,0,3:0:0:0:
487,122,38097,1,0,3:0:0:0:
473,220,38413,6,0,P|434:251|385:258,1,100,4|0,1:0|3:0,0:0:0:0:
297,210,39045,1,0,3:0:0:0:
247,216,39203,2,0,P|224:225|205:241,1,50,0|0,3:0|3:0,0:0:0:0:
187,289,39519,1,0,3:0:0:0:
190,338,39676,2,0,B|165:317|165:317|77:326,1,100,4|0,0:0|1:0,0:0:0:0:
33,244,40308,2,0,B|58:223|58:223|146:232,1,100,4|0,1:0|3:0,0:0:0:0:
174,236,40782,1,0,3:0:0:0:
228,224,40940,6,0,P|259:185|266:136,1,100,4|0,0:0|1:0,0:0:0:0:
249,84,41413,1,0,0:0:0:0:
275,35,41571,2,0,B|300:14|300:14|388:23,1,100,0|0,3:0|1:0,0:0:0:0:
452,76,42203,2,0,P|491:46|512:1,2,100,0|0|0,3:3|1:0|0:0,0:0:0:0:
421,181,43150,2,0,P|376:164|349:166,1,50,0|0,1:0|0:0,0:0:0:0:
320,177,43466,6,0,P|289:216|282:265,1,100,0|0,3:1|1:0,0:0:0:0:
214,351,44097,1,0,3:0:0:0:
185,304,44255,1,0,3:0:0:0:
133,283,44413,1,0,1:0:0:0:
65,197,44729,2,0,B|43:172|43:172|50:104,1,100,0|0,3:0|1:0,0:0:0:0:
86,63,45203,1,0,0:0:0:0:
140,49,45361,2,0,L|147:-2,2,50,0|0|0,0:0|3:0|1:0,0:0:0:0:
190,71,45834,1,0,0:0:0:0:
224,113,45992,6,0,P|272:105|311:74,1,100,4|0,0:1|1:0,0:0:0:0:
377,161,46624,1,0,3:0:0:0:
413,202,46782,2,0,P|467:210|495:201,2,50,0|0|0,3:0|1:0|0:0,0:0:0:0:
374,240,47255,2,0,P|358:301|371:360,1,100,2|0,0:0|1:0,0:0:0:0:
312,359,47729,1,0,0:0:0:0:
257,350,47887,2,0,P|240:289|199:245,1,100,0|0,3:0|1:0,0:0:0:0:
164,247,48361,1,0,0:0:0:0:
112,267,48519,6,0,L|94:317,2,50,4|0|0,0:0|3:0|1:0,0:0:0:0:
44,179,49150,2,0,L|-4:201,2,50,0|0|0,3:0|3:0|1:0,0:0:0:0:
59,67,49782,2,0,L|9:49,2,50,0|0|0,3:1|3:0|1:2,0:0:0:0:
111,84,50255,1,0,1:2:0:0:
208,32,50571,2,0,L|302:65,1,100,4|0,1:0|0:0,0:0:0:0:
340,104,51045,6,0,P|361:59|398:25,1,100,4|0,0:0|1:0,0:0:0:0:
451,39,51519,1,0,0:0:0:0:
482,83,51676,2,0,P|460:127|423:161,1,100,0|0,3:0|1:0,0:0:0:0:
387,202,52150,1,0,0:0:0:0:
378,256,52308,2,0,L|261:256,1,100,0|0,3:0|1:0,0:0:0:0:
183,313,52940,1,0,3:0:0:0:
183,203,53255,1,0,1:0:0:0:
184,92,53571,6,0,P|143:63|94:53,1,100,2|0,3:2|1:0,0:0:0:0:
44,77,54045,1,0,0:0:0:0:
41,131,54203,2,0,P|62:175|96:209,1,50,0|0,3:0|3:0,0:0:0:0:
86,226,54519,2,0,P|86:250|82:275,1,50,0|0,1:0|3:0,0:0:0:0:
61,326,54834,2,0,B|84:349|84:349|182:351,1,100,0|0,0:0|1:0,0:0:0:0:
206,352,55308,1,2,3:2:0:0:
260,355,55466,1,2,0:0:0:0:
342,283,55782,2,0,L|340:333,1,50,0|0,1:0|0:0,0:0:0:0:
390,357,56097,6,0,B|422:365|422:365|487:345,1,100,4|0,0:1|1:0,0:0:0:0:
512,298,56571,1,0,0:0:0:0:
512,243,56729,2,0,P|490:197|453:164,1,100,0|0,3:0|1:0,0:0:0:0:
399,154,57203,2,0,P|362:120|341:75,1,100,0|0,0:0|3:0,0:0:0:0:
355,22,57676,2,0,L|418:22,1,50,0|0,1:0|0:0,0:0:0:0:
452,50,57992,1,0,3:0:0:0:
512,144,58308,1,0,1:0:0:0:
468,245,58624,6,0,P|426:272|377:280,1,100,4|0,0:0|1:0,0:0:0:0:
323,271,59097,1,0,0:0:0:0:
285,230,59255,2,0,P|236:238|194:265,1,100,4|0,3:1|1:0,0:0:0:0:
173,316,59729,1,0,0:0:0:0:
127,346,59887,2,0,B|97:329|97:329|66:269,2,100,4|0|4,0:0|1:0|1:0,0:0:0:0:
228,384,60834,1,0,3:0:0:0:
279,286,61150,6,0,P|332:243|457:250,1,200,4|0,0:1|1:0,0:0:0:0:
251,174,62413,1,0,3:0:0:0:
196,158,62571,2,0,P|147:104|137:31,1,150,0|0,1:0|1:0,0:0:0:0:
54,103,63361,1,2,0:0:0:0:
34,211,63676,6,0,B|60:263|60:263|198:305,1,200,4|0,0:1|1:0,0:0:0:0:
314,118,64940,1,0,0:0:0:0:
367,132,65098,2,0,B|454:159|454:159|480:211,1,150,0|0,1:0|1:0,0:0:0:0:
312,353,66203,6,0,P|232:304|251:212,1,200,4|0,0:0|1:0,0:0:0:0:
141,212,67150,2,0,L|77:212,1,50,0|0,0:0|3:0,0:0:0:0:
35,212,67466,1,2,0:0:0:0:
3,112,67782,1,0,0:0:0:0:
89,50,68098,1,0,1:0:0:0:
173,112,68414,1,0,0:0:0:0:
141,212,68729,6,0,P|150:285|243:361,1,200,4|0,0:1|1:0,0:0:0:0:
310,273,69676,2,0,P|341:257|373:254,1,50,0|0,0:0|0:0,0:0:0:0:
409,264,69992,2,0,P|450:317|444:378,2,100,4|0|4,0:0|1:0|1:0,0:0:0:0:
506,211,70940,1,0,3:0:0:0:
415,149,71255,1,4,0:3:0:0:
468,221,75992,6,0,P|450:262|428:282,1,50,4|0,1:1|0:0,0:0:0:0:
402,298,76308,5,4,1:0:0:0:
296,265,76624,1,0,1:0:0:0:
294,153,76940,1,0,1:0:0:0:
399,117,77255,1,0,1:0:0:0:
466,206,77571,1,4,1:2:0:0:
377,273,77887,1,0,1:0:0:0:
310,184,78203,1,0,1:0:0:0:
399,117,78519,1,0,1:0:0:0:
256,192,78834,12,0,80097,1:0:0:0:
512,104,81361,6,0,P|445:75|411:30,1,100,4|0,0:0|1:2,0:0:0:0:
388,16,81834,2,0,P|339:6|294:17,1,50,0|0,0:0|3:0,0:0:0:0:
286,22,82150,2,0,P|253:59|240:104,1,50,0|0,0:0|1:0,0:0:0:0:
243,114,82466,1,0,0:0:0:0:
266,163,82624,1,0,3:0:0:0:
370,149,82940,1,0,1:0:0:0:
384,252,83255,1,0,3:0:0:0:
280,266,83571,1,0,1:0:0:0:
230,358,83887,6,0,P|180:355|135:334,1,100,4|0,3:1|1:0,0:0:0:0:
102,290,84361,1,0,0:0:0:0:
47,300,84519,2,0,P|39:343|43:376,2,50,0|0|0,3:0|3:0|1:0,0:0:0:0:
32,246,84992,1,0,0:0:0:0:
38,191,85150,2,0,P|82:169|132:167,1,100,0|0,3:0|1:0,0:0:0:0:
183,189,85624,1,0,0:0:0:0:
237,197,85782,2,0,P|286:194|331:173,1,100,0|0,3:1|1:0,0:0:0:0:
381,76,86413,5,4,0:1:0:0:
490,92,86729,1,0,1:0:0:0:
507,202,87045,1,0,3:0:0:0:
408,250,87361,2,0,P|386:240|366:224,1,50,0|0,1:0|0:0,0:0:0:0:
336,178,87676,2,0,P|291:199|241:201,1,100,4|0,0:3|1:0,0:0:0:0:
170,285,88308,2,0,P|214:306|264:308,1,100,0|0,3:0|1:0,0:0:0:0:
318,298,88782,1,0,0:0:0:0:
369,317,88940,2,0,L|382:372,2,50,4|0|0,0:0|0:0|1:0,0:0:0:0:
366,206,89571,6,0,L|354:157,1,50,0|0,3:0|1:0,0:0:0:0:
383,50,90045,6,0,P|440:18|510:39,1,100,4|0,1:0|0:0,0:0:0:0:
508,62,90519,2,0,B|518:88|518:88|493:163,1,100,0|0,1:0|3:0,0:0:0:0:
392,193,91150,2,0,P|368:184|347:171,1,50,0|0,1:0|3:0,0:0:0:0:
304,135,91466,6,0,P|254:138|209:159,1,100,4|0,0:0|1:0,0:0:0:0:
171,117,91940,1,0,0:0:0:0:
165,62,92097,2,0,P|179:20|199:-5,2,50,0|0|0,3:0|3:0|1:0,0:0:0:0:
110,69,92571,1,0,0:0:0:0:
60,45,92729,1,4,0:3:0:0:
11,143,93045,1,0,1:0:0:0:
58,167,93203,2,0,P|87:202|93:255,1,100,0|0,0:0|3:0,0:0:0:0:
65,302,93676,2,0,P|57:345|61:378,1,50,0|0,1:0|0:0,0:0:0:0:
106,373,93992,6,0,B|142:377|142:377|201:348,1,100,4|0,0:1|1:0,0:0:0:0:
250,324,94466,1,0,0:0:0:0:
353,362,94782,2,0,P|354:337|360:312,1,50,0|0,3:0|1:0,0:0:0:0:
389,266,95097,1,4,0:0:0:0:
280,244,95413,5,0,0:0:0:0:
225,235,95571,1,4,1:0:0:0:
296,150,95887,5,0,1:0:0:0:
371,69,96203,1,0,1:0:0:0:
407,34,96361,1,0,3:0:0:0:
452,55,96519,6,0,P|471:70|487:93,2,50,4|0|0,3:2|0:0|1:0,0:0:0:0:
391,157,97150,2,0,P|381:180|378:208,2,50,4|0|0,3:1|0:0|1:0,0:0:0:0:
460,255,97782,2,0,P|444:274|421:290,2,50,4|0|0,3:2|0:0|1:0,0:0:0:0:
335,291,98413,2,0,P|338:315|350:341,2,50,4|0|0,3:1|0:0|1:0,0:0:0:0:
346,236,98887,1,0,3:0:0:0:
314,191,99045,6,0,L|244:182,1,50,4|0,1:0|0:0,0:0:0:0:
224,146,99361,2,0,L|154:137,1,50,0|0,1:0|0:0,0:0:0:0:
138,97,99676,2,0,L|68:88,2,50,0|0|0,1:0|0:0|1:0,0:0:0:0:
123,42,100150,1,4,0:2:0:0:
94,204,100624,5,0,1:0:0:0:
136,305,100940,1,0,3:0:0:0:
237,263,101255,1,4,1:0:0:0:
195,162,101571,6,0,P|191:110|211:66,1,100,4|0,0:2|3:0,0:0:0:0:
318,86,102203,2,0,P|322:138|302:182,1,100,0|0,3:0|3:0,0:0:0:0:
375,263,102834,1,0,3:0:0:0:
430,264,102992,2,0,B|472:264|472:264|540:193,1,100,0|4,0:0|0:3,0:0:0:0:
501,112,103624,2,0,B|459:112|459:112|391:183,1,100,0|0,0:0|0:0,0:0:0:0:
366,170,104097,6,0,P|316:174|271:154,1,100,4|0,0:1|3:0,0:0:0:0:
290,47,104729,2,0,P|339:42|384:62,1,100,0|0,3:0|3:0,0:0:0:0:
256,192,105361,12,4,106624,0:0:0:0:
