osu file format v14

[General]
AudioFilename: audio.mp3
AudioLeadIn: 0
PreviewTime: 80572
Countdown: 0
SampleSet: Soft
StackLeniency: 0.6
Mode: 0
LetterboxInBreaks: 0
WidescreenStoryboard: 1

[Editor]
DistanceSpacing: 1.1
BeatDivisor: 2
GridSize: 16
TimelineZoom: 1

[Metadata]
Title:Shinsekai no Alpha
TitleUnicode:新世界のα
Artist:Luna
ArtistUnicode:Luna
Creator:Fushimi Rio
Version:Insane
Source:アインシュタインより愛を込めて
Tags:Einstein Ainshutain yori aiwokomete GLOVETY World Hitchhiker! 2 水谷瑠奈 Mizutani Runa NanosizeMir 竹下智博 japanese pop visual novel galgame eroge
BeatmapID:2483158
BeatmapSetID:1191630

[Difficulty]
HPDrainRate:7
CircleSize:3.8
OverallDifficulty:8.2
ApproachRate:9
SliderMultiplier:1.6
SliderTickRate:1

[Events]
//Background and Video events
0,0,"cg_04.jpg",0,0
//Break Periods
//Storyboard Layer 0 (Background)
//Storyboard Layer 1 (Fail)
//Storyboard Layer 2 (Pass)
//Storyboard Layer 3 (Foreground)
//Storyboard Layer 4 (Overlay)
//Storyboard Sound Samples

[TimingPoints]
519,315.789473684211,4,2,1,30,1,0
519,-133.333333333333,4,2,1,30,0,0
8097,-200,4,2,1,30,0,0
8729,-133.333333333333,4,2,1,30,0,0
10624,-133.333333333333,4,2,1,50,0,0
30834,-133.333333333333,4,2,1,60,0,0
39676,-75.00000001875,4,2,1,60,0,0
41255,-100,4,2,1,60,0,0
45992,-100,4,2,1,60,0,0
46308,-100,4,2,1,60,0,0
50097,-75.00000001875,4,2,1,60,0,0
50729,-75.0000000000019,4,2,1,60,0,0
51045,-100,4,2,1,60,0,0
61150,-133.333333333333,4,2,1,60,0,0
61782,-100,4,2,1,60,0,0
62571,-133.333333333333,4,2,1,60,0,0
63203,-100,4,2,1,50,0,0
63676,-133.333333333333,4,2,1,60,0,0
64150,-100,4,2,1,60,0,0
64308,-100,4,2,1,60,0,0
66203,-133.333333333333,4,2,1,60,0,0
71255,-133.333333333333,4,2,1,50,0,0
72519,-117.647058823529,4,2,1,50,0,0
73782,-100,4,2,1,50,0,0
75992,-100,4,2,1,50,0,1
76308,-100,4,2,1,80,0,1
77887,-111.111111111111,4,2,1,80,0,1
78203,-125,4,2,1,80,0,1
78519,-142.857142857143,4,2,1,80,0,1
80097,-100,4,2,1,60,0,0
81361,-75.000000001875,4,2,1,80,0,1
81676,-100,4,2,1,80,0,1
87676,-100,4,2,1,80,0,1
87992,-100,4,2,1,80,0,1
89887,-75.187969924812,4,2,1,80,0,1
90834,-100,4,2,1,80,0,1
92729,-100,4,2,1,80,0,1
93045,-100,4,2,1,80,0,1
93992,-100,4,2,1,80,0,1
94308,-100,4,2,1,80,0,1
96361,-100,4,2,1,90,0,1
100150,-83.3333333333333,4,2,1,80,0,1
101571,-100,4,2,1,60,0,0
105676,-100,4,2,1,50,0,0
105992,-100,4,2,1,40,0,0
106308,-100,4,2,1,20,0,0

[Colours]
Combo1 : 255,226,128
Combo2 : 201,155,227
Combo3 : 234,170,149
Combo4 : 224,158,201

[HitObjects]
375,271,519,6,0,P|310:221|318:171,1,120.000004577637,4|2,0:3|0:0,0:0:0:0:
416,163,992,2,0,P|435:217|404:266,2,120.000004577637,0|0|2,0:0|0:0|0:0,0:0:0:0:
416,163,2097,1,2,0:0:0:0:
341,201,2413,1,0,0:0:0:0:
303,126,2729,1,0,0:0:0:0:
155,183,3045,6,0,P|220:133|212:83,1,120.000004577637,4|2,0:3|0:0,0:0:0:0:
114,75,3518,2,0,P|94:129|125:178,2,120.000004577637,0|0|2,0:0|0:0|0:0,0:0:0:0:
114,75,4624,5,2,0:0:0:0:
76,150,4782,1,0,0:0:0:0:
151,188,5097,5,0,0:0:0:0:
189,113,5413,5,0,2:0:0:0:
114,75,5571,1,0,0:3:0:0:
114,75,6519,5,0,0:0:0:0:
93,204,6834,2,0,P|117:246|184:278,1,120.000004577637,2|0,0:0|0:0,0:0:0:0:
23,134,7466,2,0,P|-2:176|4:250,1,120.000004577637,2|0,0:0|0:0,0:0:0:0:
114,75,8097,6,0,B|191:61|180:108|268:95,1,160,4|0,0:3|0:0,0:0:0:0:
384,125,9045,5,0,0:0:0:0:
341,52,9203,1,0,0:0:0:0:
269,95,9361,1,4,0:0:0:0:
311,167,9834,5,2,0:0:0:0:
354,240,9992,1,0,0:0:0:0:
281,282,10150,1,0,0:0:0:0:
239,210,10308,1,0,0:1:0:0:
311,167,10466,1,0,0:0:0:0:
315,171,10545,1,0,0:0:0:0:
319,175,10624,6,0,P|375:214|395:259,1,120.000004577637,4|0,0:1|0:0,0:0:0:0:
296,344,11097,2,0,P|240:305|220:260,1,120.000004577637,0|0,3:0|0:0,0:0:0:0:
111,288,11571,2,0,B|105:318|105:318|111:348,1,60.0000022888184,0|0,3:0|0:0,0:0:0:0:
132,261,11887,5,0,0:0:0:0:
132,261,12045,2,0,P|81:229|55:176,1,120.000004577637,0|0,3:0|0:0,0:0:0:0:
152,89,12518,2,0,P|179:101|202:120,1,60.0000022888184,0|0,3:0|0:0,0:0:0:0:
199,10,12833,1,0,0:0:0:0:
185,2,12912,1,0,0:0:0:0:
170,0,12991,1,0,0:0:0:0:
154,0,13070,1,0,0:0:0:0:
140,1,13150,6,0,P|84:40|64:85,1,120.000004577637,4|0,3:0|0:0,0:0:0:0:
163,169,13624,2,0,P|219:130|239:85,1,120.000004577637,0|0,3:0|0:0,0:0:0:0:
239,84,14097,1,0,3:0:0:0:
335,74,14255,6,0,P|391:113|411:158,1,120.000004577637,0|0,0:0|0:0,0:0:0:0:
312,242,14729,2,0,P|256:203|236:158,1,120.000004577637,0|0,3:0|3:0,0:0:0:0:
239,161,15361,1,0,0:0:0:0:
230,181,15439,1,0,0:0:0:0:
216,199,15518,1,0,0:0:0:0:
197,210,15597,1,0,0:0:0:0:
175,216,15676,5,0,3:0:0:0:
50,202,15992,1,0,0:0:0:0:
50,202,16150,1,0,3:0:0:0:
145,29,16466,1,0,0:0:0:0:
165,104,16624,1,0,3:0:0:0:
90,125,16782,1,0,0:0:0:0:
70,49,16940,6,0,L|8:34,2,60.0000022888184,0|0|0,0:0|3:0|0:0,0:0:0:0:
76,153,17413,1,0,0:0:0:0:
90,253,17571,1,0,3:0:0:0:
90,253,17887,1,0,0:0:0:0:
112,258,17966,1,0,0:0:0:0:
134,258,18045,1,0,0:0:0:0:
155,250,18124,1,0,0:0:0:0:
172,237,18202,5,0,3:0:0:0:
297,223,18518,1,0,0:0:0:0:
297,223,18676,1,0,3:0:0:0:
202,50,18992,1,0,0:0:0:0:
182,125,19150,1,0,3:0:0:0:
257,146,19308,1,0,0:0:0:0:
277,70,19466,5,0,0:0:0:0:
281,74,19624,2,0,L|343:59,1,60.0000022888184,0|0,3:0|0:0,0:0:0:0:
331,165,19940,1,0,0:0:0:0:
473,129,20097,2,0,L|414:143,1,60.0000022888184,0|0,3:0|0:0,0:0:0:0:
313,252,20413,2,0,P|352:296|401:304,1,90.0000034332277,2|0,0:0|0:0,0:0:0:0:
401,303,20729,6,0,B|437:290|437:290|464:197,1,120.000004577637,4|0,0:3|0:0,0:0:0:0:
430,107,21203,2,0,P|445:163|492:199,2,120.000004577637,0|2|0,0:0|0:0|0:0,0:0:0:0:
430,107,21992,1,2,0:0:0:0:
325,193,22308,1,0,0:0:0:0:
247,206,22466,2,0,P|218:197|194:181,1,60.0000022888184,0|0,0:0|0:0,0:0:0:0:
165,311,22782,2,0,P|220:290|242:236,1,120.000004577637,0|0,0:0|0:0,0:0:0:0:
113,176,23255,5,4,0:3:0:0:
18,298,23571,1,0,0:0:0:0:
94,278,23729,2,0,L|210:250,1,120.000004577637,2|0,0:0|0:0,0:0:0:0:
253,178,24203,1,0,0:0:0:0:
244,263,24361,1,2,0:0:0:0:
288,335,24519,2,0,P|327:353|401:343,1,120.000004577637,0|0,0:0|0:0,0:0:0:0:
453,250,24992,2,0,P|482:246|512:252,1,60.0000022888184,2|0,0:0|0:0,0:0:0:0:
427,264,25308,1,0,0:0:0:0:
490,90,25624,2,0,P|503:106|510:126,1,30.0000011444092
506,137,25782,6,0,B|476:161|476:161|382:138,2,120.000004577637,4|0|0,0:3|0:0|0:0,0:0:0:0:
506,137,26729,1,2,0:0:0:0:
499,57,26887,1,0,0:0:0:0:
429,10,27045,1,2,0:0:0:0:
321,100,27203,2,0,P|315:129|318:159,1,60.0000022888184,0|0,0:0|0:0,0:0:0:0:
398,92,27519,2,0,P|370:79|341:74,1,60.0000022888184,0|0,0:0|0:0,0:0:0:0:
237,103,27834,2,0,P|168:78|153:24,1,120.000004577637,2|0,0:0|0:0,0:0:0:0:
81,0,28308,5,4,0:3:0:0:
52,129,28466,1,0,0:0:0:0:
44,161,28782,1,0,0:0:0:0:
36,193,29097,1,0,0:0:0:0:
105,236,29413,1,2,0:0:0:0:
167,183,29729,1,0,0:0:0:0:
137,108,30045,1,0,0:0:0:0:
55,113,30361,1,0,0:0:0:0:
167,183,30519,2,0,L|226:178,1,60.0000022888184,0|0,3:0|0:0,0:0:0:0:
340,71,30834,6,0,P|357:104|361:137,1,60.0000022888184,4|0,3:1|0:0,0:0:0:0:
259,188,31150,2,0,P|261:150|274:120,1,60.0000022888184,0|0,3:0|0:0,0:0:0:0:
436,176,31466,1,0,3:0:0:0:
268,129,31624,1,0,0:0:0:0:
328,290,31782,2,0,P|337:261|337:231,1,60.0000022888184,0|0,3:0|0:0,0:0:0:0:
169,278,32097,5,4,3:2:0:0:
337,231,32255,1,0,0:0:0:0:
245,334,32413,1,0,3:0:0:0:
94,237,32571,2,0,P|84:265|84:295,1,60.0000022888184,8|0,0:3|3:0,0:0:0:0:
115,151,32887,2,0,P|94:128|69:113,1,60.0000022888184,0|0,0:0|3:0,0:0:0:0:
175,210,33203,1,0,0:0:0:0:
252,48,33361,6,0,P|267:82|247:164,1,120.000004577637,4|0,3:1|3:0,0:0:0:0:
130,100,33834,1,0,0:0:0:0:
279,34,33992,2,0,L|338:10,2,60.0000022888184,0|0|0,3:0|0:0|3:0,0:0:0:0:
253,164,34466,1,0,0:0:0:0:
261,176,34545,1,0,0:0:0:0:
274,182,34624,5,4,0:0:0:0:
326,116,34782,1,8,0:3:0:0:
404,145,34940,1,0,0:0:0:0:
399,228,35097,1,0,0:0:0:0:
318,257,35255,1,0,0:0:0:0:
239,227,35412,1,0,0:0:0:0:
188,293,35571,1,0,3:0:0:0:
235,363,35728,1,0,0:0:0:0:
316,334,35887,6,0,B|348:363|348:363|449:357,1,120.000004577637,4|0,3:1|3:0,0:0:0:0:
484,236,36361,2,0,L|502:313,1,60.0000022888184,0|0,0:0|3:0,0:0:0:0:
497,294,36597,1,0,0:0:0:0:
497,294,36676,1,2,0:0:0:0:
365,177,36834,1,0,3:0:0:0:
454,155,36992,6,0,L|531:137,1,60.0000022888184,4|0,0:0|0:0,0:0:0:0:
373,185,37308,1,0,3:0:0:0:
373,185,37466,2,0,L|355:108,1,60.0000022888184,0|0,3:3|0:0,0:0:0:0:
403,266,37782,2,0,L|326:284,1,60.0000022888184,0|0,3:0|0:0,0:0:0:0:
150,207,38097,1,0,3:0:0:0:
124,317,38255,1,0,3:0:0:0:
124,317,38334,1,0,3:0:0:0:
124,317,38413,6,0,L|106:394,1,60.0000022888184,4|0,1:0|0:0,0:0:0:0:
35,244,38729,2,0,L|17:321,1,60.0000022888184,0|0,3:0|3:0,0:0:0:0:
169,181,39045,5,0,3:0:0:0:
42,215,39203,1,0,3:0:0:0:
0,137,39361,5,0,3:0:0:0:
150,207,39519,1,0,3:0:0:0:
212,74,39676,5,4,0:0:0:0:
134,237,39834,1,0,3:0:0:0:
247,104,39992,5,0,1:0:0:0:
98,206,40150,1,0,3:0:0:0:
263,148,40308,6,0,P|264:189|234:249,1,106.666666666667,4|0,1:0|0:0,0:0:0:0:
26,78,40624,5,0,3:0:0:0:
44,95,40703,1,0,3:0:0:0:
66,106,40782,1,0,3:0:0:0:
91,110,40861,1,0,3:0:0:0:
116,107,40940,6,0,B|161:85|161:85|144:196,1,160,4|0,0:0|0:0,0:0:0:0:
134,296,41255,2,0,P|120:258|123:219,1,80,0|0,1:0|0:0,0:0:0:0:
245,280,41571,1,0,3:0:0:0:
245,280,41729,2,0,P|261:244|292:218,1,80,0|0,3:3|1:0,0:0:0:0:
323,121,42045,1,0,0:0:0:0:
323,121,42124,1,0,0:0:0:0:
323,121,42203,6,0,P|364:144|396:228,1,120,0|0,3:3|0:0,0:0:0:0:
400,60,42519,2,0,P|360:66|328:90,1,80,0|0,1:0|0:0,0:0:0:0:
482,203,42834,2,0,P|495:165|491:126,1,80,0|0,3:0|0:0,0:0:0:0:
317,202,43150,2,0,P|342:232|378:248,1,80,0|0,1:0|0:0,0:0:0:0:
228,97,43466,6,0,B|193:76|193:76|212:194,2,160,0|0|0,3:1|1:0|3:0,0:0:0:0:
133,195,44255,1,0,3:0:0:0:
232,101,44413,1,0,1:0:0:0:
101,62,44571,1,0,0:0:0:0:
141,225,44729,6,0,P|94:194|28:196,1,120,0|0,3:0|0:0,0:0:0:0:
15,206,45045,1,0,1:0:0:0:
88,338,45203,2,0,P|103:350|122:359,2,40,0|0|0,0:0|0:0|3:0,0:0:0:0:
15,206,45519,1,0,3:0:0:0:
0,336,45676,1,0,1:0:0:0:
145,229,45834,1,0,0:0:0:0:
240,336,45992,6,0,P|297:333|354:285,1,120,4|0,0:1|0:0,0:0:0:0:
419,230,46308,2,0,P|442:276|444:310,1,80,0|0,1:0|0:0,0:0:0:0:
265,236,46624,2,0,P|268:184|282:154,1,80,0|0,3:0|3:0,0:0:0:0:
437,100,46940,1,0,1:0:0:0:
382,219,47098,1,0,0:0:0:0:
254,140,47255,6,0,P|197:143|140:191,1,120,2|0,0:0|0:0,0:0:0:0:
232,311,47571,2,0,P|237:272|227:234,1,80,0|0,1:0|0:0,0:0:0:0:
136,205,47887,1,0,3:0:0:0:
172,74,48045,1,0,0:0:0:0:
172,74,48124,1,0,0:0:0:0:
172,74,48203,1,0,1:0:0:0:
41,106,48361,1,0,0:0:0:0:
198,151,48519,5,4,0:0:0:0:
54,189,48676,1,0,3:0:0:0:
96,44,48834,1,0,1:0:0:0:
137,211,48992,1,0,0:0:0:0:
196,70,49150,5,0,3:0:0:0:
23,116,49307,1,0,3:0:0:0:
146,244,49465,1,0,1:0:0:0:
96,44,49623,1,0,0:0:0:0:
46,287,49782,6,0,L|65:196,1,80,0|0,3:1|3:0,0:0:0:0:
171,369,50097,6,0,L|182:317,1,53.3333333333333,0|0,1:2|0:0,0:0:0:0:
217,151,50255,1,0,1:2:0:0:
217,151,50571,6,0,P|195:136|169:128,1,53.3333333333333,0|0,0:0|0:0,0:0:0:0:
233,244,50729,2,0,P|288:215|303:115,1,160,4|0,1:0|0:0,0:0:0:0:
359,64,51045,6,0,P|408:51|471:76,1,120,4|0,0:0|0:0,0:0:0:0:
424,222,51361,2,0,P|408:186|406:147,1,80,0|0,1:0|0:0,0:0:0:0:
512,235,51676,1,0,3:0:0:0:
328,205,51834,1,0,0:0:0:0:
328,205,51913,1,0,0:0:0:0:
328,205,51992,2,0,B|310:240|310:240|235:248,1,80,0|0,1:0|0:0,0:0:0:0:
102,246,52308,5,0,3:0:0:0:
125,332,52466,1,0,3:0:0:0:
210,309,52624,1,0,1:0:0:0:
186,223,52782,2,0,P|166:187|136:163,2,80,0|0|0,0:0|3:0|0:0,0:0:0:0:
75,318,53255,2,0,P|80:278|100:244,1,80,0|0,1:0|0:0,0:0:0:0:
126,131,53571,6,0,P|61:108|14:120,1,120,2|0,3:2|0:0,0:0:0:0:
0,135,53887,1,0,1:0:0:0:
150,46,54045,1,0,0:0:0:0:
124,226,54203,1,0,3:0:0:0:
124,226,54361,2,0,P|135:266|160:295,1,80,0|0,3:0|1:0,0:0:0:0:
298,223,54676,5,0,3:0:0:0:
298,223,54755,1,0,0:0:0:0:
298,223,54834,2,0,P|286:182|261:153,1,80,0|0,0:0|0:0,0:0:0:0:
287,314,55150,1,0,1:0:0:0:
375,276,55308,1,2,3:2:0:0:
432,199,55466,1,2,0:0:0:0:
443,103,55624,1,0,3:0:0:0:
447,107,55782,2,0,P|480:119|511:150,1,80,0|0,1:0|0:0,0:0:0:0:
487,271,56019,1,0,0:0:0:0:
463,285,56097,6,0,P|427:289|346:233,1,120,4|0,0:1|0:0,0:0:0:0:
289,204,56413,2,0,P|249:205|212:221,1,80,0|0,1:0|0:0,0:0:0:0:
149,324,56729,1,0,3:0:0:0:
304,181,56887,5,0,0:0:0:0:
189,207,57045,1,0,1:0:0:0:
270,291,57203,2,0,P|310:302|351:298,1,80,0|0,0:0|3:0,0:0:0:0:
279,167,57519,5,0,3:0:0:0:
248,268,57677,1,0,1:0:0:0:
148,302,57835,2,0,P|107:294|72:271,1,80,0|0,0:0|3:0,0:0:0:0:
67,179,58150,5,0,0:0:0:0:
152,137,58308,1,0,1:0:0:0:
217,210,58466,1,0,0:0:0:0:
168,293,58624,6,0,P|117:284|26:343,1,160,4|0,0:0|1:0,0:0:0:0:
28,338,59097,1,0,0:0:0:0:
221,214,59255,6,0,P|272:205|358:259,1,120,4|0,3:1|0:0,0:0:0:0:
343,247,59571,1,0,1:0:0:0:
258,94,59729,1,0,0:0:0:0:
351,262,59887,5,4,0:0:0:0:
456,111,60045,2,0,P|420:129|394:159,1,80,0|0,1:0|1:0,0:0:0:0:
478,204,60361,1,0,3:0:0:0:
340,24,60519,5,4,1:0:0:0:
340,24,60624,2,0,P|338:63|351:101,1,53.3333333333333,0|0,1:0|3:0,0:0:0:0:
271,125,60834,5,8,3:0:0:0:
271,125,60939,2,0,P|237:145|201:153,1,53.3333333333333,0|0,3:0|3:0,0:0:0:0:
288,217,61150,6,0,P|295:261|370:302,1,120.000004577637,4|0,0:1|0:0,0:0:0:0:
354,301,61782,2,0,L|274:313,1,80,0|0,1:0|0:0,0:0:0:0:
183,340,62255,5,0,3:0:0:0:
183,340,62334,1,0,3:0:0:0:
183,340,62413,1,0,3:0:0:0:
85,352,62571,2,0,P|33:323|18:267,1,120.000004577637,0|0,1:0|0:0,0:0:0:0:
30,185,63045,2,0,L|42:105,1,60.0000022888184,0|0,1:0|0:0,0:0:0:0:
97,236,63361,1,2,0:0:0:0:
172,204,63519,1,0,0:0:0:0:
272,256,63676,6,0,P|328:241|357:190,1,120.000004577637,4|0,0:1|0:0,0:0:0:0:
357,190,64308,2,0,L|369:269,1,80,0|0,1:0|0:0,0:0:0:0:
477,315,64624,5,0,3:0:0:0:
463,228,64782,2,0,L|450:148,1,80,0|0,3:0|0:0,0:0:0:0:
432,14,65097,1,0,1:0:0:0:
454,152,65255,1,0,3:0:0:0:
512,72,65413,1,0,3:0:0:0:
373,94,65571,1,0,1:0:0:0:
373,94,66203,6,0,P|328:86|287:11,1,120.000004577637,4|0,0:0|0:0,0:0:0:0:
296,35,66676,1,0,0:0:0:0:
297,36,66835,2,0,L|284:114,1,60.0000022888184,0|0,1:0|0:0,0:0:0:0:
225,159,67150,2,0,L|212:237,1,60.0000022888184,0|0,0:0|3:0,0:0:0:0:
215,218,67387,1,0,3:0:0:0:
215,218,67466,5,2,0:0:0:0:
125,229,67624,2,0,P|73:200|58:144,1,120.000004577637,0|0,0:0|0:0,0:0:0:0:
0,292,68098,2,0,L|79:304,1,60.0000022888184,0|0,1:0|0:0,0:0:0:0:
139,314,68414,1,0,0:0:0:0:
219,323,68572,1,0,0:0:0:0:
301,273,68729,6,0,P|316:329|367:357,1,120.000004577637,4|0,0:1|0:0,0:0:0:0:
375,365,69203,1,0,0:0:0:0:
375,365,69361,2,0,L|295:377,1,60.0000022888184,0|0,1:0|0:0,0:0:0:0:
229,346,69676,2,0,L|149:358,1,60.0000022888184,0|0,0:0|0:0,0:0:0:0:
156,263,69992,5,4,0:0:0:0:
143,340,70150,1,0,1:0:0:0:
66,351,70308,1,0,1:0:0:0:
31,280,70466,1,0,0:0:0:0:
87,226,70624,5,4,1:0:0:0:
124,227,70782,1,0,3:0:0:0:
136,193,70940,1,0,3:0:0:0:
106,170,71097,1,0,3:0:0:0:
76,191,71255,6,0,P|162:195|209:141,1,120.000004577637,4|0,0:3|0:0,0:0:0:0:
212,109,71729,1,0,0:0:0:0:
290,304,72203,2,0,P|314:285|342:275,1,60.0000022888184,2|0,0:0|0:0,0:0:0:0:
445,248,72519,6,0,P|359:252|312:198,1,136.000002593994,4|0,0:3|0:0,0:0:0:0:
298,146,72993,1,0,0:0:0:0:
457,108,73466,2,0,P|478:140|484:180,1,68.0000012969971,2|0,0:0|0:0,0:0:0:0:
381,29,73782,6,0,L|334:189,1,160,4|0,0:3|0:0,0:0:0:0:
459,166,74255,2,0,L|382:141,1,80,0|0,0:0|0:0,0:0:0:0:
266,244,74571,2,0,L|343:269,1,80,2|0,0:0|0:0,0:0:0:0:
352,131,74887,1,2,0:0:0:0:
358,297,75045,6,0,P|389:329|430:342,1,80,0|0,0:0|0:0,0:0:0:0:
435,251,75361,2,0,P|475:253|512:238,1,80,0|0,0:0|0:0,0:0:0:0:
461,168,75676,1,0,3:3:0:0:
461,168,75992,5,4,1:1:0:0:
358,297,76150,1,0,0:0:0:0:
366,77,76308,5,4,1:0:0:0:
292,243,76466,1,0,0:0:0:0:
239,26,76624,5,0,1:0:0:0:
211,222,76782,1,0,0:0:0:0:
105,23,76940,5,0,1:0:0:0:
128,236,77098,1,0,0:0:0:0:
0,95,77255,5,0,1:0:0:0:
84,309,77413,1,0,0:0:0:0:
149,142,77571,6,0,L|157:222,1,80,4|0,1:2|0:0,0:0:0:0:
266,107,77887,6,0,L|253:186,1,71.9999978027344,0|0,1:0|0:0,0:0:0:0:
390,103,78203,6,0,L|356:176,1,64,0|0,1:0|0:0,0:0:0:0:
506,132,78519,6,0,L|455:194,1,55.9999982910157,0|0,1:0|0:0,0:0:0:0:
416,336,78834,5,4,1:0:0:0:
436,326,78912,1,0,0:0:0:0:
448,307,78991,1,0,0:0:0:0:
448,285,79070,1,0,0:0:0:0:
436,266,79149,1,0,1:0:0:0:
416,256,79228,1,0,0:0:0:0:
394,260,79307,1,0,0:0:0:0:
376,275,79387,1,0,0:0:0:0:
358,294,79465,5,4,1:2:0:0:
335,307,79544,1,0,3:0:0:0:
309,313,79623,1,0,3:0:0:0:
282,312,79702,1,0,3:0:0:0:
257,303,79781,1,0,3:0:0:0:
236,288,79860,1,0,3:0:0:0:
219,267,79939,1,0,3:0:0:0:
209,242,80018,1,0,3:0:0:0:
206,216,80097,1,0,1:0:0:0:
210,220,80729,6,0,P|204:271|171:309,1,80,0|0,0:1|3:0,0:0:0:0:
174,308,80966,1,0,3:0:0:0:
155,314,81045,2,0,P|87:297|29:308,1,120,0|0,1:0|0:0,0:0:0:0:
17,219,81361,6,0,P|82:205|117:106,1,160,4|0,0:0|0:0,0:0:0:0:
120,126,81676,1,0,1:2:0:0:
207,203,81834,1,0,0:0:0:0:
207,203,81913,1,0,3:0:0:0:
207,203,81992,1,0,3:0:0:0:
170,54,82150,2,0,P|125:42|91:47,1,80,0|0,0:0|1:0,0:0:0:0:
207,203,82466,6,0,P|251:190|278:169,2,80,0|0|0,0:0|3:0|3:0,0:0:0:0:
271,19,82940,2,0,P|294:50|302:90,1,80,0|0,1:0|0:0,0:0:0:0:
126,175,83255,2,0,P|103:143|93:105,1,80,0|0,3:0|0:0,0:0:0:0:
277,169,83571,2,0,P|300:200|308:240,1,80,0|0,1:3|0:3,0:0:0:0:
151,351,83887,6,0,P|201:320|260:319,1,120,4|0,3:1|0:0,0:0:0:0:
280,323,84203,1,0,1:0:0:0:
384,195,84361,1,0,0:0:0:0:
226,236,84519,1,0,3:0:0:0:
380,299,84676,1,0,3:0:0:0:
290,160,84834,1,0,1:0:0:0:
452,248,84992,6,0,P|487:229|512:199,2,80,0|0|0,0:0|3:0|3:0,0:0:0:0:
317,175,85466,1,0,1:0:0:0:
453,40,85624,2,0,P|467:77|465:116,1,80,0|0,0:0|3:1,0:0:0:0:
464,115,85861,1,0,3:0:0:0:
464,115,85940,1,0,3:0:0:0:
358,14,86097,1,0,1:0:0:0:
306,187,86255,1,0,0:0:0:0:
306,187,86334,1,0,0:0:0:0:
306,187,86413,6,0,P|242:219|172:203,1,120,4|0,0:1|0:0,0:0:0:0:
130,174,86729,2,0,P|90:171|53:186,1,80,0|0,1:0|0:0,0:0:0:0:
21,332,87045,5,0,3:0:0:0:
199,217,87203,1,0,3:0:0:0:
53,186,87361,1,0,1:0:0:0:
168,364,87519,1,0,0:0:0:0:
228,198,87676,6,0,P|248:246|269:267,1,80,4|0,0:3|0:0,0:0:0:0:
372,122,87992,2,0,P|332:156|318:182,1,80,0|0,1:0|0:0,0:0:0:0:
416,384,88308,6,0,P|427:332|423:303,1,80,0|0,3:0|3:0,0:0:0:0:
254,359,88624,2,0,P|306:354|332:341,1,80,0|0,1:0|0:0,0:0:0:0:
411,202,88940,5,4,0:0:0:0:
322,315,89097,1,0,0:0:0:0:
268,182,89255,1,0,1:0:0:0:
484,213,89413,6,0,L|444:207,1,40,0|0,0:0|3:0,0:0:0:0:
237,177,89571,1,0,3:0:0:0:
512,112,89729,1,0,3:0:0:0:
512,112,90045,6,0,B|423:126|413:92|403:54|312:70,1,212.799991232911,4|0,1:0|0:0,0:0:0:0:
273,228,90519,2,0,P|321:207|348:162,1,106.399995616455,0|0,1:0|0:0,0:0:0:0:
129,170,90834,6,0,P|168:175|207:163,1,80,0|0,3:0|3:0,0:0:0:0:
29,44,91150,5,0,1:0:0:0:
38,61,91228,1,0,3:0:0:0:
52,76,91307,1,0,3:0:0:0:
68,87,91386,1,0,3:0:0:0:
86,95,91466,6,0,P|114:43|190:30,1,120,4|0,0:0|0:0,0:0:0:0:
189,27,91782,1,0,1:0:0:0:
228,171,91940,2,0,P|212:181|188:189,2,40,0|0|0,0:0|0:0|3:0,0:0:0:0:
255,86,92255,1,0,3:0:0:0:
198,274,92413,1,0,1:0:0:0:
349,199,92571,1,0,0:0:0:0:
388,331,92729,6,0,P|442:308|468:255,1,120,4|0,0:3|0:0,0:0:0:0:
466,231,93045,1,0,1:0:0:0:
295,299,93203,2,0,L|257:314,2,40,0|0|0,0:0|0:0|3:0,0:0:0:0:
493,221,93519,1,0,3:0:0:0:
438,362,93676,1,0,1:0:0:0:
349,199,93834,1,0,0:0:0:0:
228,323,93992,6,0,P|169:315|130:271,1,120,4|0,0:1|0:0,0:0:0:0:
125,251,94308,1,0,1:0:0:0:
72,357,94466,1,0,0:0:0:0:
72,357,94545,1,0,3:0:0:0:
72,357,94624,1,0,3:0:0:0:
212,236,94782,1,0,3:0:0:0:
72,357,94940,1,0,1:0:0:0:
37,174,95097,1,4,0:0:0:0:
162,320,95413,5,0,0:0:0:0:
135,174,95571,1,4,1:0:0:0:
22,271,95728,1,0,0:0:0:0:
232,215,95887,5,0,1:0:0:0:
38,134,96045,1,0,3:0:0:0:
175,79,96203,2,0,L|138:164,1,80,0|0,1:0|3:0,0:0:0:0:
140,163,96440,1,0,3:0:0:0:
135,174,96519,5,4,3:2:0:0:
73,87,96676,1,0,0:0:0:0:
241,155,96834,1,0,1:0:0:0:
186,50,96992,6,0,L|208:-3,2,40,0|0|4,3:0|3:0|3:1,0:0:0:0:
263,160,97308,1,0,0:0:0:0:
49,73,97466,1,0,1:0:0:0:
288,170,97624,6,0,L|341:192,2,40,0|0|4,3:0|3:0|3:2,0:0:0:0:
49,73,97940,1,0,0:0:0:0:
263,160,98098,1,0,1:0:0:0:
157,118,98255,5,0,3:0:0:0:
157,118,98334,1,0,3:0:0:0:
157,118,98413,1,4,3:1:0:0:
115,222,98571,1,0,0:0:0:0:
200,13,98729,2,0,P|233:0|280:0,1,80,0|0,1:0|3:0,0:0:0:0:
399,161,99045,5,4,1:0:0:0:
391,14,99203,1,0,0:0:0:0:
344,231,99361,5,0,1:0:0:0:
255,94,99519,1,0,0:0:0:0:
332,319,99676,5,0,1:0:0:0:
171,234,99834,1,0,0:0:0:0:
371,208,99992,5,0,1:0:0:0:
163,324,100150,2,0,B|70:304|108:234|11:219,1,191.999994140625,4|0,0:2|3:0,0:0:0:0:
7,309,100624,5,0,1:0:0:0:
171,234,100782,1,0,0:0:0:0:
171,234,100861,1,0,3:0:0:0:
171,234,100940,1,0,3:0:0:0:
84,384,101097,1,0,3:0:0:0:
55,213,101255,1,4,1:0:0:0:
179,333,101413,1,0,3:0:0:0:
316,114,101571,5,4,0:2:0:0:
296,192,101887,1,0,3:0:0:0:
373,212,102203,1,0,3:0:0:0:
393,135,102519,1,0,3:0:0:0:
316,114,102834,5,0,3:0:0:0:
341,203,102992,1,8,0:3:0:0:
338,222,103071,1,0,3:0:0:0:
329,239,103150,1,0,0:0:0:0:
196,204,103308,2,0,P|210:129|283:104,2,160,4|0|0,0:3|0:0|0:0,0:0:0:0:
269,179,104097,5,4,0:1:0:0:
246,268,104413,1,0,3:0:0:0:
180,205,104729,1,0,3:0:0:0:
269,179,105045,1,0,3:0:0:0:
164,290,105361,6,0,P|131:298|111:297,2,53.3333333333333,0|0|0,1:0|3:0|3:0,0:0:0:0:
80,214,105676,2,0,P|62:186|57:166,2,53.3333333333333,0|0|0,0:0|3:0|3:0,0:0:0:0:
261,234,105992,6,0,P|259:267|252:286,2,53.3333333333333,0|0|0,3:0|3:0|3:0,0:0:0:0:
238,122,106308,2,0,P|269:134|284:146,2,53.3333333333333,0|0|0,3:0|3:0|3:0,0:0:0:0:
172,197,106624,5,4,0:0:0:0:
