osu file format v14

[General]
AudioFilename: audio.mp3
AudioLeadIn: 0
PreviewTime: -1
Countdown: 0
SampleSet: Soft
StackLeniency: 0.7
Mode: 0
LetterboxInBreaks: 0
WidescreenStoryboard: 1

[Editor]
Bookmarks: 28623,92277
DistanceSpacing: 1.9
BeatDivisor: 4
GridSize: 4
TimelineZoom: 2.2

[Metadata]
Title:Lyutiki
TitleUnicode:Lyutiki
Artist:Luna
ArtistUnicode:Luna
Creator:Vald1s
Version:SuperHot
Source:ALOHADANCE STREAM
Tags:лютики, не дарили мальчики, животики, AlohaDance, twitch, 9k
BeatmapID:1850590
BeatmapSetID:539055

[Difficulty]
HPDrainRate:7.1
CircleSize:4.5
OverallDifficulty:6.6
ApproachRate:9.6
SliderMultiplier:1.4
SliderTickRate:1

[Events]
//Background and Video events
0,0,"image.jpg",0,0
//Break Periods
//Storyboard Layer 0 (Background)
//Storyboard Layer 1 (Fail)
//Storyboard Layer 2 (Pass)
//Storyboard Layer 3 (Foreground)
//Storyboard Sound Samples

[TimingPoints]
17404,504.201680672269,4,2,0,33,1,0
17404,-200,4,2,0,33,0,0
18916,-100,4,2,0,33,0,0
19420,-200,4,2,0,33,0,0
20303,-100,4,2,0,33,0,0
22193,-83.3333333333333,4,2,0,33,0,0
26227,-100,4,2,0,33,0,0
27478,-50,4,2,0,33,0,0
28748,-100,4,2,0,33,0,0
39831,-200,4,2,0,33,0,0
54462,-500,4,2,0,33,0,0
56470,-83.3333333333333,4,2,0,33,0,1
72614,-62.5,4,2,0,33,0,1
89243,-133.333333333333,4,2,0,33,0,0
104873,-83.3333333333333,4,2,0,33,0,0
121008,-200,4,2,0,33,0,0
153277,-50,4,2,0,33,0,1
185546,-100,4,2,0,33,0,0
213025,-50,4,2,0,33,0,0
214789,-100,4,2,0,33,0,0
217815,-83.3333333333333,4,2,0,33,0,0

[HitObjects]
104,73,10,5,0,0:0:0:0:
253,143,388,1,0,0:0:0:0:
411,96,766,1,0,0:0:0:0:
253,143,1144,1,0,0:0:0:0:
104,73,1522,1,0,0:0:0:0:
411,96,1900,1,0,0:0:0:0:
306,252,2278,5,0,0:0:0:0:
174,184,2657,1,0,0:0:0:0:
216,102,3035,1,0,0:0:0:0:
343,88,3413,1,0,0:0:0:0:
416,155,3791,1,0,0:0:0:0:
416,155,4043,6,0,P|386:108|329:86,1,105
28,144,4799,2,0,P|57:189|117:212,1,105
445,81,5556,2,0,P|396:75|330:92,1,105
56,303,6312,2,0,P|91:258|101:210,1,105
401,4,7067,2,0,P|359:38|340:94,1,105
377,199,7825,1,0,0:0:0:0:
377,199,8077,5,0,0:0:0:0:
107,89,8455,1,0,0:0:0:0:
361,162,8833,1,0,0:0:0:0:
122,127,9211,1,0,0:0:0:0:
386,131,9589,1,0,0:0:0:0:
97,157,9967,1,0,0:0:0:0:
364,97,10346,5,0,0:0:0:0:
116,192,10724,1,0,0:0:0:0:
388,66,11102,1,0,0:0:0:0:
95,222,11480,1,0,0:0:0:0:
409,37,11858,1,0,0:0:0:0:
409,37,12110,5,0,0:0:0:0:
255,69,12488,1,0,0:0:0:0:
255,69,12615,2,0,P|291:135|277:187,1,105
361,182,13119,2,0,P|333:138|286:114,1,105
286,114,13623,1,0,0:0:0:0:
146,135,14001,1,0,0:0:0:0:
174,268,14379,6,0,L|222:251,1,35
221,258,14631,2,0,P|280:239|343:253,1,105
343,164,15136,2,0,P|300:194|274:239,1,105
100,149,15892,1,0,0:0:0:0:
412,66,16144,6,0,P|368:86|353:106,1,70
100,149,16648,1,0,0:0:0:0:
355,102,16900,2,0,P|316:135|288:139,1,70
100,149,17404,6,0,B|138:110|138:110|195:113,1,105
387,123,18412,1,0,0:0:0:0:
293,298,18664,1,0,0:0:0:0:
328,88,18916,2,0,P|363:100|393:132,1,70
188,112,19420,6,0,B|138:110|138:110|100:149,1,105
70,90,20303,6,0,L|117:94,1,35
380,139,20681,1,0,0:0:0:0:
104,49,20933,2,0,P|143:61|189:107,1,105
221,182,21437,1,0,0:0:0:0:
232,57,21689,2,0,P|240:82|243:122,1,35
221,182,21941,1,0,0:0:0:0:
329,312,22193,6,0,P|305:271|304:191,1,125.999996154785
381,150,22698,2,0,P|321:109|246:120,1,125.999996154785
137,137,23202,1,0,0:0:0:0:
371,68,23454,1,0,0:0:0:0:
314,282,23706,1,0,0:0:0:0:
137,137,23958,6,0,P|194:76|271:73,1,125.999996154785
371,68,24462,1,0,0:0:0:0:
92,197,24714,1,0,0:0:0:0:
114,69,24967,1,0,0:0:0:0:
210,151,25219,6,0,P|259:156|330:110,1,125.999996154785
417,14,25723,1,0,0:0:0:0:
382,183,25975,1,0,0:0:0:0:
302,312,26227,6,0,P|303:274|266:261,1,70
204,78,26731,1,0,0:0:0:0:
223,244,26983,2,0,P|251:269|285:249,1,70
338,86,27488,6,0,B|293:91|293:91|256:72|256:72|204:78,1,140
30,116,27992,1,0,0:0:0:0:
327,163,28244,1,0,0:0:0:0:
59,187,28496,1,0,0:0:0:0:
338,86,28748,1,0,0:0:0:0:
106,126,29000,1,0,0:0:0:0:
398,132,29252,6,0,P|409:136|435:139,1,35
440,129,29504,6,0,P|371:120|342:124,1,70
148,197,30009,2,0,P|188:201|243:184,1,70
413,60,30513,1,0,0:0:0:0:
80,55,30765,1,0,0:0:0:0:
109,241,31017,2,0,P|128:224|152:211,1,35
161,257,31269,2,0,P|201:212|239:199,1,70
418,49,31773,2,0,P|380:65|340:118,1,105
332,189,32277,5,0,0:0:0:0:
101,66,32782,2,0,L|145:90,1,35
154,96,33034,2,0,P|167:113|103:135,1,105
26,127,33538,1,0,0:0:0:0:
202,43,33790,1,0,0:0:0:0:
379,114,34042,1,0,0:0:0:0:
26,127,34294,6,0,P|78:111|117:116,1,70
379,114,34798,1,0,0:0:0:0:
68,40,35051,2,0,P|118:44|161:80,1,105
178,119,35555,2,0,P|188:148|201:165,1,35
151,272,36059,2,0,P|169:257|191:250,1,35
211,261,36311,6,0,P|275:221|297:191,1,105
335,123,36815,2,0,P|258:119|220:145,1,105
148,132,37319,2,0,P|184:200|226:219,1,105
222,300,37824,2,0,P|281:250|291:205,1,105
293,30,38580,2,0,P|280:42|269:61,1,35
280,100,38832,6,0,P|243:148|197:175,1,105
293,30,39336,2,0,P|349:78|341:133,1,105
345,186,39840,1,0,0:0:0:0:
249,235,40093,1,0,0:0:0:0:
422,114,40345,6,0,P|385:100|354:97,1,70
183,89,41101,1,0,0:0:0:0:
424,85,41353,2,0,P|406:76|382:71,1,35
76,54,41857,2,0,P|98:52|123:54,1,35
384,304,42361,2,0,P|364:296|347:283,1,35
75,224,42866,2,0,P|96:221|113:214,1,35
337,76,43370,5,0,0:0:0:0:
142,95,43622,1,0,0:0:0:0:
258,230,43874,1,0,0:0:0:0:
324,39,44126,5,0,0:0:0:0:
120,129,44378,1,0,0:0:0:0:
293,234,44630,1,0,0:0:0:0:
337,76,44882,1,0,0:0:0:0:
142,95,45135,2,0,P|180:98|207:106,1,52.5
266,131,45639,1,0,0:0:0:0:
258,230,45891,2,0,L|260:199,1,17.5
266,131,46143,1,0,0:0:0:0:
429,60,46395,6,0,P|400:64|367:78,1,52.5
247,29,46899,2,0,L|258:47,1,17.5
411,196,47151,2,0,L|391:186,1,17.5
189,96,47404,6,0,P|159:98|126:109,1,52.5
43,203,47908,2,0,L|73:193,1,17.5
249,306,48160,2,0,L|247:279,1,17.5
111,311,48412,6,0,P|139:271|151:259,1,52.5
231,207,48916,2,0,P|242:171|237:131,1,70
87,40,49925,5,0,0:0:0:0:
396,281,50429,1,0,0:0:0:0:
56,109,50933,1,0,0:0:0:0:
190,47,51185,1,0,0:0:0:0:
58,60,51437,2,0,L|89:38,1,35
424,260,51941,2,0,L|395:280,1,35
215,114,52446,6,0,L|223:131,1,17.5
302,281,52698,2,0,L|284:246,1,35
209,279,53202,2,0,L|224:247,1,35
298,111,53706,6,0,L|291:127,1,17.5
209,279,53958,2,0,L|226:247,1,35
287,144,54462,6,0,P|255:112|223:143,1,98
256,37,56479,6,0,P|220:65|198:100,1,83.9999974365235
144,106,56857,1,0,0:0:0:0:
89,112,56983,2,0,P|110:98|146:90,1,41.9999987182618
325,164,57235,2,0,P|303:178|268:186,1,41.9999987182618
208,261,57488,6,0,P|189:244|180:224,1,41.9999987182618
320,29,57740,2,0,P|313:51|299:71,1,41.9999987182618
263,209,57992,2,0,P|269:188|283:172,1,41.9999987182618
439,103,58244,2,0,P|422:89|391:83,1,41.9999987182618
100,196,58496,6,0,P|125:181|153:175,1,41.9999987182618
199,167,58748,1,0,0:0:0:0:
262,169,58874,1,0,0:0:0:0:
325,164,59000,6,0,P|401:130|420:107,1,83.9999974365235
424,83,59378,1,0,0:0:0:0:
409,27,59504,2,0,P|382:27|353:39,1,41.9999987182618
182,105,59756,2,0,P|209:105|238:93,1,41.9999987182618
385,9,60009,2,0,P|362:15|339:31,1,41.9999987182618
205,122,60261,2,0,P|228:116|251:100,1,41.9999987182618
178,34,60513,6,0,P|126:78|119:108,1,83.9999974365235
116,149,60891,1,0,0:0:0:0:
164,214,61017,2,0,P|139:167|94:139,1,83.9999974365235
57,122,61395,1,0,0:0:0:0:
21,143,61521,2,0,P|40:127|61:121,1,41.9999987182618
116,113,61773,6,0,P|151:108|186:91,1,41.9999987182618
264,25,62025,1,0,0:0:0:0:
436,268,62277,2,0,P|421:244|404:233,1,41.9999987182618
391,127,62530,6,0,P|357:154|314:167,1,83.9999974365235
263,157,62908,1,0,0:0:0:0:
251,84,63034,2,0,P|210:106|189:156,1,83.9999974365235
263,157,63412,1,0,0:0:0:0:
336,144,63538,2,0,P|313:103|262:83,1,83.9999974365235
263,157,63916,1,0,0:0:0:0:
201,197,64042,2,0,P|219:217|237:226,1,41.9999987182618
322,200,64294,2,0,P|307:215|289:225,1,41.9999987182618
72,294,64546,6,0,P|81:269|95:253,1,41.9999987182618
147,74,64798,2,0,P|138:99|124:115,1,41.9999987182618
36,190,65051,6,0,P|80:182|107:184,1,41.9999987182618
130,184,65303,1,0,0:0:0:0:
185,198,65429,1,0,0:0:0:0:
239,213,65555,1,0,0:0:0:0:
296,219,65681,1,0,0:0:0:0:
351,213,65807,1,0,0:0:0:0:
405,196,65933,1,0,0:0:0:0:
447,162,66059,6,0,P|457:116|448:91,1,41.9999987182618
292,25,66311,2,0,P|274:42|266:65,1,41.9999987182618
385,249,66563,6,0,P|374:201|345:160,1,83.9999974365235
313,136,66941,1,0,0:0:0:0:
262,108,67067,2,0,P|227:96|202:95,1,41.9999987182618
71,132,67319,2,0,P|105:143|130:144,1,41.9999987182618
354,75,67572,6,0,P|298:65|254:90,1,83.9999974365235
233,108,67950,1,0,0:0:0:0:
199,260,68076,2,0,P|224:234|236:212,1,41.9999987182618
261,77,68328,2,0,P|235:102|223:124,1,41.9999987182618
216,159,68580,5,0,0:0:0:0:
227,213,68706,1,0,0:0:0:0:
263,259,68832,1,0,0:0:0:0:
228,308,68958,5,0,0:0:0:0:
171,295,69084,1,0,0:0:0:0:
117,308,69210,1,0,0:0:0:0:
91,257,69336,6,0,P|106:234|113:211,1,41.9999987182618
140,110,69588,2,0,P|131:127|125:148,1,41.9999987182618
116,307,69840,2,0,P|127:265|126:226,1,41.9999987182618,0|0,2:0|2:0,2:0:0:0:
114,59,70092,2,0,P|109:89|112:125,1,41.9999987182618,0|0,2:0|2:0,2:0:0:0:
91,257,70345,2,0,P|71:235|62:213,1,41.9999987182618
140,110,70597,6,0,P|159:132|168:153,1,41.9999987182618
283,141,70849,2,0,P|302:166|320:180,1,41.9999987182618
433,57,71101,2,0,P|403:63|383:77,1,41.9999987182618
358,124,71353,1,0,0:0:0:0:
377,187,71479,1,0,0:0:0:0:
437,208,71605,6,0,P|443:168|429:118,1,83.9999974365235
393,69,71983,1,0,0:0:0:0:
327,35,72109,2,0,P|297:42|283:51,1,41.9999987182618
129,94,72361,2,0,P|115:121|112:137,1,41.9999987182618
140,307,72614,6,0,P|177:253|220:222,1,112
273,198,72992,1,0,0:0:0:0:
300,263,73118,2,0,P|326:250|359:244,1,56
482,299,73370,2,0,P|457:285|430:278,1,56
473,202,73622,6,0,P|471:166|460:138,1,56
352,66,73874,2,0,P|376:79|396:98,1,56
329,150,74126,2,0,P|292:141|263:143,1,56
146,135,74378,2,0,P|170:121|197:114,1,56
405,46,74630,5,0,0:0:0:0:
352,66,74756,1,0,0:0:0:0:
305,96,74882,1,0,0:0:0:0:
265,135,75008,1,0,0:0:0:0:
233,182,75135,2,0,P|238:212|232:241,1,56
198,317,75387,1,0,0:0:0:0:
198,317,75513,1,0,0:0:0:0:
108,207,75639,6,0,P|122:230|128:257,1,56
269,143,75891,2,0,P|266:170|272:197,1,56
43,161,76143,2,0,P|64:189|75:224,1,56
242,61,76395,2,0,P|241:96|253:130,1,56
325,242,76647,5,0,0:0:0:0:
260,232,76773,1,0,0:0:0:0:
269,169,76899,1,0,0:0:0:0:
334,180,77025,1,0,0:0:0:0:
405,157,77151,6,0,P|380:120|366:112,1,56
341,35,77404,2,0,P|304:60|296:74,1,56
210,77,77656,2,0,P|225:118|236:130,1,56
241,212,77908,2,0,P|282:196|294:185,1,56
394,69,78160,5,0,0:0:0:0:
394,69,78286,1,0,0:0:0:0:
450,138,78412,2,0,P|411:156|382:158,1,56
250,108,78664,5,0,0:0:0:0:
250,108,78790,1,0,0:0:0:0:
299,35,78916,2,0,P|261:21|241:20,1,56
107,62,79168,5,0,0:0:0:0:
107,62,79294,1,0,0:0:0:0:
160,131,79420,2,0,P|125:147|99:148,1,56
20,215,79672,6,0,P|66:220|91:239,1,56
176,311,79925,2,0,P|194:268|210:251,1,56
271,100,80177,2,0,P|255:136|236:155,1,56
149,210,80429,1,0,0:0:0:0:
149,210,80555,1,0,0:0:0:0:
195,121,80681,6,0,P|220:132|244:148,1,56
316,212,80933,2,0,P|342:230|380:236,1,56
430,75,81185,2,0,P|373:125|381:182,1,112
387,257,81563,1,0,0:0:0:0:
467,225,81689,6,0,P|439:187|412:175,1,56
296,134,81941,1,0,0:0:0:0:
236,140,82067,1,0,0:0:0:0:
269,186,82193,1,0,0:0:0:0:
264,109,82319,1,0,0:0:0:0:
233,179,82445,1,0,0:0:0:0:
304,171,82571,1,0,0:0:0:0:
385,88,82698,6,0,P|332:54|281:42,1,112
174,43,83076,1,0,0:0:0:0:
51,91,83202,2,0,P|80:113|93:133,1,56
130,218,83454,1,0,0:0:0:0:
130,218,83580,1,0,0:0:0:0:
222,203,83706,6,0,P|245:130|328:119,1,168
296,186,84210,1,0,0:0:0:0:
296,186,84336,1,0,0:0:0:0:
365,167,84462,2,0,P|342:240|259:251,1,168
221,207,84967,2,0,P|223:156|235:138,1,56
272,110,85219,2,0,P|322:112|340:124,1,56
225,152,85471,6,0,P|217:179|221:207,1,56
326,114,85723,2,0,P|299:106|272:110,1,56
291,177,85975,2,0,P|288:227|276:245,1,56
240,274,86227,2,0,P|189:271|171:259,1,56
286,231,86479,6,0,P|294:204|291:177,1,56
185,269,86731,2,0,P|212:277|240:274,1,56
378,295,86983,1,0,0:0:0:0:
378,295,87109,1,0,0:0:0:0:
400,210,87235,1,0,0:0:0:0:
400,210,87361,1,0,0:0:0:0:
370,131,87488,1,0,0:0:0:0:
370,131,87614,1,0,0:0:0:0:
294,81,87740,5,0,0:0:0:0:
242,60,87866,1,0,0:0:0:0:
188,71,87992,1,0,0:0:0:0:
148,108,88118,1,0,0:0:0:0:
134,162,88244,1,0,0:0:0:0:
151,214,88370,1,0,0:0:0:0:
194,250,88496,1,0,0:0:0:0:
248,256,88622,1,0,0:0:0:0:
332,282,88748,6,0,P|323:211|284:172,1,112
243,139,89126,1,0,0:0:0:0:
298,181,89252,2,0,P|310:162|312:145,1,26.2500010013581
318,78,89504,2,0,P|331:117|365:149,1,78.7500030040742
424,173,90009,1,0,0:0:0:0:
424,173,90135,1,0,0:0:0:0:
424,173,90261,2,0,P|415:216|406:234,1,52.5000020027161
398,245,90639,1,0,0:0:0:0:
333,294,90765,6,0,P|317:269|289:255,1,52.5000020027161
250,240,91143,1,0,0:0:0:0:
172,248,91269,2,0,L|160:187,1,52.5000020027161
105,81,91647,2,0,L|118:153,1,52.5000020027161
81,226,92025,2,0,L|98:187,1,26.2500010013581
216,70,92277,2,0,L|196:118,1,52.5000020027161
204,169,92656,1,0,0:0:0:0:
204,169,92782,6,0,P|236:205|244:221,1,52.5000020027161
87,46,93286,2,0,P|110:52|123:60,1,26.2500010013581
258,48,93538,2,0,P|241:53|225:65,1,26.2500010013581
170,109,93790,1,0,0:0:0:0:
124,319,94042,2,0,P|134:303|145:292,1,26.2500010013581
210,269,94294,2,0,P|235:250|252:227,1,52.5000020027161
271,202,94672,1,0,0:0:0:0:
298,98,94798,6,0,P|301:139|311:160,1,52.5000020027161
353,170,95177,1,0,0:0:0:0:
298,98,95303,2,0,P|278:71|250:58,1,52.5000020027161
138,83,95681,2,0,P|158:110|186:123,1,52.5000020027161
378,164,96059,2,0,P|360:167|343:174,1,26.2500010013581
290,216,96311,2,0,P|261:192|236:184,1,52.5000020027161
176,166,96689,1,0,0:0:0:0:
176,166,96815,6,0,P|137:160|113:148,1,52.5000020027161
