osu file format v14

[General]
AudioFilename: audio.mp3
AudioLeadIn: 0
PreviewTime: -1
Countdown: 0
SampleSet: Soft
StackLeniency: 0.7
Mode: 0
LetterboxInBreaks: 0
WidescreenStoryboard: 0

[Editor]
Bookmarks: 28623
DistanceSpacing: 2
BeatDivisor: 4
GridSize: 4
TimelineZoom: 1

[Metadata]
Title:Lyutiki
TitleUnicode:Lyutiki
Artist:Luna
ArtistUnicode:Luna
Creator:Vald1s
Version:Hard
Source:ALOHADANCE STREAM
Tags:лютики, не дарили мальчики, животики, AlohaDance, twitch, 9k
BeatmapID:1142304
BeatmapSetID:539055

[Difficulty]
HPDrainRate:5.5
CircleSize:3.8
OverallDifficulty:6.5
ApproachRate:8.8
SliderMultiplier:1.4
SliderTickRate:1

[Events]
//Background and Video events
0,0,"image.jpg",0,0
//Break Periods
//Storyboard Layer 0 (Background)
//Storyboard Layer 1 (Fail)
//Storyboard Layer 2 (Pass)
//Storyboard Layer 3 (Foreground)
//Storyboard Sound Samples

[TimingPoints]
10,504.201680672269,4,2,0,33,1,0
27478,-50,4,2,0,33,0,0
29495,-100,4,2,0,33,0,0
39831,-200,4,2,0,33,0,0
56470,-83.3333333333333,4,2,0,33,0,1
89243,-133.333333333333,4,2,0,33,0,0
104873,-83.3333333333333,4,2,0,33,0,0
121008,-200,4,2,0,33,0,0
153277,-50,4,2,0,33,0,1
185546,-100,4,2,0,33,0,0
213025,-50,4,2,0,33,0,0
214789,-100,4,2,0,33,0,0
217815,-83.3333333333333,4,2,0,33,0,0

[HitObjects]
100,104,10,5,0,0:0:0:0:
194,150,388,1,0,0:0:0:0:
137,238,766,1,0,0:0:0:0:
202,320,1144,1,0,0:0:0:0:
300,284,1522,1,0,0:0:0:0:
296,179,1900,1,0,0:0:0:0:
389,130,2278,6,0,P|356:89|308:70,2,105
395,235,3413,1,0,0:0:0:0:
296,179,3791,1,0,0:0:0:0:
268,179,4043,6,0,P|221:173|160:135,1,105
84,85,4799,1,0,0:0:0:0:
188,71,5178,1,0,0:0:0:0:
123,153,5556,1,0,0:0:0:0:
227,141,5934,1,0,0:0:0:0:
171,230,6312,6,0,B|116:186|116:186|124:146,1,105
191,73,7068,6,0,B|246:117|246:117|238:157,1,105
305,233,7825,1,0,0:0:0:0:
305,233,8077,5,0,0:0:0:0:
271,133,8455,1,0,0:0:0:0:
374,114,8833,1,0,0:0:0:0:
276,74,9211,2,0,L|384:118,1,105
275,151,9967,1,0,0:0:0:0:
354,82,10346,5,0,0:0:0:0:
417,165,10724,1,0,0:0:0:0:
333,229,11102,1,0,0:0:0:0:
249,293,11480,1,0,0:0:0:0:
170,223,11858,1,0,0:0:0:0:
170,223,12110,1,0,0:0:0:0:
72,276,12615,6,0,B|81:225|56:172|56:172,1,105
68,160,13119,2,0,B|88:132|144:136|168:164|168:164|208:112|208:112|252:128|312:108,1,280
400,228,14631,2,0,B|420:264|412:304|376:328,1,105
352,312,15135,2,0,B|288:240|204:296|204:296|144:252|88:268,1,280
96,40,16648,5,0,0:0:0:0:
96,40,16900,1,0,0:0:0:0:
287,88,17404,2,0,B|218:106|182:61|182:61|147:19|73:46,1,210,0|0,3:3|3:3,3:3:0:0:
64,296,18413,5,0,0:0:0:0:
220,200,18665,1,0,0:0:0:0:
100,316,18917,1,0,0:0:0:0:
203,106,19421,2,0,B|256:101|322:131|307:204|374:221,1,210,0|0,2:0|2:0,2:0:0:0:
84,72,20682,5,0,0:0:0:0:
104,84,20934,1,0,0:0:0:0:
44,244,21438,1,0,0:0:0:0:
68,256,21690,2,0,P|116:228|144:224,1,70
172,296,22194,6,0,P|196:256|252:220,1,105
264,220,22699,1,0,0:0:0:0:
384,56,23203,5,0,0:0:0:0:
384,56,23455,1,0,0:0:0:0:
384,56,23707,1,0,0:0:0:0:
384,56,23959,2,0,P|344:108|272:128,1,140
136,72,24715,1,0,0:0:0:0:
136,72,24967,1,0,0:0:0:0:
136,72,25220,2,0,P|144:128|208:192,1,140
395,243,26228,6,0,L|312:230,1,70
284,316,26732,2,0,B|240:308|240:308|220:284,1,70
88,76,27488,6,0,B|136:84|136:84|184:52|184:52|232:60|232:60,1,140
361,123,27993,5,0,0:0:0:0:
447,213,28245,1,0,0:0:0:0:
361,260,28497,1,0,0:0:0:0:
447,170,28749,1,0,0:0:0:0:
72,272,29505,6,0,P|96:232|124:208,1,70
229,134,30010,2,0,P|205:174|177:198,1,70
91,91,31270,6,0,P|132:72|172:68,1,70
220,147,31774,2,0,P|166:190|97:192,1,140
301,140,32783,6,0,P|289:184|277:204,1,70
435,152,33539,1,0,0:0:0:0:
360,77,33791,1,0,0:0:0:0:
256,59,34043,1,0,0:0:0:0:
158,97,34295,1,0,0:0:0:0:
323,226,34799,5,0,0:0:0:0:
360,77,35052,2,0,B|316:135|316:135|241:172,1,140
408,288,36312,5,0,0:0:0:0:
417,85,36816,6,0,B|391:143|312:156,1,105
313,154,37320,2,0,B|235:154|235:249|235:249|180:300|180:300|120:243,1,280
99,47,38833,6,0,B|134:87|134:87|182:110,1,105
201,88,39337,2,0,B|181:53|181:53|149:38,1,70
250,48,39841,2,0,L|287:66,1,35
369,123,40346,6,0,B|334:132|334:132|316:176,1,70
382,233,41102,1,0,0:0:0:0:
291,253,41354,1,0,0:0:0:0:
456,104,41858,1,0,0:0:0:0:
291,253,42362,1,0,0:0:0:0:
456,104,42867,2,0,P|441:119|428:148,1,52.5
424,172,43371,5,0,0:0:0:0:
357,150,43623,1,0,0:0:0:0:
337,217,43875,1,0,0:0:0:0:
403,239,44127,1,0,0:0:0:0:
424,172,44379,2,0,L|384:161,1,35
64,92,45136,6,0,P|80:120|108:148,1,70
166,180,45892,1,0,0:0:0:0:
413,129,46396,2,0,P|390:131|368:139,1,35
396,224,46900,5,0,0:0:0:0:
347,274,47152,1,0,0:0:0:0:
410,244,47404,2,0,P|430:220|438:176,1,70
417,115,48161,1,0,0:0:0:0:
351,91,48413,2,0,L|331:59,1,35
265,80,48917,2,0,L|332:61,1,70
64,115,49925,2,0,L|104:104,1,35
240,126,50430,6,0,L|191:140,1,35
136,221,50934,2,0,L|87:235,2,35
367,288,51942,2,0,P|347:270|326:255,1,52.5
308,243,52446,5,0,0:0:0:0:
367,200,52699,2,0,L|396:181,1,35
469,134,53203,2,0,L|437:154,1,35
367,200,53707,1,0,0:0:0:0:
374,124,53959,2,0,P|402:132|434:164,1,70
84,104,56480,5,0,0:0:0:0:
152,200,56732,1,0,0:0:0:0:
243,268,56984,2,0,B|199:256|199:256|168:219,1,83.9999974365235
365,190,57488,6,0,L|409:198,1,41.9999987182618
372,64,57741,2,0,L|344:96,1,41.9999987182618
280,168,57993,1,0,0:0:0:0:
238,46,58245,2,0,L|253:93,1,41.9999987182618
288,197,58497,5,0,0:0:0:0:
177,49,58749,2,0,B|228:54|263:100,1,83.9999974365235
199,267,59253,1,0,0:0:0:0:
429,236,59505,6,0,B|401:208|365:228|365:228|333:188|333:188|301:200|269:196,1,167.999994873047
193,62,60262,2,0,P|205:94|205:106,1,41.9999987182618
203,138,60514,5,0,0:0:0:0:
363,161,60766,1,0,0:0:0:0:
147,192,61018,2,0,B|126:148|126:148|132:103,1,83.9999974365235
283,150,61522,1,0,0:0:0:0:
157,41,61774,6,0,P|180:50|203:78,1,41.9999987182618
283,150,62026,1,0,0:0:0:0:
140,316,62531,6,0,B|84:300|84:300|68:260|68:260,1,83.9999974365235
125,121,63035,2,0,B|131:105|114:144|114:144|138:186,1,83.9999974365235
262,207,63539,1,0,0:0:0:0:
74,276,63791,1,0,0:0:0:0:
125,121,64043,1,0,0:0:0:0:
185,292,64295,1,0,0:0:0:0:
170,136,64547,5,0,0:0:0:0:
208,250,64799,1,0,0:0:0:0:
251,139,65052,2,0,B|213:127|213:127|169:135,1,83.9999974365235
65,164,65556,5,0,0:0:0:0:
138,269,65808,2,0,P|145:288|159:304,1,41.9999987182618
176,321,66060,1,0,0:0:0:0:
65,164,66312,1,0,0:0:0:0:
317,176,66564,6,0,B|292:121|229:116|229:116|197:64,1,167.999994873047
67,65,67320,1,0,0:0:0:0:
80,233,67573,6,0,B|96:211|96:211|135:210|135:210|162:174,1,83.9999974365235
230,113,68077,1,0,0:0:0:0:
355,240,68329,2,0,L|271:252,1,83.9999974365235
198,316,68833,1,0,0:0:0:0:
355,240,69085,1,0,0:0:0:0:
136,264,69337,6,0,L|108:224,1,41.9999987182618
80,124,69589,2,0,L|104:158,1,41.9999987182618
185,149,69841,2,0,L|168:188,1,41.9999987182618
256,164,70094,2,0,L|216:252,1,83.9999974365235
292,100,70598,6,0,P|316:84|376:76,1,83.9999974365235
420,188,71102,1,0,0:0:0:0:
420,188,71354,1,0,0:0:0:0:
412,288,71606,2,0,B|360:256|360:256|288:260|288:260,1,125.999996154785
248,264,72110,1,0,0:0:0:0:
123,291,72362,1,0,0:0:0:0:
57,187,72615,5,0,0:0:0:0:
179,180,72867,1,0,0:0:0:0:
102,282,73119,1,0,0:0:0:0:
43,155,73371,1,0,0:0:0:0:
208,52,73623,6,0,P|256:64|292:84,1,83.9999974365235
428,124,74127,2,0,P|424:176|408:208,1,83.9999974365235
128,284,74631,2,0,P|144:236|172:200,1,83.9999974365235
320,144,75136,1,0,0:0:0:0:
320,144,75388,1,0,0:0:0:0:
392,300,75640,2,0,P|344:264|268:240,1,125.999996154785
257,241,76144,1,0,0:0:0:0:
164,270,76396,1,0,0:0:0:0:
72,152,76648,5,0,0:0:0:0:
208,64,76900,1,0,0:0:0:0:
368,88,77152,1,0,0:0:0:0:
208,96,77404,1,0,0:0:0:0:
100,164,77657,1,0,0:0:0:0:
208,124,77909,1,0,0:0:0:0:
136,180,78161,1,0,0:0:0:0:
208,152,78413,1,0,0:0:0:0:
88,248,78665,6,0,P|148:260|184:276,1,83.9999974365235
333,54,79169,2,0,P|359:100|366:137,1,83.9999974365235
400,256,79673,1,0,0:0:0:0:
272,300,79925,1,0,0:0:0:0:
388,188,80178,1,0,0:0:0:0:
232,244,80430,1,0,0:0:0:0:
368,128,80682,6,0,P|356:84|327:49,1,83.9999974365235
196,32,81186,2,0,P|204:72|231:104,1,83.9999974365235
76,16,81690,1,0,0:0:0:0:
56,128,81942,6,0,L|24:164,2,41.9999987182618
176,184,82446,1,0,0:0:0:0:
40,244,82699,2,0,B|88:240|120:304|120:304|188:304,1,167.999994873047
256,168,83455,1,0,0:0:0:0:
368,276,83707,6,0,P|360:224|388:152,1,125.999996154785
416,128,84211,1,0,0:0:0:0:
320,44,84463,2,0,P|300:60|264:112,1,83.9999974365235
196,44,84967,2,0,P|152:64|120:92,1,83.9999974365235
220,156,85472,5,0,0:0:0:0:
80,188,85724,1,0,0:0:0:0:
148,304,85976,1,0,0:0:0:0:
288,272,86228,1,0,0:0:0:0:
204,184,86480,1,0,0:0:0:0:
112,204,86732,1,0,0:0:0:0:
168,272,86984,1,0,0:0:0:0:
260,256,87236,1,0,0:0:0:0:
346,234,87488,6,0,P|361:213|370:186,1,41.9999987182618
344,172,87741,2,0,B|308:219|258:196|258:196,1,83.9999974365235
216,97,88245,2,0,P|237:112|271:120,1,41.9999987182618
268,48,88497,2,0,P|266:76|300:142,1,83.9999974365235
384,234,89001,1,0,0:0:0:0:
284,300,89253,6,0,L|260:276,1,26.2500010013581
221,286,89505,2,0,P|189:266|165:258,1,52.5000020027161
72,260,90010,1,0,0:0:0:0:
48,144,90262,1,0,0:0:0:0:
92,252,90514,1,0,0:0:0:0:
136,160,90766,6,0,P|152:124|168:108,1,52.5000020027161
194,81,91144,2,0,L|222:97,1,26.2500010013581
326,105,91522,2,0,L|334:137,1,26.2500010013581
450,157,91900,2,0,L|434:189,1,26.2500010013581
481,275,92278,2,0,P|449:287|421:287,1,52.5000020027161
272,248,92783,5,0,0:0:0:0:
184,272,93035,1,0,0:0:0:0:
100,228,93287,1,0,0:0:0:0:
367,195,93539,5,0,0:0:0:0:
283,151,93791,1,0,0:0:0:0:
195,175,94043,1,0,0:0:0:0:
88,72,94295,2,0,L|144:60,1,52.5000020027161
356,64,94799,6,0,P|331:72|298:107,1,52.5000020027161
322,161,95178,2,0,L|290:165,1,26.2500010013581
250,249,95556,2,0,L|222:237,1,26.2500010013581
122,277,95934,2,0,L|100:255,1,26.2500010013581
63,161,96312,1,0,0:0:0:0:
148,54,96564,1,0,0:0:0:0:
286,71,96816,5,0,0:0:0:0:
416,160,97068,1,0,0:0:0:0:
276,76,97320,1,0,0:0:0:0:
428,152,97573,2,0,P|444:184|444:208,1,52.5000020027161
440,40,98077,1,0,0:0:0:0:
324,156,98329,2,0,L|284:197,1,52.5000020027161
88,192,98833,6,0,P|96:144|100:136,1,52.5000020027161
156,88,99211,2,0,L|164:116,1,26.2500010013581
152,260,99589,2,0,L|172:228,1,26.2500010013581
272,56,99967,2,0,L|280:92,1,26.2500010013581
289,251,100346,2,0,P|305:215|345:187,1,78.7500030040742
372,212,100850,5,0,0:0:0:0:
432,100,101102,1,0,0:0:0:0:
400,232,101354,1,0,0:0:0:0:
280,320,101606,1,0,0:0:0:0:
428,252,101858,1,0,0:0:0:0:
314,164,102110,1,0,0:0:0:0:
464,284,102362,2,0,L|422:247,1,52.5000020027161
172,48,102867,6,0,L|192:96,1,52.5000020027161
160,144,103245,2,0,L|180:168,1,26.2500010013581
280,308,103623,2,0,L|256:280,1,26.2500010013581
148,304,104001,2,0,L|168:272,1,26.2500010013581
213,207,104379,2,0,P|239:174|268:146,1,78.7500030040742
284,137,104883,5,0,0:0:0:0:
296,344,105388,2,0,B|291:303|291:303|258:267,1,83.9999974365235
48,204,105892,2,0,L|84:240,1,41.9999987182618
104,260,106144,1,0,0:0:0:0:
176,40,106396,1,0,0:0:0:0:
284,56,106648,1,0,0:0:0:0:
392,128,106900,6,0,B|356:172|356:172|328:184,1,83.9999974365235
376,324,107404,2,0,P|340:304|296:296,1,83.9999974365235
144,324,107909,2,0,L|180:296,1,41.9999987182618
112,44,108287,1,0,0:0:0:0:
116,68,108413,2,0,B|124:108|124:108|157:135,1,83.9999974365235
256,208,108917,6,0,P|251:157|271:120,1,83.9999974365235
323,30,109421,2,0,P|355:64|394:75,1,83.9999974365235
363,195,109925,2,0,P|339:187|319:159,1,41.9999987182618
310,158,110178,1,0,0:0:0:0:
468,260,110430,2,0,P|444:296|404:316,1,83.9999974365235
260,304,110934,5,0,0:0:0:0:
136,240,111186,1,0,0:0:0:0:
320,284,111438,1,0,0:0:0:0:
360,144,111690,1,0,0:0:0:0:
260,304,111942,6,0,P|240:288|212:276,1,41.9999987182618
304,40,112320,1,0,0:0:0:0:
281,51,112446,2,0,P|225:67|185:63,1,83.9999974365235
118,56,112951,5,0,0:0:0:0:
44,184,113203,1,0,0:0:0:0:
136,64,113455,2,0,P|176:80|220:84,1,83.9999974365235
65,188,113959,2,0,P|87:190|112:200,1,41.9999987182618
128,206,114211,1,0,0:0:0:0:
272,284,114463,1,0,0:0:0:0:
116,304,114715,1,0,0:0:0:0:
248,180,114967,6,0,B|288:148|288:144|288:144|280:108,1,83.9999974365235
318,51,115472,2,0,B|276:80|276:84|276:84|282:121,1,83.9999974365235
161,82,115976,2,0,L|198:108,1,41.9999987182618
309,338,116354,1,0,0:0:0:0:
304,316,116480,2,0,B|292:272|292:272|248:252,1,83.9999974365235
104,264,116984,5,0,0:0:0:0:
64,104,117236,1,0,0:0:0:0:
144,280,117488,1,0,0:0:0:0:
89,77,117741,1,0,0:0:0:0:
104,264,117993,6,0,P|95:226|74:196,1,41.9999987182618
88,202,118245,2,0,P|111:157|153:127,1,83.9999974365235
256,172,118749,1,0,0:0:0:0:
424,188,119001,6,0,B|412:216|412:216|380:240|372:256,1,83.9999974365235
448,328,119505,1,0,0:0:0:0:
272,320,119757,1,0,0:0:0:0:
372,252,120010,2,0,B|348:208|348:208|303:211|264:182|256:139,1,167.999994873047
415,136,120766,2,0,P|365:122|322:134,1,83.9999974365235
267,167,121270,1,0,0:0:0:0:
162,77,121522,6,0,L|182:109,1,35
198,133,122026,1,0,0:0:0:0:
416,232,122531,2,0,L|416:192,1,35
440,160,123035,2,0,L|428:128,1,35
416,96,123539,1,0,0:0:0:0:
184,88,124043,1,0,0:0:0:0:
400,52,124547,1,0,0:0:0:0:
112,76,125052,6,0,L|152:84,2,35
32,144,125808,1,0,0:0:0:0:
152,168,126060,2,0,L|112:160,1,35
192,320,126816,2,0,P|212:280|264:248,1,105
384,240,128077,1,0,0:0:0:0:
372,60,128581,1,0,0:0:0:0:
372,60,128833,1,0,0:0:0:0:
372,60,129085,6,0,B|360:104|360:104|340:128,1,70
216,108,129841,1,0,0:0:0:0:
352,156,130094,2,0,L|304:212,2,70
408,236,131606,5,0,0:0:0:0:
408,236,132110,1,0,0:0:0:0:
240,292,132615,1,0,0:0:0:0:
204,280,132867,1,0,0:0:0:0:
168,280,133119,1,0,0:0:0:0:
44,232,133623,2,0,L|72:204,1,35
120,112,134127,5,0,0:0:0:0:
232,128,134379,2,0,L|252:164,1,35
372,208,134883,2,0,L|352:176,1,35
252,208,135388,1,0,0:0:0:0:
352,132,135640,2,0,L|332:100,1,35
296,40,136144,1,0,0:0:0:0:
104,108,136648,2,0,L|120:140,1,35
104,264,137152,5,0,0:0:0:0:
264,256,137657,2,0,L|248:288,2,35
372,80,138665,2,0,P|348:60|324:52,1,52.5
296,48,139169,1,0,0:0:0:0:
208,76,139421,5,0,0:0:0:0:
208,76,139673,1,0,0:0:0:0:
208,76,139925,1,0,0:0:0:0:
84,200,140430,2,0,L|116:224,1,35
188,228,140934,2,0,B|220:208|260:208|288:188,1,105
296,324,141942,1,0,0:0:0:0:
464,260,142446,2,0,L|452:228,1,35
480,152,142951,2,0,L|448:132,1,35
288,48,143707,5,0,0:0:0:0:
288,48,143959,1,0,0:0:0:0:
288,48,144211,2,0,P|276:72|272:80,1,35
116,132,144715,2,0,L|152:112,1,35
248,160,145220,6,0,L|216:180,1,35
64,216,145724,2,0,P|88:232|128:248,1,70
412,272,146732,1,0,0:0:0:0:
456,80,147236,1,0,0:0:0:0:
340,128,147741,2,0,L|328:160,1,35
308,204,148245,1,0,0:0:0:0:
164,272,148749,2,0,L|184:216,1,52.5
192,212,149253,5,0,0:0:0:0:
160,132,149505,1,0,0:0:0:0:
252,152,149757,1,0,0:0:0:0:
332,44,150010,2,0,P|344:48|372:52,1,35
448,48,150514,1,0,0:0:0:0:
432,136,150766,2,0,P|388:148|360:144,1,70
256,192,151270,12,0,152783,0:0:0:0:
76,64,153287,5,0,0:0:0:0:
240,92,153539,1,0,0:0:0:0:
60,120,153791,1,0,0:0:0:0:
256,36,154043,1,0,0:0:0:0:
384,128,154295,6,0,B|396:152|408:208|408:208|380:260,1,140
204,304,154799,1,0,0:0:0:0:
56,224,155052,1,0,0:0:0:0:
228,280,155304,6,0,B|244:236|244:212|244:212|276:168|308:164,1,140
424,60,155808,1,0,0:0:0:0:
156,144,156060,2,0,P|181:116|184:125,1,70
315,136,156312,2,0,P|342:151|322:174,1,70
188,232,156564,2,0,P|158:208|166:205,1,70
236,76,156816,2,0,P|257:54|274:80,1,70
291,231,157068,2,0,P|280:260|254:243,1,70
236,160,157320,5,0,0:0:0:0:
432,268,157573,2,0,P|435:199|388:109,1,140
300,44,158077,1,0,0:0:0:0:
236,160,158329,1,0,0:0:0:0:
36,228,158581,6,0,P|48:192|72:164,1,70
161,91,158833,1,0,0:0:0:0:
176,284,159085,1,0,0:0:0:0:
232,52,159337,6,0,P|272:40|368:52,1,140
255,313,159841,2,0,P|315:317|387:281,1,140
436,88,160346,1,0,0:0:0:0:
440,224,160598,1,0,0:0:0:0:
324,160,160850,2,0,P|252:160|176:176,1,140
36,224,161354,5,0,0:0:0:0:
104,100,161606,1,0,0:0:0:0:
48,304,161858,2,0,B|104:304|168:324|168:324|200:296,1,140
360,312,162362,1,0,0:0:0:0:
472,64,162615,6,0,L|432:128,1,70
403,148,162867,1,0,0:0:0:0:
251,86,163119,2,0,P|234:107|214:145,1,70
220,172,163371,2,0,B|252:228|252:228|220:248|204:292,1,140
352,296,163875,1,0,0:0:0:0:
352,296,164127,1,0,0:0:0:0:
307,173,164379,6,0,P|199:165|221:189,1,280
256,136,165136,2,0,L|256:284,1,140
432,324,165640,2,0,B|358:338|358:338|298:314,1,140
80,324,166144,2,0,B|153:338|153:338|213:314,1,140
365,262,166648,1,0,0:0:0:0:
144,261,166900,1,0,0:0:0:0:
255,243,167152,1,0,0:0:0:0:
53,163,167404,6,0,P|83:218|145:263,1,140
254,107,167909,2,0,P|240:175|255:243,1,140
446,156,168413,2,0,P|391:197|365:261,1,140
255,333,168917,1,0,0:0:0:0:
144,262,169169,1,0,0:0:0:0:
132,64,169421,5,0,0:0:0:0:
404,120,169673,1,0,0:0:0:0:
216,176,169925,1,0,0:0:0:0:
32,136,170178,2,0,P|64:108|88:96,1,70
120,88,170430,6,0,B|160:83|188:107|188:107|228:92|264:120,1,140
404,120,170934,1,0,0:0:0:0:
422,238,171186,2,0,P|387:230|359:210,1,70
332,206,171438,2,0,B|292:199|265:223|265:223|252:186|215:175,1,140
112,268,171942,1,0,0:0:0:0:
303,297,172194,1,0,0:0:0:0:
60,96,172446,6,0,B|71:103|127:83|127:83|179:131,1,140
384,152,172951,1,0,0:0:0:0:
316,278,173203,1,0,0:0:0:0:
56,200,173455,6,0,P|100:164|192:160,1,140
405,135,173959,1,0,0:0:0:0:
314,312,174211,1,0,0:0:0:0:
440,104,174463,2,0,B|404:48|404:48|340:56|308:76,1,140
308,76,174841,2,0,B|276:92|264:92|228:96,1,70
44,108,175220,1,0,0:0:0:0:
148,324,175472,6,0,B|112:248|112:248|136:228|128:192|120:196,1,140
136,36,175976,1,0,0:0:0:0:
184,216,176228,1,0,0:0:0:0:
192,48,176480,1,0,0:0:0:0:
236,232,176732,1,0,0:0:0:0:
244,60,176984,1,0,0:0:0:0:
288,244,177236,1,0,0:0:0:0:
336,56,177488,6,0,B|366:81|368:116|368:116|292:128,1,140
412,180,177993,2,0,P|346:156|276:144,1,140
76,120,178497,1,0,0:0:0:0:
288,320,178749,6,0,B|226:299|194:264|194:264|152:264,1,140
356,328,179253,1,0,0:0:0:0:
91,176,179505,2,0,P|100:242|164:264,1,140
292,172,180010,1,0,0:0:0:0:
152,200,180262,1,0,0:0:0:0:
152,200,180388,1,0,0:0:0:0:
152,200,180514,6,0,P|180:128|168:60,1,140
300,88,181018,1,0,0:0:0:0:
52,112,181270,1,0,0:0:0:0:
328,160,181522,6,0,B|268:180|216:136|224:72,1,140
404,64,182026,1,0,0:0:0:0:
456,232,182278,1,0,0:0:0:0:
380,328,182531,1,0,0:0:0:0:
336,204,182783,1,0,0:0:0:0:
252,304,183035,2,0,B|228:232|228:232|188:264|140:268,1,140
260,100,183539,6,0,P|196:84|124:104,1,140
412,156,184043,2,0,P|360:64|324:44,1,140
124,104,184547,1,0,0:0:0:0:
124,104,184799,1,0,0:0:0:0:
376,108,185052,1,0,0:0:0:0:
376,108,185304,1,0,0:0:0:0:
72,240,185556,6,0,P|112:208|144:200,1,70
188,276,186060,2,0,P|216:248|256:232,1,70
364,248,186564,2,0,L|336:272,1,35
248,48,187068,1,0,0:0:0:0:
160,28,187320,1,0,0:0:0:0:
100,92,187573,6,0,B|132:128|132:128|164:128,1,70
236,128,188077,2,0,B|280:128|280:128|296:148,1,70
408,148,188581,2,0,L|380:113,1,35
396,272,188959,1,0,0:0:0:0:
396,272,189085,2,0,L|338:199,1,70
122,295,189589,6,0,P|93:249|89:202,1,70
144,168,190094,2,0,P|156:132|140:104,1,70
56,56,190598,2,0,L|92:40,1,35
384,60,191102,2,0,B|336:88|336:88|332:104,1,70
440,224,191606,5,0,0:0:0:0:
288,196,191858,1,0,0:0:0:0:
388,292,192110,2,0,L|304:276,1,70
168,292,192615,2,0,L|140:252,1,35
28,216,192993,1,0,0:0:0:0:
28,216,193119,2,0,L|56:148,1,70
188,64,193623,6,0,B|232:56|232:56|288:64,1,70
445,100,194127,2,0,B|420:104|420:104|376:96,1,70
448,285,194631,2,0,P|452:252|448:232,1,35
256,296,195136,1,0,0:0:0:0:
408,320,195388,1,0,0:0:0:0:
372,200,195640,6,0,P|340:184|284:172,1,70
272,176,196018,1,0,0:0:0:0:
232,184,196144,2,0,L|220:144,1,35
148,124,196522,2,0,L|158:157,1,35
80,128,196900,2,0,L|69:94,1,35
60,24,197152,2,0,B|23:30|4:64,1,70
98,248,197657,6,0,B|137:269|188:274,1,70
354,289,198161,1,0,0:0:0:0:
201,203,198413,1,0,0:0:0:0:
202,171,198539,1,0,0:0:0:0:
215,142,198665,1,0,0:0:0:0:
440,312,198917,1,0,0:0:0:0:
304,216,199169,1,0,0:0:0:0:
420,104,199421,1,0,0:0:0:0:
304,92,199673,6,0,P|298:60|268:69,1,70
254,92,200052,1,0,0:0:0:0:
238,121,200178,2,0,L|217:159,1,35
196,344,200556,2,0,L|215:314,1,35
320,328,200934,1,0,0:0:0:0:
348,316,201060,1,0,0:0:0:0:
376,304,201186,2,0,L|416:240,1,70
132,304,201690,1,0,0:0:0:0:
29,144,202194,6,0,B|69:120|69:120|97:120,1,70
180,120,202699,1,0,0:0:0:0:
268,120,202951,2,0,B|309:120|309:120|332:104,1,70
400,48,203455,1,0,0:0:0:0:
396,198,203707,5,0,0:0:0:0:
312,224,203959,2,0,L|256:268,1,70
116,288,204463,2,0,L|171:244,1,70
128,156,204967,2,0,B|200:96|200:96|276:96,1,140
358,97,205724,5,0,0:0:0:0:
461,184,205976,1,0,0:0:0:0:
372,204,206228,2,0,L|440:268,1,70
320,312,206732,2,0,L|247:243,1,70
320,160,207236,2,0,P|284:140|256:136,1,70
160,192,207741,2,0,P|124:212|96:216,1,70
72,104,208245,2,0,P|36:84|8:80,1,70
240,48,208749,5,0,0:0:0:0:
372,72,209001,1,0,0:0:0:0:
348,196,209253,1,0,0:0:0:0:
212,168,209505,1,0,0:0:0:0:
45,201,209757,6,0,P|69:227|85:264,1,70
232,284,210262,1,0,0:0:0:0:
232,284,210514,1,0,0:0:0:0:
232,284,210766,2,0,P|288:264|316:268,1,70
332,272,211270,1,0,0:0:0:0:
460,248,211774,6,0,B|448:196|420:176|420:176|456:124,1,140
408,72,212531,2,0,B|348:56|312:68|312:68,1,70
248,232,213035,6,0,B|272:244|288:265|288:265|296:232|320:185,1,140
212,132,213539,1,0,0:0:0:0:
158,61,213791,1,0,0:0:0:0:
135,209,214043,2,0,P|125:141|67:107,1,140
44,316,214799,5,0,0:0:0:0:
168,336,215052,2,0,P|204:312|232:276,1,70
288,344,215556,2,0,P|304:308|304:264,1,70
392,272,216060,2,0,P|380:232|343:196,1,70
436,168,216564,1,0,0:0:0:0:
488,100,216816,2,0,P|449:83|399:88,1,70
312,64,217320,2,0,B|280:88|280:88|252:64|212:56,1,105
207,55,217825,5,0,0:0:0:0:
76,268,218329,6,0,P|120:248|164:256,1,83.9999974365235
248,280,218833,1,0,0:0:0:0:
128,324,219085,1,0,0:0:0:0:
263,197,219337,2,0,L|248:280,1,83.9999974365235
380,176,219841,5,0,0:0:0:0:
436,232,220094,2,0,P|400:256|340:244,1,83.9999974365235
396,96,220598,2,0,P|436:116|456:152,1,83.9999974365235
304,200,221102,2,0,P|301:155|320:121,1,83.9999974365235
380,176,221606,1,0,0:0:0:0:
328,44,221858,6,0,P|276:36|240:48,1,83.9999974365235
104,40,222362,1,0,0:0:0:0:
224,132,222615,1,0,0:0:0:0:
88,132,222867,2,0,P|96:176|84:216,1,83.9999974365235
180,312,223371,2,0,B|240:280|284:288|284:288|296:264,1,125.999996154785
304,248,223875,6,0,P|348:216|416:224,1,125.999996154785
432,204,224379,2,0,P|401:150|342:131,1,125.999996154785
316,136,224883,1,0,0:0:0:0:
216,64,225136,1,0,0:0:0:0:
312,36,225388,1,0,0:0:0:0:
140,44,225640,2,0,P|112:56|84:84,1,41.9999987182618
84,80,225892,5,0,0:0:0:0:
48,192,226144,1,0,0:0:0:0:
88,316,226396,2,0,P|108:264|140:228,1,83.9999974365235
168,152,226900,2,0,P|192:200|216:224,1,83.9999974365235
280,256,227404,1,0,0:0:0:0:
168,308,227657,1,0,0:0:0:0:
280,180,227909,6,0,B|328:116|392:104|392:104|416:124,1,167.999994873047
324,40,228665,1,0,0:0:0:0:
152,60,228917,1,0,0:0:0:0:
152,60,229169,2,0,B|184:104|184:104|220:96,1,83.9999974365235
32,144,229673,5,0,0:0:0:0:
92,176,229925,1,0,0:0:0:0:
108,240,230178,1,0,0:0:0:0:
168,272,230430,1,0,0:0:0:0:
392,260,230934,5,0,0:0:0:0:
440,144,231186,2,0,P|392:156|356:160,1,83.9999974365235
292,76,231690,1,0,0:0:0:0:
444,32,231942,6,0,P|408:56|356:68,1,83.9999974365235
200,76,232446,1,0,0:0:0:0:
200,76,232699,1,0,0:0:0:0:
40,92,232951,2,0,P|65:129|108:156,1,83.9999974365235
64,248,233455,2,0,P|89:242|116:248,1,41.9999987182618
184,205,233707,2,0,P|188:226|184:246,1,41.9999987182618
143,315,233959,1,0,0:0:0:0:
409,260,234463,6,0,P|395:204|352:174,1,83.9999974365235
157,71,235220,1,0,0:0:0:0:
186,116,235472,1,0,0:0:0:0:
236,136,235724,1,0,0:0:0:0:
314,153,235976,6,0,P|271:133|226:139,1,83.9999974365235
262,207,236480,1,0,0:0:0:0:
340,215,236732,2,0,P|307:272|242:284,1,125.999996154785
177,293,237236,2,0,P|201:339|238:358,1,83.9999974365235
299,366,237741,1,0,0:0:0:0:
381,330,237993,6,0,B|383:252|327:202,1,125.999996154785
235,135,238749,2,0,P|155:175|107:183,1,125.999996154785
252,240,239505,2,0,P|340:192|372:184,1,125.999996154785
196,280,240262,5,0,0:0:0:0:
304,304,240640,1,0,0:0:0:0:
408,272,241018,1,0,0:0:0:0:
472,192,241396,1,0,0:0:0:0:
456,96,241774,1,0,0:0:0:0:
256,192,242026,12,0,246060,0:0:0:0:
