osu file format v14

[General]
AudioFilename: audio.mp3
AudioLeadIn: 0
PreviewTime: 80739
Countdown: 0
SampleSet: Soft
StackLeniency: 0.6
Mode: 0
LetterboxInBreaks: 0
WidescreenStoryboard: 1

[Editor]
Bookmarks: 11689,33141,54594,81409,93979,104202,114761
DistanceSpacing: 0.7
BeatDivisor: 4
GridSize: 32
TimelineZoom: 2.1

[Metadata]
Title:Einstein yori Ai o Komete
TitleUnicode:アインシュタインより愛を込めて
Artist:Luna
ArtistUnicode:Luna
Creator:chaser01
Version:KoldNoodl's Hard
Source:アインシュタインより愛を込めて APOLLOCRISIS
Tags:nooj resahc koldnoodl eroge erotic video game visual novel vn short ver version jp japanese pop jpop
BeatmapID:3682771
BeatmapSetID:1796602

[Difficulty]
HPDrainRate:3.4
CircleSize:3.5
OverallDifficulty:6.5
ApproachRate:7.5
SliderMultiplier:1.6
SliderTickRate:1

[Events]
//Background and Video events
0,0,"flower.jpg",0,0
//Break Periods
//Storyboard Layer 0 (Background)
//Storyboard Layer 1 (Fail)
//Storyboard Layer 2 (Pass)
//Storyboard Layer 3 (Foreground)
//Storyboard Layer 4 (Overlay)
//Storyboard Sound Samples

[TimingPoints]
293,335.195530726257,4,2,1,25,1,0
11689,335.195530726257,4,2,1,65,1,0
19733,-100,4,2,1,75,0,0
30459,-100,4,2,1,68,0,0
33141,-111.111111111111,4,2,1,65,0,0
53253,-111.111111111111,4,2,1,68,0,0
54594,-111.111111111111,4,2,1,63,0,0
70683,-111.111111111111,4,2,1,58,0,0
73364,-111.111111111111,4,2,1,68,0,0
75376,-111.111111111111,4,2,1,72,0,0
76046,-111.111111111111,4,2,1,65,0,0
78728,-111.111111111111,4,2,1,72,0,0
81074,-111.111111111111,4,2,1,68,0,0
81409,-100,4,2,1,78,0,0
104202,-100,4,2,1,72,0,0
114761,394.736842105263,3,2,1,65,1,0
114761,-100,4,2,1,68,0,0
117129,483.870967741935,3,2,1,65,1,0
118580,545.454545454545,3,2,1,65,1,0
119125,652.173913043478,3,2,1,65,1,0
119777,631.578947368421,3,2,1,65,1,0
120408,833.333333333333,3,2,1,65,1,0
121241,923.076923076923,3,2,1,65,1,0

[Colours]
Combo1 : 104,206,244
Combo2 : 214,155,249

[HitObjects]
25,105,11689,6,0,P|88:57|160:220,1,320,4|0,3:2|3:0,2:0:0:0:
446,55,13197,1,2,3:2:0:0:
446,55,13364,1,8,2:0:0:0:
355,173,13700,2,0,L|269:157,2,80,2|8|0,3:2|3:0|3:0,2:0:0:0:
424,236,14202,6,0,P|361:188|360:371,1,400,4|0,3:2|2:0,2:0:0:0:
144,292,15711,5,0,3:0:0:0:
73,365,15878,1,4,3:0:0:0:
73,365,16046,2,0,L|55:278,1,80,4|8,3:0|3:0,2:0:0:0:
111,204,16381,2,0,P|64:193|18:176,1,80,8|0,2:0|3:0,2:0:0:0:
147,284,16716,1,2,2:0:0:0:
203,179,16884,5,10,2:0:0:0:
203,179,16968,1,8,2:0:0:0:
203,179,17052,2,0,P|270:156|340:231,1,160,6|0,3:2|2:0,2:0:0:0:
406,284,17554,1,0,3:0:0:0:
406,284,17722,2,0,P|416:240|433:198,1,80,8|8,2:0|3:0,2:0:0:0:
486,144,18057,1,10,3:2:0:0:
415,70,18225,6,0,B|384:101|384:101|261:72,1,160,6|8,3:2|2:0,2:0:0:0:
206,29,18728,2,0,L|189:98,3,40,8|8|8|8,3:0|3:0|3:0|3:0,2:0:0:0:
169,98,19063,2,0,L|186:167,3,40,0|0|0|0,3:0|3:0|3:0|3:0,2:0:0:0:
149,166,19398,2,0,L|80:149,3,40,8|8|8|8,2:0|2:0|2:0|2:0,2:0:0:0:
78,162,19733,6,0,P|89:205|100:248,1,80,4|0,3:2|2:0,2:0:0:0:
68,322,20068,2,0,P|125:341|159:353,1,80,8|0,2:0|2:0,2:0:0:0:
214,293,20404,1,0,3:0:0:0:
266,374,20571,2,0,P|307:348|439:352,1,160,2|0,2:0|3:0,2:0:0:0:
490,384,21074,2,0,P|499:336|510:301,1,80,0|2,3:0|2:0,2:0:0:0:
459,223,21409,1,10,2:0:0:0:
383,255,21577,1,10,2:0:0:0:
313,196,21744,1,2,3:2:0:0:
241,254,21912,2,0,L|222:159,1,80,10|0,2:0|3:2,2:0:0:0:
182,98,22247,6,0,P|230:138|327:113,1,160,6|0,3:2|2:0,2:0:0:0:
422,74,22750,2,0,P|407:130|398:178,1,80,10|2,2:0|2:0,2:0:0:0:
338,222,23085,2,0,P|353:278|362:326,1,80,0|8,3:0|3:0,2:0:0:0:
295,375,23420,1,8,2:0:0:0:
263,281,23588,1,0,2:0:0:0:
209,358,23756,2,0,L|114:334,1,80,10|10,2:0|2:0,2:0:0:0:
53,305,24091,2,0,L|-2:326,4,40,10|8|10|8|8,2:0|2:0|2:0|2:0|3:0,2:0:0:0:
113,236,24594,2,0,P|126:185|137:139,1,80,10|0,2:0|2:0,2:0:0:0:
66,96,24929,6,0,B|95:123|95:123|236:94,1,160,6|2,3:2|3:2,2:0:0:0:
297,147,25432,2,0,P|308:89|317:60,1,80,10|8,2:0|3:0,2:0:0:0:
403,71,25767,2,0,P|413:109|420:149,1,80,0|0,3:0|3:0,2:0:0:0:
465,254,26102,2,0,P|413:242|372:236,1,80,8|0,2:0|3:0,2:0:0:0:
345,337,26437,5,4,3:2:0:0:
259,292,26605,1,8,3:0:0:0:
278,202,26772,1,8,2:0:0:0:
193,172,26940,2,0,P|149:208|46:186,1,160,0|8,3:0|3:0,2:0:0:0:
1,131,27443,2,0,P|15:77|20:33,1,80,8|0,2:0|2:0,2:0:0:0:
99,102,27778,6,0,P|146:85|197:81,1,80,4|0,3:2|3:0,2:0:0:0:
248,22,28113,1,0,3:0:0:0:
320,90,28281,2,0,P|306:145|296:201,1,80,8|0,3:2|3:0,2:0:0:0:
202,166,28616,1,0,3:0:0:0:
241,257,28783,6,0,P|260:313|266:353,1,80,4|0,3:2|3:0,2:0:0:0:
340,275,29119,1,0,3:0:0:0:
383,360,29286,2,0,P|438:345|475:341,1,80,8|0,3:2|3:0,2:0:0:0:
506,262,29621,1,0,3:0:0:0:
434,210,29789,1,0,3:0:0:0:
493,138,29957,1,0,3:0:0:0:
493,138,30040,1,0,3:0:0:0:
493,138,30124,2,0,P|509:84|410:28,1,160,8|4,2:0|3:2,2:0:0:0:
256,192,30543,12,10,31633,2:0:0:0:
321,273,31968,5,8,3:0:0:0:
321,273,32135,2,0,P|272:262|222:250,1,80,4|8,3:0|3:0,2:0:0:0:
178,312,32471,2,0,P|129:301|79:289,1,80,8|8,2:0|3:0,2:0:0:0:
62,218,32806,2,0,L|50:172,3,40,0|0|0|0,3:0|3:0|3:0|3:0,2:0:0:0:
63,152,33141,6,0,P|121:121|182:177,1,144,6|2,3:2|3:2,2:0:0:0:
238,234,33644,2,0,P|223:277|217:312,1,72.0000000000001,2|0,2:0|3:0,2:0:0:0:
288,381,33979,2,0,P|303:338|309:303,1,72.0000000000001,2|0,2:0|3:0,2:0:0:0:
371,252,34314,6,0,P|436:273|505:216,1,144,2|2,2:0|2:0,2:0:0:0:
446,159,34817,1,0,3:0:0:0:
504,86,34985,2,0,P|457:76|418:68,1,72.0000000000001,2|0,2:0|3:0,2:0:0:0:
353,28,35320,2,0,P|343:77|333:115,1,72.0000000000001,2|0,2:0|3:0,2:0:0:0:
261,160,35655,5,2,2:0:0:0:
261,160,35823,2,0,P|216:127|132:144,2,144,0|0|0,3:0|3:0|3:0,2:0:0:0:
334,214,36661,2,0,P|320:257|313:299,1,72.0000000000001,2|2,2:0|3:2,2:0:0:0:
238,346,36996,1,2,2:0:0:0:
238,346,37163,6,0,P|170:333|88:322,1,144,2|2,3:2|3:2,2:0:0:0:
28,266,37666,2,0,P|38:224|43:191,1,72.0000000000001,2|0,2:0|3:0,2:0:0:0:
137,156,38001,2,0,P|127:198|122:231,1,72.0000000000001,2|0,2:0|3:0,2:0:0:0:
213,253,38337,5,2,2:0:0:0:
213,253,38504,2,0,P|292:227|352:223,1,144,2|0,3:2|3:0,2:0:0:0:
434,270,39007,1,0,2:0:0:0:
434,270,39175,2,0,P|449:227|459:196,1,72.0000000000001,0|2,3:0|2:0,2:0:0:0:
402,136,39510,2,0,P|389:101|380:59,1,72.0000000000001,2|2,3:2|2:0,2:0:0:0:
303,100,39845,6,0,P|265:81|146:72,1,144,0|0,3:0|3:0,2:0:0:0:
124,143,40348,1,0,2:0:0:0:
124,143,40515,2,0,P|105:180|95:225,1,72.0000000000001,0|0,3:0|2:0,2:0:0:0:
51,284,40851,2,0,P|106:293|142:304,1,72.0000000000001,0|2,3:0|2:0,2:0:0:0:
183,372,41186,6,0,P|268:349|357:335,2,144,2|0|0,3:2|3:0|3:0,2:0:0:0:
128,298,42024,1,2,2:0:0:0:
128,298,42191,2,0,P|141:250|147:214,1,72.0000000000001,2|2,3:2|2:0,2:0:0:0:
219,177,42526,6,0,P|206:128|179:55,2,108,2|2|2,3:2|2:0|2:0,2:0:0:0:
291,215,43197,2,0,P|343:197|381:193,1,72.0000000000001,0|2,3:0|2:0,2:0:0:0:
418,128,43532,1,10,3:2:0:0:
418,128,43700,1,2,2:0:0:0:
488,199,43867,6,0,P|503:268|456:326,1,144,4|0,3:2|3:0,2:0:0:0:
392,381,44370,1,2,2:0:0:0:
392,381,44538,2,0,P|351:365|317:361,1,72.0000000000001,0|2,3:0|2:0,2:0:0:0:
269,287,44873,2,0,P|228:303|194:307,1,72.0000000000001,2|2,3:2|2:0,2:0:0:0:
134,361,45208,2,0,L|161:221,1,144,2|0,3:2|3:0,2:0:0:0:
207,143,45711,2,0,P|164:180|69:163,2,144,2|2|2,2:0|2:0|2:0,2:0:0:0:
248,61,46549,6,0,P|285:75|392:89,1,144,4|0,3:0|3:0,2:0:0:0:
467,40,47052,2,0,L|483:132,1,72.0000000000001,0|0,2:0|3:0,2:0:0:0:
412,179,47387,1,2,2:0:0:0:
412,179,47554,2,0,L|433:252,1,72.0000000000001,2|2,3:2|2:0,2:0:0:0:
501,290,47890,6,0,P|445:283|393:351,1,144,0|0,3:0|3:0,2:0:0:0:
314,379,48392,2,0,L|212:358,1,72.0000000000001,10|0,2:0|2:0,2:0:0:0:
180,301,48728,1,2,2:0:0:0:
258,249,48895,1,10,3:2:0:0:
188,193,49063,5,2,2:0:0:0:
188,193,49230,2,0,P|218:139|188:62,1,144,4|2,3:2|3:2,2:0:0:0:
118,14,49733,2,0,L|101:101,1,72.0000000000001,2|0,2:0|3:0,2:0:0:0:
31,148,50068,2,0,L|44:218,1,72.0000000000001,2|0,2:0|3:0,2:0:0:0:
19,316,50404,6,0,P|82:302|186:288,1,144,2|0,2:0|2:0,2:0:0:0:
231,350,50906,1,2,3:2:0:0:
231,350,51074,2,0,P|280:337|321:335,1,72.0000000000001,2|0,2:0|3:0,2:0:0:0:
403,293,51409,2,0,P|385:348|379:387,2,72.0000000000001,2|2|2,2:0|3:2|2:0,2:0:0:0:
466,247,51912,5,0,3:0:0:0:
345,153,52247,2,0,L|246:174,1,72.0000000000001,2|0,3:2|2:0,2:0:0:0:
224,233,52582,2,0,L|153:247,1,72.0000000000001,2|0,3:2|2:0,2:0:0:0:
63,293,52918,2,0,P|73:244|81:196,1,72.0000000000001,2|8,3:2|2:0,2:0:0:0:
21,146,53253,6,0,P|2:98|74:40,1,144,2|0,3:2|3:0,2:0:0:0:
130,100,53756,2,0,P|168:87|215:82,1,72.0000000000001,2|0,2:0|2:0,2:0:0:0:
258,26,54091,2,0,L|309:38,4,36,10|8|10|4|8,2:0|2:0|2:0|3:0|3:0,2:0:0:0:
287,124,54594,6,0,P|265:166|317:260,1,144,4|0,3:2|2:0,2:0:0:0:
348,322,55096,1,0,3:0:0:0:
348,322,55264,2,0,P|404:306|494:304,1,144,8|2,2:0|3:2,2:0:0:0:
445,222,55767,6,0,P|432:179|432:137,1,72.0000000000001,2|0,3:2|2:0,2:0:0:0:
488,82,56102,1,0,3:0:0:0:
488,82,56270,2,0,L|402:58,1,72.0000000000001,10|0,2:0|2:0,2:0:0:0:
336,110,56605,1,2,3:2:0:0:
336,110,56772,1,8,3:0:0:0:
259,51,56940,2,0,L|240:146,1,72.0000000000001,0|2,3:0|2:0,2:0:0:0:
174,197,57275,6,0,P|210:254|186:339,1,144,4|2,3:2|2:0,2:0:0:0:
110,379,57778,1,2,3:2:0:0:
110,379,57945,2,0,L|25:363,1,72.0000000000001,8|0,2:0|2:0,2:0:0:0:
0,283,58281,1,2,3:2:0:0:
74,222,58448,2,0,P|82:175|42:78,1,144,2|0,3:2|3:0,2:0:0:0:
125,32,58951,2,0,L|221:50,1,72.0000000000001,8|8,2:0|3:0,2:0:0:0:
251,117,59286,2,0,L|347:135,1,72.0000000000001,8|0,3:0|3:0,2:0:0:0:
383,196,59621,2,0,L|479:214,1,72.0000000000001,0|0,3:0|3:0,2:0:0:0:
512,307,59957,6,0,P|427:303|394:363,1,144,4|0,3:2|2:0,2:0:0:0:
313,381,60459,1,0,3:0:0:0:
313,381,60627,2,0,P|303:328|274:230,1,144,10|2,2:0|2:0,2:0:0:0:
211,172,61130,2,0,P|226:116|238:76,1,72.0000000000001,2|0,3:2|2:0,2:0:0:0:
166,39,61465,1,2,3:2:0:0:
166,39,61633,2,0,P|109:58|77:61,1,72.0000000000001,8|0,2:0|2:0,2:0:0:0:
30,128,61968,2,0,P|63:141|98:148,1,72.0000000000001,8|8,3:0|3:0,2:0:0:0:
150,225,62303,1,2,3:2:0:0:
150,225,62471,1,2,3:2:0:0:
230,162,62638,6,0,P|261:198|241:299,1,144,6|0,3:2|2:0,2:0:0:0:
322,351,63141,1,2,3:2:0:0:
322,351,63309,2,0,P|388:337|465:327,1,144,8|2,2:0|3:2,2:0:0:0:
439,250,63811,2,0,P|421:156|462:101,1,144,0|0,3:0|3:0,2:0:0:0:
509,47,64314,6,0,L|430:24,1,72.0000000000001,8|0,2:0|2:0,2:0:0:0:
352,91,64649,2,0,L|334:159,2,48,4|4|4,3:0|3:0|3:0,2:0:0:0:
286,46,64985,2,0,L|268:-22,2,48,8|8|8,3:0|3:0|3:0,2:0:0:0:
223,108,65320,5,4,3:2:0:0:
223,108,65487,2,0,P|176:83|77:121,1,144,0|0,3:0|3:0,2:0:0:0:
10,69,65990,2,0,P|38:118|49:224,1,144,8|2,2:0|2:0,2:0:0:0:
15,294,66493,2,0,L|105:273,1,72.0000000000001,2|0,3:2|2:0,2:0:0:0:
155,336,66828,1,0,3:0:0:0:
155,336,66996,2,0,L|245:315,1,72.0000000000001,8|0,2:0|2:0,2:0:0:0:
289,252,67331,1,8,3:0:0:0:
289,252,67499,1,8,3:0:0:0:
367,326,67666,2,0,P|376:266|387:225,1,72.0000000000001,2|2,3:2|3:2,2:0:0:0:
465,201,68001,6,0,P|421:157|319:172,1,144,4|2,3:2|2:0,2:0:0:0:
269,217,68504,1,2,3:2:0:0:
269,217,68672,2,0,P|224:203|170:197,1,72.0000000000001,8|2,2:0|2:0,2:0:0:0:
136,263,69007,1,0,3:0:0:0:
58,207,69175,2,0,P|26:183|61:82,1,144,2|2,3:2|3:2,2:0:0:0:
35,7,69677,2,0,P|101:22|131:26,1,72.0000000000001,10|8,2:0|3:0,2:0:0:0:
184,66,70013,6,0,L|203:-4,2,48,8|0|0,3:0|3:0|3:0,2:0:0:0:
235,129,70348,2,0,L|216:199,2,48,10|8|8,3:0|2:0|2:0,2:0:0:0:
310,102,70683,1,4,3:2:0:0:
465,134,72862,6,0,L|484:57,2,72.0000000000001,8|2|2,3:0|3:2|3:2,2:0:0:0:
443,224,73364,5,8,2:0:0:0:
361,156,73532,2,0,P|304:168|271:178,1,72.0000000000001,4|0,3:2|2:0,2:0:0:0:
242,258,73867,1,4,3:0:0:0:
154,210,74035,2,0,P|141:254|134:303,1,72.0000000000001,4|0,3:2|2:0,2:0:0:0:
63,341,74370,1,8,2:0:0:0:
9,268,74538,2,0,P|4:206|23:112,1,144,4|4,3:2|3:0,2:0:0:0:
24,30,75040,2,0,P|73:45|116:52,1,72.0000000000001,4|8,3:2|2:0,2:0:0:0:
150,127,75376,2,0,L|215:102,3,36,10|8|8|8,2:0|3:0|3:0|3:0,2:0:0:0:
221,102,75711,2,0,L|286:127,3,36,2|0|2|0,3:2|3:0|3:2|3:0,2:0:0:0:
293,104,76046,6,0,P|253:133|269:234,1,144,4|0,3:2|2:0,2:0:0:0:
344,259,76549,1,0,3:0:0:0:
344,259,76716,2,0,P|384:230|368:129,1,144,8|2,2:0|2:0,2:0:0:0:
375,57,77219,1,10,2:0:0:0:
222,142,77554,2,0,L|139:125,1,72.0000000000001,8|0,2:0|3:0,2:0:0:0:
55,90,77890,1,0,3:0:0:0:
55,90,78057,2,0,L|71:169,1,72.0000000000001,8|0,2:0|2:0,2:0:0:0:
135,223,78392,2,0,L|120:293,1,72.0000000000001,0|10,3:0|2:0,2:0:0:0:
98,384,78728,5,6,3:2:0:0:
221,327,78895,1,8,3:0:0:0:
221,327,78979,1,0,3:0:0:0:
221,327,79063,2,0,L|278:340,2,36,10|0|2,2:0|2:0|3:2,2:0:0:0:
57,211,79566,2,0,L|145:194,1,72.0000000000001,2|8,3:2|2:0,2:0:0:0:
208,177,79901,5,2,3:2:0:0:
465,62,81074,6,0,L|450:114,3,36,10|8|10|8,2:0|2:0|2:0|2:0,2:0:0:0:
423,129,81409,6,0,P|374:110|235:96,1,160,4|10,3:2|2:0,2:0:0:0:
185,40,81912,2,0,L|173:122,1,80,2|0,2:0|3:0,2:0:0:0:
234,195,82247,2,0,L|220:281,1,80,2|8,2:0|2:0,2:0:0:0:
272,348,82582,1,2,2:0:0:0:
170,383,82750,6,0,P|126:334|29:360,1,160,0|8,3:0|2:0,2:0:0:0:
3,269,83253,2,0,P|21:218|25:177,1,80,2|0,2:0|3:0,2:0:0:0:
77,116,83588,1,2,2:0:0:0:
136,192,83756,1,10,2:0:0:0:
193,110,83923,1,2,2:0:0:0:
253,212,84091,6,0,P|301:188|424:184,1,160,0|8,3:0|2:0,2:0:0:0:
488,235,84594,2,0,P|497:181|510:139,1,80,0|0,2:0|3:0,2:0:0:0:
473,59,84929,1,2,2:0:0:0:
385,93,85096,2,0,P|336:83|296:77,1,80,10|2,2:0|2:0,2:0:0:0:
219,18,85432,6,0,P|192:59|86:39,1,160,0|10,3:0|2:0,2:0:0:0:
0,21,85934,2,0,P|16:85|20:134,1,80,2|0,2:0|3:0,2:0:0:0:
95,153,86270,2,0,P|111:217|115:266,1,80,2|8,2:0|2:0,2:0:0:0:
61,309,86605,5,10,2:0:0:0:
61,309,86689,1,8,2:0:0:0:
61,309,86772,2,0,P|120:318|175:330,1,80,4|0,3:2|2:0,2:0:0:0:
214,384,87107,2,0,P|250:346|357:357,1,160,10|0,2:0|3:0,2:0:0:0:
409,287,87610,1,0,2:0:0:0:
482,358,87778,2,0,P|494:303|505:253,1,80,10|2,2:0|3:2,2:0:0:0:
424,199,88113,6,0,P|409:153|480:71,1,160,0|8,3:0|2:0,2:0:0:0:
396,9,88616,2,0,P|338:32|306:36,1,80,0|0,2:0|3:0,2:0:0:0:
258,100,88951,1,2,2:0:0:0:
185,42,89119,1,10,2:0:0:0:
122,115,89286,1,2,3:2:0:0:
192,181,89454,6,0,P|205:218|154:323,1,160,4|10,3:2|2:0,2:0:0:0:
72,377,89957,2,0,P|63:303|56:283,1,80,2|0,2:0|3:0,2:0:0:0:
4,228,90292,1,2,2:0:0:0:
68,162,90459,1,14,2:0:0:0:
17,66,90627,6,0,P|69:78|119:82,1,80,2|4,2:0|3:2,2:0:0:0:
178,121,90962,1,2,3:2:0:0:
182,27,91130,2,0,P|240:39|286:39,1,80,10|8,2:0|3:0,2:0:0:0:
358,9,91465,2,0,P|344:49|340:95,1,80,0|0,3:0|3:0,2:0:0:0:
389,165,91800,1,10,2:0:0:0:
464,113,91968,1,2,3:2:0:0:
508,197,92135,6,1,P|515:258|451:336,1,160,4|10,3:2|2:0,2:0:0:0:
388,384,92638,2,0,P|349:368|293:363,1,80,2|0,2:0|3:0,2:0:0:0:
240,298,92973,1,2,2:0:0:0:
159,361,93141,2,0,P|149:309|134:270,1,80,8|2,2:0|2:0,2:0:0:0:
64,229,93476,6,0,P|24:192|57:91,1,160,0|10,3:0|2:0,2:0:0:0:
113,37,93979,2,0,P|157:50|210:51,1,80,2|0,2:0|3:0,2:0:0:0:
252,123,94314,2,0,P|296:110|349:109,1,80,2|8,2:0|2:0,2:0:0:0:
404,45,94649,1,2,2:0:0:0:
485,124,94817,6,0,P|473:178|449:298,1,160,0|8,3:0|2:0,2:0:0:0:
371,321,95320,2,0,P|325:306|276:303,1,80,2|0,2:0|3:0,2:0:0:0:
228,236,95655,1,2,2:0:0:0:
163,313,95823,2,0,P|127:276|161:167,1,160,10|0,2:0|3:0,2:0:0:0:
208,103,96325,5,0,2:0:0:0:
244,215,96493,2,0,P|332:199|361:196,1,80,12|0,2:0|3:0,2:0:0:0:
322,200,96744,1,0,3:0:0:0:
322,200,96828,2,0,P|309:251|296:327,2,120,6|2|8,3:2|3:2|3:0,2:0:0:0:
413,152,97499,6,0,P|446:81|323:56,1,240,6|2,3:2|3:2,2:0:0:0:
258,116,98169,2,0,P|202:95|163:99,1,80,8|2,2:0|2:0,2:0:0:0:
110,32,98504,1,2,2:0:0:0:
51,111,98672,6,0,P|68:161|81:292,1,160,0|0,3:2|3:0,2:0:0:0:
53,364,99175,2,0,P|106:345|148:344,1,80,8|0,3:0|2:0,2:0:0:0:
199,278,99510,1,8,2:0:0:0:
199,278,99677,1,8,3:0:0:0:
272,343,99845,2,0,P|295:298|306:233,1,80,0|2,3:0|2:0,2:0:0:0:
397,227,100180,6,0,P|434:183|359:99,1,160,2|2,3:2|2:0,2:0:0:0:
309,146,100683,2,0,P|264:130|225:126,1,80,2|8,3:2|2:0,2:0:0:0:
148,172,101018,1,2,3:2:0:0:
148,172,101186,1,2,2:0:0:0:
64,103,101353,6,0,P|52:160|34:268,1,160,12|0,2:0|3:0,2:0:0:0:
94,336,101856,2,0,L|186:315,1,80,8|0,2:0|2:0,2:0:0:0:
171,318,102107,1,8,2:0:0:0:
171,318,102191,1,8,2:0:0:0:
248,260,102359,1,8,2:0:0:0:
305,337,102526,1,0,3:0:0:0:
383,276,102694,1,12,2:0:0:0:
371,25,104202,6,0,P|434:51|417:156,1,160,6|8,3:2|2:0,2:0:0:0:
368,192,104705,2,0,P|386:251|390:291,1,80,2|0,2:0|3:0,2:0:0:0:
318,348,105040,2,0,P|300:289|296:249,1,80,2|8,2:0|2:0,2:0:0:0:
202,301,105376,5,2,2:0:0:0:
202,301,105543,2,0,P|150:288|104:284,1,80,0|0,3:0|2:0,2:0:0:0:
59,216,105878,1,8,2:0:0:0:
130,162,106046,2,0,L|201:171,2,40,8|8|0,2:0|2:0|3:0,2:0:0:0:
52,86,106381,2,0,P|112:75|143:67,1,80,8|8,2:0|2:0,2:0:0:0:
211,7,106716,6,1,P|253:43|363:31,1,160,6|0,3:2|2:0,2:0:0:0:
458,0,107219,2,0,P|446:44|441:94,1,80,2|2,3:2|3:2,2:0:0:0:
369,150,107554,2,0,P|381:194|386:244,1,80,8|0,3:2|3:0,2:0:0:0:
343,313,107890,1,8,3:2:0:0:
272,253,108057,1,8,3:0:0:0:
225,346,108225,6,0,P|178:331|140:327,1,80,6|8,3:2|3:0,2:0:0:0:
64,371,108560,1,10,2:0:0:0:
64,371,108644,1,8,2:0:0:0:
64,371,108728,2,0,L|11:357,2,40,8|0|8,3:0|2:0|2:0,2:0:0:0:
56,275,109063,2,0,P|49:233|46:191,1,80,14|0,2:0|2:0,2:0:0:0:
143,177,109398,6,0,P|193:198|266:115,1,160,6|2,3:2|3:2,2:0:0:0:
239,45,109901,2,0,L|344:71,1,80,10|8,2:0|3:0,2:0:0:0:
367,132,110236,1,8,3:0:0:0:
427,59,110404,1,8,3:0:0:0:
473,140,110571,2,0,P|455:189|454:248,1,80,10|0,2:0|3:0,2:0:0:0:
505,295,110906,6,0,L|423:310,1,80,6|2,3:2|3:2,2:0:0:0:
355,359,111242,1,2,3:2:0:0:
302,275,111409,2,0,B|275:239|275:239|222:241|152:305,1,160,10|10,3:2|2:0,2:0:0:0:
87,339,111912,2,0,P|77:286|68:240,1,80,0|0,3:2|2:0,2:0:0:0:
120,172,112247,5,6,3:2:0:0:
41,96,112415,2,0,P|101:81|137:71,1,80,0|2,3:0|3:2,2:0:0:0:
220,17,112750,2,0,P|210:67|203:118,1,80,10|8,2:0|3:0,2:0:0:0:
259,158,113085,1,0,3:0:0:0:
199,225,113253,5,6,3:2:0:0:
266,281,113420,2,0,P|305:272|344:264,1,80,0|2,3:0|3:2,2:0:0:0:
397,190,113756,1,10,2:0:0:0:
397,190,113923,1,8,3:0:0:0:
477,234,114091,1,0,3:0:0:0:
492,145,114258,6,0,P|499:105|507:66,2,80,4|8|0,3:0|3:0|3:0,2:0:0:0:
419,93,114761,1,4,3:2:0:0:
256,192,114859,12,0,121241,2:0:0:0:
