osu file format v14

[General]
AudioFilename: audio.mp3
AudioLeadIn: 0
PreviewTime: 80739
Countdown: 0
SampleSet: Soft
StackLeniency: 0.3
Mode: 0
LetterboxInBreaks: 0
WidescreenStoryboard: 0

[Editor]
Bookmarks: 11689,33141,54594,81409,93979,104202,114761
DistanceSpacing: 0.4
BeatDivisor: 4
GridSize: 32
TimelineZoom: 1

[Metadata]
Title:Einstein yori Ai o Komete
TitleUnicode:アインシュタインより愛を込めて
Artist:Luna
ArtistUnicode:Luna
Creator:chaser01
Version:Enigma
Source:アインシュタインより愛を込めて APOLLOCRISIS
Tags:nooj resahc koldnoodl eroge erotic video game visual novel vn short ver version jp japanese pop jpop
BeatmapID:3682770
BeatmapSetID:1796602

[Difficulty]
HPDrainRate:4.2
CircleSize:4
OverallDifficulty:8.7
ApproachRate:9.2
SliderMultiplier:1.8
SliderTickRate:1

[Events]
//Background and Video events
0,0,"flower.jpg",0,0
//Break Periods
//Storyboard Layer 0 (Background)
//Storyboard Layer 1 (Fail)
//Storyboard Layer 2 (Pass)
//Storyboard Layer 3 (Foreground)
//Storyboard Layer 4 (Overlay)
//Storyboard Sound Samples

[TimingPoints]
293,335.195530726257,4,2,1,25,1,0
293,-285.714285714286,4,2,1,25,0,0
6829,-333.333333333333,4,2,1,25,0,0
7332,-1000,4,2,1,25,0,0
8924,-250,4,2,1,35,0,0
11019,-1000,4,2,1,50,0,0
11186,-285.714285714286,4,2,1,50,0,0
11689,335.195530726257,4,2,1,65,1,0
13364,-133.333333333333,4,2,1,65,0,0
18728,-117.647058823529,4,2,1,65,0,0
19733,-100,4,2,1,75,0,0
24594,-285.714285714286,4,2,1,75,0,0
24929,-86.9565217391304,4,2,1,75,0,0
26270,-100,4,2,1,75,0,0
26437,-90.9090909090909,4,2,1,75,0,0
26940,-153.846153846154,4,2,1,75,0,0
27443,-100,4,2,1,75,0,0
28281,-90.9090909090909,4,2,1,75,0,0
29957,-111.111111111111,4,2,1,75,0,0
30459,-111.111111111111,4,2,1,68,0,0
31968,-166.666666666667,4,2,1,68,0,0
32806,-111.111111111111,4,2,1,68,0,0
33141,-125,4,2,1,65,0,0
53253,-125,4,2,1,68,0,0
54594,-138.888888888889,4,2,1,63,0,0
65320,-153.846153846154,4,2,1,63,0,0
66493,-138.888888888889,4,2,1,63,0,0
66828,-138.888888888889,4,2,1,5,0,0
66996,-138.888888888889,4,2,1,63,0,0
68001,-133.333333333333,4,2,1,63,0,0
70683,-769.230769230769,4,2,1,58,0,0
72862,-166.666666666667,4,2,1,58,0,0
73364,-166.666666666667,4,2,1,68,0,0
75208,-125,4,2,1,68,0,0
75376,-125,4,2,1,72,0,0
76046,-125,4,2,1,65,0,0
78728,-100,4,2,1,72,0,0
79313,-100,4,2,1,5,0,0
79566,-100,4,2,1,72,0,0
79901,-500,4,2,1,72,0,0
80403,-500,4,2,1,5,0,0
80739,-500,4,2,1,68,0,0
80906,-90.9090909090909,4,2,1,68,0,0
81409,-80,4,2,1,78,0,0
81912,-90.9090909090909,4,2,1,78,0,0
92135,-83.3333333333333,4,2,1,78,0,0
93476,-90.9090909090909,4,2,1,78,0,0
96828,-111.111111111111,4,2,1,78,0,0
101353,-83.3333333333333,4,2,1,78,0,0
101856,-90.9090909090909,4,2,1,78,0,0
103867,-285.714285714286,4,2,1,57,0,0
104202,-100,4,2,1,72,0,0
106716,-86.9565217391304,4,2,1,72,0,0
107219,-100,4,2,1,72,0,0
111409,-90.9090909090909,4,2,1,72,0,0
111912,-166.666666666667,4,2,1,72,0,0
112582,-90.9090909090909,4,2,1,72,0,0
114761,394.736842105263,3,2,1,65,1,0
114761,-90.9090909090909,4,2,1,68,0,0
117129,483.870967741935,3,2,1,65,1,0
118580,545.454545454545,3,2,1,65,1,0
119125,652.173913043478,3,2,1,65,1,0
119777,631.578947368421,3,2,1,65,1,0
120408,833.333333333333,3,2,1,65,1,0
121241,923.076923076923,3,2,1,65,1,0

[Colours]
Combo1 : 104,206,244
Combo2 : 214,155,249

[HitObjects]
507,381,293,6,0,L|439:360,2,62.9999999999999,2|2|2,2:0|2:0|2:0,2:0:0:0:
389,276,1801,2,0,L|382:318,2,31.5,2|2|2,2:0|2:0|2:0,2:0:0:0:
311,374,3142,2,0,L|305:342,2,31.5,2|2|2,2:0|2:0|2:0,2:0:0:0:
235,279,4482,2,0,L|229:310,2,31.5,2|2|2,2:0|2:0|2:0,2:0:0:0:
166,364,4985,2,0,L|74:384,2,94.4999999999999,2|2|2,2:0|2:0|2:0,2:0:0:0:
0,273,6326,6,0,L|13:208,1,62.9999999999999,2|2,2:0|2:0,2:0:0:0:
89,230,6829,2,0,L|100:174,1,54.0000000000001,2|2,2:0|2:0,2:0:0:0:
176,194,7332,2,0,L|186:142,1,54,2|2,2:0|2:0,2:0:0:0:
187,142,8672,1,2,2:0:0:0:
505,21,8924,6,0,L|505:34,1,9,2|2,2:0|2:0,2:0:0:0:
512,25,9008,1,2,2:0:0:0:
428,54,9343,5,2,2:0:0:0:
429,69,9510,1,2,2:0:0:0:
346,86,9846,5,2,2:0:0:0:
347,101,10013,1,2,2:0:0:0:
347,101,11019,5,4,3:0:0:0:
135,88,11186,2,0,B|237:65,1,94.499997116089,2|4,2:0|3:2,2:0:0:0:
227,67,12024,1,2,2:0:0:0:
227,67,12694,1,0,2:0:0:0:
227,67,13197,5,2,3:2:0:0:
82,35,13364,2,0,P|94:73|105:137,1,101.25,8|0,2:0|2:0,2:0:0:0:
104,133,13700,1,2,3:2:0:0:
310,181,13867,2,0,P|299:213|290:267,1,67.5000000000002,8|0,3:0|3:0,2:0:0:0:
157,384,14202,5,4,3:2:0:0:
157,384,14705,1,2,2:0:0:0:
157,384,15376,1,0,2:0:0:0:
157,384,15711,5,0,3:0:0:0:
123,238,15878,1,4,3:0:0:0:
91,321,16046,1,4,3:0:0:0:
189,297,16214,1,8,3:0:0:0:
370,246,16381,5,8,2:0:0:0:
419,88,16549,1,0,3:0:0:0:
454,184,16716,1,2,2:0:0:0:
341,154,16884,1,10,2:0:0:0:
341,154,16968,1,8,2:0:0:0:
341,154,17052,1,6,3:2:0:0:
341,154,17387,6,0,P|278:141|253:132,1,67.5000000000002,0|0,2:0|3:0,2:0:0:0:
204,118,17638,1,0,3:0:0:0:
204,118,17722,1,8,2:0:0:0:
276,46,17890,5,8,3:0:0:0:
204,247,18057,1,10,3:2:0:0:
0,183,18225,2,0,P|54:202|139:223,1,135,6|8,3:2|2:0,2:0:0:0:
204,247,18644,1,8,2:0:0:0:
204,247,18728,2,0,P|211:298|212:309,3,38.2500000000001,8|8|8|8,3:0|3:0|3:0|3:0,2:0:0:0:
268,342,19063,5,0,3:0:0:0:
303,364,19147,1,0,3:0:0:0:
344,368,19230,1,0,3:0:0:0:
384,354,19314,1,0,3:0:0:0:
413,325,19398,5,8,2:0:0:0:
386,279,19482,1,8,2:0:0:0:
370,228,19566,1,8,2:0:0:0:
368,174,19649,1,8,2:0:0:0:
379,122,19733,6,0,P|432:78|504:92,1,135,4|0,3:2|2:0,2:0:0:0:
512,160,20068,2,0,P|500:211|498:259,1,90,8|0,2:0|2:0,2:0:0:0:
249,208,20404,2,0,P|265:263|268:358,1,135,0|0,3:0|2:0,2:0:0:0:
336,378,20739,2,0,P|398:358|418:314,1,90,8|0,2:0|2:0,2:0:0:0:
182,158,21074,6,0,P|129:138|88:115,1,90,0|2,3:0|2:0,2:0:0:0:
99,122,21325,1,2,2:0:0:0:
99,122,21409,1,10,2:0:0:0:
137,235,21577,1,10,2:0:0:0:
200,50,21744,5,2,3:2:0:0:
5,89,21912,1,10,2:0:0:0:
137,235,22080,1,0,3:2:0:0:
338,223,22247,6,0,P|403:175|530:153,1,180,6|0,3:2|2:0,2:0:0:0:
349,302,22750,1,10,2:0:0:0:
510,304,22918,2,0,P|467:290|411:279,1,90,2|0,2:0|3:0,2:0:0:0:
252,173,23253,1,8,3:0:0:0:
252,173,23337,1,8,3:0:0:0:
252,173,23420,2,0,B|267:123|267:123|246:60|284:8,1,135,8|0,2:0|2:0,2:0:0:0:
337,15,23756,5,10,2:0:0:0:
391,125,23923,2,0,L|329:113,1,45,10|8,2:0|2:0,2:0:0:0:
105,88,24091,1,10,2:0:0:0:
105,88,24175,1,8,2:0:0:0:
105,88,24258,1,10,2:0:0:0:
190,22,24426,5,8,3:0:0:0:
214,277,24594,2,0,P|217:306|216:336,1,47.25,10|0,2:0|2:0,2:0:0:0:
212,334,24929,6,0,B|301:276|301:276|418:299,1,207,6|2,3:2|3:2,2:0:0:0:
399,295,25348,1,2,3:2:0:0:
399,295,25432,1,8,2:0:0:0:
265,204,25599,1,8,3:0:0:0:
253,161,25683,1,8,3:0:0:0:
263,117,25767,1,0,3:0:0:0:
292,84,25851,1,0,3:0:0:0:
334,69,25934,1,0,3:0:0:0:
386,143,26102,1,8,2:0:0:0:
265,204,26270,6,0,P|235:199|201:189,1,45,0|0,3:0|3:0,2:0:0:0:
8,62,26437,2,0,P|52:77|114:92,1,99,4|8,3:2|3:0,2:0:0:0:
334,69,26772,5,8,2:0:0:0:
238,330,26940,2,0,P|201:324|145:308,1,87.7499999999999,0|0,3:0|2:0,2:0:0:0:
152,310,27275,5,8,3:0:0:0:
305,384,27443,2,0,P|370:336|455:332,1,135,8|0,2:0|2:0,2:0:0:0:
422,327,27778,5,4,3:2:0:0:
213,249,27945,1,0,3:0:0:0:
255,30,28113,1,0,3:0:0:0:
347,75,28281,6,0,P|257:109|210:114,1,99,8|0,3:2|3:0,2:0:0:0:
254,109,28532,1,0,3:0:0:0:
254,109,28616,1,0,3:0:0:0:
255,30,28783,5,4,3:2:0:0:
289,275,28951,1,0,3:0:0:0:
30,287,29119,1,0,3:0:0:0:
14,194,29286,6,0,P|107:214|150:235,1,99,8|0,3:2|3:0,2:0:0:0:
109,215,29538,1,0,3:0:0:0:
109,215,29621,1,0,3:0:0:0:
118,300,29789,5,0,3:0:0:0:
150,62,29957,2,0,L|210:69,1,40.5,0|0,3:0|3:0,2:0:0:0:
391,91,30124,1,8,2:0:0:0:
362,329,30292,1,2,2:0:0:0:
250,195,30459,5,4,3:2:0:0:
256,192,30543,12,2,31297,2:0:0:0:
250,195,31465,5,2,3:2:0:0:
181,264,31633,2,0,P|122:271|73:235,1,121.5,10|0,2:0|2:0,2:0:0:0:
42,167,31968,2,0,L|47:141,1,13.5,8|8,3:0|3:0,2:0:0:0:
60,85,32135,1,4,3:0:0:0:
143,99,32303,1,8,3:0:0:0:
131,181,32471,1,8,2:0:0:0:
325,215,32638,5,8,3:0:0:0:
477,188,32806,2,0,L|488:241,1,40.5,0|0,3:0|3:0,2:0:0:0:
512,352,32973,2,0,L|457:364,1,40.5,0|0,3:0|3:0,2:0:0:0:
352,382,33141,2,0,B|295:380|258:350|258:350|199:357,1,144,6|2,3:2|3:2,2:0:0:0:
92,355,33644,6,0,P|56:362|21:366,1,72,2|0,2:0|3:0,2:0:0:0:
113,196,33979,2,0,P|117:231|124:266,1,72,2|0,2:0|3:0,2:0:0:0:
189,334,34314,2,0,P|252:324|324:305,1,108,2|0,2:0|2:0,2:0:0:0:
294,313,34649,5,2,2:0:0:0:
360,227,34817,1,0,3:0:0:0:
497,288,34985,2,0,P|461:283|426:276,1,72,2|0,2:0|3:0,2:0:0:0:
273,172,35320,2,0,P|280:112|307:30,1,144,2|2,2:0|2:0,2:0:0:0:
305,32,35739,1,0,2:0:0:0:
305,32,35823,5,0,3:0:0:0:
366,120,35990,1,0,2:0:0:0:
166,144,36158,1,0,3:0:0:0:
208,71,36325,1,0,2:0:0:0:
272,172,36493,2,0,P|279:218|281:253,1,72,0|2,3:0|2:0,2:0:0:0:
129,384,36828,2,0,P|122:338|120:303,1,72,2|2,3:2|2:0,2:0:0:0:
219,333,37163,6,0,B|294:342|271:371|357:371,1,144,2|2,3:2|3:2,2:0:0:0:
468,282,37666,2,0,P|418:287|385:307,1,72,2|0,2:0|3:0,2:0:0:0:
345,229,38001,2,0,P|364:186|367:152,1,72,2|0,2:0|3:0,2:0:0:0:
477,192,38337,6,0,L|431:206,1,36,2|0,2:0|2:0,2:0:0:0:
265,265,38504,2,0,B|190:256|213:227|127:227,2,144,2|0|0,3:2|3:0|3:0,2:0:0:0:
265,265,39342,1,2,2:0:0:0:
118,317,39510,1,2,3:2:0:0:
56,194,39677,1,2,2:0:0:0:
56,194,39761,1,0,2:0:0:0:
56,194,39845,6,0,P|39:143|47:104,1,72,0|0,3:0|2:0,2:0:0:0:
150,70,40180,2,0,P|166:120|158:159,2,72,0|0|0,3:0|2:0|3:0,2:0:0:0:
82,22,40683,6,0,P|40:13|8:1,2,72,0|0|2,2:0|3:0|2:0,2:0:0:0:
150,70,41102,1,0,2:0:0:0:
150,70,41186,2,0,P|228:92|303:104,1,144,2|0,3:2|3:0,2:0:0:0:
365,131,41689,2,0,P|371:90|377:49,1,72,0|0,2:0|3:0,2:0:0:0:
285,27,42024,1,2,2:0:0:0:
285,27,42191,1,2,3:2:0:0:
238,119,42359,5,2,2:0:0:0:
238,119,42443,1,0,2:0:0:0:
238,119,42526,2,0,P|232:160|214:264,2,144,0|0|0,3:0|3:0|3:0,2:0:0:0:
329,179,43364,1,2,2:0:0:0:
117,204,43532,1,10,3:2:0:0:
512,281,43867,6,0,P|432:307|398:372,2,144,4|0|0,3:2|3:0|3:0,2:0:0:0:
503,355,44705,1,2,2:0:0:0:
356,268,44873,2,0,P|344:215|344:175,1,72,2|2,3:2|2:0,2:0:0:0:
402,145,45124,5,0,2:0:0:0:
402,145,45208,2,0,P|482:119|516:54,1,144,2|0,3:2|3:0,2:0:0:0:
338,89,45711,2,0,P|298:67|264:57,1,72,2|0,2:0|3:0,2:0:0:0:
120,73,46046,2,0,P|160:95|194:105,1,72,2|0,2:0|3:0,2:0:0:0:
198,22,46381,5,2,2:0:0:0:
257,140,46549,2,0,B|234:219|277:191|255:291,2,144,4|0|0,3:0|3:0|3:0,2:0:0:0:
257,140,47387,5,2,2:0:0:0:
337,187,47554,1,2,3:2:0:0:
179,243,47722,1,2,2:0:0:0:
179,243,47806,1,0,2:0:0:0:
179,243,47890,2,0,P|122:232|89:210,1,72,0|0,3:0|2:0,2:0:0:0:
31,222,48225,1,0,3:0:0:0:
0,330,48392,2,0,P|37:315|128:308,1,108,10|0,2:0|2:0,2:0:0:0:
104,306,48728,5,2,2:0:0:0:
292,344,48895,2,0,L|221:331,1,72,10|2,3:2|2:0,2:0:0:0:
503,246,49230,2,0,L|352:268,1,144,4|2,3:2|3:2,2:0:0:0:
289,233,49733,2,0,B|263:203|263:203|268:146,1,72,2|0,2:0|3:0,2:0:0:0:
402,72,50068,2,0,B|428:102|428:102|423:159,1,72,2|0,2:0|3:0,2:0:0:0:
351,180,50404,6,0,L|342:120,1,36,2|0,2:0|2:0,2:0:0:0:
173,18,50571,2,0,P|103:28|61:103,1,144,0|2,3:0|3:2,2:0:0:0:
131,124,51074,2,0,P|186:108|234:100,1,72,2|0,2:0|3:0,2:0:0:0:
62,86,51409,1,2,2:0:0:0:
38,239,51577,2,0,P|93:223|141:215,1,72,2|2,3:2|2:0,2:0:0:0:
252,167,51912,5,0,3:0:0:0:
252,167,52247,2,0,P|247:113|245:84,1,72,2|0,3:2|2:0,2:0:0:0:
324,237,52582,2,0,P|373:259|399:272,1,72,2|0,3:2|2:0,2:0:0:0:
207,262,52918,2,0,P|162:293|138:309,1,72,2|8,3:2|2:0,2:0:0:0:
224,20,53253,6,0,P|226:55|230:91,1,72,2|8,3:2|2:0,2:0:0:0:
252,167,53588,1,0,3:0:0:0:
477,211,53756,2,0,P|473:175|456:59,1,144,2|10,2:0|2:0,2:0:0:0:
425,46,54175,1,8,2:0:0:0:
390,53,54258,1,10,2:0:0:0:
367,80,54342,1,4,3:0:0:0:
364,115,54426,1,8,3:0:0:0:
411,281,54594,6,0,B|346:278|346:278|276:333,1,129.6,4|0,3:2|2:0,2:0:0:0:
296,319,55096,1,0,3:0:0:0:
118,243,55264,2,0,B|160:252|160:252|171:264|171:264|221:274,1,97.1999999999999,8|0,2:0|2:0,2:0:0:0:
209,272,55599,1,2,3:2:0:0:
209,272,55767,1,2,3:2:0:0:
38,256,56102,5,0,3:0:0:0:
44,178,56270,2,0,B|25:131|25:131|46:68,1,97.1999999999999,10|0,2:0|2:0,2:0:0:0:
41,87,56605,1,2,3:2:0:0:
119,105,56772,1,8,3:0:0:0:
134,31,56940,1,0,3:0:0:0:
61,13,57107,1,2,2:0:0:0:
175,189,57275,6,0,P|255:177|288:115,1,129.6,4|2,3:2|2:0,2:0:0:0:
283,142,57778,1,2,3:2:0:0:
407,13,57945,2,0,P|447:94|452:145,1,129.6,8|2,2:0|3:2,2:0:0:0:
287,146,58448,2,0,P|271:197|274:233,1,64.7999999999999,2|0,3:2|2:0,2:0:0:0:
370,166,58783,1,0,3:0:0:0:
196,266,58951,5,8,2:0:0:0:
62,188,59119,1,8,3:0:0:0:
14,259,59286,5,8,3:0:0:0:
149,178,59454,1,0,3:0:0:0:
100,119,59621,5,0,3:0:0:0:
100,119,59789,1,0,3:0:0:0:
109,308,59957,5,4,3:2:0:0:
510,108,60459,5,0,3:0:0:0:
443,148,60627,2,0,P|367:139|317:115,1,129.6,10|2,2:0|2:0,2:0:0:0:
170,212,61130,2,0,P|225:187|264:182,1,97.1999999999999,2|0,3:2|2:0,2:0:0:0:
261,182,61465,1,2,3:2:0:0:
126,285,61633,1,8,2:0:0:0:
130,289,61968,5,8,3:0:0:0:
130,289,62135,1,8,3:0:0:0:
145,376,62303,5,2,3:2:0:0:
145,376,62471,1,2,3:2:0:0:
210,324,62638,6,0,P|305:310|352:233,1,194.4,6|2,3:2|3:2,2:0:0:0:
445,167,63309,2,0,P|468:225|470:254,1,64.7999999999999,8|0,2:0|2:0,2:0:0:0:
352,232,63644,1,2,3:2:0:0:
303,66,63811,2,0,P|257:166|255:201,1,129.6,0|0,3:0|3:0,2:0:0:0:
255,184,64314,2,0,L|141:166,1,97.1999999999999,8|0,2:0|2:0,2:0:0:0:
166,191,64649,5,4,3:0:0:0:
211,251,64761,5,4,3:0:0:0:
277,288,64873,5,4,3:0:0:0:
378,299,64985,5,8,3:0:0:0:
424,314,65096,5,8,3:0:0:0:
461,343,65208,5,8,3:0:0:0:
465,355,65320,6,0,L|436:172,1,175.5,4|0,3:2|3:0,2:0:0:0:
512,119,65990,1,8,2:0:0:0:
512,119,66325,1,2,2:0:0:0:
437,181,66493,2,0,B|366:179|326:133|326:133|262:121,1,162,2|0,3:2|2:0,2:0:0:0:
289,126,66996,2,0,P|270:75|273:39,1,64.7999999999999,8|0,2:0|2:0,2:0:0:0:
368,48,67331,5,8,3:0:0:0:
368,48,67499,1,8,3:0:0:0:
144,98,67666,5,2,3:2:0:0:
144,98,67834,1,2,3:2:0:0:
254,248,68001,6,0,B|257:324|288:302|299:383,1,135,4|2,3:2|2:0,2:0:0:0:
374,354,68504,2,0,L|458:328,1,67.5000000000002,2|8,3:2|2:0,2:0:0:0:
186,313,68839,2,0,L|102:287,1,67.5000000000002,2|0,2:0|3:0,2:0:0:0:
63,244,69091,5,0,3:0:0:0:
63,244,69175,2,0,P|96:178|164:169,1,135,2|2,3:2|3:2,2:0:0:0:
434,121,69677,2,0,P|399:134|349:143,1,67.5000000000002,10|8,2:0|3:0,2:0:0:0:
365,148,69929,5,0,3:0:0:0:
365,147,70013,2,0,P|354:120|350:97,2,45.0000017166138,8|8|8,3:0|3:0|3:0,2:0:0:0:
256,13,70348,5,10,3:0:0:0:
267,89,70459,5,8,2:0:0:0:
269,172,70571,5,8,2:0:0:0:
251,250,70683,6,0,P|244:296|246:343,1,93.6,4|0,3:2|2:0,2:0:0:0:
245,342,72862,6,0,L|312:330,1,53.9999999999999,8|2,3:0|3:2,2:0:0:0:
180,384,73197,1,2,3:2:0:0:
13,261,73364,5,8,2:0:0:0:
44,141,73532,1,4,3:2:0:0:
158,111,73867,5,4,3:0:0:0:
180,287,74035,1,4,3:2:0:0:
299,304,74370,5,8,2:0:0:0:
322,84,74538,1,4,3:2:0:0:
447,53,74873,5,4,3:0:0:0:
500,326,75040,1,4,3:2:0:0:
500,326,75208,6,0,L|441:302,1,36,8|8,2:0|2:0,2:0:0:0:
257,218,75376,1,10,2:0:0:0:
222,181,75459,1,8,3:0:0:0:
216,138,75543,1,8,3:0:0:0:
230,100,75627,1,8,3:0:0:0:
246,77,75711,1,2,3:2:0:0:
261,54,75795,1,0,3:0:0:0:
268,38,75878,1,2,3:2:0:0:
264,26,75962,1,0,3:0:0:0:
257,21,76046,6,0,L|268:194,1,144,4|0,3:2|2:0,2:0:0:0:
266,164,76549,1,0,3:0:0:0:
343,248,76716,2,0,B|406:209|406:209|481:218,1,144,8|2,2:0|2:0,2:0:0:0:
436,365,77219,2,0,P|416:313|409:282,1,72,10|0,2:0|2:0,2:0:0:0:
237,331,77554,2,0,P|257:279|264:248,1,72,8|0,2:0|3:0,2:0:0:0:
329,356,77890,5,0,3:0:0:0:
148,323,78057,2,0,P|80:324|-10:378,1,144,8|0,2:0|3:0,2:0:0:0:
12,356,78560,5,10,2:0:0:0:
228,143,78728,2,0,P|204:91|205:20,1,90,6|8,3:2|2:0,2:0:0:0:
278,57,78979,1,8,2:0:0:0:
278,57,79063,1,10,2:0:0:0:
63,192,79230,2,0,L|8:176,1,45,2|0,3:2|2:0,2:0:0:0:
19,179,79566,5,2,3:2:0:0:
255,280,79733,1,8,2:0:0:0:
503,207,79901,2,0,L|450:192,1,54,2|0,3:2|2:0,2:0:0:0:
452,193,80739,5,4,3:2:0:0:
300,259,80906,2,0,L|256:280,1,49.5,10|8,2:0|2:0,2:0:0:0:
206,342,81074,2,0,L|157:335,1,49.5,10|8,2:0|2:0,2:0:0:0:
84,384,81242,5,10,2:0:0:0:
84,384,81325,1,8,2:0:0:0:
84,384,81409,2,0,B|70:336|70:336|9:304|12:220,1,168.75,4|0,3:2|2:0,2:0:0:0:
5,163,81744,1,10,2:0:0:0:
98,71,81912,2,0,P|147:83|196:88,1,99,2|0,2:0|3:0,2:0:0:0:
264,201,82247,5,2,2:0:0:0:
176,337,82415,1,8,2:0:0:0:
164,233,82582,1,2,2:0:0:0:
424,347,82750,2,0,P|324:363|283:263,1,198,0|8,3:0|2:0,2:0:0:0:
463,181,83253,6,0,P|472:243|491:311,1,99,2|0,2:0|3:0,2:0:0:0:
272,97,83588,2,0,P|281:159|300:227,1,99,2|10,2:0|2:0,2:0:0:0:
380,139,83923,1,2,2:0:0:0:
289,194,84091,2,0,P|192:197|145:95,1,198,0|8,3:0|2:0,2:0:0:0:
205,58,84594,1,0,2:0:0:0:
48,85,84761,1,0,3:0:0:0:
122,17,84929,5,2,2:0:0:0:
99,268,85096,1,10,2:0:0:0:
356,317,85264,1,2,2:0:0:0:
298,384,85432,6,0,P|275:311|267:238,1,148.5,0|0,3:0|2:0,2:0:0:0:
276,163,85767,1,10,2:0:0:0:
485,74,85934,2,0,P|507:147|514:196,1,99,2|0,2:0|3:0,2:0:0:0:
512,332,86270,5,2,2:0:0:0:
356,317,86437,1,8,2:0:0:0:
446,220,86605,2,0,L|440:271,1,49.5,10|8,2:0|2:0,2:0:0:0:
298,384,86772,6,0,B|257:381|236:338|236:338|105:309,1,198,4|10,3:2|2:0,2:0:0:0:
5,215,87275,1,0,2:0:0:0:
85,131,87443,2,0,P|98:205|103:258,1,99,0|0,3:0|2:0,2:0:0:0:
413,348,87778,5,10,2:0:0:0:
288,384,87945,1,2,3:2:0:0:
288,384,88029,1,0,3:0:0:0:
288,384,88113,2,0,P|294:334|315:226,1,148.5,0|0,3:0|2:0,2:0:0:0:
334,167,88448,1,8,2:0:0:0:
512,153,88616,2,0,P|466:145|406:107,1,99,0|0,2:0|3:0,2:0:0:0:
273,16,88951,5,2,2:0:0:0:
215,241,89119,1,10,2:0:0:0:
0,220,89286,1,2,3:2:0:0:
0,220,89370,1,0,3:0:0:0:
0,220,89454,2,0,P|52:213|152:159,1,148.5,4|0,3:2|2:0,2:0:0:0:
214,148,89789,6,0,P|193:108|184:55,1,99,10|2,2:0|2:0,2:0:0:0:
78,118,90124,1,0,3:0:0:0:
327,125,90292,1,2,2:0:0:0:
412,343,90459,1,14,2:0:0:0:
412,343,90795,6,0,P|470:363|523:367,1,99,4|2,3:2|3:2,2:0:0:0:
512,380,91046,1,0,3:0:0:0:
512,380,91130,2,0,P|504:329|504:310,3,49.5,10|8|8|8,2:0|3:0|3:0|3:0,2:0:0:0:
405,352,91465,5,0,3:0:0:0:
373,364,91549,1,0,3:0:0:0:
339,361,91633,1,0,3:0:0:0:
310,342,91716,1,0,3:0:0:0:
294,312,91800,2,0,P|302:262|302:242,1,49.5,10|0,2:0|2:0,2:0:0:0:
144,123,91968,2,0,P|141:147|136:171,1,49.5,2|8,3:2|2:0,2:0:0:0:
24,289,92135,6,1,B|65:283|65:283|93:260|93:260|187:253|260:211,1,216,4|10,3:2|2:0,2:0:0:0:
366,110,92638,1,2,2:0:0:0:
249,82,92806,1,0,3:0:0:0:
326,21,92973,1,2,2:0:0:0:
285,177,93141,1,8,2:0:0:0:
512,222,93309,5,2,2:0:0:0:
465,376,93476,2,0,P|380:331|368:245,1,148.5,0|0,3:0|2:0,2:0:0:0:
358,283,93811,1,10,2:0:0:0:
176,248,93979,1,2,2:0:0:0:
285,177,94147,1,0,3:0:0:0:
239,384,94314,2,0,P|260:304|265:267,1,99,2|8,2:0|2:0,2:0:0:0:
12,126,94649,5,2,2:0:0:0:
125,61,94817,2,0,P|101:142|85:233,1,148.5,0|0,3:0|2:0,2:0:0:0:
89,205,95152,1,8,2:0:0:0:
277,172,95320,6,0,P|232:143|174:138,1,99,2|0,2:0|3:0,2:0:0:0:
93,210,95655,1,2,2:0:0:0:
318,259,95823,2,0,P|457:245|488:166,1,198,10|0,2:0|3:0,2:0:0:0:
481,206,96325,1,0,2:0:0:0:
315,9,96493,2,0,P|321:72|345:141,1,99,12|0,2:0|3:0,2:0:0:0:
340,115,96744,5,0,3:0:0:0:
340,115,96828,2,0,P|392:125|434:132,1,81.0000000000001,6|0,3:2|3:0,2:0:0:0:
499,128,97080,5,2,3:2:0:0:
499,128,97163,1,0,2:0:0:0:
384,200,97331,6,0,P|365:196|345:194,1,40.4999987640381,8|0,3:0|2:0,2:0:0:0:
130,56,97499,6,0,P|31:74|15:147,1,161.999995056153,6|2,3:2|2:0,2:0:0:0:
12,122,98001,1,2,3:2:0:0:
112,226,98169,2,0,P|88:305|87:333,1,81.0000000000001,8|2,2:0|2:0,2:0:0:0:
89,303,98504,1,2,2:0:0:0:
218,172,98672,2,0,P|242:264|245:339,1,162,0|0,3:2|3:0,2:0:0:0:
327,265,99175,2,0,P|432:279|480:217,1,162,8|8,3:0|2:0,2:0:0:0:
444,103,99677,1,8,3:0:0:0:
413,174,99845,1,0,3:0:0:0:
499,157,100013,1,2,2:0:0:0:
309,38,100180,6,0,B|238:52|238:52|215:70|215:70|134:90,1,162,2|2,3:2|2:0,2:0:0:0:
156,84,100683,1,2,3:2:0:0:
7,149,100851,2,0,B|55:141|55:141|104:171,1,81.0000000000001,8|2,2:0|3:2,2:0:0:0:
82,157,101186,1,2,2:0:0:0:
246,384,101353,6,0,B|259:325|259:325|317:288|316:211,1,162,12|0,2:0|2:0,2:0:0:0:
310,167,101689,1,0,3:0:0:0:
181,326,101856,2,0,P|109:340|58:352,1,99,8|0,2:0|2:0,2:0:0:0:
95,355,102107,1,8,2:0:0:0:
95,355,102191,5,8,2:0:0:0:
246,384,102359,5,8,2:0:0:0:
454,308,102526,5,0,3:0:0:0:
512,53,102694,5,12,2:0:0:0:
477,126,103867,6,0,L|486:172,1,47.25,8|2,3:0|2:0,2:0:0:0:
512,53,104202,2,0,P|446:113|386:103,1,135,6|0,3:2|2:0,2:0:0:0:
352,58,104538,2,0,P|318:118|319:173,1,90,8|0,2:0|2:0,2:0:0:0:
357,318,104873,5,0,3:0:0:0:
455,338,105040,1,0,2:0:0:0:
479,238,105208,1,8,2:0:0:0:
379,218,105376,1,0,2:0:0:0:
264,366,105543,6,0,P|234:310|227:221,1,135,0|0,3:0|2:0,2:0:0:0:
224,239,105878,1,8,2:0:0:0:
103,357,106046,1,8,2:0:0:0:
103,357,106130,1,8,2:0:0:0:
103,357,106214,2,0,L|-17:331,1,90,0|8,3:0|2:0,2:0:0:0:
16,337,106549,5,8,2:0:0:0:
229,245,106716,2,1,B|276:236|276:236|306:213|306:213|369:218|434:186,1,207,6|0,3:2|2:0,2:0:0:0:
489,268,107219,2,0,P|511:345|513:388,1,90,2|2,3:2|3:2,2:0:0:0:
387,250,107554,5,8,3:2:0:0:
387,250,107722,1,0,3:0:0:0:
322,94,107890,2,0,P|300:171|298:214,1,90,8|8,3:2|3:0,2:0:0:0:
299,181,108141,1,8,3:0:0:0:
299,181,108225,5,6,3:2:0:0:
441,77,108392,1,8,3:0:0:0:
196,39,108560,2,0,L|180:120,1,45,10|8,2:0|2:0,2:0:0:0:
154,283,108728,1,8,3:0:0:0:
154,283,108811,1,0,3:0:0:0:
154,283,108895,1,8,2:0:0:0:
399,321,109063,1,14,2:0:0:0:
399,321,109398,6,0,B|332:312|287:365|287:365|212:382,1,180,6|2,3:2|3:2,2:0:0:0:
66,260,109901,2,0,P|131:278|175:285,1,90,10|8,2:0|3:0,2:0:0:0:
179,254,110152,1,8,3:0:0:0:
209,233,110236,1,8,3:0:0:0:
219,198,110320,1,8,3:0:0:0:
203,165,110404,1,8,3:0:0:0:
0,110,110571,2,0,P|44:100|87:87,1,90,10|0,2:0|3:0,2:0:0:0:
87,87,110823,1,0,3:0:0:0:
87,87,110906,5,6,3:2:0:0:
326,121,111074,1,2,3:2:0:0:
395,299,111242,1,2,3:2:0:0:
495,290,111409,6,0,P|443:234|332:246,1,148.5,10|0,3:2|2:0,2:0:0:0:
304,252,111744,1,10,2:0:0:0:
459,85,111912,2,0,P|475:140|490:179,1,80.9999999999998,0|0,3:2|2:0,2:0:0:0:
484,163,112247,5,6,3:2:0:0:
253,137,112415,1,0,3:0:0:0:
66,291,112582,2,0,P|88:251|97:187,1,99,2|10,3:2|2:0,2:0:0:0:
100,124,112834,1,8,2:0:0:0:
100,124,112918,2,0,L|-19:142,1,99,8|0,3:0|3:0,2:0:0:0:
66,291,113253,5,6,3:2:0:0:
253,137,113420,1,0,3:0:0:0:
481,243,113588,2,0,L|497:339,1,99,2|10,3:2|2:0,2:0:0:0:
496,348,113839,1,8,2:0:0:0:
496,348,113923,2,0,P|448:370|389:367,1,99,8|0,3:0|3:0,2:0:0:0:
66,291,114258,5,4,3:0:0:0:
253,137,114426,1,8,3:0:0:0:
323,359,114594,1,0,3:0:0:0:
50,110,114761,1,4,3:2:0:0:
256,192,114958,12,0,121241,2:0:0:0:
