osu file format v14

[General]
AudioFilename: audio.ogg
AudioLeadIn: 0
PreviewTime: 128
Countdown: 0
SampleSet: Soft
StackLeniency: 0.7
Mode: 0
LetterboxInBreaks: 0
WidescreenStoryboard: 1

[Editor]
Bookmarks: 11524,19568,32976,54429,70518,81244,97334,104037,117445,138898,154987,165713,187166,197892,205937,213982,224708,235434,240797,251356,252864,260909,268954,271468
DistanceSpacing: 0.2
BeatDivisor: 4
GridSize: 32
TimelineZoom: 1.9

[Metadata]
Title:Einstein yori Ai o Komete
TitleUnicode:アインシュタインより愛を込めて
Artist:Luna
ArtistUnicode:Luna
Creator:pnky
Version:Apollo Crisis
Source:アインシュタインより愛を込めて APOLLOCRISIS
Tags:vn vgm female vocals vocalist ost apollo crisis the only source of knowledge is experience kanui ayesha altugle shizuku- kazato asa shikibe mayu mizutani runa COMPLETE SOUNDTRACK The bell rings for you 水谷瑠奈 APOL-0002 GLOVETY Tomohiro Takeshita 竹下智博 Yu Niijima 新島夕 visual novel eroge galgame pop video game japanese j-pop jpop visual arts
BeatmapID:4212756
BeatmapSetID:2022658

[Difficulty]
HPDrainRate:7
CircleSize:4
OverallDifficulty:9.1
ApproachRate:9.6
SliderMultiplier:2
SliderTickRate:0.5

[Events]
//Background and Video events
0,0,"akane.jpg",0,0
//Break Periods
2,213982,223367
//Storyboard Layer 0 (Background)
//Storyboard Layer 1 (Fail)
//Storyboard Layer 2 (Pass)
//Storyboard Layer 3 (Foreground)
//Storyboard Layer 4 (Overlay)
//Storyboard Sound Samples

[TimingPoints]
128,335.195530726257,4,2,1,20,1,0
128,-200,4,2,1,20,0,0
798,335.195530726257,4,2,1,20,1,0
798,-200,4,2,1,20,0,0
8758,-100,4,2,1,20,0,0
8842,-200,4,2,1,30,0,0
10854,-200,4,2,2,40,0,0
11524,-100,4,2,2,60,0,0
11859,-125,4,2,1,60,0,0
14037,-100,4,2,1,60,0,0
14373,-125,4,2,1,60,0,0
16887,-100,4,2,1,60,0,0
17222,-125,4,2,1,60,0,0
18060,-83.3333333333333,4,2,1,60,0,0
18395,-66.6666666666667,4,2,1,60,0,0
19568,-71.4285714285714,4,2,1,70,0,0
19903,-83.3333333333333,4,2,1,70,0,0
21579,-90.9090909090909,4,2,1,70,0,0
22082,-83.3333333333333,4,2,1,70,0,0
23758,-66.6666666666667,4,2,1,70,0,0
24093,-83.3333333333333,4,2,1,70,0,0
24261,-90.9090909090909,4,2,1,70,0,0
25099,-90.9090909090909,4,2,2,70,0,0
25183,-90.9090909090909,4,2,1,70,0,0
25602,-90.9090909090909,4,2,2,70,0,0
25769,-90.9090909090909,4,2,1,70,0,0
27278,-90.9090909090909,4,2,2,70,0,0
27613,-90.9090909090909,4,2,1,70,0,0
29624,-90.9090909090909,4,2,2,70,0,0
29959,-90.9090909090909,4,2,1,70,0,0
30294,-125,4,2,1,55,0,0
31132,-125,4,2,1,55,0,0
31803,-125,4,2,1,55,0,0
32473,-125,4,2,3,55,0,0
32808,-125,4,2,2,55,0,0
32976,-125,4,2,2,50,0,0
40853,-125,4,2,1,50,0,0
43199,-125,4,2,2,50,0,0
44875,-125,4,2,4,50,0,0
44959,-125,4,2,5,50,0,0
45043,-125,4,2,4,50,0,0
46216,-125,4,2,2,50,0,0
48898,-125,4,2,1,50,0,0
49065,-125,4,2,2,50,0,0
50239,-125,4,2,1,50,0,0
50406,-125,4,2,2,50,0,0
52082,-125,4,2,1,50,0,0
54429,-111.111111111111,4,2,2,60,0,0
54764,-111.111111111111,4,2,5,60,0,0
55099,-111.111111111111,4,2,1,60,0,0
55434,-111.111111111111,4,2,4,60,0,0
55602,-111.111111111111,4,2,2,60,0,0
55769,-111.111111111111,4,2,5,60,0,0
56105,-111.111111111111,4,2,2,60,0,0
56607,-111.111111111111,4,2,3,60,0,0
56942,-111.111111111111,4,2,2,60,0,0
57445,-111.111111111111,4,2,4,60,0,0
57613,-111.111111111111,4,2,2,60,0,0
57780,-111.111111111111,4,2,5,60,0,0
58116,-111.111111111111,4,2,4,60,0,0
58283,-111.111111111111,4,2,2,60,0,0
60127,-111.111111111111,4,2,5,60,0,0
60462,-111.111111111111,4,2,2,60,0,0
60797,-111.111111111111,4,2,4,60,0,0
60965,-111.111111111111,4,2,2,60,0,0
61132,-111.111111111111,4,2,5,60,0,0
61300,-111.111111111111,4,2,2,60,0,0
61468,-111.111111111111,4,2,1,60,0,0
61803,-111.111111111111,4,2,2,60,0,0
62138,-111.111111111111,4,2,3,60,0,0
62306,-111.111111111111,4,2,2,60,0,0
62473,-111.111111111111,4,2,4,60,0,0
62808,-111.111111111111,4,2,5,60,0,0
62976,-111.111111111111,4,2,3,60,0,0
63144,-111.111111111111,4,2,4,60,0,0
63479,-111.111111111111,4,2,5,60,0,0
63646,-111.111111111111,4,2,1,60,0,0
64149,-83.3333333333333,4,2,1,60,0,0
64484,-111.111111111111,4,2,1,60,0,0
65490,-111.111111111111,4,2,5,60,0,0
65825,-111.111111111111,4,2,1,60,0,0
66160,-111.111111111111,4,2,4,60,0,0
66328,-111.111111111111,4,2,2,60,0,0
66496,-111.111111111111,4,2,5,60,0,0
66831,-111.111111111111,4,2,3,60,0,0
67669,-111.111111111111,4,2,2,60,0,0
68172,-111.111111111111,4,2,4,60,0,0
68339,-111.111111111111,4,2,2,60,0,0
68507,-111.111111111111,4,2,5,60,0,0
68674,-111.111111111111,4,2,2,60,0,0
68842,-111.111111111111,4,2,5,60,0,0
69010,-111.111111111111,4,2,2,60,0,0
69177,-111.111111111111,4,2,5,60,0,0
69345,-111.111111111111,4,2,2,60,0,0
70518,-500,4,2,1,40,0,0
71859,-285.714285714286,4,2,5,40,0,0
72026,-285.714285714286,4,2,1,40,0,0
73199,-100,4,2,1,50,0,0
73367,-83.3333333333333,4,2,1,50,0,0
73702,-83.3333333333333,4,2,1,55,0,0
73870,-71.4285714285714,4,2,1,55,0,0
74205,-71.4285714285714,4,2,1,60,0,0
74373,-62.5,4,2,1,60,0,0
74708,-62.5,4,2,1,65,0,0
75043,-55.5555555555556,4,2,1,65,0,0
75881,-125,4,2,2,60,0,0
76216,-125,4,2,5,60,0,0
76719,-125,4,2,2,60,0,0
76887,-125,4,2,4,60,0,0
77054,-125,4,2,1,60,0,0
77222,-125,4,2,5,60,0,0
77389,-125,4,2,1,60,0,0
77557,-125,4,2,5,60,0,0
77892,-125,4,2,1,60,0,0
78227,-125,4,2,5,60,0,0
78395,-125,4,2,2,60,0,0
78563,-125,4,2,2,70,0,0
79065,-66.6666666666667,4,2,2,70,0,0
79401,-57.1428571428571,4,2,2,70,0,0
79736,-166.666666666667,4,2,2,45,0,0
80239,-166.666666666667,4,2,2,5,0,0
80574,-66.6666666666667,4,2,2,60,0,0
80741,-50,4,2,2,60,0,0
81244,-71.4285714285714,4,2,2,75,0,1
81580,-83.3333333333333,4,2,2,75,0,1
82920,-83.3333333333333,4,2,1,75,0,1
84261,-100,4,2,1,75,0,1
84764,-83.3333333333333,4,2,2,75,0,1
88283,-83.3333333333333,4,2,1,75,0,1
88786,-83.3333333333333,4,2,3,75,0,1
88954,-83.3333333333333,4,2,2,75,0,1
89121,-83.3333333333333,4,2,3,75,0,1
89289,-50,4,2,3,75,0,1
89624,-66.6666666666667,4,2,2,75,0,1
89959,-83.3333333333333,4,2,2,75,0,1
90462,-57.1428571428571,4,2,2,75,0,1
92473,-83.3333333333333,4,2,2,75,0,1
92976,-83.3333333333333,4,2,1,75,0,1
93144,-83.3333333333333,4,2,3,75,0,1
93311,-83.3333333333333,4,2,2,75,0,1
95658,-83.3333333333333,4,2,3,75,0,1
96328,-83.3333333333333,4,2,1,75,0,1
96663,-66.6666666666667,4,2,3,75,0,1
96915,-83.3333333333333,4,2,6,75,0,1
96998,-83.3333333333333,4,2,1,75,0,1
97166,-83.3333333333333,4,2,3,75,0,1
97334,-100,4,2,2,65,0,0
98004,-100,4,2,1,65,0,0
98172,-100,4,2,2,65,0,0
99345,-100,4,2,1,65,0,0
99512,-100,4,2,2,65,0,0
99680,-100,4,2,1,65,0,0
99848,-100,4,2,3,65,0,0
100350,-100,4,2,2,65,0,0
101189,-71.4285714285714,4,2,2,70,0,1
101524,-83.3333333333333,4,2,2,70,0,1
102026,-83.3333333333333,4,2,1,70,0,1
102529,-200,4,2,1,45,0,0
102864,-200,4,2,1,5,0,0
103032,-200,4,2,2,45,0,0
103535,-149.253731343284,4,2,2,45,0,0
103786,-149.253731343284,4,2,1,45,0,0
104037,335.195530726257,4,2,1,65,1,0
104037,-111.111111111111,4,2,1,65,0,0
108227,-111.111111111111,4,2,2,65,0,0
108395,-71.4285714285714,4,2,2,65,0,0
108898,-71.4285714285714,4,2,1,65,0,0
109232,-90.9090909090909,4,2,1,70,0,0
109568,-90.9090909090909,4,2,2,70,0,0
109652,-90.9090909090909,4,2,1,70,0,0
110071,-90.9090909090909,4,2,2,70,0,0
110239,-90.9090909090909,4,2,1,70,0,0
111747,-90.9090909090909,4,2,2,70,0,0
112082,-90.9090909090909,4,2,1,70,0,0
114093,-66.6666666666667,4,2,1,70,0,0
114763,-100,4,2,1,55,0,0
115434,-125,4,2,1,55,0,0
115936,-100,4,2,1,55,0,0
117444,-133.333333333333,4,2,2,55,0,0
117780,-111.111111111111,4,2,2,55,0,0
125322,-111.111111111111,4,2,1,55,0,0
127669,-111.111111111111,4,2,2,55,0,0
127725,-111.111111111111,4,2,1,55,0,0
127836,-111.111111111111,4,2,2,55,0,0
136216,-111.111111111111,4,2,1,55,0,0
137222,-111.111111111111,4,2,2,55,0,0
138898,-111.111111111111,4,2,2,60,0,0
141077,-111.111111111111,4,2,3,60,0,0
141412,-111.111111111111,4,2,2,60,0,0
148618,-83.3333333333333,4,2,2,60,0,0
148954,-111.111111111111,4,2,2,60,0,0
151970,-111.111111111111,4,2,3,60,0,0
152138,-111.111111111111,4,2,2,60,0,0
154986,-166.666666666667,4,2,1,40,0,0
156328,-166.666666666667,4,2,1,40,0,0
157166,-100,4,2,1,40,0,0
157668,-100,4,2,1,50,0,0
157835,-83.3333333333333,4,2,1,50,0,0
158171,-83.3333333333333,4,2,1,55,0,0
158338,-71.4285714285714,4,2,1,55,0,0
158674,-71.4285714285714,4,2,1,60,0,0
158841,-62.5,4,2,1,60,0,0
159177,-62.5,4,2,1,65,0,0
159512,-66.6666666666667,4,2,1,65,0,0
160350,-125,4,2,2,60,0,0
160686,-125,4,2,5,60,0,0
161021,-125,4,2,1,60,0,0
161356,-125,4,2,4,60,0,0
161524,-125,4,2,2,60,0,0
163032,-125,4,2,2,70,0,0
163534,-66.6666666666667,4,2,4,70,0,0
163869,-40,4,2,2,70,0,0
164204,-133.333333333333,4,2,2,45,0,0
164540,-133.333333333333,4,2,2,5,0,0
164708,-133.333333333333,4,2,5,45,0,0
164875,-133.333333333333,4,2,2,45,0,0
165042,-66.6666666666667,4,2,2,60,0,0
165211,-50,4,2,2,60,0,0
165712,-90.9090909090909,4,2,1,75,0,1
173422,-71.4285714285714,4,2,1,75,0,1
173758,-66.6666666666667,4,2,1,60,0,1
174093,-66.6666666666667,4,2,1,62,0,1
174429,-66.6666666666667,4,2,1,64,0,1
174764,-66.6666666666667,4,2,1,66,0,1
175099,-66.6666666666667,4,2,1,68,0,1
175434,-66.6666666666667,4,2,2,70,0,1
175602,-66.6666666666667,4,2,1,70,0,1
175769,-66.6666666666667,4,2,2,72,0,1
175937,-66.6666666666667,4,2,1,72,0,1
176105,-66.6666666666667,4,2,1,74,0,1
176440,-66.6666666666667,4,2,1,75,0,1
176774,-83.3333333333333,4,2,1,75,0,1
179792,-83.3333333333333,4,2,2,75,0,1
179875,-83.3333333333333,4,2,1,75,0,1
180965,-66.6666666666667,4,2,1,75,0,1
181802,-57.1428571428571,4,2,1,70,0,1
182306,-90.9090909090909,4,2,1,70,0,1
183479,-90.9090909090909,4,2,2,70,0,1
183814,-90.9090909090909,4,2,1,70,0,1
185657,-66.6666666666667,4,2,1,70,0,1
185993,-90.9090909090909,4,2,1,70,0,1
186496,-90.9090909090909,4,2,1,80,0,1
187166,335.195530726257,4,2,1,60,1,0
187166,-66.6666666666667,4,2,1,60,0,0
187835,-111.111111111111,4,2,1,60,0,0
188172,-111.111111111111,4,2,2,60,0,0
189345,-111.111111111111,4,2,3,60,0,0
189680,-111.111111111111,4,2,2,60,0,0
194205,-111.111111111111,4,2,3,60,0,0
194540,-111.111111111111,4,2,2,60,0,0
194875,-111.111111111111,4,2,3,60,0,0
195043,-111.111111111111,4,2,2,60,0,0
196216,-111.111111111111,4,2,3,60,0,0
196384,-111.111111111111,4,2,1,60,0,0
198898,-111.111111111111,4,2,2,60,0,0
200239,-111.111111111111,4,2,3,60,0,0
200406,-111.111111111111,4,2,2,60,0,0
203255,-200,4,2,1,40,0,0
204596,-133.333333333333,4,2,5,40,0,0
204764,-133.333333333333,4,2,1,40,0,0
205936,-100,4,2,1,50,0,0
206104,-83.3333333333333,4,2,1,50,0,0
206439,-83.3333333333333,4,2,1,55,0,0
206607,-71.4285714285714,4,2,1,55,0,0
206942,-71.4285714285714,4,2,1,60,0,0
207110,-62.5,4,2,1,60,0,0
207445,-55.5555555555556,4,2,1,65,0,0
207780,-83.3333333333333,4,2,1,65,0,0
208618,-125,4,2,2,60,0,0
208954,-125,4,2,5,60,0,0
209624,-125,4,2,4,60,0,0
209792,-125,4,2,2,60,0,0
209959,-125,4,2,5,60,0,0
210127,-125,4,2,1,60,0,0
210294,-125,4,2,5,60,0,0
210630,-125,4,2,2,60,0,0
211300,-125,4,2,2,70,0,0
211802,-66.6666666666667,4,2,2,70,0,0
212138,-57.1428571428571,4,2,2,70,0,0
212473,-166.666666666667,4,2,2,45,0,0
212976,-166.666666666667,4,2,2,5,0,0
213982,-166.666666666667,4,2,1,30,0,0
224037,-166.666666666667,4,2,1,60,0,0
224707,-71.4285714285714,4,2,2,75,0,1
225043,-83.3333333333333,4,2,2,75,0,1
226384,-83.3333333333333,4,2,1,75,0,1
228227,-83.3333333333333,4,2,2,75,0,1
231747,-83.3333333333333,4,2,1,75,0,1
232250,-83.3333333333333,4,2,3,75,0,1
232417,-83.3333333333333,4,2,2,75,0,1
232752,-50,4,2,3,75,0,1
233088,-50,4,2,2,75,0,1
233423,-66.6666666666667,4,2,2,75,0,1
234093,-57.1428571428571,4,2,2,60,0,1
234429,-57.1428571428571,4,2,2,65,0,1
234764,-57.1428571428571,4,2,2,70,0,1
235099,-57.1428571428571,4,2,2,75,0,1
235434,-83.3333333333333,4,2,2,80,0,1
236272,-83.3333333333333,4,2,3,80,0,1
236440,-83.3333333333333,4,2,1,80,0,1
236607,-83.3333333333333,4,2,3,80,0,1
236775,-83.3333333333333,4,2,2,80,0,1
237613,-83.3333333333333,4,2,3,80,0,1
237780,-83.3333333333333,4,2,1,80,0,1
237948,-83.3333333333333,4,2,3,80,0,1
238116,-83.3333333333333,4,2,2,80,0,1
238954,-83.3333333333333,4,2,3,80,0,1
239289,-83.3333333333333,4,2,1,80,0,1
239792,-83.3333333333333,4,2,2,80,0,1
240043,-83.3333333333333,4,2,1,80,0,1
240294,-83.3333333333333,4,2,2,80,0,1
240462,-83.3333333333333,4,2,1,80,0,1
240630,-83.3333333333333,4,2,3,80,0,1
240797,-100,4,2,1,65,0,0
241300,-100,4,2,2,65,0,0
242473,-100,4,2,3,65,0,0
243311,-100,4,2,2,65,0,0
243478,-125,4,2,2,65,0,0
244652,-83.3333333333333,4,2,2,65,0,0
245155,-83.3333333333333,4,2,3,65,0,0
245490,-83.3333333333333,4,2,1,65,0,0
245993,-83.3333333333333,4,2,3,65,0,0
246160,-83.3333333333333,4,2,2,75,0,1
246328,-83.3333333333333,4,2,1,75,0,1
246496,-83.3333333333333,4,2,3,75,0,1
246663,-90.9090909090909,4,2,2,75,0,1
247501,-66.6666666666667,4,2,2,75,0,1
248842,-90.9090909090909,4,2,2,75,0,1
249010,-90.9090909090909,4,2,1,75,0,1
249345,-90.9090909090909,4,2,3,75,0,1
249680,-90.9090909090909,4,2,1,75,0,1
249848,-90.9090909090909,4,2,2,75,0,1
250015,-83.3333333333333,4,2,3,75,0,1
250350,-83.3333333333333,4,2,1,75,0,1
251355,-100,4,2,1,45,0,0
252194,-100,4,2,2,45,0,0
252864,335.195530726257,4,2,2,60,1,0
252864,-100,4,2,2,60,0,0
253199,-100,4,2,1,60,0,0
253367,-125,4,2,1,60,0,0
255377,-100,4,2,1,60,0,0
255881,-125,4,2,1,60,0,0
258227,-100,4,2,1,60,0,0
258730,-125,4,2,1,60,0,0
259400,-83.3333333333333,4,2,1,60,0,0
259735,-66.6666666666667,4,2,1,60,0,0
260909,-66.6666666666667,4,2,1,70,0,0
261244,-83.3333333333333,4,2,1,70,0,0
265937,-90.9090909090909,4,2,1,70,0,0
266440,-90.9090909090909,4,2,2,70,0,0
266607,-90.9090909090909,4,2,1,70,0,0
266942,-83.3333333333333,4,2,2,70,0,0
267110,-83.3333333333333,4,2,1,70,0,0
267277,-90.9090909090909,4,2,1,70,0,0
268450,-83.3333333333333,4,2,1,70,0,0
268618,-90.9090909090909,4,2,2,70,0,0
268954,-90.9090909090909,4,2,1,70,0,0
270965,-90.9090909090909,4,2,2,70,0,0
271300,-90.9090909090909,4,2,1,70,0,0
271468,397.350993377483,4,2,1,40,1,0
271468,-133.333333333333,4,2,1,40,0,0
271865,372.670807453416,4,2,1,40,1,0
271865,-133.333333333333,4,2,1,40,0,0
272609,397.350993377483,4,2,1,40,1,0
272609,-133.333333333333,4,2,1,40,0,0
273403,425.531914893617,4,2,1,40,1,0
273615,-100,4,2,5,40,0,0
273828,458.015267175572,4,2,6,40,1,0
273828,-133.333333333333,4,2,6,40,0,0
274286,495.867768595041,4,2,1,40,1,0
274781,458.015267175572,4,2,1,40,1,0
274781,-133.333333333333,4,2,1,40,0,0
274838,-133.333333333333,4,2,5,40,0,0
275239,594.059405940594,4,2,1,40,1,0
275239,-133.333333333333,4,2,1,40,0,0
275387,-133.333333333333,4,2,5,40,0,0
275833,-133.333333333333,4,2,1,40,0,0
276427,659.340659340659,4,2,1,40,1,0
276427,-133.333333333333,4,2,1,40,0,0
277086,769.230769230769,4,2,1,40,1,0
277855,697.674418604651,4,2,1,40,1,0
280645,-100,4,2,1,30,0,0

[Colours]
Combo1 : 255,155,190
Combo2 : 170,240,245
Combo3 : 215,215,215

[HitObjects]
17,87,128,5,2,2:2:0:0:
120,27,463,1,2,2:2:0:0:
120,147,798,5,2,2:2:0:0:
135,172,965,1,0,0:0:0:0:
160,157,1133,1,0,0:0:0:0:
145,132,1300,1,0,0:0:0:0:
33,200,1635,5,2,2:2:0:0:
74,268,1803,1,2,2:2:0:0:
115,336,1971,1,2,2:2:0:0:
168,276,2138,5,0,0:0:0:0:
180,296,2306,1,0,0:0:0:0:
192,316,2473,1,0,0:0:0:0:
204,336,2641,1,0,0:0:0:0:
254,142,2976,5,2,2:2:0:0:
311,237,3144,1,2,2:2:0:0:
406,180,3311,1,2,2:2:0:0:
288,252,3479,5,0,0:0:0:0:
303,275,3647,1,0,0:0:0:0:
326,260,3814,1,0,0:0:0:0:
349,245,3982,1,0,0:0:0:0:
471,312,4317,5,2,2:2:0:0:
441,330,4485,1,2,2:2:0:0:
440,295,4652,1,2,2:2:0:0:
471,312,4820,5,2,2:2:0:0:
353,384,4987,1,0,0:0:0:0:
349,245,5155,1,0,0:0:0:0:
502,329,5323,1,2,2:2:0:0:
502,329,5658,5,0,0:0:0:0:
497,189,5825,2,0,P|501:214|498:239,1,50,2|0,2:2|0:0,0:0:0:0:
394,145,6161,2,0,P|390:120|393:95,1,50,2|0,2:2|0:0,0:0:0:0:
456,39,6496,1,2,2:2:0:0:
305,3,6663,1,2,2:2:0:0:
305,3,6999,5,2,2:2:0:0:
269,154,7166,1,2,2:2:0:0:
201,89,7334,1,0,0:0:0:0:
201,89,7669,5,0,0:0:0:0:
172,209,7837,5,0,0:0:0:0:
150,299,8004,5,0,0:0:0:0:
329,248,8172,5,2,2:2:0:0:
15,170,8507,1,2,2:2:0:0:
172,209,8758,2,0,L|177:184,2,25,2|2|2,2:2|2:2|2:2,0:0:0:0:
74,268,9177,5,2,2:2:0:0:
270,150,9345,1,2,2:2:0:0:
15,170,9680,5,2,2:2:0:0:
329,248,9848,1,2,2:2:0:0:
256,192,10015,12,2,11189,2:2:0:0:
72,22,11524,6,0,L|278:73,1,200,4|2,3:2|2:3,0:0:0:0:
321,153,12027,5,0,0:0:0:0:
347,156,12362,1,0,0:0:0:0:
372,149,12697,1,0,0:0:0:0:
392,131,13032,1,0,3:3:0:0:
227,156,13200,2,0,P|209:191|207:231,1,80,8|0,2:2|0:0,0:0:0:0:
395,308,13535,5,0,3:3:0:0:
297,214,13703,1,0,3:3:0:0:
265,346,13870,1,8,2:2:0:0:
24,259,14038,6,0,P|85:332|180:317,1,200,4|0,3:2|0:0,0:0:0:0:
207,231,14541,1,2,2:3:0:0:
197,208,14708,5,0,0:0:0:0:
187,185,15043,1,0,0:0:0:0:
164,195,15379,1,0,0:0:0:0:
224,333,15546,5,0,3:3:0:0:
362,273,15714,5,8,2:3:0:0:
367,287,15770,5,0,0:0:0:0:
372,301,15825,5,8,2:3:0:0:
377,315,15881,5,4,2:3:0:0:
274,259,16049,5,8,2:3:0:0:
453,181,16216,1,8,2:2:0:0:
286,108,16384,5,4,2:3:0:0:
429,170,16552,1,0,0:0:0:0:
510,37,16719,5,8,2:2:0:0:
510,37,16803,1,8,2:2:0:0:
510,37,16887,2,0,P|460:119|364:119,1,200,4|2,3:2|2:3,0:0:0:0:
220,62,17390,2,0,L|183:48,2,40,0|0|8,3:3|3:3|2:2,0:0:0:0:
286,108,17725,5,4,2:3:0:0:
141,50,17892,1,4,2:3:0:0:
175,283,18060,6,0,P|136:326|76:333,1,119.999996337891,4|0,3:2|0:0,0:0:0:0:
286,108,18395,6,0,P|322:114|352:136,1,75.0000028610231,8|8,2:2|2:2,0:0:0:0:
375,209,18563,5,0,3:3:0:0:
336,263,18647,5,8,2:2:0:0:
276,269,18730,5,8,2:2:0:0:
236,235,18814,5,0,3:3:0:0:
227,191,18898,5,0,3:3:0:0:
243,157,18982,5,4,2:3:0:0:
268,141,19066,5,8,2:2:0:0:
290,138,19149,5,4,2:3:0:0:
301,148,19233,5,8,2:2:0:0:
240,193,19317,1,8,2:2:0:0:
161,186,19401,1,8,2:2:0:0:
103,128,19485,1,8,2:2:0:0:
99,47,19568,6,0,B|104:-7|150:-19|150:-19|118:6|118:46,1,139.999995727539,4|0,3:2|0:0,0:0:0:0:
95,355,19904,5,8,2:2:0:0:
29,95,20071,1,2,2:2:0:0:
140,341,20239,5,0,3:3:0:0:
142,112,20406,1,2,2:2:0:0:
186,347,20574,5,8,2:2:0:0:
237,159,20742,1,2,2:2:0:0:
225,371,20909,5,0,3:3:0:0:
315,234,21077,1,10,2:2:0:0:
315,234,21161,1,8,2:2:0:0:
315,234,21244,6,0,L|326:300,1,59.9999981689454,10|0,2:2|0:0,0:0:0:0:
432,108,21412,2,0,L|443:174,1,59.9999981689454,10|8,2:2|2:2,0:0:0:0:
465,314,21580,5,0,3:3:0:0:
347,77,21747,2,0,P|381:32|430:18,1,110.000003356934,10|0,2:2|3:3,0:0:0:0:
226,190,22082,6,0,B|163:225|112:163|64:104|-9:154,1,239.999992675781,14|0,2:2|0:0,0:0:0:0:
181,304,22585,5,10,2:2:0:0:
120,47,22753,1,2,2:2:0:0:
39,258,22920,5,0,3:3:0:0:
192,112,23088,1,2,0:0:0:0:
201,102,23172,1,0,0:0:0:0:
210,92,23256,1,10,2:2:0:0:
35,161,23423,5,0,0:0:0:0:
196,208,23591,2,0,L|253:224,1,59.9999981689454,8|0,2:2|0:0,0:0:0:0:
27,273,23758,5,8,2:2:0:0:
81,288,23842,1,8,2:2:0:0:
135,303,23926,1,8,3:2:0:0:
189,318,24010,1,8,2:2:0:0:
243,333,24094,2,0,L|300:349,1,59.9999981689454,8|8,2:3|2:3,0:0:0:0:
176,202,24261,5,0,3:3:0:0:
449,278,24429,1,8,2:2:0:0:
201,16,24764,6,0,P|255:106|360:112,1,220.000006713867,4|6,3:2|2:3,0:0:0:0:
384,98,25183,1,2,3:2:0:0:
403,79,25267,1,10,2:2:0:0:
345,213,25434,5,8,2:3:0:0:
345,213,25518,1,8,2:3:0:0:
345,213,25602,1,10,2:3:0:0:
310,16,25770,1,2,3:2:0:0:
226,234,25937,5,10,2:2:0:0:
205,115,26105,1,4,2:3:0:0:
485,359,26272,5,6,3:2:0:0:
450,162,26440,1,2,3:2:0:0:
297,291,26608,5,2,3:2:0:0:
472,147,26775,2,0,L|491:255,1,110.000003356934,10|0,2:2|3:3,0:0:0:0:
188,104,27110,6,0,L|197:158,1,55.0000016784668,10|0,2:2|0:0,0:0:0:0:
105,335,27278,2,0,P|181:314|211:240,1,165.000005035401,6|0,2:3|0:0,0:0:0:0:
109,60,27613,5,6,3:2:0:0:
132,211,27781,1,4,2:3:0:0:
33,173,27948,1,4,2:3:0:0:
216,382,28116,5,14,2:2:0:0:
231,249,28284,1,8,2:3:0:0:
56,324,28451,1,8,2:3:0:0:
340,161,28619,5,6,3:2:0:0:
316,373,28786,1,4,2:3:0:0:
512,288,28954,1,4,2:3:0:0:
207,119,29122,5,10,2:2:0:0:
422,277,29289,1,8,2:3:0:0:
452,12,29457,1,8,2:3:0:0:
254,198,29624,5,6,2:3:0:0:
81,71,29792,1,0,3:3:0:0:
81,71,29876,1,0,3:3:0:0:
81,71,29960,1,14,2:2:0:0:
58,284,30127,5,0,0:0:0:0:
285,186,30295,1,6,3:2:0:0:
466,352,30798,5,0,0:0:0:0:
468,340,30881,1,0,0:0:0:0:
470,328,30965,1,0,0:0:0:0:
375,311,31133,5,2,2:2:0:0:
370,287,31300,1,2,3:2:0:0:
289,368,31468,6,0,L|268:271,1,80,14|0,2:2|0:0,0:0:0:0:
30,219,31803,5,8,2:3:0:0:
48,238,31859,5,0,0:0:0:0:
71,251,31915,5,8,2:3:0:0:
97,257,31971,6,0,P|116:258|136:255,1,40,8|0,2:3|0:0,0:0:0:0:
111,119,32138,2,0,L|95:178,1,40,4|0,2:3|0:0,0:0:0:0:
45,349,32306,1,8,3:2:0:0:
45,349,32473,1,10,2:3:0:0:
226,247,32641,5,10,2:3:0:0:
220,266,32725,1,8,2:3:0:0:
215,285,32809,1,2,3:2:0:0:
210,304,32892,1,0,3:3:0:0:
205,324,32976,2,0,B|224:362|224:362|257:243,1,160,6|2,3:2|3:2,0:0:0:0:
329,180,33479,2,0,P|368:183|403:203,2,80,2|0|2,2:2|3:2|0:0,0:0:0:0:
237,155,33982,5,0,3:3:0:0:
237,155,34149,2,0,P|224:117|226:77,1,80,2|0,2:2|3:3,0:0:0:0:
189,229,34485,2,0,P|159:203|142:168,1,80,2|0,2:2|3:3,0:0:0:0:
60,78,34820,2,0,P|61:117|49:155,1,80,2|0,2:2|3:3,0:0:0:0:
142,167,35155,2,0,P|124:203|95:230,1,80,2|0,2:2|3:3,0:0:0:0:
143,84,35490,5,2,2:2:0:0:
10,233,35658,2,0,P|33:307|101:346,2,160,2|0|0,3:2|3:3|3:3,0:0:0:0:
185,333,36496,1,2,2:2:0:0:
268,319,36663,1,2,3:2:0:0:
351,305,36831,1,2,2:2:0:0:
512,203,36999,6,0,B|449:193|449:193|433:292,1,160,2|2,3:2|3:2,0:0:0:0:
370,137,37501,2,0,B|357:215,2,80,2|0|2,2:2|3:3|2:2,0:0:0:0:
428,35,38004,5,0,3:3:0:0:
428,35,38088,1,0,0:0:0:0:
428,35,38172,1,2,2:2:0:0:
428,35,38256,1,2,0:0:0:0:
428,35,38339,2,0,P|372:90|294:94,2,160,2|0|0,3:2|3:3|3:3,0:0:0:0:
265,102,39177,2,0,B|187:115,1,80,2|2,2:2|3:2,0:0:0:0:
133,47,39513,5,2,2:2:0:0:
158,197,39680,2,0,B|-5:224,1,160,0|0,3:3|3:3,0:0:0:0:
174,281,40183,1,0,0:0:0:0:
144,286,40351,1,0,3:3:0:0:
115,291,40518,1,0,0:0:0:0:
311,326,40686,6,0,P|292:292|261:268,1,80,0|2,3:3|2:2,0:0:0:0:
158,197,41021,6,0,B|315:170,2,160,2|0|0,3:2|3:3|3:3,0:0:0:0:
346,94,41859,1,2,2:2:0:0:
398,157,42027,1,2,3:2:0:0:
427,81,42194,1,2,2:2:0:0:
328,95,42362,6,0,P|296:70|276:35,1,80,0|0,3:3|0:0,0:0:0:0:
267,162,42697,2,0,P|226:156|191:136,1,80,0|0,3:3|0:0,0:0:0:0:
247,250,43032,1,0,3:3:0:0:
247,250,43200,1,2,2:2:0:0:
247,250,43367,2,0,P|209:265|169:265,1,80,10|2,2:2|2:2,0:0:0:0:
30,123,43703,6,0,P|110:156|92:221,2,160,4|0|0,3:2|3:3|3:3,0:0:0:0:
192,137,44541,1,2,2:2:0:0:
265,97,44708,1,2,3:2:0:0:
286,17,44876,6,0,L|291:57,1,40,2|2,2:3|2:3,0:0:0:0:
310,164,45043,2,0,P|338:193|375:209,1,80,2|0,3:3|0:0,0:0:0:0:
265,97,45379,1,0,3:3:0:0:
388,122,45546,2,0,L|378:42,1,80,2|0,2:3|3:3,0:0:0:0:
455,179,45881,2,0,L|504:115,1,80,2|0,2:3|3:3,0:0:0:0:
374,209,46216,5,2,2:2:0:0:
512,272,46384,1,6,3:2:0:0:
512,272,46719,1,0,3:3:0:0:
471,355,46887,2,0,P|433:370|393:370,1,80,0|0,0:0|3:3,0:0:0:0:
374,209,47222,1,2,2:2:0:0:
333,292,47390,2,0,P|295:307|255:307,1,80,2|2,3:2|2:2,0:0:0:0:
83,146,47725,5,0,3:3:0:0:
153,98,47892,1,0,0:0:0:0:
200,187,48060,1,0,3:3:0:0:
285,205,48228,2,0,L|372:192,1,80,2|0,2:2|3:3,0:0:0:0:
146,242,48563,1,2,2:2:0:0:
294,220,48730,2,0,L|373:208,1,80,10|2,2:2|2:2,0:0:0:0:
397,41,49066,6,0,P|471:65|511:132,1,160,6|2,3:2|3:2,0:0:0:0:
313,54,49568,2,0,L|234:66,1,80,2|0,2:2|3:3,0:0:0:0:
194,145,49904,2,0,P|154:144|117:129,1,80,2|0,2:2|3:3,0:0:0:0:
176,0,50239,5,2,2:2:0:0:
195,158,50406,2,0,P|117:144|68:78,1,160,2|2,3:2|3:2,0:0:0:0:
81,219,50909,2,0,P|47:241|9:250,1,80,2|0,2:2|3:3,0:0:0:0:
226,149,51244,5,2,2:2:0:0:
226,149,51412,2,0,P|264:158|298:180,1,80,2|2,3:2|2:2,0:0:0:0:
345,374,51747,1,0,3:3:0:0:
345,374,52082,5,2,3:2:0:0:
292,303,52250,1,0,0:0:0:0:
464,228,52418,5,2,3:2:0:0:
411,157,52585,1,0,0:0:0:0:
444,354,52753,5,2,3:2:0:0:
312,177,52920,1,8,2:2:0:0:
433,84,53088,5,2,3:2:0:0:
291,189,53256,2,0,P|252:179|220:153,1,80,8|0,2:2|3:3,0:0:0:0:
335,101,53591,2,0,P|314:66|310:25,1,80,2|0,2:2|3:3,0:0:0:0:
160,85,53926,5,8,2:2:0:0:
160,85,54010,1,8,2:2:0:0:
160,85,54094,1,8,2:2:0:0:
160,85,54177,1,8,2:2:0:0:
160,85,54261,2,0,P|140:82|121:75,1,40,4|0,2:3|0:0,0:0:0:0:
221,154,54429,6,0,P|162:218|167:306,1,179.999994506836,6|2,3:2|2:3,0:0:0:0:
371,212,54932,1,0,3:3:0:0:
215,142,55099,2,0,P|178:167|154:205,1,89.9999972534181,8|0,2:2|0:0,0:0:0:0:
301,368,55434,5,2,3:3:0:0:
381,189,55602,2,0,L|418:107,1,89.9999972534181,2|2,3:2|2:3,0:0:0:0:
252,239,55937,5,0,3:3:0:0:
431,319,56105,2,0,L|473:224,1,89.9999972534181,10|2,2:2|2:2,0:0:0:0:
366,172,56440,5,0,3:3:0:0:
286,351,56608,1,10,2:3:0:0:
446,336,56775,2,0,L|483:254,1,89.9999972534181,4|2,2:3|2:2,0:0:0:0:
321,59,57110,5,4,3:2:0:0:
321,59,57446,5,2,2:3:0:0:
257,202,57613,1,2,3:2:0:0:
170,124,57781,2,0,L|133:206,1,89.9999972534181,10|0,2:3|0:0,0:0:0:0:
81,1,58116,5,2,3:3:0:0:
81,1,58284,2,0,P|164:18|181:102,1,179.999994506836,2|0,3:2|3:3,0:0:0:0:
312,85,58786,5,8,2:2:0:0:
224,283,58954,1,8,2:3:0:0:
436,167,59122,5,0,3:3:0:0:
396,257,59289,1,0,3:3:0:0:
368,320,59457,1,4,2:3:0:0:
348,365,59624,1,4,2:3:0:0:
146,216,59792,6,0,P|58:216|-1:281,1,179.999994506836,4|2,3:2|2:3,0:0:0:0:
110,384,60295,1,0,3:3:0:0:
153,204,60462,2,0,P|109:192|61:200,1,89.9999972534181,10|0,2:2|0:0,0:0:0:0:
267,103,60798,5,2,2:3:0:0:
224,283,60965,2,0,P|268:295|316:287,1,89.9999972534181,2|2,3:2|2:3,0:0:0:0:
152,203,61300,1,2,3:2:0:0:
110,384,61468,1,10,2:2:0:0:
110,384,61803,5,6,2:3:0:0:
224,283,61971,1,4,2:3:0:0:
97,140,62138,1,2,3:2:0:0:
241,378,62306,5,2,2:2:0:0:
241,378,62473,2,0,P|311:324|311:237,1,179.999994506836,6|2,3:2|2:3,0:0:0:0:
409,359,62976,1,2,3:2:0:0:
409,359,63144,2,0,P|452:348|486:320,1,89.9999972534181,10|0,2:3|0:0,0:0:0:0:
426,137,63479,5,2,3:2:0:0:
311,238,63647,2,0,P|330:322|409:359,1,179.999994506836,2|0,3:2|3:3,0:0:0:0:
328,118,64149,6,0,L|210:94,1,119.999996337891,12|0,2:2|0:0,0:0:0:0:
11,273,64485,5,8,2:3:0:0:
98,239,64596,1,8,2:3:0:0:
135,153,64708,1,8,2:3:0:0:
88,295,64820,5,4,2:3:0:0:
140,241,64932,1,4,2:3:0:0:
139,166,65043,1,4,2:3:0:0:
181,315,65155,5,4,3:2:0:0:
181,315,65323,2,0,P|241:377|328:373,1,179.999994506836,0|0,3:3|3:3,0:0:0:0:
297,171,65825,2,0,P|252:171|212:193,1,89.9999972534181,8|0,2:2|0:0,0:0:0:0:
410,261,66161,5,2,2:3:0:0:
410,261,66328,2,0,L|381:83,1,179.999994506836,2|0,3:2|3:3,0:0:0:0:
512,277,66831,2,0,L|497:187,1,89.9999972534181,8|0,2:2|0:0,0:0:0:0:
299,361,67166,5,4,2:3:0:0:
283,263,67334,1,4,2:3:0:0:
271,194,67501,1,6,2:3:0:0:
262,145,67669,1,6,2:3:0:0:
60,361,67837,6,0,P|146:352|192:278,1,179.999994506836,4|2,3:2|2:3,0:0:0:0:
241,25,68339,1,2,3:2:0:0:
209,195,68507,2,0,L|224:107,1,89.9999972534181,10|2,2:3|2:2,0:0:0:0:
27,258,68842,5,2,3:3:0:0:
27,258,69010,2,0,B|93:269|93:269|111:159,1,179.999994506836,2|2,3:2|3:2,0:0:0:0:
283,326,69513,5,14,2:2:0:0:
320,104,69680,1,0,3:3:0:0:
482,281,69848,5,0,3:3:0:0:
482,281,69960,2,0,L|472:221,1,59.9999981689454,8|8,2:2|2:2,0:0:0:0:
377,357,70183,5,8,2:3:0:0:
363,277,70295,5,8,2:2:0:0:
350,197,70406,5,8,2:2:0:0:
335,115,70518,6,0,P|357:51|419:23,1,140,6|2,3:2|2:2,0:0:0:0:
273,168,71859,2,0,P|208:146|180:84,1,140,2|0,2:3|0:0,0:0:0:0:
350,197,72697,5,8,2:3:0:0:
322,277,72865,1,4,2:3:0:0:
245,313,73032,1,4,2:3:0:0:
188,192,73200,6,0,P|209:169|232:153,1,50,8|0,3:2|0:0,0:0:0:0:
30,245,73367,2,0,P|118:246|188:192,1,179.999994506836,4|0,3:2|0:0,0:0:0:0:
205,201,73703,6,0,P|224:178|249:162,1,59.9999981689454,0|0,3:3|0:0,0:0:0:0:
21,264,73870,2,0,P|124:265|206:201,1,209.999993591309,4|0,3:2|0:0,0:0:0:0:
224,214,74205,6,0,P|247:188|276:169,1,69.9999978637696,8|0,2:2|0:0,0:0:0:0:
11,282,74373,2,0,P|132:283|228:208,1,240,4|0,3:2|0:0,0:0:0:0:
242,228,74708,5,0,3:3:0:0:
242,228,74876,2,0,P|269:198|303:177,1,80,4|0,3:2|0:0,0:0:0:0:
1,300,75043,5,8,2:2:0:0:
44,310,75127,1,8,2:2:0:0:
89,311,75211,1,0,3:3:0:0:
133,303,75295,1,0,3:3:0:0:
165,291,75379,1,8,2:3:0:0:
194,275,75462,1,8,2:3:0:0:
220,254,75546,1,0,3:3:0:0:
243,229,75630,1,0,3:3:0:0:
255,256,75714,1,4,2:3:0:0:
275,278,75798,1,4,2:3:0:0:
301,293,75881,6,0,P|376:248|337:187,1,160,6|2,3:2|2:3,0:0:0:0:
187,98,76384,1,0,3:3:0:0:
294,44,76552,1,10,2:3:0:0:
294,44,76887,5,2,2:3:0:0:
197,211,77054,1,8,2:2:0:0:
197,211,77222,1,2,2:3:0:0:
187,98,77390,5,8,2:2:0:0:
90,265,77557,2,0,P|44:254|16:226,1,80,2|0,3:3|0:0,0:0:0:0:
179,309,77892,6,0,L|354:288,1,160,8|2,2:2|3:3,0:0:0:0:
454,272,78395,1,10,2:2:0:0:
221,209,78563,5,6,3:2:0:0:
350,374,78730,1,0,3:3:0:0:
324,377,78814,1,8,2:2:0:0:
298,381,78898,1,10,2:2:0:0:
410,121,79066,6,0,P|377:56|300:38,1,150.000005722046,2|0,3:2|0:0,0:0:0:0:
306,36,79401,6,0,B|345:46|345:46|331:107,1,87.500000834465,2|0,3:2|0:0,0:0:0:0:
216,231,79568,2,0,B|177:221|177:221|187:174,1,87.500000834465,10|0,2:2|0:0,0:0:0:0:
419,120,79736,6,0,B|375:306,1,179.999994506836,2|0,3:2|0:0,0:0:0:0:
377,295,80574,6,0,P|340:288|309:265,1,75.0000028610231,0|0,3:3|0:0,0:0:0:0:
117,340,80742,5,8,2:2:0:0:
148,339,80825,5,8,2:2:0:0:
183,324,80909,5,8,2:2:0:0:
218,281,80993,5,8,2:2:0:0:
220,208,81077,5,8,2:2:0:0:
162,151,81161,5,8,2:2:0:0:
67,172,81244,6,0,P|-2:101|23:4,1,209.999993591309,6|0,3:2|0:0,0:0:0:0:
24,2,81580,1,10,2:2:0:0:
162,151,81747,2,0,P|169:234|90:263,1,179.999994506836,2|0,2:2|0:0,0:0:0:0:
230,81,82082,2,0,P|279:112|302:167,1,119.999996337891,2|8,2:2|2:2,0:0:0:0:
123,62,82418,1,2,2:2:0:0:
345,282,82585,5,2,3:2:0:0:
345,282,82753,1,0,0:0:0:0:
501,237,82920,5,10,2:2:0:0:
276,338,83088,1,2,2:2:0:0:
259,296,83172,1,2,0:0:0:0:
264,252,83256,1,0,3:3:0:0:
394,384,83423,5,2,2:2:0:0:
281,122,83591,2,0,P|237:84|178:85,1,119.999996337891,10|2,2:2|2:2,0:0:0:0:
89,289,83926,6,0,B|128:309|128:309|111:173,1,179.999994506836,0|0,3:3|0:0,0:0:0:0:
5,119,84261,2,0,B|24:140|24:140|36:240,2,100,8|0|0,2:2|0:0|3:3,0:0:0:0:
89,289,84764,5,2,2:2:0:0:
89,289,84932,1,10,2:2:0:0:
227,109,85099,1,2,2:2:0:0:
359,366,85267,6,0,P|446:362|509:294,1,179.999994506836,2|0,3:2|0:0,0:0:0:0:
500,106,85602,2,0,P|462:150|460:209,1,119.999996337891,10|2,2:2|2:2,0:0:0:0:
507,298,85937,1,0,3:3:0:0:
340,151,86105,5,2,2:2:0:0:
157,360,86272,1,8,2:2:0:0:
310,126,86440,5,10,2:2:0:0:
337,197,86524,1,8,2:2:0:0:
364,268,86608,1,4,3:2:0:0:
202,47,86775,1,2,2:2:0:0:
37,262,86943,6,0,P|15:186|93:180,1,179.999994506836,10|0,2:2|0:0,0:0:0:0:
156,379,87278,2,0,P|158:320|130:268,1,119.999996337891,0|0,3:3|0:0,0:0:0:0:
0,344,87613,5,10,2:2:0:0:
98,85,87781,1,2,2:2:0:0:
339,257,87948,5,0,3:3:0:0:
368,179,88116,1,0,0:0:0:0:
397,101,88284,1,10,2:2:0:0:
508,230,88451,5,2,2:2:0:0:
323,266,88619,1,0,3:3:0:0:
385,88,88786,1,2,2:2:0:0:
236,287,88954,5,10,2:2:0:0:
128,40,89122,1,2,2:2:0:0:
191,355,89289,6,0,P|312:310|234:207,1,300,6|0,3:2|0:0,0:0:0:0:
0,197,89624,2,0,B|62:241|62:241|208:213,1,225.000008583069,14|0,2:2|0:0,0:0:0:0:
403,178,89960,5,0,3:3:0:0:
303,58,90127,1,2,2:2:0:0:
236,287,90295,1,14,2:2:0:0:
403,89,90462,6,0,P|444:99|476:129,1,87.500000834465,10|8,2:2|2:2,0:0:0:0:
244,122,90630,2,0,P|220:85|216:42,1,87.500000834465,12|0,2:2|0:0,0:0:0:0:
403,178,90798,5,0,3:3:0:0:
417,265,90881,5,0,3:3:0:0:
377,328,90965,5,8,2:3:0:0:
317,339,91049,5,8,2:3:0:0:
276,314,91133,5,0,3:3:0:0:
277,288,91216,5,0,3:3:0:0:
288,274,91300,5,4,2:3:0:0:
301,277,91384,5,4,2:3:0:0:
305,285,91468,5,0,3:3:0:0:
300,302,91552,5,0,3:3:0:0:
273,324,91635,5,8,2:2:0:0:
223,309,91719,5,8,0:0:0:0:
170,263,91803,5,8,3:2:0:0:
83,250,91887,5,8,2:2:0:0:
0,312,91971,6,0,P|3:188|126:157,1,262.500002503395,4|0,3:2|0:0,0:0:0:0:
119,154,92306,1,10,2:2:0:0:
375,177,92473,2,0,B|327:208|327:208|206:184,1,179.999994506836,2|0,2:2|0:0,0:0:0:0:
119,154,92809,5,2,2:2:0:0:
284,33,92976,1,10,2:2:0:0:
284,33,93144,1,2,2:2:0:0:
512,256,93311,6,0,P|483:174|399:159,1,179.999994506836,2|0,3:2|0:0,0:0:0:0:
375,177,93647,1,10,2:2:0:0:
375,383,93814,2,0,P|423:350|441:293,1,119.999996337891,2|0,2:2|3:3,0:0:0:0:
278,207,94149,2,0,P|244:254|239:314,1,119.999996337891,2|8,2:2|2:2,0:0:0:0:
249,342,94401,1,0,0:0:0:0:
266,367,94485,1,2,2:2:0:0:
44,303,94652,6,0,P|103:298|151:264,1,119.999996337891,2|0,3:2|0:0,0:0:0:0:
223,80,94987,1,10,2:2:0:0:
279,207,95155,5,2,2:2:0:0:
49,117,95323,1,0,3:3:0:0:
233,52,95490,5,2,2:2:0:0:
139,289,95658,2,0,B|91:328|26:310|26:310|26:310|26:310|15:278|-9:263,1,179.999994506836,10|0,2:2|0:0,0:0:0:0:
161,208,95993,6,0,P|216:255|218:317,1,119.999996337891,0|0,3:3|0:0,0:0:0:0:
453,377,96328,1,14,2:2:0:0:
453,377,96412,1,2,2:2:0:0:
453,377,96496,1,2,3:2:0:0:
453,376,96580,1,2,3:2:0:0:
453,376,96663,2,0,L|471:218,1,150.000005722046,2|0,3:2|0:0,0:0:0:0:
366,228,96915,6,0,L|375:151,1,59.9999981689454,10|2,2:3|3:2,0:0:0:0:
222,299,97166,1,6,2:3:0:0:
68,49,97334,6,0,P|9:120|147:132,1,300,6|2,3:2|3:2,0:0:0:0:
103,361,98004,1,10,2:2:0:0:
222,299,98172,1,2,2:2:0:0:
109,227,98339,1,2,2:2:0:0:
246,314,98507,6,0,B|301:333|336:263|403:288,1,150,0|0,3:3|0:0,0:0:0:0:
452,349,98842,1,0,3:3:0:0:
452,349,99010,2,0,P|496:311|501:256,1,100,8|0,2:3|3:3,0:0:0:0:
258,159,99345,5,10,2:2:0:0:
389,284,99513,1,10,2:3:0:0:
482,242,99680,1,2,3:2:0:0:
482,242,99848,1,2,2:2:0:0:
246,259,100015,6,0,P|184:229|156:151,1,150,2|0,3:2|0:0,0:0:0:0:
92,8,100351,2,0,P|138:30|159:89,1,100,2|2,2:2|3:2,0:0:0:0:
95,254,100686,1,8,2:2:0:0:
95,254,100853,2,0,L|59:347,1,100,2|2,3:2|2:2,0:0:0:0:
248,243,101189,6,0,P|198:219|219:79,1,209.999993591309,12|0,2:2|0:0,0:0:0:0:
299,63,101524,1,0,3:3:0:0:
245,258,101691,6,0,P|191:235|159:186,1,119.999996337891,8|0,2:2|0:0,0:0:0:0:
113,295,101943,2,0,L|91:350,1,59.9999981689454,8|10,2:2|2:2,0:0:0:0:
158,184,102194,5,10,2:2:0:0:
351,381,102362,1,2,3:2:0:0:
484,44,102529,2,0,L|448:137,1,100,10|0,2:2|0:0,0:0:0:0:
341,145,103535,5,0,3:3:0:0:
493,56,103703,2,0,L|457:149,1,100.499995246124,14|2,2:3|2:2,0:0:0:0:
443,180,104038,5,6,3:2:0:0:
341,145,104204,1,0,0:0:0:0:
310,269,104372,5,8,2:2:0:0:
345,167,104539,1,0,0:0:0:0:
221,136,104707,5,0,3:3:0:0:
323,171,104874,1,2,2:2:0:0:
354,47,105042,5,8,2:2:0:0:
284,251,105210,1,2,2:2:0:0:
319,149,105377,1,0,3:3:0:0:
319,149,105545,1,2,2:2:0:0:
130,94,105712,5,10,2:2:0:0:
130,94,105796,1,8,0:0:0:0:
130,94,105880,1,10,2:2:0:0:
130,94,105964,1,8,2:2:0:0:
130,94,106048,1,0,3:3:0:0:
191,222,106215,2,0,L|105:192,1,89.9999972534181,10|2,2:2|3:2,0:0:0:0:
80,183,106467,5,2,2:2:0:0:
54,176,106550,2,0,P|-13:227|7:309,1,179.999994506836,14|0,2:2|0:0,0:0:0:0:
196,376,107053,2,0,L|110:346,1,89.9999972534181,10|2,2:2|2:2,0:0:0:0:
278,231,107388,5,0,3:3:0:0:
290,212,107472,1,0,3:3:0:0:
308,198,107556,1,0,3:3:0:0:
328,190,107640,1,0,3:3:0:0:
351,188,107724,1,8,2:2:0:0:
381,196,107807,1,8,2:2:0:0:
409,224,107891,1,8,2:2:0:0:
418,272,107975,1,8,2:2:0:0:
387,322,108059,6,0,L|340:314,1,44.999998626709,0|0,3:3|0:0,0:0:0:0:
453,373,108226,2,0,L|409:365,1,44.999998626709,10|0,2:3|0:0,0:0:0:0:
206,286,108394,5,8,3:2:0:0:
206,286,108478,1,8,2:2:0:0:
206,286,108562,1,10,2:3:0:0:
206,286,108645,1,8,2:3:0:0:
206,286,108729,1,0,3:3:0:0:
68,383,108897,2,0,P|22:334|35:268,1,139.999995727539,10|0,2:2|0:0,0:0:0:0:
281,166,109232,6,0,B|262:152|262:152|239:175|239:175|128:175|128:175|105:198|105:198|87:185,1,220.000006713867,6|6,3:2|2:3,0:0:0:0:
71,170,109651,1,2,3:2:0:0:
54,155,109735,1,10,2:2:0:0:
162,269,109902,5,8,2:3:0:0:
159,285,109986,1,8,2:3:0:0:
156,300,110070,1,10,2:3:0:0:
203,87,110238,1,2,3:2:0:0:
272,315,110405,5,10,2:2:0:0:
300,187,110573,1,4,2:3:0:0:
296,204,110657,1,4,2:3:0:0:
292,222,110740,1,6,3:2:0:0:
444,107,110908,5,2,3:2:0:0:
182,174,111076,1,2,3:2:0:0:
441,353,111243,5,10,2:2:0:0:
400,195,111411,1,0,3:3:0:0:
298,364,111578,6,0,L|284:310,1,55.0000016784668,10|0,2:2|0:0,0:0:0:0:
198,361,111746,2,0,P|118:358|68:295,1,165.000005035401,6|0,2:3|0:0,0:0:0:0:
5,188,112081,5,6,3:2:0:0:
68,295,112249,1,4,2:3:0:0:
197,263,112416,1,4,2:3:0:0:
19,153,112584,5,10,2:2:0:0:
107,302,112752,1,8,2:3:0:0:
287,257,112919,1,8,2:3:0:0:
344,357,113087,5,6,3:2:0:0:
384,147,113254,1,4,2:3:0:0:
388,126,113338,1,8,2:2:0:0:
392,105,113422,1,4,2:3:0:0:
149,190,113590,5,10,2:2:0:0:
411,303,113757,1,8,2:2:0:0:
429,340,113841,1,8,2:2:0:0:
425,381,113925,1,0,3:3:0:0:
82,248,114092,5,10,2:2:0:0:
61,191,114176,5,8,2:2:0:0:
76,140,114260,5,8,2:3:0:0:
110,110,114344,5,8,2:3:0:0:
154,102,114428,5,10,2:2:0:0:
206,119,114511,5,0,0:0:0:0:
264,153,114595,5,4,2:3:0:0:
342,154,114679,5,4,2:3:0:0:
420,109,114763,6,0,P|332:67|378:236,1,400,6|0,3:2|0:0,0:0:0:0:
491,186,115601,1,2,0:0:0:0:
342,154,115768,1,2,3:2:0:0:
491,186,115936,6,0,L|466:359,1,150,14|0,2:2|0:0,0:0:0:0:
464,363,116271,1,2,3:2:0:0:
386,133,116439,5,10,2:2:0:0:
359,310,116606,1,2,3:2:0:0:
281,80,116774,5,8,3:2:0:0:
297,99,116858,1,8,2:2:0:0:
305,123,116942,1,8,2:3:0:0:
303,147,117025,1,0,0:0:0:0:
290,169,117109,1,8,2:3:0:0:
270,184,117193,1,8,2:3:0:0:
246,189,117277,1,0,3:3:0:0:
221,184,117361,1,0,3:3:0:0:
200,169,117444,6,0,L|175:342,1,150,6|10,3:2|2:2,0:0:0:0:
95,262,117947,2,0,L|82:351,1,89.9999972534181,2|0,2:2|3:3,0:0:0:0:
275,284,118282,2,0,L|262:373,1,89.9999972534181,2|8,3:2|2:2,0:0:0:0:
177,191,118618,6,0,P|211:111|297:99,1,179.999994506836,2|2,2:2|3:2,0:0:0:0:
349,193,119120,2,0,P|386:217|430:222,1,89.9999972534181,8|2,2:2|2:2,0:0:0:0:
266,181,119455,1,0,3:3:0:0:
415,135,119623,1,2,3:2:0:0:
349,28,119791,1,8,2:2:0:0:
349,28,119958,1,2,2:2:0:0:
296,262,120126,6,0,P|330:342|416:354,1,179.999994506836,2|8,3:2|2:2,0:0:0:0:
215,319,120629,1,0,0:0:0:0:
215,319,120796,2,0,P|159:341|130:377,1,89.9999972534181,0|2,3:3|3:2,0:0:0:0:
268,247,121131,5,10,2:2:0:0:
83,295,121299,2,0,P|28:253|113:234,1,179.999994506836,2|0,2:2|3:3,0:0:0:0:
245,124,121802,2,0,P|225:164|189:190,1,89.9999972534181,10|2,2:2|2:2,0:0:0:0:
63,119,122137,1,0,3:3:0:0:
192,49,122305,1,2,3:2:0:0:
268,251,122472,1,8,2:2:0:0:
268,251,122640,1,2,2:2:0:0:
405,77,122807,6,0,P|318:82|271:157,1,179.999994506836,2|8,3:2|2:2,0:0:0:0:
217,329,123310,2,0,P|178:282|174:238,1,89.9999972534181,0|0,0:0|3:3,0:0:0:0:
361,256,123645,2,0,P|339:313|303:338,1,89.9999972534181,2|10,3:2|2:2,0:0:0:0:
225,167,123981,2,0,P|285:156|325:175,1,89.9999972534181,2|0,2:2|0:0,0:0:0:0:
81,255,124316,2,0,P|102:197|138:172,1,89.9999972534181,0|8,3:3|2:2,0:0:0:0:
172,254,124651,1,0,0:0:0:0:
33,139,124819,1,0,3:3:0:0:
33,139,124986,1,0,3:3:0:0:
168,78,125154,2,0,L|77:62,1,89.9999972534181,8|2,2:2|2:2,0:0:0:0:
225,167,125489,6,0,P|308:142|337:58,2,179.999994506836,2|8|0,3:2|2:2|3:3,0:0:0:0:
63,44,126327,2,0,L|151:59,1,89.9999972534181,2|10,3:2|2:2,0:0:0:0:
18,151,126662,1,2,2:2:0:0:
168,78,126830,5,0,0:0:0:0:
208,239,126997,1,0,3:3:0:0:
118,272,127165,1,8,2:2:0:0:
225,167,127333,1,2,0:0:0:0:
248,320,127500,1,0,3:2:0:0:
204,158,127668,1,2,3:2:0:0:
309,377,127835,2,0,P|330:327|320:275,1,89.9999972534181,10|2,2:2|2:2,0:0:0:0:
467,103,128171,6,0,P|384:124|392:212,1,179.999994506836,4|8,3:2|2:2,0:0:0:0:
512,117,128673,2,0,P|491:77|452:55,1,89.9999972534181,0|0,0:0|3:3,0:0:0:0:
474,196,129009,1,2,3:2:0:0:
373,87,129176,2,0,P|328:94|295:124,1,89.9999972534181,10|2,2:2|2:2,0:0:0:0:
213,225,129511,6,0,P|168:222|132:196,1,89.9999972534181,2|0,2:2|3:3,0:0:0:0:
252,307,129847,1,10,2:2:0:0:
252,307,130014,2,0,P|218:336|174:343,1,89.9999972534181,2|0,2:2|3:3,0:0:0:0:
200,138,130349,2,0,P|234:109|278:102,1,89.9999972534181,2|8,3:2|2:2,0:0:0:0:
120,208,130685,5,2,2:2:0:0:
36,56,130852,2,0,B|55:11|55:11|119:52|112:120,1,179.999994506836,2|8,3:2|2:2,0:0:0:0:
72,280,131355,2,0,P|41:247|35:204,1,89.9999972534181,0|0,0:0|3:3,0:0:0:0:
201,242,131690,1,2,3:2:0:0:
70,365,131858,1,10,2:2:0:0:
70,365,132025,2,0,P|114:356|144:325,1,89.9999972534181,2|0,2:2|0:0,0:0:0:0:
120,208,132361,5,0,3:3:0:0:
241,344,132528,2,0,L|208:260,1,89.9999972534181,8|2,2:2|2:2,0:0:0:0:
144,324,132863,1,0,3:3:0:0:
267,198,133031,1,2,3:2:0:0:
333,366,133199,1,10,2:2:0:0:
399,288,133366,5,2,2:2:0:0:
399,288,133450,1,0,0:0:0:0:
398,288,133534,2,0,P|430:257|473:244,1,89.9999972534181,2|0,3:2|0:0,0:0:0:0:
267,198,133869,1,10,2:2:0:0:
346,152,134037,2,0,P|314:121|271:108,1,89.9999972534181,2|0,2:2|3:3,0:0:0:0:
437,160,134372,2,0,P|436:115|415:75,2,89.9999972534181,2|8|2,3:2|2:2|2:2,0:0:0:0:
192,66,134874,6,0,P|193:152|267:198,1,179.999994506836,2|10,2:2|2:2,0:0:0:0:
97,109,135377,2,0,L|7:99,1,89.9999972534181,2|0,2:2|3:3,0:0:0:0:
208,49,135712,1,2,3:2:0:0:
258,212,135880,2,0,P|216:198|185:167,1,89.9999972534181,10|2,2:2|2:2,0:0:0:0:
347,116,136215,5,2,3:2:0:0:
294,302,136383,1,2,2:2:0:0:
294,302,136467,1,2,2:2:0:0:
294,302,136550,1,10,2:2:0:0:
213,289,136718,5,2,2:2:0:0:
344,239,136886,1,2,3:2:0:0:
323,378,137053,1,2,3:2:0:0:
243,364,137221,5,2,2:2:0:0:
264,226,137388,1,10,2:2:0:0:
264,226,137724,1,12,2:2:0:0:
374,314,137891,2,0,P|418:310|456:287,1,89.9999972534181,0|2,3:3|2:2,0:0:0:0:
242,70,138226,5,0,3:3:0:0:
219,72,138310,1,8,2:2:0:0:
197,75,138394,1,8,2:2:0:0:
174,77,138478,1,8,2:2:0:0:
152,80,138562,1,0,3:2:0:0:
130,82,138645,1,8,2:2:0:0:
107,85,138729,1,8,2:2:0:0:
85,87,138813,1,8,2:2:0:0:
63,90,138897,6,0,B|40:124|40:124|181:108,1,179.999994506836,6|0,3:2|0:0,0:0:0:0:
8,214,139400,5,0,3:3:0:0:
191,192,139567,1,8,2:2:0:0:
191,192,139902,1,2,3:2:0:0:
111,305,140070,1,2,3:2:0:0:
111,305,140405,1,0,3:3:0:0:
383,270,140573,2,0,L|294:283,1,89.9999972534181,10|2,2:2|2:2,0:0:0:0:
191,192,140908,5,0,3:3:0:0:
213,375,141076,1,10,2:3:0:0:
400,252,141243,2,0,L|311:265,1,89.9999972534181,4|2,2:3|2:2,0:0:0:0:
178,83,141578,5,4,3:2:0:0:
178,83,141914,1,2,2:2:0:0:
406,110,142081,1,2,3:2:0:0:
246,2,142249,2,0,L|335:12,1,89.9999972534181,8|0,2:2|0:0,0:0:0:0:
110,164,142584,1,2,3:2:0:0:
292,185,142752,2,0,L|202:174,1,89.9999972534181,2|0,3:2|0:0,0:0:0:0:
226,265,143087,1,0,3:3:0:0:
0,238,143254,1,8,2:2:0:0:
226,265,143422,1,8,2:3:0:0:
56,330,143590,5,0,3:3:0:0:
170,344,143757,1,0,3:3:0:0:
250,354,143925,1,4,2:3:0:0:
307,361,144092,1,4,2:3:0:0:
111,164,144260,5,4,3:2:0:0:
111,164,144595,1,0,0:0:0:0:
0,238,144763,1,0,3:3:0:0:
93,69,144930,2,0,P|176:92|206:173,1,179.999994506836,10|2,2:2|2:2,0:0:0:0:
28,132,145433,2,0,P|6:92|5:48,1,89.9999972534181,2|0,3:2|0:0,0:0:0:0:
93,69,145768,1,2,3:2:0:0:
0,238,145936,6,0,P|41:261|9:224,1,134.999995880127,10|0,2:2|0:0,0:0:0:0:
43,350,146271,5,4,2:3:0:0:
117,162,146439,1,4,2:3:0:0:
213,293,146606,2,0,L|123:304,1,89.9999972534181,2|0,3:2|0:0,0:0:0:0:
227,107,146942,6,0,L|409:129,1,179.999994506836,6|0,3:2|0:0,0:0:0:0:
305,206,147444,1,2,3:2:0:0:
327,28,147612,1,8,2:2:0:0:
327,28,147947,1,2,3:2:0:0:
388,244,148115,2,0,P|326:298|251:284,1,134.999995880127,0|0,3:3|0:0,0:0:0:0:
276,296,148450,1,0,3:3:0:0:
58,270,148618,6,0,L|178:284,1,119.999996337891,12|0,2:2|0:0,0:0:0:0:
109,60,148953,5,8,2:3:0:0:
127,142,149064,1,8,2:3:0:0:
190,86,149176,1,8,2:3:0:0:
98,104,149288,5,4,2:3:0:0:
170,128,149400,1,4,2:3:0:0:
154,53,149511,1,4,2:3:0:0:
110,217,149623,5,4,3:2:0:0:
110,217,149791,2,0,B|145:247|145:247|286:215,1,179.999994506836,0|0,3:3|3:3,0:0:0:0:
66,321,150293,2,0,P|83:280|119:254,1,89.9999972534181,8|0,2:2|0:0,0:0:0:0:
275,217,150629,1,2,2:2:0:0:
158,335,150796,2,0,B|289:305,1,134.999995880127,2|0,3:2|0:0,0:0:0:0:
289,305,151131,1,0,3:3:0:0:
360,201,151299,2,0,P|342:160|306:134,1,89.9999972534181,8|0,2:2|0:0,0:0:0:0:
407,368,151634,5,4,2:3:0:0:
430,265,151802,1,4,2:3:0:0:
446,192,151969,1,6,2:3:0:0:
457,140,152137,1,2,2:2:0:0:
275,217,152305,6,0,B|87:174,1,179.999994506836,4|2,3:2|2:2,0:0:0:0:
99,177,152807,1,2,3:2:0:0:
59,318,152975,2,0,B|152:296,1,89.9999972534181,10|2,2:2|2:2,0:0:0:0:
21,156,153310,5,0,3:3:0:0:
187,197,153478,2,0,P|265:160|280:75,1,179.999994506836,2|2,3:2|3:2,0:0:0:0:
302,253,153981,2,0,P|334:283|377:295,1,89.9999972534181,14|0,2:2|3:3,0:0:0:0:
400,294,154232,1,0,3:3:0:0:
421,289,154316,2,0,L|431:228,1,59.9999981689454,0|0,3:3|0:0,0:0:0:0:
498,175,154539,5,8,3:2:0:0:
498,175,154651,2,0,L|510:107,1,59.9999981689454,8|8,2:3|2:2,0:0:0:0:
450,58,154874,5,8,2:2:0:0:
428,244,154986,6,0,B|367:279|284:236|285:143|341:104|341:104|334:166|370:221|423:242,1,419.999987182618,6|0,3:2|0:0,0:0:0:0:
222,374,156327,2,0,B|257:394|305:369|305:315|272:292|272:292|275:328|255:360|224:372,1,239.999992675781,2|0,2:2|0:0,0:0:0:0:
45,360,157165,5,8,2:3:0:0:
186,297,157333,1,4,2:3:0:0:
107,195,157500,1,4,2:3:0:0:
57,331,157668,6,0,L|80:268,1,50,8|0,3:2|0:0,0:0:0:0:
106,195,157835,2,0,P|97:109|20:70,1,179.999994506836,4|0,3:2|0:0,0:0:0:0:
70,338,158171,6,0,L|93:275,1,59.9999981689454,0|0,3:3|0:0,0:0:0:0:
120,203,158338,2,0,P|109:102|19:57,1,209.999993591309,4|0,3:2|0:0,0:0:0:0:
83,345,158673,5,8,2:2:0:0:
95,312,158757,1,8,2:2:0:0:
107,279,158841,2,0,L|192:45,1,240,4|0,3:2|0:0,0:0:0:0:
188,53,159176,5,0,3:3:0:0:
96,352,159344,2,0,L|128:263,1,80,4|0,3:2|0:0,0:0:0:0:
279,111,159511,5,8,2:2:0:0:
279,111,159595,1,8,2:2:0:0:
279,111,159679,1,0,3:3:0:0:
268,139,159763,1,0,3:3:0:0:
258,167,159847,1,8,2:3:0:0:
248,195,159930,1,8,2:3:0:0:
238,223,160014,1,0,3:3:0:0:
227,251,160098,1,0,3:3:0:0:
217,280,160182,1,4,2:3:0:0:
207,308,160266,1,4,2:3:0:0:
197,336,160349,1,6,3:2:0:0:
359,178,160517,6,0,L|299:341,1,160,0|0,3:3|3:3,0:0:0:0:
293,356,160936,1,0,3:3:0:0:
283,384,161020,1,12,2:2:0:0:
278,110,161355,5,2,3:3:0:0:
217,280,161523,2,0,L|244:204,1,80,10|0,2:2|0:0,0:0:0:0:
226,37,161858,5,8,2:3:0:0:
329,183,162025,1,0,3:3:0:0:
148,68,162193,5,4,2:3:0:0:
148,68,162277,1,8,2:2:0:0:
148,68,162361,1,8,2:2:0:0:
409,153,162528,2,0,L|430:92,2,40,0|8|8,3:3|2:2|3:2,0:0:0:0:
304,6,162863,5,10,2:2:0:0:
210,293,163031,1,6,3:2:0:0:
72,194,163199,1,0,3:3:0:0:
72,194,163282,1,8,2:2:0:0:
72,194,163366,1,10,2:2:0:0:
291,348,163534,6,0,L|337:205,1,150.000005722046,2|0,3:3|0:0,0:0:0:0:
336,205,163869,6,0,B|383:186|394:266|337:246|338:294,1,125,2|0,3:2|0:0,0:0:0:0:
296,217,164037,2,0,B|246:225|278:300|316:252|339:290,1,125,8|0,2:2|0:0,0:0:0:0:
506,384,164204,6,0,P|460:366|455:257,1,150.000005722046,2|0,3:2|0:0,0:0:0:0:
464,195,164707,1,2,2:3:0:0:
464,195,165042,6,0,L|487:123,1,75.0000028610231,0|0,3:3|0:0,0:0:0:0:
486,123,165210,5,8,2:2:0:0:
451,141,165293,5,8,2:2:0:0:
402,151,165377,5,8,2:2:0:0:
341,152,165461,5,8,2:2:0:0:
273,133,165545,5,8,2:2:0:0:
205,89,165629,5,8,2:2:0:0:
152,16,165712,6,0,P|51:24|67:83,1,165.000005035401,6|0,3:2|0:0,0:0:0:0:
51,59,166048,1,10,2:2:0:0:
302,56,166215,2,0,P|248:56|205:89,1,110.000003356934,2|0,2:2|3:3,0:0:0:0:
410,42,166550,2,0,P|362:15|309:21,1,110.000003356934,2|8,2:2|2:2,0:0:0:0:
510,83,166886,2,0,P|481:35|433:14,1,110.000003356934,2|0,2:2|3:3,0:0:0:0:
205,88,167221,1,2,2:2:0:0:
205,88,167388,1,10,2:2:0:0:
28,0,167556,2,0,P|82:0|125:33,1,110.000003356934,2|0,2:2|3:3,0:0:0:0:
0,99,167891,1,2,2:2:0:0:
26,90,167975,1,2,0:0:0:0:
52,81,168059,1,10,2:2:0:0:
260,9,168226,1,0,0:0:0:0:
347,166,168394,6,0,P|267:171|209:116,1,165.000005035401,2|0,3:2|0:0,0:0:0:0:
205,88,168729,1,10,2:2:0:0:
27,182,168897,2,0,L|131:146,1,110.000003356934,2|0,2:2|3:3,0:0:0:0:
339,82,169232,2,0,P|390:93|425:135,1,110.000003356934,2|8,2:2|2:2,0:0:0:0:
155,165,169567,2,0,L|259:129,1,110.000003356934,2|0,2:2|3:3,0:0:0:0:
497,176,169902,1,10,2:2:0:0:
497,176,170070,1,0,3:3:0:0:
339,82,170238,1,10,2:2:0:0:
347,107,170321,1,8,2:2:0:0:
356,133,170405,1,0,3:3:0:0:
463,32,170573,1,10,2:2:0:0:
259,129,170740,2,0,B|316:307,1,165.000005035401,6|0,3:2|0:0,0:0:0:0:
309,286,171076,5,6,3:2:0:0:
476,224,171243,2,0,B|484:250,1,27.5000008392334,2|0,2:2|0:0,0:0:0:0:
382,211,171411,2,0,B|390:237,1,27.5000008392334,10|0,2:2|0:0,0:0:0:0:
213,277,171578,1,2,0:0:0:0:
205,251,171662,1,2,0:0:0:0:
197,225,171746,1,2,3:2:0:0:
309,286,171914,1,2,2:2:0:0:
382,211,172081,1,10,2:2:0:0:
382,211,172249,1,2,2:2:0:0:
120,271,172416,1,2,3:2:0:0:
7,231,172584,2,0,B|15:257,1,27.5000008392334,2|0,2:2|0:0,0:0:0:0:
87,167,172752,2,0,B|95:193,1,27.5000008392334,10|0,2:2|0:0,0:0:0:0:
258,208,172919,1,10,2:2:0:0:
258,208,173003,1,10,2:2:0:0:
258,208,173087,1,2,3:2:0:0:
245,247,173171,1,0,3:3:0:0:
233,286,173254,1,2,3:2:0:0:
221,326,173338,1,0,3:3:0:0:
209,365,173422,2,0,B|225:367|244:356|244:356|175:344|149:284|149:284|145:313|162:330,1,209.999993591309,14|0,2:2|0:0,0:0:0:0:
325,363,173757,5,6,3:2:0:0:
338,360,173841,1,2,2:2:0:0:
352,358,173925,1,2,2:2:0:0:
365,355,174009,1,2,2:2:0:0:
379,353,174092,1,10,2:2:0:0:
392,350,174176,1,2,2:2:0:0:
406,348,174260,1,2,2:2:0:0:
419,345,174344,1,2,2:2:0:0:
433,343,174428,1,2,3:2:0:0:
446,340,174511,1,2,2:2:0:0:
460,338,174595,1,2,2:2:0:0:
473,335,174679,1,2,2:2:0:0:
487,333,174763,5,14,2:2:0:0:
464,319,174847,5,2,2:2:0:0:
427,325,174930,5,2,2:2:0:0:
389,356,175014,5,2,2:2:0:0:
331,371,175098,5,14,3:2:0:0:
284,357,175182,5,2,3:2:0:0:
270,322,175266,5,2,3:2:0:0:
280,298,175349,5,2,3:2:0:0:
295,295,175433,5,10,2:3:0:0:
307,304,175517,5,10,2:3:0:0:
309,329,175601,5,2,3:2:0:0:
284,357,175685,5,2,3:2:0:0:
240,364,175768,5,6,2:3:0:0:
196,335,175852,5,6,2:3:0:0:
164,284,175936,5,2,3:2:0:0:
150,218,176020,5,2,3:2:0:0:
169,145,176104,5,10,2:2:0:0:
222,83,176187,5,10,2:2:0:0:
306,50,176271,5,2,3:2:0:0:
403,64,176355,5,10,2:2:0:0:
485,138,176439,5,6,3:2:0:0:
485,138,176774,6,0,L|426:124,1,59.9999981689454,10|0,2:2|0:0,0:0:0:0:
222,83,176942,2,0,L|191:76,4,29.9999990844727,2|2|2|2|2,2:2|0:0|0:0|0:0|0:0,0:0:0:0:
306,50,177277,1,2,2:2:0:0:
94,138,177444,2,0,L|211:164,1,119.999996337891,10|0,2:2|0:0,0:0:0:0:
32,5,177780,6,0,P|-2:81|63:132,1,179.999994506836,2|0,3:2|0:0,0:0:0:0:
201,150,178115,2,0,B|169:121|169:121|94:138,1,119.999996337891,10|2,2:2|2:2,0:0:0:0:
8,216,178450,1,2,3:2:0:0:
301,151,178618,1,2,2:2:0:0:
123,37,178785,1,10,2:2:0:0:
188,330,178953,1,2,2:2:0:0:
155,184,179120,5,2,3:2:0:0:
155,184,179288,1,2,2:2:0:0:
334,297,179455,1,14,2:2:0:0:
408,30,179623,1,2,3:2:0:0:
415,59,179707,1,0,3:3:0:0:
422,88,179791,2,0,P|449:139|505:156,1,119.999996337891,10|2,2:3|2:2,0:0:0:0:
386,66,180042,5,8,2:3:0:0:
317,89,180126,1,0,3:3:0:0:
283,138,180210,1,0,3:3:0:0:
281,185,180293,2,0,B|245:216|245:216|112:202,1,179.999994506836,14|0,2:2|0:0,0:2:0:0:
26,192,180629,1,0,3:3:0:0:
185,298,180796,2,0,B|125:292,1,59.9999981689454,12|2,2:2|2:2,0:0:0:0:
356,227,180964,5,2,3:2:0:0:
372,203,181048,1,0,3:3:0:0:
400,189,181131,1,2,3:2:0:0:
430,189,181215,1,0,3:3:0:0:
455,200,181299,1,0,3:3:0:0:
477,221,181383,1,0,3:3:0:0:
486,250,181467,1,4,2:3:0:0:
483,279,181550,1,4,2:3:0:0:
469,306,181634,1,4,2:3:0:0:
443,322,181718,1,4,2:3:0:0:
414,328,181802,6,2,B|374:340|348:386|348:386|348:386|348:386|319:263|374:141|472:77|472:77|472:77|472:77|462:128|485:163,1,525.00000500679,6|2,3:2|3:2,0:1:0:0:
508,235,182388,2,0,P|503:261|482:279,1,55.0000016784668,2|10,2:2|2:2,0:0:0:0:
396,150,182640,2,0,P|342:158|296:130,1,110.000003356934,2|2,3:2|2:2,0:0:0:0:
131,332,182975,6,0,P|210:325|254:259,1,165.000005035401,6|0,3:2|0:0,0:0:0:0:
229,181,183310,1,2,3:2:0:0:
296,377,183478,1,10,2:3:0:0:
433,221,183645,1,10,2:3:0:0:
433,221,183729,1,2,0:0:0:0:
433,221,183813,1,10,2:2:0:0:
198,332,183981,5,8,2:3:0:0:
361,130,184148,1,0,3:3:0:0:
461,356,184316,1,0,0:0:0:0:
254,258,184483,5,4,3:2:0:0:
433,221,184651,1,2,2:2:0:0:
396,42,184819,1,2,2:2:0:0:
216,79,184986,1,2,3:2:0:0:
189,109,185070,1,2,0:0:0:0:
183,149,185154,1,10,2:2:0:0:
306,61,185321,5,2,3:2:0:0:
81,13,185489,1,2,2:2:0:0:
30,326,185657,6,0,P|138:326|200:236,1,225.000008583069,14|0,2:2|0:0,0:0:0:0:
183,149,185992,1,2,3:2:0:0:
231,376,186159,1,10,2:2:0:0:
86,222,186327,5,2,3:2:0:0:
148,174,186411,1,0,3:3:0:0:
210,126,186495,1,10,2:2:0:0:
30,326,186662,1,10,2:2:0:0:
371,254,186830,5,10,2:2:0:0:
137,29,186997,1,10,2:2:0:0:
402,384,187166,6,2,B|366:283|413:175|503:129|503:129|503:129|503:129|442:182|451:263,1,450.000017166138,6|0,3:2|3:3,0:1:0:0:
327,185,187836,2,0,B|283:164|261:118|267:74|267:74|267:74|267:74|300:111,1,179.999994506836,8|2,2:2|3:2,0:0:0:0:
231,234,188339,2,0,B|162:263|131:173|61:205,1,179.999994506836,2|0,3:2|3:3,0:0:0:0:
4,345,188841,1,10,2:2:0:0:
4,345,189177,5,0,3:3:0:0:
90,281,189344,1,10,2:3:0:0:
162,359,189512,2,0,P|201:379|246:379,1,89.9999972534181,6|2,2:3|2:2,0:0:0:0:
345,200,189847,6,0,P|432:207|473:283,1,179.999994506836,4|2,3:2|2:2,0:0:0:0:
314,215,190350,1,2,3:2:0:0:
119,257,190517,2,0,B|176:280|176:280|282:229,1,179.999994506836,8|2,2:2|3:2,0:0:0:0:
350,108,191020,5,2,3:2:0:0:
350,108,191104,1,0,0:0:0:0:
350,108,191188,1,0,0:0:0:0:
314,215,191355,1,0,3:3:0:0:
251,70,191523,5,8,2:2:0:0:
338,237,191691,1,8,2:3:0:0:
165,87,191858,5,0,3:3:0:0:
278,304,192026,1,0,3:3:0:0:
399,183,192193,1,0,3:3:0:0:
399,183,192361,1,0,3:3:0:0:
300,384,192529,6,0,P|250:382|204:270,1,179.999994506836,4|0,3:2|0:0,0:0:0:0:
278,304,193031,1,0,3:3:0:0:
130,384,193199,2,0,P|68:373|1:266,1,179.999994506836,10|2,2:2|2:2,0:0:0:0:
139,104,193702,2,0,P|95:180|116:266,1,179.999994506836,2|2,3:2|3:2,0:0:0:0:
233,120,194205,1,10,2:2:0:0:
233,120,194540,5,6,2:3:0:0:
129,16,194707,1,4,2:3:0:0:
194,195,194875,2,0,P|239:204|291:181,1,89.9999972534181,2|2,3:2|2:2,0:0:0:0:
396,45,195210,6,0,P|488:12|442:123,1,269.999991760254,6|2,3:2|3:2,0:0:0:0:
272,107,195881,2,0,B|308:25|308:25|396:45,1,179.999994506836,10|2,2:2|3:2,0:0:0:0:
296,187,196383,2,0,B|230:215|199:134|120:178,1,179.999994506836,2|0,3:2|3:3,0:0:0:0:
19,269,196886,1,12,2:2:0:0:
19,269,196970,2,0,B|50:282|50:282|112:264,1,89.9999972534181,2|0,0:0|0:0,0:0:0:0:
198,300,197221,5,8,2:3:0:0:
157,375,197333,1,8,2:3:0:0:
118,273,197445,1,8,2:3:0:0:
211,312,197557,5,4,2:3:0:0:
265,249,197668,1,4,2:3:0:0:
294,325,197780,1,4,2:3:0:0:
182,236,197892,5,4,3:2:0:0:
182,236,198059,2,0,B|140:206|146:143|170:121|170:121|190:149|179:180,1,179.999994506836,0|0,3:3|3:3,0:0:0:0:
65,89,198562,2,0,P|24:107|1:145,1,89.9999972534181,8|0,2:2|0:0,0:0:0:0:
1,145,198897,1,2,2:2:0:0:
124,15,199065,6,0,L|302:37,1,179.999994506836,2|0,3:2|3:3,0:0:0:0:
246,125,199568,2,0,L|335:136,1,89.9999972534181,8|0,2:2|0:0,0:0:0:0:
449,55,199903,1,4,2:3:0:0:
369,213,200071,1,4,2:3:0:0:
490,144,200238,5,6,2:3:0:0:
450,223,200406,1,2,2:2:0:0:
410,302,200573,2,0,B|388:343|388:343|301:349|272:272,1,179.999994506836,4|2,3:2|2:2,0:0:0:0:
281,194,201076,1,2,3:2:0:0:
213,352,201244,2,0,B|186:386|132:372|132:372|124:313|184:284,1,179.999994506836,8|0,2:2|3:3,0:0:0:0:
227,124,201747,6,0,P|163:122|201:208,1,179.999994506836,2|2,3:2|3:2,0:0:0:0:
206,207,202166,1,0,3:3:0:0:
225,196,202249,1,14,2:2:0:0:
83,87,202417,5,0,3:3:0:0:
83,87,202501,1,8,2:2:0:0:
83,87,202584,2,0,P|65:123|62:154,2,59.9999981689454,0|8|8,3:3|2:2|2:2,0:0:0:0:
255,111,202920,5,4,2:3:0:0:
255,111,203031,2,0,P|273:75|276:44,1,59.9999981689454,8|8,2:2|2:2,0:0:0:0:
287,203,203255,6,0,B|434:175|434:175|462:324,1,299.999990844727,6|2,3:2|2:2,0:0:0:0:
462,323,204596,2,0,B|315:351|315:351|287:202,1,299.999990844727,2|0,2:3|0:0,0:0:0:0:
434,175,205434,5,8,2:3:0:0:
363,99,205601,1,4,2:3:0:0:
511,72,205769,1,4,2:3:0:0:
292,9,205936,6,0,B|284:61,1,50,8|0,3:2|0:0,0:0:0:0:
135,181,206104,2,0,B|185:153|185:153|205:31,1,179.999994506836,4|0,3:2|0:0,0:0:0:0:
285,59,206439,6,0,B|275:121,1,59.9999981689454,0|0,3:3|0:0,0:0:0:0:
388,289,206607,2,0,B|342:239|342:239|363:98,1,209.999993591309,4|0,3:2|0:0,0:0:0:0:
276,118,206942,6,0,B|265:186,1,69.9999978637696,8|0,2:2|0:0,0:0:0:0:
94,341,207110,2,0,B|161:301|161:301|185:141,1,240,4|0,3:2|0:0,0:0:0:0:
265,187,207445,5,0,3:3:0:0:
265,187,207612,2,0,B|250:275,1,89.9999972534181,4|0,3:2|0:0,0:0:0:0:
426,251,207780,2,0,B|416:313,1,59.9999981689454,8|8,2:2|2:2,0:0:0:0:
322,365,207948,5,0,3:3:0:0:
327,331,208031,1,0,3:3:0:0:
332,298,208115,1,8,2:3:0:0:
337,264,208199,1,8,2:3:0:0:
342,231,208283,1,0,3:3:0:0:
347,198,208367,1,0,3:3:0:0:
352,164,208450,1,4,2:3:0:0:
357,131,208534,1,4,2:3:0:0:
362,97,208618,6,0,P|409:31|490:25,1,160,6|2,3:2|2:3,0:0:0:0:
287,36,209121,1,0,3:3:0:0:
283,55,209205,1,0,3:2:0:0:
280,75,209288,2,0,B|271:132|271:132|168:163,1,160,10|2,2:3|2:3,0:0:0:0:
72,89,209791,6,0,P|148:91|173:162,1,160,10|8,2:2|2:2,0:0:0:0:
47,254,210294,2,0,B|62:157,1,80,2|0,3:3|0:0,0:0:0:0:
118,304,210629,2,0,P|88:330|50:342,1,80,8|0,2:2|0:0,0:0:0:0:
230,235,210964,2,0,B|309:247,1,80,0|10,3:3|2:2,0:0:0:0:
329,250,211216,1,8,2:2:0:0:
349,253,211300,5,6,3:2:0:0:
173,161,211467,1,0,3:3:0:0:
173,161,211551,1,8,2:2:0:0:
173,161,211635,1,10,2:2:0:0:
341,352,211802,6,0,P|411:332|444:267,1,150.000005722046,2|0,3:2|0:0,0:0:0:0:
445,267,212138,6,0,B|484:257|484:257|470:196,1,87.500000834465,2|0,3:2|0:0,0:0:0:0:
355,72,212305,2,0,B|316:82|316:82|326:129,1,87.500000834465,10|0,2:2|0:0,0:0:0:0:
263,240,212473,6,0,B|219:54,1,179.999994506836,2|0,3:2|0:0,0:0:0:0:
221,64,224037,5,0,3:3:0:0:
94,219,224205,1,8,2:2:0:0:
96,210,224288,1,8,2:2:0:0:
98,200,224372,1,8,2:2:0:0:
100,190,224456,1,8,2:2:0:0:
102,180,224540,1,8,2:2:0:0:
104,171,224624,1,8,2:2:0:0:
106,161,224707,6,0,P|197:154|258:257,1,209.999993591309,6|0,3:2|0:0,0:0:0:0:
323,368,225043,1,10,2:2:0:0:
323,368,225210,2,0,P|275:332|257:276,1,119.999996337891,2|0,2:2|3:3,0:0:0:0:
422,142,225545,2,0,P|489:198|507:285,1,179.999994506836,2|0,2:2|0:0,0:0:0:0:
378,265,225881,1,2,2:2:0:0:
467,23,226048,5,2,3:2:0:0:
467,23,226216,1,0,0:0:0:0:
213,67,226383,1,10,2:2:0:0:
401,232,226551,5,2,2:2:0:0:
408,193,226635,1,2,0:0:0:0:
397,155,226719,1,0,3:3:0:0:
143,199,226886,1,2,2:2:0:0:
358,354,227054,2,0,P|308:321|289:263,1,119.999996337891,10|2,2:2|2:2,0:0:0:0:
41,222,227389,6,0,P|68:274|209:278,1,179.999994506836,0|0,3:3|0:0,0:0:0:0:
83,131,227724,2,0,B|58:109|58:109|44:200,1,119.999996337891,8|0,2:2|0:0,0:0:0:0:
21,355,228059,1,0,3:3:0:0:
143,199,228227,1,2,2:2:0:0:
143,199,228395,1,10,2:2:0:0:
317,382,228562,1,2,2:2:0:0:
455,92,228730,6,0,P|368:91|317:161,1,179.999994506836,0|0,3:3|0:0,0:0:0:0:
507,191,229065,2,0,P|496:133|455:92,1,119.999996337891,10|2,2:2|2:2,0:0:0:0:
240,204,229400,1,0,3:3:0:0:
412,173,229568,5,2,2:2:0:0:
163,84,229735,1,8,2:2:0:0:
215,354,229903,5,10,2:2:0:0:
285,320,229987,1,8,2:2:0:0:
355,286,230071,1,4,3:2:0:0:
56,179,230238,1,2,2:2:0:0:
259,0,230406,6,0,P|323:59|315:146,1,179.999994506836,10|0,2:2|0:0,0:0:0:0:
461,21,230741,2,0,P|402:15|350:44,1,119.999996337891,0|0,3:3|0:0,0:0:0:0:
280,247,231076,1,10,2:2:0:0:
280,247,231244,1,2,2:2:0:0:
423,113,231411,5,0,3:3:0:0:
387,214,231579,1,0,0:0:0:0:
351,315,231747,1,10,2:2:0:0:
212,151,231914,1,2,2:2:0:0:
462,241,232082,5,0,3:3:0:0:
303,53,232249,1,2,2:2:0:0:
220,285,232417,1,10,2:2:0:0:
220,285,232584,1,2,2:2:0:0:
24,122,232752,6,0,B|123:106|123:106|212:151|212:151|311:136,1,300,6|0,3:2|0:0,0:0:0:0:
376,311,233087,2,0,P|455:203|342:130,1,300,14|0,2:2|0:0,0:0:0:0:
366,221,233422,5,0,3:3:0:0:
366,221,233590,1,2,2:2:0:0:
149,25,233758,6,0,B|227:61|227:61|373:39,1,225.000008583069,12|0,2:2|0:0,0:0:0:0:
512,78,234093,6,0,P|483:45|441:32,1,87.500000834465,12|0,2:2|2:2,0:0:0:0:
413,344,234260,5,8,2:2:0:0:
465,273,234344,5,8,2:2:0:0:
452,195,234428,5,8,3:2:0:0:
404,145,234512,5,8,2:2:0:0:
345,129,234596,5,8,2:2:0:0:
295,145,234679,5,8,2:2:0:0:
250,173,234763,5,8,3:2:0:0:
193,179,234847,5,8,2:2:0:0:
139,151,234931,5,8,2:2:0:0:
131,86,235015,5,8,2:2:0:0:
191,49,235098,5,8,3:2:0:0:
267,70,235182,5,8,2:2:0:0:
295,153,235266,5,8,2:2:0:0:
281,247,235350,5,8,2:2:0:0:
199,313,235434,6,0,B|159:332|159:332|75:314,1,119.999996337891,4|0,3:2|3:3,0:0:0:0:
280,333,235769,5,10,2:2:0:0:
15,276,235936,1,2,3:2:0:0:
15,276,236020,1,0,3:3:0:0:
15,276,236104,5,8,2:2:0:0:
186,127,236272,1,2,3:2:0:0:
31,251,236439,5,10,2:2:0:0:
96,15,236607,1,2,3:2:0:0:
205,236,236774,5,10,2:2:0:0:
84,51,236942,1,0,3:3:0:0:
307,173,237110,5,10,2:2:0:0:
58,78,237277,2,0,L|1:56,2,59.9999981689454,2|0|8,3:2|3:3|2:2,0:0:0:0:
318,203,237612,5,2,3:2:0:0:
183,18,237780,1,10,2:2:0:0:
315,234,237948,1,2,3:2:0:0:
407,79,238115,5,10,2:2:0:0:
301,262,238283,1,0,3:3:0:0:
333,32,238450,5,10,2:2:0:0:
306,291,238618,1,2,3:2:0:0:
241,18,238786,5,8,2:2:0:0:
312,321,238953,1,2,3:2:0:0:
146,58,239121,5,10,2:2:0:0:
318,350,239288,1,2,3:2:0:0:
463,129,239456,5,8,2:2:0:0:
324,379,239624,1,0,3:3:0:0:
247,41,239791,5,14,2:2:0:0:
419,333,239959,1,2,3:2:0:0:
419,333,240043,1,2,3:2:0:0:
419,333,240126,1,2,3:2:0:0:
186,270,240378,5,10,2:3:0:0:
186,270,240462,1,2,3:2:0:0:
478,100,240629,1,6,2:3:0:0:
332,185,240797,6,0,P|189:162|132:30,1,300,6|2,3:2|3:2,0:0:0:0:
59,318,241467,2,0,P|145:273|165:179,1,200,8|2,2:2|2:2,0:0:0:0:
208,341,241970,2,0,B|292:373|321:279|405:311,1,200,2|2,3:2|3:2,0:0:0:0:
472,384,242473,1,10,2:3:0:0:
472,384,242640,1,0,3:3:0:0:
397,308,242808,1,8,2:2:0:0:
503,169,242976,1,8,2:3:0:0:
503,169,243143,2,0,P|518:223|441:231,1,150,0|0,3:3|0:0,0:0:0:0:
420,216,243478,6,0,B|380:192|380:192|240:220,1,160,2|2,3:2|2:2,0:0:0:0:
39,266,243981,1,2,3:2:0:0:
185,237,244149,1,8,2:2:0:0:
185,237,244316,2,0,P|145:235|110:217,1,80,2|0,3:2|0:0,0:0:0:0:
352,176,244652,6,0,P|271:132|241:33,1,179.999994506836,14|0,2:2|0:0,0:0:0:0:
240,53,244987,1,2,3:2:0:0:
185,237,245154,1,10,2:2:0:0:
107,119,245406,5,8,2:2:0:0:
107,119,245490,1,10,2:2:0:0:
265,354,245657,1,8,2:2:0:0:
68,315,245825,1,8,2:2:0:0:
303,157,245992,1,10,2:2:0:0:
512,372,246160,6,0,P|397:368|340:268,1,239.999992675781,6|10,3:2|2:2,0:0:0:0:
335,51,246663,2,0,L|303:157,1,110.000003356934,2|0,2:2|3:3,0:0:0:0:
237,288,246998,2,0,P|291:292|340:268,1,110.000003356934,2|8,3:2|2:2,0:0:0:0:
218,139,247333,1,2,2:2:0:0:
119,307,247501,6,0,P|67:267|117:225,1,150.000005722046,0|0,0:0|3:3,0:0:0:0:
187,351,247836,2,0,P|125:372|119:307,1,150.000005722046,10|0,2:2|0:0,0:0:0:0:
263,319,248171,2,0,P|245:382|187:351,1,150.000005722046,2|0,3:2|3:3,0:0:0:0:
280,240,248506,2,0,P|322:289|264:319,1,150.000005722046,10|0,2:2|0:0,0:0:0:0:
208,153,248841,5,2,3:2:0:0:
379,187,249009,1,2,2:2:0:0:
280,240,249177,1,8,2:2:0:0:
307,100,249344,1,2,2:2:0:0:
447,312,249512,1,0,3:3:0:0:
447,312,249679,2,0,L|468:204,1,110.000003356934,2|10,3:2|2:2,0:0:0:0:
213,53,250015,6,0,P|226:166|335:201,1,239.999992675781,6|2,3:2|3:2,0:0:0:0:
30,192,250517,5,8,2:2:0:0:
165,133,250685,1,2,2:2:0:0:
18,233,250853,5,0,3:3:0:0:
221,220,251020,1,2,3:2:0:0:
48,46,251188,5,8,2:2:0:0:
132,384,251355,1,2,3:2:0:0:
256,192,251523,12,2,252696,2:2:0:0:
337,317,252864,6,0,P|433:316|492:239,1,200,4|2,3:2|2:3,0:0:0:0:
452,154,253366,5,0,0:0:0:0:
439,128,253701,1,0,0:0:0:0:
423,153,254037,1,0,0:0:0:0:
407,178,254372,1,0,0:0:0:0:
264,265,254539,2,0,P|293:239|331:228,1,80,8|0,2:2|0:0,0:0:0:0:
337,317,254875,5,8,2:3:0:0:
184,372,255042,1,4,2:3:0:0:
212,211,255210,1,4,2:3:0:0:
153,384,255377,6,0,P|62:351|26:261,1,200,4|0,3:2|0:0,0:0:0:0:
98,208,255880,1,2,2:3:0:0:
84,184,256048,5,0,0:0:0:0:
98,208,256383,1,0,0:0:0:0:
112,232,256718,1,0,0:0:0:0:
126,256,257053,5,8,2:3:0:0:
204,256,257221,1,8,2:3:0:0:
250,195,257389,1,4,2:3:0:0:
250,195,257472,1,4,2:3:0:0:
250,195,257556,1,8,2:2:0:0:
204,120,257724,1,8,2:3:0:0:
127,121,257891,1,4,2:3:0:0:
295,8,258059,5,8,2:2:0:0:
295,8,258143,1,8,2:2:0:0:
295,8,258227,2,0,P|379:18|386:124,1,200,4|2,3:2|2:3,0:0:0:0:
498,127,258729,1,0,3:3:0:0:
498,127,258813,1,0,3:3:0:0:
498,127,258897,2,0,L|456:195,1,80,8|4,2:2|2:3,0:0:0:0:
440,43,259232,5,4,2:3:0:0:
281,297,259400,2,0,L|344:195,1,119.999996337891,4|0,3:2|0:0,0:0:0:0:
224,384,259735,6,0,P|186:379|154:361,1,75.0000028610231,8|8,2:2|2:2,0:0:0:0:
114,289,259903,5,0,3:3:0:0:
116,214,259986,5,8,2:2:0:0:
141,151,260070,5,8,2:2:0:0:
180,105,260154,5,8,2:3:0:0:
204,58,260238,5,8,2:3:0:0:
193,15,260322,5,8,2:3:0:0:
158,1,260405,5,8,2:2:0:0:
129,9,260489,5,4,2:3:0:0:
117,28,260573,5,8,2:2:0:0:
117,73,260657,5,8,2:2:0:0:
156,127,260741,5,8,2:2:0:0:
236,148,260824,5,8,2:2:0:0:
323,123,260908,6,0,P|394:158|373:242,1,150.000005722046,4|0,3:2|0:0,0:0:0:0:
497,73,261243,5,10,2:2:0:0:
404,308,261411,1,2,2:2:0:0:
455,59,261579,5,0,3:3:0:0:
299,209,261746,1,2,2:2:0:0:
424,27,261914,5,10,2:2:0:0:
254,88,262081,1,2,2:2:0:0:
348,10,262249,5,0,3:3:0:0:
229,180,262417,1,2,2:2:0:0:
274,31,262584,5,10,2:2:0:0:
277,268,262752,1,10,2:2:0:0:
230,94,262919,5,0,3:3:0:0:
392,311,263087,1,10,2:2:0:0:
420,122,263255,5,0,3:3:0:0:
202,284,263422,2,0,P|88:260|29:160,1,239.999992675781,14|0,2:2|0:0,0:0:0:0:
64,364,263925,5,10,2:2:0:0:
172,137,264093,1,0,0:0:0:0:
192,381,264260,5,2,3:2:0:0:
140,108,264428,1,0,0:0:0:0:
320,311,264595,5,8,2:2:0:0:
97,100,264763,1,0,0:0:0:0:
391,165,264931,5,8,2:2:0:0:
56,116,265098,1,8,2:2:0:0:
97,100,265182,1,8,2:2:0:0:
140,108,265266,1,8,3:2:0:0:
172,137,265350,1,8,2:2:0:0:
183,178,265433,2,0,L|170:249,1,59.9999981689454,8|8,2:3|2:3,0:0:0:0:
275,114,265601,5,8,2:2:0:0:
227,367,265769,1,8,2:2:0:0:
512,157,266104,6,0,P|408:138|339:218,1,220.000006713867,4|6,3:2|2:3,0:0:0:0:
333,247,266523,1,6,2:3:0:0:
328,277,266607,1,10,2:2:0:0:
281,84,266774,5,8,2:3:0:0:
278,99,266858,1,8,2:3:0:0:
275,114,266942,2,0,L|262:185,1,59.9999981689454,10|0,2:3|0:0,0:0:0:0:
139,244,267109,2,0,L|198:254,1,59.9999981689454,2|0,3:2|0:0,0:0:0:0:
166,75,267277,2,0,P|89:66|63:140,1,165.000005035401,10|4,2:2|2:3,0:0:0:0:
62,138,267612,5,6,3:2:0:0:
284,70,267780,1,2,3:2:0:0:
227,367,267947,1,2,3:2:0:0:
426,291,268115,2,0,P|390:250|337:237,1,110.000003356934,10|0,2:2|3:3,0:0:0:0:
337,237,268450,6,0,L|324:308,1,59.9999981689454,10|0,2:2|0:0,0:0:0:0:
136,351,268618,2,0,P|39:307|23:228,1,165.000005035401,6|0,2:3|0:0,0:0:0:0:
34,169,268953,5,6,3:2:0:0:
301,283,269120,1,4,2:3:0:0:
301,283,269288,1,4,2:3:0:0:
106,226,269456,5,14,2:2:0:0:
373,340,269623,1,8,2:3:0:0:
373,340,269791,1,8,2:3:0:0:
302,108,269958,5,6,3:2:0:0:
136,351,270126,1,4,2:3:0:0:
136,351,270294,1,4,2:3:0:0:
150,27,270461,5,10,2:2:0:0:
286,316,270629,1,8,2:3:0:0:
286,316,270796,1,8,2:3:0:0:
74,239,270964,5,6,2:3:0:0:
363,103,271132,1,0,3:3:0:0:
218,171,271299,1,2,3:2:0:0:
218,171,271467,1,6,3:2:0:0:
217,171,271865,6,0,P|289:170|322:234,1,150.000005722046,2|2,2:2|2:2,0:0:0:0:
310,258,272610,1,2,2:2:0:0:
290,280,273006,2,0,P|246:286|158:222,1,150.000005722046,2|2,2:2|2:2,0:0:0:0:
125,196,273615,5,2,2:3:0:0:
127,220,273722,1,2,2:3:0:0:
123,243,273828,2,0,P|44:257|49:195,1,150.000005722046,2|2,2:2|2:2,0:0:0:0:
58,182,274781,1,2,2:2:0:0:
83,180,275239,2,0,L|239:160,1,150.000005722046,2|2,2:2|2:2,0:0:0:0:
175,89,276427,2,0,L|331:69,1,150.000005722046,2|2,2:2|2:2,0:0:0:0:
256,192,277855,12,2,280645,2:2:0:0:
