osu file format v14

[General]
AudioFilename: audio.mp3
AudioLeadIn: 0
PreviewTime: 1404
Countdown: 0
SampleSet: Soft
StackLeniency: 0.7
Mode: 0
LetterboxInBreaks: 0
WidescreenStoryboard: 1

[Editor]
DistanceSpacing: 1.4
BeatDivisor: 8
GridSize: 4
TimelineZoom: 1

[Metadata]
Title:Discord Call Ringtone Remix
TitleUnicode:Discord Call Ringtone Remix
Artist:Luminism
ArtistUnicode:Lüminism
Creator:Cloudchaser
Version:Wumpus
Source:
Tags:Discord call incoming nitro application app Hammer & Chisel
BeatmapID:1408210
BeatmapSetID:665386

[Difficulty]
HPDrainRate:6
CircleSize:4.5
OverallDifficulty:6
ApproachRate:9
SliderMultiplier:3
SliderTickRate:1

[Events]
//Background and Video events
0,0,"ZxcQKGG.jpg",0,0
//Break Periods
//Storyboard Layer 0 (Background)
//Storyboard Layer 1 (Fail)
//Storyboard Layer 2 (Pass)
//Storyboard Layer 3 (Foreground)
//Storyboard Sound Samples

[TimingPoints]
71,666.666666666667,4,2,0,70,1,0

[Colours]
Combo1 : 224,224,224
Combo2 : 0,128,255

[HitObjects]
52,84,71,5,0,0:0:0:0:
91,64,154,1,0,0:0:0:0:
136,55,237,1,0,0:0:0:0:
181,61,321,1,0,0:0:0:0:
224,80,404,2,0,B|199:152|239:156|211:256,1,150
95,172,904,1,0,0:0:0:0:
363,124,1071,1,0,0:0:0:0:
255,344,1237,1,0,0:0:0:0:
291,88,1404,6,0,P|346:44|363:40,1,75
271,208,1737,2,0,P|216:252|199:256,1,75
39,64,2071,2,0,B|57:140|57:140|43:240,1,150
159,84,2571,1,0,0:0:0:0:
343,184,2737,6,0,P|379:176|443:172,1,75
167,200,3071,2,0,P|131:208|67:212,1,75
255,80,3404,2,0,B|231:148|279:160|251:248,1,150
175,292,3904,1,0,0:0:0:0:
359,188,4071,5,0,0:0:0:0:
151,208,4237,1,0,0:0:0:0:
135,184,4404,1,0,0:0:0:0:
255,40,4571,1,0,0:0:0:0:
235,64,4737,2,0,P|151:80|83:80,1,150
127,296,5237,1,0,0:0:0:0:
143,268,5404,6,0,L|219:256,1,75
367,116,5737,2,0,L|291:128,1,75
111,344,6071,2,0,L|283:320,1,150
331,244,6571,1,0,0:0:0:0:
171,112,6737,5,0,0:0:0:0:
167,216,6904,1,0,0:0:0:0:
255,156,7071,1,0,0:0:0:0:
79,164,7237,1,0,0:0:0:0:
163,316,7404,2,0,P|219:300|247:276,1,75
371,128,7737,2,0,P|267:140|255:168,1,112.5
255,156,8071,5,0,0:0:0:0:
327,232,8237,1,0,0:0:0:0:
327,20,8404,1,0,0:0:0:0:
143,120,8571,1,0,0:0:0:0:
270,135,8737,1,0,0:0:0:0:
215,44,8904,1,0,0:0:0:0:
191,252,9071,2,0,P|255:272|323:260,1,112.5
331,248,9404,5,0,0:0:0:0:
263,172,9571,1,0,0:0:0:0:
343,108,9737,1,0,0:0:0:0:
419,260,9904,1,0,0:0:0:0:
439,80,10071,2,0,L|443:-12,1,75
266,97,10404,2,0,L|262:171,1,75
255,208,10654,1,0,0:0:0:0:
255,208,10737,6,0,P|187:244|163:248,1,75
111,172,11071,1,0,0:0:0:0:
251,16,11237,1,0,0:0:0:0:
203,112,11404,1,0,0:0:0:0:
151,20,11571,1,0,0:0:0:0:
311,104,11737,1,0,0:0:0:0:
135,192,11904,1,0,0:0:0:0:
311,280,12071,6,0,L|391:272,1,75
135,192,12404,2,0,L|55:184,1,75
51,80,12737,1,0,0:0:0:0:
71,100,12904,1,0,0:0:0:0:
259,28,13071,2,0,P|247:104|247:116,1,75
283,140,13321,1,0,0:0:0:0:
283,140,13404,6,0,L|391:124,1,75
419,216,13737,2,0,L|527:200,1,75
467,104,14071,1,0,0:0:0:0:
407,304,14237,1,0,0:0:0:0:
295,192,14404,2,0,P|223:180|151:184,1,112.5
143,216,14737,6,0,L|139:296,1,75
51,232,15071,1,0,0:0:0:0:
239,272,15237,1,0,0:0:0:0:
83,132,15404,2,0,P|63:72|67:28,1,75
252,160,15737,2,0,L|236:296,1,112.5
256,324,16071,6,0,P|324:344|348:340,1,75
481,192,16404,2,0,P|444:195|411:212,1,75
471,296,16737,1,0,0:0:0:0:
323,248,16904,1,0,0:0:0:0:
415,120,17071,2,0,L|419:32,1,75
379,12,17321,1,0,0:0:0:0:
379,12,17404,6,0,P|335:48|299:52,1,75
193,51,17737,2,0,P|158:38|133:12,2,75
255,136,18237,1,0,0:0:0:0:
91,264,18404,2,0,L|227:252,1,112.5
231,256,18737,6,0,P|247:304|243:336,1,75
411,188,19071,2,0,P|395:140|399:108,1,75
463,32,19404,1,0,0:0:0:0:
499,132,19571,1,0,0:0:0:0:
299,68,19737,2,0,L|179:76,1,112.5
135,72,20071,6,0,P|115:32|119:-8,1,75
271,148,20404,1,0,0:0:0:0:
223,240,20571,1,0,0:0:0:0:
127,200,20737,2,0,P|39:204|23:200,1,75
271,148,21071,2,0,P|359:144|403:148,1,112.5
419,184,21404,5,0,0:0:0:0:
335,48,21571,1,0,0:0:0:0:
315,256,21737,1,0,0:0:0:0:
215,72,21904,1,0,0:0:0:0:
191,276,22071,2,0,L|111:268,1,75
319,276,22404,2,0,L|399:268,1,75
256,88,22737,6,0,P|232:160|228:192,1,75
336,156,23071,1,0,0:0:0:0:
264,232,23237,1,0,0:0:0:0:
344,60,23404,2,0,P|396:32|436:28,1,75
340,268,23737,2,0,P|256:316|220:304,1,112.5
200,288,24071,6,0,P|124:252|112:252,1,75
124,356,24404,1,0,0:0:0:0:
72,184,24571,1,0,0:0:0:0:
48,284,24737,1,0,0:0:0:0:
176,168,24904,1,0,0:0:0:0:
196,332,25071,2,0,P|264:344|328:324,1,112.5
348,304,25404,6,0,L|360:216,1,75
253,105,25737,2,0,L|264:180,1,75
452,192,26071,2,0,L|460:56,1,112.5
440,64,26404,2,0,P|400:48|344:68,1,75
228,208,26737,6,0,P|268:224|324:204,1,75
368,140,27071,1,0,0:0:0:0:
388,296,27237,1,0,0:0:0:0:
268,124,27404,2,0,L|260:48,1,75
180,116,27737,2,0,L|172:40,1,75
132,196,28071,6,0,L|124:288,1,75
160,372,28404,1,0,0:0:0:0:
56,348,28571,1,0,0:0:0:0:
248,260,28737,2,0,P|328:236|368:228,1,112.5
408,240,29071,2,0,L|424:348,1,75
288,148,29404,6,0,P|272:96|272:72,1,75
352,8,29737,1,0,0:0:0:0:
392,104,29904,1,0,0:0:0:0:
184,132,30071,2,0,L|88:144,1,75
244,228,30404,2,0,B|300:216|300:216|380:232,1,112.5
376,236,30737,5,0,0:0:0:0:
300,308,30904,1,0,0:0:0:0:
352,144,31071,1,0,0:0:0:0:
396,336,31237,1,0,0:0:0:0:
268,172,31404,2,0,P|216:128|196:100,1,75
124,68,31737,2,0,L|136:208,1,112.5
136,204,32071,6,0,P|88:232|56:232,1,75
256,120,32404,2,0,P|304:92|336:92,1,75
412,148,32737,1,0,0:0:0:0:
260,336,33071,1,0,0:0:0:0:
260,336,33237,1,0,0:0:0:0:
104,272,33404,5,0,0:0:0:0:
256,192,33487,12,0,35403,0:0:0:0:
