osu file format v14

[General]
AudioFilename: audio.mp3
AudioLeadIn: 0
PreviewTime: -1
Countdown: 0
SampleSet: None
StackLeniency: 0.7
Mode: 3
LetterboxInBreaks: 0
SkinPreference:Friday Night Funkin v1.3.1
SpecialStyle: 0
WidescreenStoryboard: 0

[Editor]
DistanceSpacing: 1
BeatDivisor: 3
GridSize: 8
TimelineZoom: 1

[Metadata]
Title:PC Takeover
TitleUnicode:PC Takeover
Artist:Lumi_0
ArtistUnicode:Lumi_0
Creator:Lumi_0
Version:Insane
Source:
Tags:
BeatmapID:3866219
BeatmapSetID:1878197

[Difficulty]
HPDrainRate:9
CircleSize:4
OverallDifficulty:10
ApproachRate:5
SliderMultiplier:1.4
SliderTickRate:1

[Events]
//Background and Video events
0,0,"PCTakeoverCover.png",0,0
//Break Periods
2,18801,22233
2,65110,72434
//Storyboard Layer 0 (Background)
//Storyboard Layer 1 (Fail)
//Storyboard Layer 2 (Pass)
//Storyboard Layer 3 (Foreground)
//Storyboard Layer 4 (Overlay)
//Storyboard Sound Samples

[TimingPoints]
8936.85676718551,402.684563758389,4,1,0,100,1,0

[HitObjects]
320,192,5178,128,0,5715:0:0:0:0:
64,192,6386,128,0,7057:0:0:0:0:
192,192,7728,128,0,8399:0:0:0:0:
448,192,9071,128,0,9607:0:0:0:0:
448,192,12963,1,0,0:0:0:0:
192,192,13366,1,0,0:0:0:0:
64,192,13500,1,0,0:0:0:0:
192,192,13903,1,0,0:0:0:0:
192,192,14037,1,0,0:0:0:0:
320,192,14440,1,0,0:0:0:0:
320,192,14574,1,0,0:0:0:0:
320,192,14708,1,0,0:0:0:0:
192,192,14977,1,0,0:0:0:0:
320,192,15245,1,0,0:0:0:0:
64,192,15916,1,0,0:0:0:0:
64,192,16050,1,0,0:0:0:0:
320,192,16185,1,0,0:0:0:0:
320,192,16587,1,0,0:0:0:0:
320,192,16722,1,0,0:0:0:0:
192,192,17259,1,0,0:0:0:0:
320,192,17393,1,0,0:0:0:0:
448,192,17661,1,0,0:0:0:0:
448,192,17930,1,0,0:0:0:0:
192,192,18332,128,0,18601:0:0:0:0:
448,192,23433,5,0,0:0:0:0:
192,192,23836,1,0,0:0:0:0:
64,192,23970,1,0,0:0:0:0:
64,192,24104,1,0,0:0:0:0:
320,192,24238,1,0,0:0:0:0:
448,192,24641,1,0,0:0:0:0:
320,192,25044,1,0,0:0:0:0:
320,192,25178,1,0,0:0:0:0:
64,192,25446,1,0,0:0:0:0:
64,192,25581,1,0,0:0:0:0:
192,192,25849,1,0,0:0:0:0:
320,192,25983,1,0,0:0:0:0:
320,192,26118,1,0,0:0:0:0:
448,192,26252,1,0,0:0:0:0:
320,192,26386,1,0,0:0:0:0:
320,192,26654,1,0,0:0:0:0:
192,192,26789,1,0,0:0:0:0:
192,192,26923,1,0,0:0:0:0:
192,192,27057,1,0,0:0:0:0:
64,192,27326,128,0,27997:0:0:0:0:
192,192,28265,1,0,0:0:0:0:
320,192,28668,1,0,0:0:0:0:
448,192,28936,1,0,0:0:0:0:
320,192,29339,1,0,0:0:0:0:
192,192,29742,1,0,0:0:0:0:
64,192,30279,1,0,0:0:0:0:
64,192,30681,1,0,0:0:0:0:
192,192,31084,1,0,0:0:0:0:
320,192,31621,1,0,0:0:0:0:
448,192,32024,1,0,0:0:0:0:
320,192,32561,1,0,0:0:0:0:
192,192,33366,1,0,0:0:0:0:
192,192,33634,1,0,0:0:0:0:
192,192,34037,1,0,0:0:0:0:
320,192,34305,1,0,0:0:0:0:
64,192,35514,1,0,0:0:0:0:
64,192,35782,1,0,0:0:0:0:
64,192,35916,1,0,0:0:0:0:
192,192,36185,1,0,0:0:0:0:
192,192,36587,1,0,0:0:0:0:
320,192,36856,128,0,37393:0:0:0:0:
448,192,37661,1,0,0:0:0:0:
448,192,37795,1,0,0:0:0:0:
448,192,38064,1,0,0:0:0:0:
320,192,38198,1,0,0:0:0:0:
192,192,38332,1,0,0:0:0:0:
192,192,38601,1,0,0:0:0:0:
64,192,38735,1,0,0:0:0:0:
192,192,39138,1,0,0:0:0:0:
192,192,39272,1,0,0:0:0:0:
192,192,39406,1,0,0:0:0:0:
192,192,39540,1,0,0:0:0:0:
320,192,42091,128,0,42896:0:0:0:0:
192,192,45312,1,0,0:0:0:0:
192,192,45446,1,0,0:0:0:0:
192,192,45581,1,0,0:0:0:0:
448,192,45715,1,0,0:0:0:0:
448,192,45983,1,0,0:0:0:0:
320,192,46118,1,0,0:0:0:0:
64,192,46520,1,0,0:0:0:0:
320,192,46789,1,0,0:0:0:0:
320,192,46923,1,0,0:0:0:0:
320,192,47057,1,0,0:0:0:0:
192,192,47326,1,0,0:0:0:0:
192,192,47460,1,0,0:0:0:0:
448,192,47728,1,0,0:0:0:0:
64,192,48265,1,0,0:0:0:0:
192,192,48399,1,0,0:0:0:0:
192,192,48534,1,0,0:0:0:0:
64,192,48668,1,0,0:0:0:0:
64,192,48936,1,0,0:0:0:0:
320,192,49071,1,0,0:0:0:0:
320,192,49205,1,0,0:0:0:0:
448,192,49339,1,0,0:0:0:0:
448,192,49607,1,0,0:0:0:0:
320,192,49742,1,0,0:0:0:0:
320,192,49876,1,0,0:0:0:0:
64,192,50010,1,0,0:0:0:0:
64,192,50279,1,0,0:0:0:0:
192,192,54305,128,0,54574:0:0:0:0:
320,192,54574,128,0,54977:0:0:0:0:
192,192,54977,128,0,55514:0:0:0:0:
448,192,55514,128,0,56185:0:0:0:0:
192,192,56722,128,0,57124:0:0:0:0:
320,192,57124,128,0,57661:0:0:0:0:
64,192,57661,128,0,58467:0:0:0:0:
320,192,59003,1,0,0:0:0:0:
192,192,59272,1,0,0:0:0:0:
320,192,59809,1,0,0:0:0:0:
320,192,60614,1,0,0:0:0:0:
448,192,61420,1,0,0:0:0:0:
448,192,61688,1,0,0:0:0:0:
448,192,62091,1,0,0:0:0:0:
64,192,62628,1,0,0:0:0:0:
192,192,63030,1,0,0:0:0:0:
192,192,63299,1,0,0:0:0:0:
320,192,63567,1,0,0:0:0:0:
448,192,64104,1,0,0:0:0:0:
320,192,64373,1,0,0:0:0:0:
192,192,64775,1,0,0:0:0:0:
192,192,64910,1,0,0:0:0:0:
320,192,73634,5,0,0:0:0:0:
192,192,74171,1,0,0:0:0:0:
320,192,74708,1,0,0:0:0:0:
192,192,75648,1,0,0:0:0:0:
320,192,76050,1,0,0:0:0:0:
320,192,76185,1,0,0:0:0:0:
192,192,76453,1,0,0:0:0:0:
192,192,76587,1,0,0:0:0:0:
320,192,76990,1,0,0:0:0:0:
320,192,77124,1,0,0:0:0:0:
448,192,77259,1,0,0:0:0:0:
192,192,77393,1,0,0:0:0:0:
64,192,77527,1,0,0:0:0:0:
320,192,77795,1,0,0:0:0:0:
448,192,78064,1,0,0:0:0:0:
320,192,78332,1,0,0:0:0:0:
192,192,78332,1,0,0:0:0:0:
64,192,78601,1,0,0:0:0:0:
192,192,78869,1,0,0:0:0:0:
320,192,79138,1,0,0:0:0:0:
320,192,79272,1,0,0:0:0:0:
320,192,79675,1,0,0:0:0:0:
448,192,80077,128,0,80346:0:0:0:0:
192,192,80614,1,0,0:0:0:0:
192,192,80748,1,0,0:0:0:0:
64,192,80883,1,0,0:0:0:0:
64,192,81017,1,0,0:0:0:0:
192,192,81285,1,0,0:0:0:0:
320,192,81420,1,0,0:0:0:0:
448,192,81822,1,0,0:0:0:0:
448,192,81956,1,0,0:0:0:0:
320,192,82359,1,0,0:0:0:0:
320,192,82493,1,0,0:0:0:0:
320,192,83030,1,0,0:0:0:0:
320,192,83165,1,0,0:0:0:0:
320,192,83299,1,0,0:0:0:0:
192,192,83567,1,0,0:0:0:0:
320,192,84104,1,0,0:0:0:0:
320,192,84373,1,0,0:0:0:0:
192,192,84775,1,0,0:0:0:0:
192,192,85178,1,0,0:0:0:0:
64,192,85312,1,0,0:0:0:0:
64,192,85446,1,0,0:0:0:0:
192,192,85715,1,0,0:0:0:0:
192,192,85849,1,0,0:0:0:0:
320,192,86118,1,0,0:0:0:0:
448,192,86252,128,0,87728:0:0:0:0:
448,192,91621,1,0,0:0:0:0:
320,192,92024,1,0,0:0:0:0:
192,192,92426,1,0,0:0:0:0:
192,192,92695,1,0,0:0:0:0:
64,192,92963,1,0,0:0:0:0:
64,192,93366,1,0,0:0:0:0:
192,192,93634,1,0,0:0:0:0:
320,192,94037,1,0,0:0:0:0:
448,192,94440,1,0,0:0:0:0:
448,192,94708,1,0,0:0:0:0:
320,192,94977,1,0,0:0:0:0:
320,192,95245,1,0,0:0:0:0:
192,192,95648,1,0,0:0:0:0:
320,192,96319,1,0,0:0:0:0:
320,192,96587,1,0,0:0:0:0:
192,192,97259,128,0,98198:0:0:0:0:
320,192,98332,128,0,99540:0:0:0:0:
448,192,99675,128,0,100480:0:0:0:0:
64,192,100883,128,0,101822:0:0:0:0:
192,192,101956,128,0,103299:0:0:0:0:
320,192,103299,128,0,104775:0:0:0:0:
192,192,104910,128,0,105581:0:0:0:0:
320,192,105983,128,0,107326:0:0:0:0:
192,192,107594,1,0,0:0:0:0:
320,192,107997,1,0,0:0:0:0:
192,192,108131,1,0,0:0:0:0:
64,192,108534,1,0,0:0:0:0:
192,192,108936,1,0,0:0:0:0:
320,192,109071,1,0,0:0:0:0:
320,192,109205,1,0,0:0:0:0:
320,192,109339,1,0,0:0:0:0:
448,192,109742,1,0,0:0:0:0:
192,192,110279,1,0,0:0:0:0:
192,192,110413,1,0,0:0:0:0:
192,192,110547,1,0,0:0:0:0:
64,192,110950,1,0,0:0:0:0:
64,192,111084,1,0,0:0:0:0:
192,192,111487,1,0,0:0:0:0:
320,192,111621,1,0,0:0:0:0:
320,192,111889,1,0,0:0:0:0:
448,192,112426,1,0,0:0:0:0:
320,192,112829,128,0,113500:0:0:0:0:
192,192,118198,1,0,0:0:0:0:
320,192,118198,1,0,0:0:0:0:
320,192,118332,1,0,0:0:0:0:
192,192,118601,1,0,0:0:0:0:
192,192,118735,1,0,0:0:0:0:
64,192,118869,1,0,0:0:0:0:
64,192,119003,1,0,0:0:0:0:
320,192,119406,1,0,0:0:0:0:
448,192,119540,1,0,0:0:0:0:
448,192,119809,1,0,0:0:0:0:
320,192,119943,1,0,0:0:0:0:
320,192,120212,1,0,0:0:0:0:
192,192,120346,1,0,0:0:0:0:
192,192,120614,1,0,0:0:0:0:
192,192,120748,1,0,0:0:0:0:
192,192,120883,1,0,0:0:0:0:
192,192,123165,1,0,0:0:0:0:
320,192,123165,1,0,0:0:0:0:
320,192,123433,1,0,0:0:0:0:
448,192,123433,1,0,0:0:0:0:
448,192,123836,1,0,0:0:0:0:
320,192,123836,1,0,0:0:0:0:
192,192,124104,1,0,0:0:0:0:
320,192,124104,1,0,0:0:0:0:
64,192,124507,1,0,0:0:0:0:
192,192,124507,1,0,0:0:0:0:
64,192,124775,1,0,0:0:0:0:
192,192,124775,1,0,0:0:0:0:
64,192,125044,1,0,0:0:0:0:
192,192,125044,1,0,0:0:0:0:
192,192,125312,1,0,0:0:0:0:
320,192,125312,1,0,0:0:0:0:
320,192,125715,1,0,0:0:0:0:
448,192,125715,1,0,0:0:0:0:
320,192,128265,1,0,0:0:0:0:
192,192,128265,1,0,0:0:0:0:
192,192,128399,1,0,0:0:0:0:
320,192,128399,1,0,0:0:0:0:
320,192,128534,1,0,0:0:0:0:
192,192,128534,1,0,0:0:0:0:
192,192,128668,1,0,0:0:0:0:
320,192,128668,1,0,0:0:0:0:
64,192,129071,1,0,0:0:0:0:
320,192,129205,1,0,0:0:0:0:
64,192,129473,1,0,0:0:0:0:
320,192,129742,1,0,0:0:0:0:
448,192,130010,1,0,0:0:0:0:
448,192,130144,1,0,0:0:0:0:
320,192,130279,1,0,0:0:0:0:
192,192,130413,1,0,0:0:0:0:
64,192,130681,1,0,0:0:0:0:
64,192,130816,1,0,0:0:0:0:
320,192,131084,1,0,0:0:0:0:
448,192,131352,1,0,0:0:0:0:
320,192,131621,1,0,0:0:0:0:
192,192,132024,1,0,0:0:0:0:
64,192,132426,1,0,0:0:0:0:
320,192,132963,1,0,0:0:0:0:
320,192,133232,1,0,0:0:0:0:
320,192,133634,128,0,134171:0:0:0:0:
320,192,138198,1,0,0:0:0:0:
192,192,138467,1,0,0:0:0:0:
320,192,139003,1,0,0:0:0:0:
320,192,139138,1,0,0:0:0:0:
192,192,139406,1,0,0:0:0:0:
320,192,139809,1,0,0:0:0:0:
320,192,139943,1,0,0:0:0:0:
192,192,140212,1,0,0:0:0:0:
192,192,140480,1,0,0:0:0:0:
192,192,140614,1,0,0:0:0:0:
192,192,140883,1,0,0:0:0:0:
320,192,141285,1,0,0:0:0:0:
64,192,142091,1,0,0:0:0:0:
64,192,142225,1,0,0:0:0:0:
192,192,142493,1,0,0:0:0:0:
320,192,142628,1,0,0:0:0:0:
448,192,143030,1,0,0:0:0:0:
448,192,143165,1,0,0:0:0:0:
192,192,143433,128,0,143701:0:0:0:0:
192,192,143836,128,0,144238:0:0:0:0:
64,192,144238,128,0,145312:0:0:0:0:
192,192,145312,128,0,145715:0:0:0:0:
448,192,145849,128,0,146252:0:0:0:0:
448,192,146386,128,0,146654:0:0:0:0:
320,192,146654,128,0,147057:0:0:0:0:
192,192,147057,128,0,147326:0:0:0:0:
192,192,147460,128,0,147728:0:0:0:0:
64,192,147728,128,0,147997:0:0:0:0:
64,192,148131,128,0,148668:0:0:0:0:
192,192,148802,128,0,149071:0:0:0:0:
320,192,149071,128,0,149339:0:0:0:0:
448,192,149339,128,0,150413:0:0:0:0:
448,192,150816,1,0,0:0:0:0:
448,192,150950,1,0,0:0:0:0:
64,192,151352,1,0,0:0:0:0:
64,192,151487,1,0,0:0:0:0:
448,192,152024,1,0,0:0:0:0:
448,192,152158,1,0,0:0:0:0:
64,192,152963,1,0,0:0:0:0:
64,192,153097,1,0,0:0:0:0:
448,192,153500,1,0,0:0:0:0:
448,192,153634,1,0,0:0:0:0:
64,192,154037,1,0,0:0:0:0:
64,192,154171,1,0,0:0:0:0:
320,192,154708,128,0,155111:0:0:0:0:
