osu file format v14

[General]
AudioFilename: audio.mp3
AudioLeadIn: 0
PreviewTime: -1
Countdown: 0
SampleSet: None
StackLeniency: 0.7
Mode: 0
LetterboxInBreaks: 0
WidescreenStoryboard: 0

[Editor]
DistanceSpacing: 1
BeatDivisor: 3
GridSize: 8
TimelineZoom: 1

[Metadata]
Title:Monochrome
TitleUnicode:Monochrome
Artist:Lumi_0
ArtistUnicode:Lumi_0
Creator:Lumi_0
Version:Normal
Source:1
Tags:FnF, RU
BeatmapID:3866220
BeatmapSetID:1878198

[Difficulty]
HPDrainRate:5
CircleSize:5
OverallDifficulty:5
ApproachRate:5
SliderMultiplier:1.30000000596046
SliderTickRate:1

[Events]
//Background and Video events
0,0,"menu-background.jpg",0,0
//Break Periods
2,13270,20545
2,63270,68256
//Storyboard Layer 0 (Background)
//Storyboard Layer 1 (Fail)
//Storyboard Layer 2 (Pass)
//Storyboard Layer 3 (Foreground)
//Storyboard Layer 4 (Overlay)
//Storyboard Sound Samples

[TimingPoints]
-61.6892101066649,361.44578313253,4,2,0,100,1,0

[Colours]
Combo1 : 0,6,238
Combo2 : 0,0,0

[HitObjects]
179,94,3311,5,0,0:0:0:0:
180,96,6564,1,0,0:0:0:0:
180,98,9456,1,0,0:0:0:0:
180,98,13070,1,0,0:0:0:0:
229,188,21745,5,0,0:0:0:0:
390,106,22950,1,0,0:0:0:0:
124,127,24516,1,0,0:0:0:0:
224,241,25480,1,0,0:0:0:0:
250,312,26082,1,0,0:0:0:0:
232,166,27649,5,0,0:0:0:0:
463,36,31986,2,0,L|37:343,1,520.000002384184
253,178,33673,1,0,0:0:0:0:
97,82,33914,1,0,0:0:0:0:
400,100,34275,1,0,0:0:0:0:
229,290,34757,1,0,0:0:0:0:
364,188,35119,1,0,0:0:0:0:
157,160,35600,1,0,0:0:0:0:
439,103,35841,1,0,0:0:0:0:
202,80,36203,1,0,0:0:0:0:
385,73,36564,1,0,0:0:0:0:
268,125,36926,1,0,0:0:0:0:
415,152,37287,1,0,0:0:0:0:
246,185,37649,1,0,0:0:0:0:
336,293,38131,1,0,0:0:0:0:
193,227,38613,1,0,0:0:0:0:
32,190,39576,2,0,B|257:17|484:190|252:344|31:189|27:189,1,606.666669448215
26,188,41384,2,0,B|51:362|26:89|92:360,1,216.666667660077
90,354,42106,1,0,0:0:0:0:
238,243,42347,1,0,0:0:0:0:
128,201,42950,1,0,0:0:0:0:
300,120,43311,1,0,0:0:0:0:
134,86,43552,1,0,0:0:0:0:
284,215,44034,1,0,0:0:0:0:
199,70,44757,2,0,B|105:129|240:165|254:180,3,130.000000596046
48,173,46564,2,0,P|248:182|255:172,1,216.666667660077
208,59,47287,1,0,0:0:0:0:
312,153,47769,1,0,0:0:0:0:
150,195,48131,1,0,0:0:0:0:
373,222,48492,1,0,0:0:0:0:
161,269,48853,1,0,0:0:0:0:
350,299,49215,1,0,0:0:0:0:
203,313,49697,1,0,0:0:0:0:
350,198,50179,1,0,0:0:0:0:
255,192,50902,2,0,B|27:21|487:371|257:195,1,303.333334724107
370,111,56685,1,0,0:0:0:0:
172,109,57046,1,0,0:0:0:0:
327,171,57890,1,0,0:0:0:0:
106,154,58974,1,0,0:0:0:0:
393,175,60420,1,0,0:0:0:0:
106,162,62709,1,0,0:0:0:0:
368,106,63070,1,0,0:0:0:0:
64,73,69456,5,0,0:0:0:0:
374,125,69938,1,0,0:0:0:0:
232,235,70179,1,0,0:0:0:0:
256,127,70661,1,0,0:0:0:0:
95,175,70902,1,0,0:0:0:0:
222,251,71143,1,0,0:0:0:0:
176,268,71384,1,0,0:0:0:0:
386,247,71504,1,0,0:0:0:0:
239,100,72468,1,0,0:0:0:0:
148,178,72829,1,0,0:0:0:0:
373,211,73070,1,0,0:0:0:0:
193,225,73311,1,0,0:0:0:0:
320,113,73673,1,0,0:0:0:0:
175,90,74034,1,0,0:0:0:0:
333,182,74396,1,0,0:0:0:0:
141,260,74757,1,0,0:0:0:0:
401,280,75119,1,0,0:0:0:0:
226,129,75600,1,0,0:0:0:0:
116,192,80058,2,0,L|382:192,2,260.000001192092
86,82,81625,1,0,0:0:0:0:
401,107,82588,1,0,0:0:0:0:
244,193,83070,1,0,0:0:0:0:
118,97,84516,1,0,0:0:0:0:
368,98,84637,1,0,0:0:0:0:
175,271,84878,1,0,0:0:0:0:
196,135,85239,1,0,0:0:0:0:
397,194,85600,1,0,0:0:0:0:
277,96,86082,1,0,0:0:0:0:
70,274,86444,1,0,0:0:0:0:
105,117,86805,1,0,0:0:0:0:
371,137,87167,1,0,0:0:0:0:
256,192,87408,12,0,92950,0:0:0:0:
160,193,93191,6,0,L|334:192,1,173.333334128061
330,189,94034,2,0,L|160:190,1,130.000000596046
171,192,94878,2,0,L|336:193,1,130.000000596046
163,130,99576,1,0,0:0:0:0:
313,127,101022,1,0,0:0:0:0:
253,248,102468,1,0,0:0:0:0:
119,98,105480,1,0,0:0:0:0:
334,102,105841,1,0,0:0:0:0:
400,210,106323,1,0,0:0:0:0:
211,312,106685,1,0,0:0:0:0:
113,237,107046,1,0,0:0:0:0:
287,205,107287,1,0,0:0:0:0:
181,199,107528,1,0,0:0:0:0:
263,161,107649,1,0,0:0:0:0:
190,117,108131,1,0,0:0:0:0:
337,152,109215,1,0,0:0:0:0:
317,243,109456,1,0,0:0:0:0:
185,201,109697,1,0,0:0:0:0:
144,232,110058,1,0,0:0:0:0:
121,96,110299,1,0,0:0:0:0:
312,125,110540,1,0,0:0:0:0:
237,234,110781,1,0,0:0:0:0:
150,146,111022,1,0,0:0:0:0:
325,192,111745,1,0,0:0:0:0:
325,192,111986,2,0,B|224:68|156:130|333:356|413:252|223:72|251:175|259:154,1,260.000001192092
169,152,113432,1,0,0:0:0:0:
447,144,113552,1,0,0:0:0:0:
263,282,113793,1,0,0:0:0:0:
76,189,114155,1,0,0:0:0:0:
307,93,114396,1,0,0:0:0:0:
361,178,114757,1,0,0:0:0:0:
213,240,115119,1,0,0:0:0:0:
138,139,115480,1,0,0:0:0:0:
314,93,115962,1,0,0:0:0:0:
400,189,116323,1,0,0:0:0:0:
141,288,116685,1,0,0:0:0:0:
155,191,117528,1,0,0:0:0:0:
344,144,117890,1,0,0:0:0:0:
257,268,118251,1,0,0:0:0:0:
82,215,118613,1,0,0:0:0:0:
170,90,118974,1,0,0:0:0:0:
443,120,119215,1,0,0:0:0:0:
335,264,119697,1,0,0:0:0:0:
129,275,119938,1,0,0:0:0:0:
78,148,120420,1,0,0:0:0:0:
281,93,120781,1,0,0:0:0:0:
405,190,121143,1,0,0:0:0:0:
261,292,121504,1,0,0:0:0:0:
129,246,121986,1,0,0:0:0:0:
134,133,122347,1,0,0:0:0:0:
305,107,122709,1,0,0:0:0:0:
255,272,123552,1,0,0:0:0:0:
163,145,124034,1,0,0:0:0:0:
314,116,124275,1,0,0:0:0:0:
194,179,124637,1,0,0:0:0:0:
447,140,125119,1,0,0:0:0:0:
210,215,125480,1,0,0:0:0:0:
402,200,125841,1,0,0:0:0:0:
176,279,126203,1,0,0:0:0:0:
291,135,126564,1,0,0:0:0:0:
279,247,126926,1,0,0:0:0:0:
203,127,127287,1,0,0:0:0:0:
203,239,127649,1,0,0:0:0:0:
128,141,128010,1,0,0:0:0:0:
111,237,128372,1,0,0:0:0:0:
128,91,128733,1,0,0:0:0:0:
299,163,129094,1,0,0:0:0:0:
224,243,129456,1,0,0:0:0:0:
347,178,129817,1,0,0:0:0:0:
262,139,130179,1,0,0:0:0:0:
305,64,130661,1,0,0:0:0:0:
153,132,131022,1,0,0:0:0:0:
220,80,131263,1,0,0:0:0:0:
185,249,131384,1,0,0:0:0:0:
308,201,131625,1,0,0:0:0:0:
354,93,131986,1,0,0:0:0:0:
465,199,132347,1,0,0:0:0:0:
291,295,132829,1,0,0:0:0:0:
224,307,133070,1,0,0:0:0:0:
129,263,133552,1,0,0:0:0:0:
116,206,133914,1,0,0:0:0:0:
128,159,134275,1,0,0:0:0:0:
181,129,134757,1,0,0:0:0:0:
268,127,135119,1,0,0:0:0:0:
353,200,135600,1,0,0:0:0:0:
308,258,135962,1,0,0:0:0:0:
205,274,136323,1,0,0:0:0:0:
142,253,136564,1,0,0:0:0:0:
121,194,136926,1,0,0:0:0:0:
140,149,137408,1,0,0:0:0:0:
185,128,137769,1,0,0:0:0:0:
265,136,138131,1,0,0:0:0:0:
288,180,138492,1,0,0:0:0:0:
284,234,138974,1,0,0:0:0:0:
250,258,139215,1,0,0:0:0:0:
182,269,139576,1,0,0:0:0:0:
138,211,139938,1,0,0:0:0:0:
317,196,140420,1,0,0:0:0:0:
210,176,140902,1,0,0:0:0:0:
310,175,141384,1,0,0:0:0:0:
484,2,141625,2,0,L|489:381,1,346.666668256123
488,348,142588,2,0,L|13:354,1,433.333335320153
53,347,143793,2,0,L|62:8,1,303.333334724107
61,43,144757,2,0,P|266:39|478:360,1,520.000002384184
142,189,147649,2,0,B|147:39|377:41|378:306|135:300|138:167,1,433.333335320153
