osu file format v14

[General]
AudioFilename: audio.mp3
AudioLeadIn: 0
PreviewTime: 19419
Countdown: 0
SampleSet: Normal
StackLeniency: 0.7
Mode: 1
LetterboxInBreaks: 0
WidescreenStoryboard: 1

[Editor]
DistanceSpacing: 0.85
BeatDivisor: 12
GridSize: 32
TimelineZoom: 2.3

[Metadata]
Title:SMOKE IT OFF! * (feat. jnhygs)
TitleUnicode:SMOKE IT OFF! ✮ (feat. jnhygs)
Artist:Lumi Athena
ArtistUnicode:Lumi Athena
Creator:Invisible O
Version:*ONI*
Source:
Tags:Rap Hip-hop Hip hop Hip_Hop English electronic Alt alternative Krushclub krush crush club crushclub koul
BeatmapID:4168304
BeatmapSetID:1957177

[Difficulty]
HPDrainRate:5.5
CircleSize:5
OverallDifficulty:5.5
ApproachRate:5
SliderMultiplier:1.4
SliderTickRate:1

[Events]
//Background and Video events
0,0,"Smoke(1).jpg",0,-130
//Break Periods
//Storyboard Layer 0 (Background)
//Storyboard Layer 1 (Fail)
//Storyboard Layer 2 (Pass)
//Storyboard Layer 3 (Foreground)
//Storyboard Layer 4 (Overlay)
//Storyboard Sound Samples

[TimingPoints]
1630,404.511653306546,4,1,0,100,1,0
1630,-166.666666666667,4,1,0,100,0,0
6470,-166.666666666667,4,1,0,100,0,0
12942,-166.666666666667,4,1,0,100,0,0
13043,-166.666666666667,4,1,0,100,0,0
16177,-166.666666666667,4,1,0,100,0,0
16278,-166.666666666667,4,1,0,100,0,0
16379,-166.666666666667,4,1,0,100,0,0
16581,-166.666666666667,4,1,0,100,0,0
16784,-166.666666666667,4,1,0,100,0,0
16885,-166.666666666667,4,1,0,100,0,0
16986,-166.666666666667,4,1,0,100,0,0
17188,-166.666666666667,4,1,0,100,0,0
17289,-166.666666666667,4,1,0,100,0,0
17390,-166.666666666667,4,1,0,100,0,0
17593,-166.666666666667,4,1,0,100,0,0
17795,-166.666666666667,4,1,0,100,0,0
17896,-166.666666666667,4,1,0,100,0,0
17997,-166.666666666667,4,1,0,100,0,0
18199,-166.666666666667,4,1,0,100,0,0
18402,-166.666666666667,4,1,0,100,0,0
18503,-166.666666666667,4,1,0,100,0,0
18604,-166.666666666667,4,1,0,100,0,0
18806,-166.666666666667,4,1,0,100,0,0
19009,-166.666666666667,4,1,0,100,0,0
19428,-166.666666666667,4,1,0,100,0,1
19615,-166.666666666667,4,1,0,100,0,1
19818,-166.666666666667,4,1,0,100,0,1
20020,-166.666666666667,4,1,0,100,0,1
20121,-166.666666666667,4,1,0,100,0,1
20222,-166.666666666667,4,1,0,100,0,1
20323,-166.666666666667,4,1,0,100,0,1
20424,-166.666666666667,4,1,0,100,0,1
20525,-166.666666666667,4,1,0,100,0,1
20627,-166.666666666667,4,1,0,100,0,1
20829,-166.666666666667,4,1,0,100,0,1
21031,-166.666666666667,4,1,0,100,0,1
21132,-166.666666666667,4,1,0,100,0,1
21233,-166.666666666667,4,1,0,100,0,1
21334,-166.666666666667,4,1,0,100,0,1
21436,-166.666666666667,4,1,0,100,0,1
21537,-166.666666666667,4,1,0,100,0,1
21638,-166.666666666667,4,1,0,100,0,1
21739,-166.666666666667,4,1,0,100,0,1
21840,-166.666666666667,4,1,0,100,0,1
22042,-166.666666666667,4,1,0,100,0,1
22143,-166.666666666667,4,1,0,100,0,1
22245,-166.666666666667,4,1,0,100,0,1
22447,-166.666666666667,4,1,0,100,0,1
22649,-166.666666666667,4,1,0,100,0,1
22851,-166.666666666667,4,1,0,100,0,1
23054,-166.666666666667,4,1,0,100,0,1
23256,-166.666666666667,4,1,0,100,0,1
23357,-166.666666666667,4,1,0,100,0,1
23458,-166.666666666667,4,1,0,100,0,1
23559,-166.666666666667,4,1,0,100,0,1
23660,-166.666666666667,4,1,0,100,0,1
23762,-166.666666666667,4,1,0,100,0,1
23863,-166.666666666667,4,1,0,100,0,1
24065,-166.666666666667,4,1,0,100,0,1
24267,-166.666666666667,4,1,0,100,0,1
24368,-166.666666666667,4,1,0,100,0,1
24469,-166.666666666667,4,1,0,100,0,1
24571,-166.666666666667,4,1,0,100,0,1
24672,-166.666666666667,4,1,0,100,0,1
24773,-166.666666666667,4,1,0,100,0,1
24874,-166.666666666667,4,1,0,100,0,1
24975,-166.666666666667,4,1,0,100,0,1
25076,-166.666666666667,4,1,0,100,0,1
25177,-166.666666666667,4,1,0,100,0,1
25278,-166.666666666667,4,1,0,100,0,1
25380,-166.666666666667,4,1,0,100,0,1
25481,-166.666666666667,4,1,0,100,0,1
25582,-166.666666666667,4,1,0,100,0,1
25683,-166.666666666667,4,1,0,100,0,1
25784,-166.666666666667,4,1,0,100,0,1
25885,-166.666666666667,4,1,0,100,0,1
26087,-166.666666666667,4,1,0,100,0,1
26290,-166.666666666667,4,1,0,100,0,1
26492,-166.666666666667,4,1,0,100,0,1
26593,-166.666666666667,4,1,0,100,0,1
26694,-166.666666666667,4,1,0,100,0,1
26795,-166.666666666667,4,1,0,100,0,1
26896,-166.666666666667,4,1,0,100,0,1
26998,-166.666666666667,4,1,0,100,0,1
27099,-166.666666666667,4,1,0,100,0,1
27301,-166.666666666667,4,1,0,100,0,1
27503,-166.666666666667,4,1,0,100,0,1
27604,-166.666666666667,4,1,0,100,0,1
27706,-166.666666666667,4,1,0,100,0,1
27807,-166.666666666667,4,1,0,100,0,1
27908,-166.666666666667,4,1,0,100,0,1
28009,-166.666666666667,4,1,0,100,0,1
28110,-166.666666666667,4,1,0,100,0,1
28211,-166.666666666667,4,1,0,100,0,1
28312,-166.666666666667,4,1,0,100,0,1
28515,-166.666666666667,4,1,0,100,0,1
28616,-166.666666666667,4,1,0,100,0,1
28717,-166.666666666667,4,1,0,100,0,1
28919,-166.666666666667,4,1,0,100,0,1
29121,-166.666666666667,4,1,0,100,0,1
29324,-166.666666666667,4,1,0,100,0,1
29526,-166.666666666667,4,1,0,100,0,1
29728,-166.666666666667,4,1,0,100,0,1
29829,-166.666666666667,4,1,0,100,0,1
29930,-166.666666666667,4,1,0,100,0,1
30031,-166.666666666667,4,1,0,100,0,1
30133,-166.666666666667,4,1,0,100,0,1
30234,-166.666666666667,4,1,0,100,0,1
30335,-166.666666666667,4,1,0,100,0,1
30537,-166.666666666667,4,1,0,100,0,1
30739,-166.666666666667,4,1,0,100,0,1
30840,-166.666666666667,4,1,0,100,0,1
30942,-166.666666666667,4,1,0,100,0,1
31043,-166.666666666667,4,1,0,100,0,1
31144,-166.666666666667,4,1,0,100,0,1
31245,-166.666666666667,4,1,0,100,0,1
31346,-166.666666666667,4,1,0,100,0,1
31447,-166.666666666667,4,1,0,100,0,1
31548,-166.666666666667,4,1,0,100,0,1
31649,-166.666666666667,4,1,0,100,0,1
31751,-166.666666666667,4,1,0,100,0,1
31852,-166.666666666667,4,1,0,100,0,1
31953,-166.666666666667,4,1,0,100,0,1
32372,-166.666666666667,4,1,0,100,0,0
32560,-166.666666666667,4,1,0,100,0,0
32762,-166.666666666667,4,1,0,100,0,0
32964,-166.666666666667,4,1,0,100,0,0
33065,-166.666666666667,4,1,0,100,0,0
33166,-166.666666666667,4,1,0,100,0,0
33268,-166.666666666667,4,1,0,100,0,0
33369,-166.666666666667,4,1,0,100,0,0
33470,-166.666666666667,4,1,0,100,0,0
33571,-166.666666666667,4,1,0,100,0,0
33672,-166.666666666667,4,1,0,100,0,0
33773,-166.666666666667,4,1,0,100,0,0
33874,-166.666666666667,4,1,0,100,0,0
33976,-166.666666666667,4,1,0,100,0,0
34178,-166.666666666667,4,1,0,100,0,0
34380,-166.666666666667,4,1,0,100,0,0
34582,-166.666666666667,4,1,0,100,0,0
34683,-166.666666666667,4,1,0,100,0,0
34784,-166.666666666667,4,1,0,100,0,0
34886,-166.666666666667,4,1,0,100,0,0
34987,-166.666666666667,4,1,0,100,0,0
35088,-166.666666666667,4,1,0,100,0,0
35189,-166.666666666667,4,1,0,100,0,0
35290,-166.666666666667,4,1,0,100,0,0
35391,-166.666666666667,4,1,0,100,0,0
35492,-166.666666666667,4,1,0,100,0,0
35594,-166.666666666667,4,1,0,100,0,0
35796,-166.666666666667,4,1,0,100,0,0
35998,-166.666666666667,4,1,0,100,0,0
36200,-166.666666666667,4,1,0,100,0,0
36301,-166.666666666667,4,1,0,100,0,0
36402,-166.666666666667,4,1,0,100,0,0
36504,-166.666666666667,4,1,0,100,0,0
36605,-166.666666666667,4,1,0,100,0,0
36706,-166.666666666667,4,1,0,100,0,0
36807,-166.666666666667,4,1,0,100,0,0
36908,-166.666666666667,4,1,0,100,0,0
37009,-166.666666666667,4,1,0,100,0,0
37110,-166.666666666667,4,1,0,100,0,0
37213,-166.666666666667,4,1,0,100,0,0
37414,-166.666666666667,4,1,0,100,0,0
37616,-166.666666666667,4,1,0,100,0,0
37818,-166.666666666667,4,1,0,100,0,0
37919,-166.666666666667,4,1,0,100,0,0
38020,-166.666666666667,4,1,0,100,0,0
38122,-166.666666666667,4,1,0,100,0,0
38223,-166.666666666667,4,1,0,100,0,0
38324,-166.666666666667,4,1,0,100,0,0
38425,-166.666666666667,4,1,0,100,0,0
38526,-166.666666666667,4,1,0,100,0,0
38627,-166.666666666667,4,1,0,100,0,0
38728,-166.666666666667,4,1,0,100,0,0
38831,-166.666666666667,4,1,0,100,0,0
39033,-166.666666666667,4,1,0,100,0,0
39235,-166.666666666667,4,1,0,100,0,0
39437,-166.666666666667,4,1,0,100,0,0
39538,-166.666666666667,4,1,0,100,0,0
39639,-166.666666666667,4,1,0,100,0,0
39741,-166.666666666667,4,1,0,100,0,0
39842,-166.666666666667,4,1,0,100,0,0
39943,-166.666666666667,4,1,0,100,0,0
40044,-166.666666666667,4,1,0,100,0,0
40145,-166.666666666667,4,1,0,100,0,0
40246,-166.666666666667,4,1,0,100,0,0
40347,-166.666666666667,4,1,0,100,0,0
40449,-166.666666666667,4,1,0,100,0,0
40651,-166.666666666667,4,1,0,100,0,0
40853,-166.666666666667,4,1,0,100,0,0
41055,-166.666666666667,4,1,0,100,0,0
41156,-166.666666666667,4,1,0,100,0,0
41257,-166.666666666667,4,1,0,100,0,0
41359,-166.666666666667,4,1,0,100,0,0
41460,-166.666666666667,4,1,0,100,0,0
41561,-166.666666666667,4,1,0,100,0,0
41662,-166.666666666667,4,1,0,100,0,0
41763,-166.666666666667,4,1,0,100,0,0
41864,-166.666666666667,4,1,0,100,0,0
41965,-166.666666666667,4,1,0,100,0,0
42067,-166.666666666667,4,1,0,100,0,0
42269,-166.666666666667,4,1,0,100,0,0
42471,-166.666666666667,4,1,0,100,0,0
42673,-166.666666666667,4,1,0,100,0,0
42774,-166.666666666667,4,1,0,100,0,0
42875,-166.666666666667,4,1,0,100,0,0
42977,-166.666666666667,4,1,0,100,0,0
43078,-166.666666666667,4,1,0,100,0,0
43179,-166.666666666667,4,1,0,100,0,0
43280,-166.666666666667,4,1,0,100,0,0
43381,-166.666666666667,4,1,0,100,0,0
43482,-166.666666666667,4,1,0,100,0,0
43583,-166.666666666667,4,1,0,100,0,0
43685,-166.666666666667,4,1,0,100,0,0
43887,-166.666666666667,4,1,0,100,0,0
44089,-166.666666666667,4,1,0,100,0,0
44291,-166.666666666667,4,1,0,100,0,0
44392,-166.666666666667,4,1,0,100,0,0
44493,-166.666666666667,4,1,0,100,0,0
44595,-166.666666666667,4,1,0,100,0,0
44696,-166.666666666667,4,1,0,100,0,0
44797,-166.666666666667,4,1,0,100,0,0
44898,-166.666666666667,4,1,0,100,0,0
44999,-166.666666666667,4,1,0,100,0,0
45100,-166.666666666667,4,1,0,100,0,0
45201,-166.666666666667,4,1,0,100,0,0
45303,-166.666666666667,4,1,0,100,0,0
45504,-166.666666666667,4,1,0,100,0,0
45706,-166.666666666667,4,1,0,100,0,0
45807,-166.666666666667,4,1,0,100,0,0
45909,-166.666666666667,4,1,0,100,0,0
46111,-166.666666666667,4,1,0,100,0,0
46212,-166.666666666667,4,1,0,100,0,0
46313,-166.666666666667,4,1,0,100,0,0
46515,-166.666666666667,4,1,0,100,0,0
46616,-166.666666666667,4,1,0,100,0,0
46718,-166.666666666667,4,1,0,100,0,0
46920,-166.666666666667,4,1,0,100,0,0
47122,-166.666666666667,4,1,0,100,0,0
47527,-166.666666666667,4,1,0,100,0,0
47729,-166.666666666667,4,1,0,100,0,0
47931,-166.666666666667,4,1,0,100,0,0
48133,-166.666666666667,4,1,0,100,0,0
48538,-166.666666666667,4,1,0,100,0,0
48639,-166.666666666667,4,1,0,100,0,0
48740,-166.666666666667,4,1,0,100,0,0
48942,-166.666666666667,4,1,0,100,0,0
49043,-166.666666666667,4,1,0,100,0,0
49145,-166.666666666667,4,1,0,100,0,0
49347,-166.666666666667,4,1,0,100,0,0
49448,-166.666666666667,4,1,0,100,0,0
49549,-166.666666666667,4,1,0,100,0,0
49751,-166.666666666667,4,1,0,100,0,0
49853,-166.666666666667,4,1,0,100,0,0
49954,-166.666666666667,4,1,0,100,0,0
50156,-166.666666666667,4,1,0,100,0,0
50358,-166.666666666667,4,1,0,100,0,0
50763,-166.666666666667,4,1,0,100,0,0
50965,-166.666666666667,4,1,0,100,0,0
51167,-166.666666666667,4,1,0,100,0,0
51369,-166.666666666667,4,1,0,100,0,0
51775,-166.666666666667,4,1,0,100,0,0
51875,-166.666666666667,4,1,0,100,0,0
51976,-166.666666666667,4,1,0,100,0,0
52178,-166.666666666667,4,1,0,100,0,0
52279,-166.666666666667,4,1,0,100,0,0
52381,-166.666666666667,4,1,0,100,0,0
52583,-166.666666666667,4,1,0,100,0,0
52684,-166.666666666667,4,1,0,100,0,0
52785,-166.666666666667,4,1,0,100,0,0
52987,-166.666666666667,4,1,0,100,0,0
53088,-166.666666666667,4,1,0,100,0,0
53190,-166.666666666667,4,1,0,100,0,0
53392,-166.666666666667,4,1,0,100,0,0
53594,-166.666666666667,4,1,0,100,0,0
53999,-166.666666666667,4,1,0,100,0,0
54201,-166.666666666667,4,1,0,100,0,0
54403,-166.666666666667,4,1,0,100,0,0
54605,-166.666666666667,4,1,0,100,0,0
55010,-166.666666666667,4,1,0,100,0,0
55111,-166.666666666667,4,1,0,100,0,0
55212,-166.666666666667,4,1,0,100,0,0
55414,-166.666666666667,4,1,0,100,0,0
55515,-166.666666666667,4,1,0,100,0,0
55617,-166.666666666667,4,1,0,100,0,0
55819,-166.666666666667,4,1,0,100,0,0
55920,-166.666666666667,4,1,0,100,0,0
56021,-166.666666666667,4,1,0,100,0,0
56223,-166.666666666667,4,1,0,100,0,0
56325,-166.666666666667,4,1,0,100,0,0
56426,-166.666666666667,4,1,0,100,0,0
56628,-166.666666666667,4,1,0,100,0,0
56830,-166.666666666667,4,1,0,100,0,0
57235,-166.666666666667,4,1,0,100,0,0
57437,-166.666666666667,4,1,0,100,0,0
57639,-166.666666666667,4,1,0,100,0,0
57841,-166.666666666667,4,1,0,100,0,0
58247,-166.666666666667,4,1,0,100,0,0
64719,-166.666666666667,4,1,0,100,0,0
64820,-166.666666666667,4,1,0,100,0,0
71192,-166.666666666667,4,1,0,100,0,0
71293,-166.666666666667,4,1,0,100,0,0
77664,-166.666666666667,4,1,0,100,0,0
77765,-166.666666666667,4,1,0,100,0,0
77966,-166.666666666667,4,1,0,100,0,0
78067,-166.666666666667,4,1,0,100,0,0
78269,-166.666666666667,4,1,0,100,0,0
78472,-166.666666666667,4,1,0,100,0,0
78674,-166.666666666667,4,1,0,100,0,0
78775,-166.666666666667,4,1,0,100,0,0
78876,-166.666666666667,4,1,0,100,0,0
79078,-166.666666666667,4,1,0,100,0,0
79281,-166.666666666667,4,1,0,100,0,0
79382,-166.666666666667,4,1,0,100,0,0
79483,-166.666666666667,4,1,0,100,0,0
79584,-166.666666666667,4,1,0,100,0,0
79685,-166.666666666667,4,1,0,100,0,0
79888,-166.666666666667,4,1,0,100,0,0
79989,-166.666666666667,4,1,0,100,0,0
80090,-166.666666666667,4,1,0,100,0,0
80292,-166.666666666667,4,1,0,100,0,0
80393,-166.666666666667,4,1,0,100,0,0
80494,-166.666666666667,4,1,0,100,0,0
80697,-166.666666666667,4,1,0,100,0,0
80899,-166.666666666667,4,1,0,100,0,0
81000,-166.666666666667,4,1,0,100,0,0
81101,-166.666666666667,4,1,0,100,0,0
81202,-166.666666666667,4,1,0,100,0,0
81303,-166.666666666667,4,1,0,100,0,0
81404,-166.666666666667,4,1,0,100,0,0
81506,-166.666666666667,4,1,0,100,0,0
81708,-166.666666666667,4,1,0,100,0,0
81910,-166.666666666667,4,1,0,100,0,0
82011,-166.666666666667,4,1,0,100,0,0
82112,-166.666666666667,4,1,0,100,0,0
82315,-166.666666666667,4,1,0,100,0,0
82517,-166.666666666667,4,1,0,100,0,0
82719,-166.666666666667,4,1,0,100,0,0
82820,-166.666666666667,4,1,0,100,0,0
82921,-166.666666666667,4,1,0,100,0,0
83124,-166.666666666667,4,1,0,100,0,0
83326,-166.666666666667,4,1,0,100,0,0
84150,-166.666666666667,4,1,0,100,0,1
84337,-166.666666666667,4,1,0,100,0,1
84540,-166.666666666667,4,1,0,100,0,1
84742,-166.666666666667,4,1,0,100,0,1
84843,-166.666666666667,4,1,0,100,0,1
84944,-166.666666666667,4,1,0,100,0,1
85045,-166.666666666667,4,1,0,100,0,1
85146,-166.666666666667,4,1,0,100,0,1
85247,-166.666666666667,4,1,0,100,0,1
85349,-166.666666666667,4,1,0,100,0,1
85551,-166.666666666667,4,1,0,100,0,1
85753,-166.666666666667,4,1,0,100,0,1
85854,-166.666666666667,4,1,0,100,0,1
85955,-166.666666666667,4,1,0,100,0,1
86056,-166.666666666667,4,1,0,100,0,1
86158,-166.666666666667,4,1,0,100,0,1
86259,-166.666666666667,4,1,0,100,0,1
86360,-166.666666666667,4,1,0,100,0,1
86461,-166.666666666667,4,1,0,100,0,1
86562,-166.666666666667,4,1,0,100,0,1
86764,-166.666666666667,4,1,0,100,0,1
86865,-166.666666666667,4,1,0,100,0,1
86967,-166.666666666667,4,1,0,100,0,1
87169,-166.666666666667,4,1,0,100,0,1
87371,-166.666666666667,4,1,0,100,0,1
87573,-166.666666666667,4,1,0,100,0,1
87776,-166.666666666667,4,1,0,100,0,1
87978,-166.666666666667,4,1,0,100,0,1
88079,-166.666666666667,4,1,0,100,0,1
88180,-166.666666666667,4,1,0,100,0,1
88281,-166.666666666667,4,1,0,100,0,1
88382,-166.666666666667,4,1,0,100,0,1
88484,-166.666666666667,4,1,0,100,0,1
88585,-166.666666666667,4,1,0,100,0,1
88787,-166.666666666667,4,1,0,100,0,1
88989,-166.666666666667,4,1,0,100,0,1
89090,-166.666666666667,4,1,0,100,0,1
89191,-166.666666666667,4,1,0,100,0,1
89293,-166.666666666667,4,1,0,100,0,1
89394,-166.666666666667,4,1,0,100,0,1
89495,-166.666666666667,4,1,0,100,0,1
89596,-166.666666666667,4,1,0,100,0,1
89697,-166.666666666667,4,1,0,100,0,1
89798,-166.666666666667,4,1,0,100,0,1
89899,-166.666666666667,4,1,0,100,0,1
90000,-166.666666666667,4,1,0,100,0,1
90102,-166.666666666667,4,1,0,100,0,1
90203,-166.666666666667,4,1,0,100,0,1
90304,-166.666666666667,4,1,0,100,0,1
90405,-166.666666666667,4,1,0,100,0,1
90506,-166.666666666667,4,1,0,100,0,1
90607,-166.666666666667,4,1,0,100,0,1
90809,-166.666666666667,4,1,0,100,0,1
91012,-166.666666666667,4,1,0,100,0,1
91214,-166.666666666667,4,1,0,100,0,1
91315,-166.666666666667,4,1,0,100,0,1
91416,-166.666666666667,4,1,0,100,0,1
91517,-166.666666666667,4,1,0,100,0,1
91618,-166.666666666667,4,1,0,100,0,1
91720,-166.666666666667,4,1,0,100,0,1
91821,-166.666666666667,4,1,0,100,0,1
92023,-166.666666666667,4,1,0,100,0,1
92225,-166.666666666667,4,1,0,100,0,1
92326,-166.666666666667,4,1,0,100,0,1
92428,-166.666666666667,4,1,0,100,0,1
92529,-166.666666666667,4,1,0,100,0,1
92630,-166.666666666667,4,1,0,100,0,1
92731,-166.666666666667,4,1,0,100,0,1
92832,-166.666666666667,4,1,0,100,0,1
92933,-166.666666666667,4,1,0,100,0,1
93034,-166.666666666667,4,1,0,100,0,1
93237,-166.666666666667,4,1,0,100,0,1
93338,-166.666666666667,4,1,0,100,0,1
93439,-166.666666666667,4,1,0,100,0,1
93641,-166.666666666667,4,1,0,100,0,1
93843,-166.666666666667,4,1,0,100,0,1
94046,-166.666666666667,4,1,0,100,0,1
94248,-166.666666666667,4,1,0,100,0,1
94450,-166.666666666667,4,1,0,100,0,1
94551,-166.666666666667,4,1,0,100,0,1
94652,-166.666666666667,4,1,0,100,0,1
94753,-166.666666666667,4,1,0,100,0,1
94855,-166.666666666667,4,1,0,100,0,1
94956,-166.666666666667,4,1,0,100,0,1
95057,-166.666666666667,4,1,0,100,0,1
95259,-166.666666666667,4,1,0,100,0,1
95461,-166.666666666667,4,1,0,100,0,1
95562,-166.666666666667,4,1,0,100,0,1
95664,-166.666666666667,4,1,0,100,0,1
95765,-166.666666666667,4,1,0,100,0,1
95866,-166.666666666667,4,1,0,100,0,1
95967,-166.666666666667,4,1,0,100,0,1
96068,-166.666666666667,4,1,0,100,0,1
96169,-166.666666666667,4,1,0,100,0,1
96270,-166.666666666667,4,1,0,100,0,1
96371,-166.666666666667,4,1,0,100,0,1
96473,-166.666666666667,4,1,0,100,0,1
96574,-166.666666666667,4,1,0,100,0,1
96675,-166.666666666667,4,1,0,100,0,1
96781,-166.666666666667,4,1,0,100,0,1
96882,-166.666666666667,4,1,0,100,0,1
96983,-166.666666666667,4,1,0,100,0,1
97094,-166.666666666667,4,1,0,100,0,0
97686,-166.666666666667,4,1,0,100,0,0
97888,-166.666666666667,4,1,0,100,0,0
98091,-166.666666666667,4,1,0,100,0,0
98293,-166.666666666667,4,1,0,100,0,0
98697,-166.666666666667,4,1,0,100,0,0
98900,-166.666666666667,4,1,0,100,0,0
99001,-166.666666666667,4,1,0,100,0,0
99102,-166.666666666667,4,1,0,100,0,0
99304,-166.666666666667,4,1,0,100,0,0
99506,-166.666666666667,4,1,0,100,0,0
99709,-166.666666666667,4,1,0,100,0,0
99911,-166.666666666667,4,1,0,100,0,0
100315,-166.666666666667,4,1,0,100,0,0
100518,-166.666666666667,4,1,0,100,0,0
100922,-166.666666666667,4,1,0,100,0,0
101124,-166.666666666667,4,1,0,100,0,0
101327,-166.666666666667,4,1,0,100,0,0
101529,-166.666666666667,4,1,0,100,0,0
101933,-166.666666666667,4,1,0,100,0,0
102136,-166.666666666667,4,1,0,100,0,0
102237,-166.666666666667,4,1,0,100,0,0
102338,-166.666666666667,4,1,0,100,0,0
102540,-166.666666666667,4,1,0,100,0,0
102742,-166.666666666667,4,1,0,100,0,0
102945,-166.666666666667,4,1,0,100,0,0
103046,-166.666666666667,4,1,0,100,0,0
103147,-166.666666666667,4,1,0,100,0,0
103349,-166.666666666667,4,1,0,100,0,0
103551,-166.666666666667,4,1,0,100,0,0
103754,-166.666666666667,4,1,0,100,0,0
104158,-166.666666666667,4,1,0,100,0,0
104360,-166.666666666667,4,1,0,100,0,0
104563,-166.666666666667,4,1,0,100,0,0
104765,-166.666666666667,4,1,0,100,0,0
105169,-166.666666666667,4,1,0,100,0,0
105372,-166.666666666667,4,1,0,100,0,0
105473,-166.666666666667,4,1,0,100,0,0
105574,-166.666666666667,4,1,0,100,0,0
105776,-166.666666666667,4,1,0,100,0,0
105979,-166.666666666667,4,1,0,100,0,0
106181,-166.666666666667,4,1,0,100,0,0
106383,-166.666666666667,4,1,0,100,0,0
106788,-166.666666666667,4,1,0,100,0,0
107394,-166.666666666667,4,1,0,100,0,0
107597,-166.666666666667,4,1,0,100,0,0
107799,-166.666666666667,4,1,0,100,0,0
108001,-166.666666666667,4,1,0,100,0,0
108406,-166.666666666667,4,1,0,100,0,0
108507,-166.666666666667,4,1,0,100,0,0
108608,-166.666666666667,4,1,0,100,0,0
108709,-166.666666666667,4,1,0,100,0,0
108810,-166.666666666667,4,1,0,100,0,0
109012,-166.666666666667,4,1,0,100,0,0
109215,-166.666666666667,4,1,0,100,0,0
109316,-166.666666666667,4,1,0,100,0,0
109417,-166.666666666667,4,1,0,100,0,0
109518,-166.666666666667,4,1,0,100,0,0
109619,-166.666666666667,4,1,0,100,0,0
110025,-166.666666666667,4,1,0,100,0,0
110126,-166.666666666667,4,1,0,100,0,0

[HitObjects]
256,192,6484,5,0,0:0:0:0:
256,192,6686,1,0,0:0:0:0:
256,192,6888,1,8,0:0:0:0:
256,192,7090,1,0,0:0:0:0:
256,192,7293,1,8,0:0:0:0:
256,192,7495,1,8,0:0:0:0:
256,192,7697,1,0,0:0:0:0:
256,192,8102,1,8,0:0:0:0:
256,192,8203,1,0,0:0:0:0:
256,192,8304,1,8,0:0:0:0:
256,192,8506,1,0,0:0:0:0:
256,192,8708,1,8,0:0:0:0:
256,192,8911,1,0,0:0:0:0:
256,192,9113,1,0,0:0:0:0:
256,192,9315,1,8,0:0:0:0:
256,192,9720,1,0,0:0:0:0:
256,192,9821,1,0,0:0:0:0:
256,192,9922,1,8,0:0:0:0:
256,192,10327,1,8,0:0:0:0:
256,192,10529,1,0,0:0:0:0:
256,192,10731,1,8,0:0:0:0:
256,192,10933,1,0,0:0:0:0:
256,192,11338,1,8,0:0:0:0:
256,192,11439,1,0,0:0:0:0:
256,192,11540,1,8,0:0:0:0:
256,192,11742,1,0,0:0:0:0:
256,192,11843,1,0,0:0:0:0:
256,192,11945,1,8,0:0:0:0:
256,192,12046,1,8,0:0:0:0:
256,192,12147,1,0,0:0:0:0:
256,192,12349,1,8,0:0:0:0:
256,192,12551,1,8,0:0:0:0:
256,192,12652,1,0,0:0:0:0:
256,192,12754,1,8,0:0:0:0:
256,192,12956,1,4,0:0:0:0:
256,192,13158,1,8,0:0:0:0:
256,192,13360,1,0,0:0:0:0:
256,192,13461,1,0,0:0:0:0:
256,192,13563,1,8,0:0:0:0:
256,192,13765,1,0,0:0:0:0:
256,192,13967,1,8,0:0:0:0:
256,192,14169,1,0,0:0:0:0:
256,192,14574,1,8,0:0:0:0:
256,192,14675,1,0,0:0:0:0:
256,192,14776,1,8,0:0:0:0:
256,192,14978,1,0,0:0:0:0:
256,192,15181,1,8,0:0:0:0:
256,192,15383,1,0,0:0:0:0:
256,192,15585,1,8,0:0:0:0:
256,192,15787,1,0,0:0:0:0:
256,192,16192,1,8,0:0:0:0:
256,192,16293,1,0,0:0:0:0:
256,192,16394,1,8,0:0:0:0:
256,192,16596,1,0,0:0:0:0:
256,192,16799,1,8,0:0:0:0:
256,192,17001,1,0,0:0:0:0:
256,192,17203,1,8,0:0:0:0:
256,192,17405,1,0,0:0:0:0:
256,192,17810,1,8,0:0:0:0:
256,192,17911,1,0,0:0:0:0:
256,192,18012,1,8,0:0:0:0:
256,192,18214,1,0,0:0:0:0:
256,192,18417,1,8,0:0:0:0:
256,192,18619,1,0,0:0:0:0:
256,192,18821,1,8,0:0:0:0:
256,192,19024,1,0,0:0:0:0:
256,192,19428,1,12,0:0:0:0:
256,192,19630,1,0,0:0:0:0:
256,192,20035,1,0,0:0:0:0:
256,192,20136,1,0,0:0:0:0:
256,192,20237,1,8,0:0:0:0:
256,192,20439,1,0,0:0:0:0:
256,192,20642,1,8,0:0:0:0:
256,192,21046,1,0,0:0:0:0:
256,192,21147,1,8,0:0:0:0:
256,192,21248,1,0,0:0:0:0:
256,192,21349,1,0,0:0:0:0:
256,192,21451,1,8,0:0:0:0:
256,192,21653,1,0,0:0:0:0:
256,192,21855,1,8,0:0:0:0:
256,192,22057,1,8,0:0:0:0:
256,192,22260,1,0,0:0:0:0:
256,192,22664,1,12,0:0:0:0:
256,192,22866,1,0,0:0:0:0:
256,192,23271,1,8,0:0:0:0:
256,192,23372,1,8,0:0:0:0:
256,192,23473,1,0,0:0:0:0:
256,192,23675,1,8,0:0:0:0:
256,192,23878,1,0,0:0:0:0:
256,192,24282,1,8,0:0:0:0:
256,192,24383,1,0,0:0:0:0:
256,192,24484,1,8,0:0:0:0:
256,192,24586,1,8,0:0:0:0:
256,192,24687,1,0,0:0:0:0:
256,192,24889,1,8,0:0:0:0:
256,192,25091,1,0,0:0:0:0:
256,192,25192,1,8,0:0:0:0:
256,192,25293,1,0,0:0:0:0:
256,192,25395,1,0,0:0:0:0:
256,192,25496,1,8,0:0:0:0:
256,192,25698,1,0,0:0:0:0:
256,192,25900,1,12,0:0:0:0:
256,192,26102,1,0,0:0:0:0:
256,192,26507,1,0,0:0:0:0:
256,192,26608,1,0,0:0:0:0:
256,192,26709,1,8,0:0:0:0:
256,192,26911,1,0,0:0:0:0:
256,192,27114,1,8,0:0:0:0:
256,192,27518,1,0,0:0:0:0:
256,192,27619,1,8,0:0:0:0:
256,192,27721,1,0,0:0:0:0:
256,192,27822,1,0,0:0:0:0:
256,192,27923,1,8,0:0:0:0:
256,192,28125,1,0,0:0:0:0:
256,192,28327,1,8,0:0:0:0:
256,192,28530,1,8,0:0:0:0:
256,192,28732,1,0,0:0:0:0:
256,192,29136,1,4,0:0:0:0:
256,192,29339,1,8,0:0:0:0:
256,192,29743,1,8,0:0:0:0:
256,192,29844,1,8,0:0:0:0:
256,192,29945,1,0,0:0:0:0:
256,192,30148,1,8,0:0:0:0:
256,192,30350,1,0,0:0:0:0:
256,192,30754,1,8,0:0:0:0:
256,192,30855,1,0,0:0:0:0:
256,192,30957,1,8,0:0:0:0:
256,192,31058,1,8,0:0:0:0:
256,192,31159,1,0,0:0:0:0:
256,192,31361,1,8,0:0:0:0:
256,192,31563,1,0,0:0:0:0:
256,192,31664,1,8,0:0:0:0:
256,192,31766,1,0,0:0:0:0:
256,192,31867,1,0,0:0:0:0:
256,192,31968,1,8,0:0:0:0:
256,192,32372,1,4,0:0:0:0:
256,192,32575,1,8,0:0:0:0:
256,192,32979,1,0,0:0:0:0:
256,192,33080,1,0,0:0:0:0:
256,192,33181,1,8,0:0:0:0:
256,192,33384,1,0,0:0:0:0:
256,192,33586,1,8,0:0:0:0:
256,192,33788,1,8,0:0:0:0:
256,192,33889,1,8,0:0:0:0:
256,192,33990,1,0,0:0:0:0:
256,192,34193,1,8,0:0:0:0:
256,192,34597,1,0,0:0:0:0:
256,192,34698,1,8,0:0:0:0:
256,192,34799,1,0,0:0:0:0:
256,192,35002,1,8,0:0:0:0:
256,192,35204,1,0,0:0:0:0:
256,192,35406,1,8,0:0:0:0:
256,192,35507,1,8,0:0:0:0:
256,192,35608,1,0,0:0:0:0:
256,192,35811,1,8,0:0:0:0:
256,192,36215,1,0,0:0:0:0:
256,192,36316,1,0,0:0:0:0:
256,192,36418,1,8,0:0:0:0:
256,192,36620,1,0,0:0:0:0:
256,192,36822,1,8,0:0:0:0:
256,192,37024,1,8,0:0:0:0:
256,192,37125,1,8,0:0:0:0:
256,192,37227,1,0,0:0:0:0:
256,192,37429,1,8,0:0:0:0:
256,192,37833,1,0,0:0:0:0:
256,192,37934,1,8,0:0:0:0:
256,192,38036,1,0,0:0:0:0:
256,192,38238,1,8,0:0:0:0:
256,192,38440,1,0,0:0:0:0:
256,192,38642,1,8,0:0:0:0:
256,192,38743,1,8,0:0:0:0:
256,192,38845,1,4,0:0:0:0:
256,192,39047,1,8,0:0:0:0:
256,192,39451,1,0,0:0:0:0:
256,192,39552,1,0,0:0:0:0:
256,192,39654,1,8,0:0:0:0:
256,192,39856,1,0,0:0:0:0:
256,192,40058,1,8,0:0:0:0:
256,192,40260,1,8,0:0:0:0:
256,192,40361,1,8,0:0:0:0:
256,192,40463,1,0,0:0:0:0:
256,192,40665,1,8,0:0:0:0:
256,192,41069,1,0,0:0:0:0:
256,192,41171,1,8,0:0:0:0:
256,192,41272,1,0,0:0:0:0:
256,192,41474,1,8,0:0:0:0:
256,192,41676,1,0,0:0:0:0:
256,192,41878,1,8,0:0:0:0:
256,192,41980,1,8,0:0:0:0:
256,192,42081,1,0,0:0:0:0:
256,192,42283,1,8,0:0:0:0:
256,192,42687,1,0,0:0:0:0:
256,192,42789,1,0,0:0:0:0:
256,192,42890,1,8,0:0:0:0:
256,192,43092,1,0,0:0:0:0:
256,192,43294,1,8,0:0:0:0:
256,192,43496,1,8,0:0:0:0:
256,192,43598,1,8,0:0:0:0:
256,192,43699,1,0,0:0:0:0:
256,192,43901,1,8,0:0:0:0:
256,192,44305,1,0,0:0:0:0:
256,192,44407,1,8,0:0:0:0:
256,192,44508,1,0,0:0:0:0:
256,192,44710,1,8,0:0:0:0:
256,192,44912,1,0,0:0:0:0:
256,192,45013,1,0,0:0:0:0:
256,192,45115,1,8,0:0:0:0:
256,192,45317,1,4,0:0:0:0:
256,192,45519,1,8,0:0:0:0:
256,192,45721,1,0,0:0:0:0:
256,192,45924,1,8,0:0:0:0:
256,192,46126,1,0,0:0:0:0:
256,192,46227,1,0,0:0:0:0:
256,192,46328,1,8,0:0:0:0:
256,192,46530,1,0,0:0:0:0:
256,192,46733,1,0,0:0:0:0:
256,192,46935,1,8,0:0:0:0:
256,192,47137,1,0,0:0:0:0:
256,192,47542,1,0,0:0:0:0:
256,192,47744,1,8,0:0:0:0:
256,192,47946,1,0,0:0:0:0:
256,192,48148,1,8,0:0:0:0:
256,192,48553,1,0,0:0:0:0:
256,192,48654,1,0,0:0:0:0:
256,192,48755,1,8,0:0:0:0:
256,192,48957,1,0,0:0:0:0:
256,192,49160,1,8,0:0:0:0:
256,192,49362,1,0,0:0:0:0:
256,192,49463,1,8,0:0:0:0:
256,192,49564,1,0,0:0:0:0:
256,192,49766,1,8,0:0:0:0:
256,192,49969,1,0,0:0:0:0:
256,192,50171,1,8,0:0:0:0:
256,192,50373,1,0,0:0:0:0:
256,192,50778,1,0,0:0:0:0:
256,192,50980,1,8,0:0:0:0:
256,192,51182,1,0,0:0:0:0:
256,192,51384,1,8,0:0:0:0:
256,192,51789,1,0,0:0:0:0:
256,192,51890,1,0,0:0:0:0:
256,192,51991,1,8,0:0:0:0:
256,192,52193,1,0,0:0:0:0:
256,192,52396,1,8,0:0:0:0:
256,192,52598,1,0,0:0:0:0:
256,192,52699,1,8,0:0:0:0:
256,192,52800,1,0,0:0:0:0:
256,192,53002,1,8,0:0:0:0:
256,192,53205,1,0,0:0:0:0:
256,192,53407,1,8,0:0:0:0:
256,192,53609,1,0,0:0:0:0:
256,192,54014,1,0,0:0:0:0:
256,192,54216,1,8,0:0:0:0:
256,192,54418,1,0,0:0:0:0:
256,192,54621,1,8,0:0:0:0:
256,192,55025,1,8,0:0:0:0:
256,192,55126,1,0,0:0:0:0:
256,192,55227,1,8,0:0:0:0:
256,192,55430,1,0,0:0:0:0:
256,192,55632,1,8,0:0:0:0:
256,192,55834,1,8,0:0:0:0:
256,192,55935,1,8,0:0:0:0:
256,192,56036,1,0,0:0:0:0:
256,192,56239,1,8,0:0:0:0:
256,192,56441,1,0,0:0:0:0:
256,192,56643,1,8,0:0:0:0:
256,192,56845,1,0,0:0:0:0:
256,192,57250,1,0,0:0:0:0:
256,192,57452,1,8,0:0:0:0:
256,192,57654,1,0,0:0:0:0:
256,192,57857,1,8,0:0:0:0:
256,192,58261,1,4,0:0:0:0:
256,192,58666,1,8,0:0:0:0:
256,192,59070,1,0,0:0:0:0:
256,192,59475,1,8,0:0:0:0:
256,192,59677,1,8,0:0:0:0:
256,192,59879,1,0,0:0:0:0:
256,192,60284,1,8,0:0:0:0:
256,192,60486,1,0,0:0:0:0:
256,192,60688,1,8,0:0:0:0:
256,192,60890,1,8,0:0:0:0:
256,192,60992,1,8,0:0:0:0:
256,192,61093,1,0,0:0:0:0:
256,192,61295,1,0,0:0:0:0:
256,192,61497,1,8,0:0:0:0:
256,192,61902,1,0,0:0:0:0:
256,192,62306,1,8,0:0:0:0:
256,192,62509,1,8,0:0:0:0:
256,192,62711,1,0,0:0:0:0:
256,192,62980,1,0,0:0:0:0:
256,192,63115,1,8,0:0:0:0:
256,192,63318,1,0,0:0:0:0:
256,192,63520,1,8,0:0:0:0:
256,192,63722,1,8,0:0:0:0:
256,192,63924,1,0,0:0:0:0:
256,192,64127,1,8,0:0:0:0:
256,192,64329,1,8,0:0:0:0:
256,192,64430,1,0,0:0:0:0:
256,192,64531,1,8,0:0:0:0:
256,192,64733,1,4,0:0:0:0:
256,192,64936,1,8,0:0:0:0:
256,192,65138,1,0,0:0:0:0:
256,192,65340,1,0,0:0:0:0:
256,192,65542,1,8,0:0:0:0:
256,192,65745,1,8,0:0:0:0:
256,192,65947,1,0,0:0:0:0:
256,192,66351,1,8,0:0:0:0:
256,192,66554,1,0,0:0:0:0:
256,192,66756,1,8,0:0:0:0:
256,192,66958,1,8,0:0:0:0:
256,192,67160,1,0,0:0:0:0:
256,192,67363,1,0,0:0:0:0:
256,192,67464,1,0,0:0:0:0:
256,192,67565,1,8,0:0:0:0:
256,192,67767,1,8,0:0:0:0:
256,192,67969,1,0,0:0:0:0:
256,192,68172,1,8,0:0:0:0:
256,192,68576,1,0,0:0:0:0:
256,192,68677,1,0,0:0:0:0:
256,192,68778,1,8,0:0:0:0:
256,192,68981,1,0,0:0:0:0:
256,192,69183,1,8,0:0:0:0:
256,192,69587,1,0,0:0:0:0:
256,192,69790,1,8,0:0:0:0:
256,192,70194,1,0,0:0:0:0:
256,192,70295,1,0,0:0:0:0:
256,192,70396,1,8,0:0:0:0:
256,192,70599,1,0,0:0:0:0:
256,192,70801,1,8,0:0:0:0:
256,192,70902,1,0,0:0:0:0:
256,192,71003,1,8,0:0:0:0:
256,192,71206,1,4,0:0:0:0:
256,192,71610,1,0,0:0:0:0:
256,192,71812,1,8,0:0:0:0:
256,192,72015,1,0,0:0:0:0:
256,192,72217,1,8,0:0:0:0:
256,192,72318,1,0,0:0:0:0:
256,192,72419,1,8,0:0:0:0:
256,192,72621,1,0,0:0:0:0:
256,192,72824,1,8,0:0:0:0:
256,192,73026,1,0,0:0:0:0:
256,192,73127,1,0,0:0:0:0:
256,192,73228,1,8,0:0:0:0:
256,192,73430,1,0,0:0:0:0:
256,192,73633,1,8,0:0:0:0:
256,192,73835,1,0,0:0:0:0:
256,192,73936,1,8,0:0:0:0:
256,192,74037,1,0,0:0:0:0:
256,192,74239,1,8,0:0:0:0:
256,192,74442,1,0,0:0:0:0:
256,192,74644,1,8,0:0:0:0:
256,192,74846,1,0,0:0:0:0:
256,192,74947,1,0,0:0:0:0:
256,192,75048,1,8,0:0:0:0:
256,192,75251,1,0,0:0:0:0:
256,192,75453,1,8,0:0:0:0:
256,192,75655,1,0,0:0:0:0:
256,192,75756,1,0,0:0:0:0:
256,192,75857,1,8,0:0:0:0:
256,192,76060,1,0,0:0:0:0:
256,192,76262,1,8,0:0:0:0:
256,192,76363,1,8,0:0:0:0:
256,192,76464,1,0,0:0:0:0:
256,192,76666,1,8,0:0:0:0:
256,192,76869,1,0,0:0:0:0:
256,192,77071,1,0,0:0:0:0:
256,192,77273,1,8,0:0:0:0:
256,192,77678,1,4,0:0:0:0:
256,192,77880,1,0,0:0:0:0:
256,192,78082,1,8,0:0:0:0:
256,192,78284,1,0,0:0:0:0:
256,192,78487,1,8,0:0:0:0:
256,192,78689,1,8,0:0:0:0:
256,192,78891,1,0,0:0:0:0:
256,192,79296,1,8,0:0:0:0:
256,192,79498,1,8,0:0:0:0:
256,192,79700,1,0,0:0:0:0:
256,192,79903,1,0,0:0:0:0:
256,192,80105,1,8,0:0:0:0:
256,192,80307,1,0,0:0:0:0:
256,192,80509,1,8,0:0:0:0:
256,192,80914,1,0,0:0:0:0:
256,192,81116,1,8,0:0:0:0:
256,192,81217,1,8,0:0:0:0:
256,192,81318,1,0,0:0:0:0:
256,192,81521,1,8,0:0:0:0:
256,192,81723,1,0,0:0:0:0:
256,192,81925,1,0,0:0:0:0:
256,192,82127,1,0,0:0:0:0:
256,192,82532,1,8,0:0:0:0:
256,192,82734,1,0,0:0:0:0:
256,192,82835,1,0,0:0:0:0:
256,192,82936,1,8,0:0:0:0:
256,192,83139,1,0,0:0:0:0:
256,192,83341,1,8,0:0:0:0:
256,192,84150,1,12,0:0:0:0:
256,192,84352,1,0,0:0:0:0:
256,192,84757,1,0,0:0:0:0:
256,192,84858,1,0,0:0:0:0:
256,192,84959,1,8,0:0:0:0:
256,192,85161,1,0,0:0:0:0:
256,192,85363,1,8,0:0:0:0:
256,192,85768,1,0,0:0:0:0:
256,192,85869,1,8,0:0:0:0:
256,192,85970,1,0,0:0:0:0:
256,192,86071,1,0,0:0:0:0:
256,192,86172,1,8,0:0:0:0:
256,192,86375,1,0,0:0:0:0:
256,192,86577,1,8,0:0:0:0:
256,192,86779,1,8,0:0:0:0:
256,192,86981,1,0,0:0:0:0:
256,192,87386,1,12,0:0:0:0:
256,192,87588,1,0,0:0:0:0:
256,192,87993,1,8,0:0:0:0:
256,192,88094,1,8,0:0:0:0:
256,192,88195,1,0,0:0:0:0:
256,192,88397,1,8,0:0:0:0:
256,192,88600,1,0,0:0:0:0:
256,192,89004,1,8,0:0:0:0:
256,192,89105,1,0,0:0:0:0:
256,192,89206,1,8,0:0:0:0:
256,192,89307,1,8,0:0:0:0:
256,192,89409,1,0,0:0:0:0:
256,192,89611,1,8,0:0:0:0:
256,192,89813,1,0,0:0:0:0:
256,192,89914,1,8,0:0:0:0:
256,192,90015,1,0,0:0:0:0:
256,192,90116,1,0,0:0:0:0:
256,192,90218,1,8,0:0:0:0:
256,192,90420,1,0,0:0:0:0:
256,192,90622,1,12,0:0:0:0:
256,192,90824,1,0,0:0:0:0:
256,192,91229,1,0,0:0:0:0:
256,192,91330,1,0,0:0:0:0:
256,192,91431,1,8,0:0:0:0:
256,192,91633,1,0,0:0:0:0:
256,192,91836,1,8,0:0:0:0:
256,192,92240,1,0,0:0:0:0:
256,192,92341,1,8,0:0:0:0:
256,192,92442,1,0,0:0:0:0:
256,192,92543,1,0,0:0:0:0:
256,192,92645,1,8,0:0:0:0:
256,192,92847,1,0,0:0:0:0:
256,192,93049,1,8,0:0:0:0:
256,192,93251,1,8,0:0:0:0:
256,192,93454,1,0,0:0:0:0:
256,192,93858,1,4,0:0:0:0:
256,192,94060,1,8,0:0:0:0:
256,192,94465,1,8,0:0:0:0:
256,192,94566,1,8,0:0:0:0:
256,192,94667,1,0,0:0:0:0:
256,192,94869,1,8,0:0:0:0:
256,192,95072,1,0,0:0:0:0:
256,192,95476,1,8,0:0:0:0:
256,192,95577,1,0,0:0:0:0:
256,192,95678,1,8,0:0:0:0:
256,192,95780,1,8,0:0:0:0:
256,192,95881,1,0,0:0:0:0:
256,192,96083,1,8,0:0:0:0:
256,192,96285,1,0,0:0:0:0:
256,192,96386,1,8,0:0:0:0:
256,192,96487,1,0,0:0:0:0:
256,192,96589,1,0,0:0:0:0:
256,192,96690,1,8,0:0:0:0:
256,192,97094,1,4,0:0:0:0:
256,192,97701,1,0,0:0:0:0:
256,192,97903,1,0,0:0:0:0:
256,192,98106,1,8,0:0:0:0:
256,192,98308,1,0,0:0:0:0:
256,192,98712,1,8,0:0:0:0:
256,192,98915,1,0,0:0:0:0:
256,192,99016,1,0,0:0:0:0:
256,192,99117,1,8,0:0:0:0:
256,192,99319,1,8,0:0:0:0:
256,192,99521,1,0,0:0:0:0:
256,192,99724,1,8,0:0:0:0:
256,192,99926,1,0,0:0:0:0:
256,192,100330,1,8,0:0:0:0:
256,192,100533,1,8,0:0:0:0:
256,192,100937,1,0,0:0:0:0:
256,192,101139,1,8,0:0:0:0:
256,192,101342,1,8,0:0:0:0:
256,192,101544,1,0,0:0:0:0:
256,192,101948,1,0,0:0:0:0:
256,192,102151,1,0,0:0:0:0:
256,192,102252,1,0,0:0:0:0:
256,192,102353,1,8,0:0:0:0:
256,192,102555,1,0,0:0:0:0:
256,192,102757,1,8,0:0:0:0:
256,192,102960,1,0,0:0:0:0:
256,192,103061,1,0,0:0:0:0:
256,192,103162,1,8,0:0:0:0:
256,192,103364,1,8,0:0:0:0:
256,192,103566,1,0,0:0:0:0:
256,192,103769,1,0,0:0:0:0:
256,192,104173,1,0,0:0:0:0:
256,192,104375,1,8,0:0:0:0:
256,192,104578,1,8,0:0:0:0:
256,192,104780,1,0,0:0:0:0:
256,192,105184,1,0,0:0:0:0:
256,192,105387,1,8,0:0:0:0:
256,192,105488,1,8,0:0:0:0:
256,192,105589,1,0,0:0:0:0:
256,192,105791,1,0,0:0:0:0:
256,192,105994,1,8,0:0:0:0:
256,192,106196,1,0,0:0:0:0:
256,192,106398,1,8,0:0:0:0:
256,192,106803,1,0,0:0:0:0:
256,192,107409,1,8,0:0:0:0:
256,192,107612,1,8,0:0:0:0:
256,192,107814,1,8,0:0:0:0:
256,192,108016,1,0,0:0:0:0:
256,192,108421,1,0,0:0:0:0:
256,192,108522,1,0,0:0:0:0:
256,192,108623,1,8,0:0:0:0:
256,192,108724,1,8,0:0:0:0:
256,192,108825,1,0,0:0:0:0:
256,192,109027,1,8,0:0:0:0:
256,192,109230,1,0,0:0:0:0:
256,192,109331,1,0,0:0:0:0:
256,192,109432,1,8,0:0:0:0:
256,192,109533,1,8,0:0:0:0:
256,192,109634,1,0,0:0:0:0:
64,320,110039,1,4,0:0:0:0:
